#TITLE:FLOWER REDALiCE Remix;
#ARTIST:REDALiCE;
#TITLETRANSLIT:FLOWER (REDALiCE Remix);
#BANNER:FLOWER REDALiCE Remix.png;
#BACKGROUND:FLOWER REDALiCE Remix-bg.png;
#CDTITLE:./CDTitles/SDVX BOOTH.png;
#MUSIC:FLOWER REDALiCE Remix.ogg;
#SAMPLESTART:53.334;
#SAMPLELENGTH:15;
#DISPLAYBPM:45:180;
#BPMS:0=180,18=90,18.5=180,18.75=90,18.875=45,19=180,51=285,54.166667=225,56.666667=135,58.166667=75,59=90,75=180,133.5=150,133.916667=120,134.25=90,135=180,200=720,228=570,228.791667=435,229.395833=285,229.791667=150,230=180,290=90,291.5=180;
#STOPS:107=0.667,113=0.666,131=0.125,131.375=0.125,131.75=0.125,132.125=0.125,132.5=0.083,132.75=0.084,291.5=0.167;
#TIMESIGNATURES:0=4=4,16=3=4,19=4=4,107=2=4,109=4=4,113=2=4,115=4=4,131=2=4,133=3=4,136=4=4,224=6=4,230=4=4,290=2=4,292=4=4;
#BGSTAGE:29;

//--------------- dance-single - Fred-104 ----------------
#NOTES:
     dance-single:
     Fred-104:
     Beginner:
     5:
     :
0000
0000
0000
0000
,
0000
0000
0000
0000
,
0000
0000
0000
0000
,
1000
0000
0001
0000
,
1000
0000
0000
0000
,
0000
0001
0000
2000
,
0000
3002
0000
1003
,
0000
0010
0000
1000
,
1000
1000
0000
0001
,
0000
0010
0000
0002
,
0000
2003
0000
3001
,
0000
0100
0000
0010
,
0000
1000
0000
2002
,
0000
0000
0000
0000
,
0000
0000
3003
2000
,
0000
0000
0000
3002
,
0000
0000
0000
2003
,
0000
0000
0000
3002
,
0000
0000
0000
1003
,
0000
0010
0000
1000
,
0000
0001
0000
0100
,
0000
0001
0000
0010
,
0000
0001
0001
0001
,
0000
1000
0000
0001
,
0000
1000
0000
0010
,
0000
0100
0000
0010
,
0000
0100
0000
1001
,
0000
0001
0000
1000
,
0000
1001
0000
1000
,
0000
0001
0000
1000
,
0000
0000
0000
0001
,
0000
0000
0000
1000
,
0000
0000
0000
1001
,
0000
0000
0000
0000
,
0000
0000
1000
0000
,
0001
0000
0010
0000
,
0001
0000
1000
0000
,
0002
0000
0000
0003
,
0100
0000
0010
0000
,
0100
0000
0001
0000
,
1000
0000
0001
0000
,
0020
0000
0000
0030
,
0001
0000
1000
0000
,
0001
0000
0100
0000
,
0010
0000
1000
0000
,
0200
0000
0000
0300
,
1000
0000
0010
0000
,
1000
0000
0100
0000
,
1000
0000
0001
0000
,
1000
1000
1000
1000
,
2002
0000
0000
0000
,
0000
0000
0000
0000
,
0000
0000
0000
0000
,
0000
0000
0000
0000
,
0000
0000
0000
0000
,
0000
0000
0000
0000
,
0000
0000
0000
0000
,
0000
0000
3003
0000
,
0001
0000
2000
0000
,
3002
0000
0103
0000
,
0001
0000
0010
0010
,
0010
0000
0001
0000
,
1000
0000
0020
0000
,
0230
0000
0310
0000
,
0100
0000
0001
0001
,
0001
0000
1001
0000
,
0000
0000
0000
0000
,
0000
0000
0000
0000
,
0000
0000
0000
0000
,
0000
0000
1000
0000
,
0001
0000
1000
0000
,
0001
0000
1000
0000
,
0001
0000
1001
0000
,
1000
0000
0010
0000
,
1000
0000
0100
0000
,
1000
0000
0001
0000
,
0020
0000
0000
0030
,
0001
0000
1000
0000
,
0001
0000
0100
0000
,
0010
0000
1000
0000
,
0002
0000
0000
0003
,
1001
0000
0000
0000
,
0001
0000
1000
0000
,
1001
0000
0000
0000
,
1000
0000
0001
0000
,
1001
0000
0000
0000
,
1000
0000
0010
0000
,
0110
0000
0000
0000
,
2002
0000
0000
0000
,
3003
0000
0000
0000
;

//--------------- dance-single - Fred-104 ----------------
#NOTES:
     dance-single:
     Fred-104:
     Easy:
     11:
     :
0000
0000
0000
0000
,
0000
0000
0000
0000
,
0000
0000
0000
0000
,
1010
0000
0101
0000
,
1000
0000
0001
0000
2002
3003
0001
0010
,
0000
0010
0001
1000
0000
1000
0010
0000
,
0100
0000
0002
0000
2003
0000
3001
0100
,
0000
0100
0010
0100
0000
0100
0001
0000
,
1000
0000
0010
0010
0000
0110
0000
0100
,
0000
0001
0000
1000
0000
0100
1000
0000
,
0010
0100
0020
0000
2030
0000
3001
0010
,
0000
0010
0001
1000
0000
1000
0001
0000
,
0100
0000
0010
1000
0000
1000
2002
0000
,
0000
0000
0000
0000
,
0000
0000
0000
0000
0000
0000
0000
0000
0000
0000
0000
0000
0000
0000
0000
0000
0000
0000
0000
0000
0000
0000
0000
0000
0000
0000
3003
0000
0000
0000
0000
0000
0000
0000
0000
0000
0001
0000
0000
0000
0000
0000
0000
0000
0000
0100
0000
0000
,
0000
0002
0010
0000
0013
0000
0010
0100
,
1000
0000
1000
0010
0000
1000
0000
1000
0000
0100
0000
2000
0000
0000
0000
0000
,
0000
3001
0100
0001
,
0010
0000
0001
1000
0001
0000
0000
0000
1001
0000
0000
0000
2000
0000
0000
0000
,
0000
3020
0000
0000
0230
0000
0001
0000
,
0000
0001
0000
0301
,
0010
0000
0001
0000
0000
2000
0000
3020
,
0000
0230
0000
0302
0000
2003
3001
0000
,
0100
0110
0000
1000
,
0100
0110
0000
0001
,
0010
0000
0100
0000
1000
0000
0001
0100
,
0001
0100
0010
1001
,
0000
1000
0000
0010
,
0000
0110
0000
0001
,
0000
0100
0000
0110
,
0000
0110
0000
0000
0010
0000
1000
0000
,
0000
0010
1000
1010
,
0000
0011
0000
2200
,
0000
3300
2002
0000
0000
0000
3003
0000
,
0010
1000
0001
0000
1000
0000
0001
0000
,
0010
0100
0010
0000
0001
0000
0100
0000
,
0010
1000
0001
0000
1000
0000
0100
0000
,
0011
0000
1100
0000
0001
1000
0001
0000
,
0010
0001
0100
0000
1000
0100
0001
0000
,
0010
0100
1000
0000
0001
0000
0100
0000
,
0010
1000
0001
0000
0010
0000
0100
0000
,
0110
0000
0000
1001
0000
0000
0010
0000
0000
0000
1000
0000
0001
0000
0000
0000
,
0010
0001
1000
0000
0100
0010
0001
0000
,
0010
0001
0010
0000
0100
0000
1000
0000
,
0010
0100
0001
0000
0010
0100
1000
0000
,
0100
0000
0000
1000
0000
0000
0001
0000
0010
0000
0000
0000
0100
0000
0000
0000
,
1000
0001
0100
0000
0001
0000
1000
0000
,
0010
0100
0001
0000
1000
0000
0100
0000
,
0010
0001
0010
0000
0100
1000
0100
0000
,
0110
0000
0000
0010
0000
0000
0010
0000
0001
0000
1000
0000
0001
0000
0000
0000
,
2002
0000
0000
0000
,
0000
0000
0000
0000
,
0000
0000
0000
0000
,
0000
0000
0000
0000
,
0000
0000
0000
0000
,
0000
0000
0000
0000
,
0000
0000
0000
0000
,
0000
0000
0000
0000
3003
1000
0000
0010
,
0000
1000
0000
0001
0010
0000
0001
1000
,
0200
0000
0320
0000
0031
0100
0000
0001
,
0010
0001
0000
1000
0010
0000
1000
0000
,
0100
0100
0000
1000
0001
0100
0001
0000
,
0010
0001
0100
0000
0010
0000
0100
0001
,
0020
0000
0230
0000
1300
0001
0000
0001
,
0010
0001
0000
0001
0100
0000
0010
0000
,
1000
0001
0000
0001
1001
0000
0000
0000
,
0000
0000
0000
0000
,
0000
0000
0000
0000
,
0000
0000
0000
0000
,
0000
0000
0001
0000
,
1000
0000
0001
0001
,
1000
0000
1000
0000
0001
0010
0001
0000
,
1000
0100
1000
0000
2002
0000
0000
3003
,
0010
1000
0001
0000
0100
0010
1000
0000
,
0010
1000
0010
0000
0100
0000
0001
0000
,
0010
0100
1000
0000
0010
0100
0001
0000
,
0100
0000
0000
0010
0000
0000
1000
0000
0010
0000
0000
0100
0000
0000
0100
0000
,
0001
1000
0100
0000
1000
0000
0001
0000
,
0010
0100
1000
0000
0001
0000
0100
0000
,
0010
1000
0010
0000
0100
0001
0100
0000
,
0110
0000
0000
0010
0000
0000
0010
0000
1000
0000
0001
0000
1000
0000
0000
0000
,
1100
0000
0000
0001
0000
0000
1000
0000
,
1001
0000
0000
0000
0000
0000
0000
0000
0001
0000
0000
0100
0000
0000
0010
0000
,
0110
0000
0000
1000
0000
0000
0110
0000
,
1001
0000
0000
0000
0000
0000
0000
0000
0001
0000
0000
0100
0000
0000
0001
0000
,
0101
0000
0000
1000
0000
0000
0101
0000
,
1001
0000
0000
0000
0000
0000
0000
0000
0010
0000
0000
1000
0000
0000
0100
0000
,
1100
0000
0000
0011
0000
0000
1001
0000
,
0110
0000
0000
0000
0100
0000
0000
0000
0001
0000
0000
1000
0000
0000
2002
0000
,
3003
0000
0000
0000
;

//--------------- dance-single - Fred-104 ----------------
#NOTES:
     dance-single:
     Fred-104:
     Medium:
     14:
     :
0000
0000
0000
0000
,
0000
0000
0000
0000
,
0000
0000
0000
0000
,
1100
0000
0000
0100
0000
0000
0010
0000
0011
0000
0000
0001
0000
0000
0100
0000
,
0010
0000
0000
1000
0000
0000
0001
0000
2002
0000
3003
0000
0100
0000
1000
0000
,
0000
0001
1000
0010
0000
1000
0001
0000
,
0100
0000
0002
0000
2003
0000
3001
0100
,
0000
0010
1000
0001
0000
1000
1100
0000
,
0101
0000
1000
1001
0000
0001
0100
0001
,
0000
0010
0100
0010
0000
0001
0100
0000
,
1000
0000
0200
0000
0320
0000
1030
0001
,
0000
0100
0010
1000
0000
0100
0110
0000
,
0011
0000
1000
1010
0000
0001
2002
0000
,
0000
0000
0000
0000
,
0000
0000
0000
0000
0000
0000
0000
0000
0000
0000
0000
0000
0000
0000
0000
0000
0000
0000
0000
0000
0000
0000
0000
0000
0000
0000
0000
0000
0000
0000
0000
3003
0000
0000
0000
0000
2000
0000
0000
0000
0000
0000
0000
0000
0000
3020
0000
0000
,
0000
0000
0230
0000
0301
0000
0010
0001
1000
0000
0010
0000
0100
0000
0001
1000
,
0100
0000
1000
0200
0000
0320
0000
0032
0000
0203
0000
0320
0031
0000
0010
0000
,
0100
0000
0001
0000
0010
0000
0100
0000
1000
0000
0010
0000
0100
0000
0010
1000
,
0100
0000
1000
0000
0110
0000
0100
0010
0100
0001
1000
0001
0200
0000
0000
0000
,
0000
0001
0000
0000
0310
0000
1000
0000
,
0010
1000
0001
0100
,
0010
0100
0001
0000
1000
0200
0000
0320
,
0000
0000
0032
0000
0000
0000
2003
0000
0000
0000
3020
0000
0130
0000
0000
0010
,
0000
0000
1010
0000
0000
0000
1000
0000
0100
0000
0010
0000
0001
0000
0000
0100
,
0000
0110
0000
0010
1000
0001
0010
0001
,
1000
0000
0100
1000
0001
0000
0100
0010
,
0100
0000
0000
0000
0000
0000
0000
0000
0001
0000
0000
0000
0000
0000
0000
0000
1000
0000
0000
0000
0000
0000
0000
0000
0001
0000
0000
0000
0000
0000
0000
0000
1000
0000
0000
0000
0000
0000
0000
0000
1000
0000
0000
0000
0000
0000
0000
0000
2000
3000
0000
0000
0000
0000
0000
0000
0000
0000
0000
0000
0000
0000
0000
0000
,
0001
0000
0100
0000
0001
0000
0000
0010
0000
0000
0001
0000
1000
0000
0010
0000
,
0100
0000
0000
0000
0000
0000
0000
0000
0001
0000
0000
0000
0000
0000
0000
0000
2002
3003
0000
0000
0000
0000
0000
0000
0000
0000
0000
0000
0000
0000
0000
0000
0001
0000
0000
0000
0000
0000
0000
0000
0100
0000
0000
0000
0000
0000
0000
0000
0001
0000
0000
0000
0000
0000
0000
0000
0000
0000
0000
0000
0100
0000
0000
0000
,
0000
0000
0100
0000
1000
0000
0000
0100
0000
0000
0100
0000
0001
0000
0000
0101
,
0000
0000
1001
0000
0000
0000
0001
0000
0100
0000
0010
0000
1000
0000
0000
0010
,
0000
0100
0010
1000
0001
0000
1000
0010
,
0100
0000
0000
0000
0001
0000
0000
0000
1000
0000
0000
0000
0100
0000
0000
0000
0010
0000
0000
0000
0001
0000
0000
0000
1000
0000
0000
1000
0000
0000
0001
0000
,
0000
0001
0000
0000
1000
0000
0001
0000
2002
0000
0000
0000
0000
0000
0000
0000
0000
0000
0000
0000
0000
0000
0000
0000
3003
0000
0000
0000
0000
0000
0000
0000
,
0010
0001
1000
0100
0001
0100
1000
0100
,
0010
0001
0010
1000
0010
0100
1000
0010
,
0100
0001
1000
0100
0010
0100
1000
0010
,
0100
0000
0000
0100
0000
0000
0100
0000
0001
0000
0000
1000
0000
0000
0100
0000
,
1000
0001
0100
0010
0001
0010
1000
0001
,
0010
0100
0001
0100
1000
0010
0100
0001
,
0010
0001
1000
0010
0100
0001
1000
0100
,
0010
0000
0000
0010
0000
0000
0010
0000
0001
0000
0000
1000
0000
0000
1000
0000
,
0010
1000
0001
0100
1000
0100
0001
0100
,
0010
1000
0010
0001
0010
0100
0001
0010
,
0100
1000
0001
0100
0010
0100
0001
0010
,
0100
0000
0000
0100
0000
0000
0100
0000
1000
0000
0000
0001
0000
0000
0100
0000
,
0001
1000
0100
0010
1000
0010
0001
1000
,
0010
0100
1000
0100
0001
0010
0100
1000
,
0010
1000
0001
0010
0100
1000
0001
0100
,
0110
0000
0000
0010
0000
0000
0010
0000
1000
0000
0001
0000
1000
0000
0001
0000
,
2002
0000
0000
0000
,
0000
0000
0000
0000
,
0000
0000
0000
0000
,
0000
0000
0000
0000
,
0000
0000
0000
0000
,
0000
0000
0000
0000
,
0000
0000
0000
0000
,
3003
0000
0000
0000
0001
0010
0001
1000
,
0010
0100
0001
0000
1000
0100
0001
0100
,
2000
0000
3020
0000
0130
0001
0010
0001
,
1000
0010
0100
0000
0101
0000
1010
0000
,
0001
0001
0000
0001
1000
0010
0100
0010
,
1000
0001
0010
0000
0001
0100
1000
0100
,
0020
0000
2030
0000
3001
1000
0100
1000
,
0010
0100
0010
0000
1010
0000
0101
0000
,
1000
1000
0000
0001
1001
0000
0000
0000
,
0000
0000
0000
0000
,
0000
0000
0000
0000
,
0000
0000
0000
0000
,
0000
0000
0000
0001
0100
0000
0100
0010
,
1000
0000
1000
0010
0100
0001
0100
0001
,
1000
0010
1000
0010
1000
0100
0001
0000
,
1000
0010
0001
0000
2002
0000
0000
3003
,
0010
1000
0001
0100
1000
0100
0010
0100
,
0010
1000
0100
0001
0100
0010
0001
0010
,
0100
1000
0001
0100
1000
0100
0001
0010
,
0100
0000
0000
0100
0000
0000
0100
0000
1000
0000
0000
0001
0000
0000
0100
0000
,
0010
1000
0100
0010
1000
0010
0001
1000
,
0010
0100
1000
0100
0001
0010
0100
1000
,
0010
1000
0001
0010
0100
1000
0001
0100
,
0110
0000
0000
0010
0000
0000
0010
0000
1000
0000
0001
0000
1000
0000
0001
0000
,
0011
0000
0000
0001
0000
0000
1001
0000
0000
1000
0000
0000
1010
0000
0010
0000
,
0100
0000
0001
0000
0010
0000
0001
0000
1000
0000
0000
0010
0000
0000
0100
0000
,
0101
0000
0000
0001
0000
0000
1001
0000
0000
1000
0000
0000
1100
0000
0100
0000
,
0010
0000
0001
0000
1000
0000
0010
0000
0100
0000
0000
0001
0000
0000
0010
0000
,
0011
0000
0000
1001
0000
0000
1010
0000
0000
1001
0000
0000
0101
0000
0001
0000
,
0010
0000
0100
0000
1000
0000
0010
0000
0100
0000
0000
0001
0000
0000
1000
0000
,
1100
0000
0000
1001
0000
0000
0011
0000
0000
1001
0000
0000
1010
0000
0010
0000
,
0100
0000
0001
0000
0010
0000
0001
0000
1000
0000
0001
0100
0000
0010
2000
0000
,
3000
0000
0000
0000
;

//--------------- dance-single - Fred-104 ----------------
#NOTES:
     dance-single:
     Fred-104:
     Hard:
     17:
     :
0000
0000
0000
0000
,
0000
0000
0000
0000
,
0000
0000
0000
0000
,
1100
0000
0000
0100
0000
0000
0100
0000
0101
0000
0000
0100
0000
0000
0100
0000
,
1100
0000
0000
0000
1000
0000
0001
0000
0000
0000
0100
0000
0010
0000
0000
0000
1000
0000
0000
0000
2002
0000
0000
3003
0001
0000
0000
0000
0010
0000
0000
0000
,
0100
0000
0010
0000
0100
0000
1000
0010
1000
0000
0001
0000
0100
0000
0010
1000
,
0010
0000
0100
0000
0101
0000
0000
0000
1001
0000
0000
0000
1000
0000
0001
0010
,
0001
0000
0010
0000
0100
0000
0010
0100
0010
0000
0001
0000
1001
0000
0000
0000
,
0110
0000
1100
0101
0000
1010
0011
1000
,
0001
0000
0000
0000
0000
0000
0000
0000
0100
0000
0000
0000
0000
0000
0000
0000
0010
0000
0000
0000
0000
0000
0000
0000
1000
0000
0000
0000
0010
0000
0000
0000
1000
0000
0000
0000
0000
0000
0000
0000
0100
0000
0000
0000
0000
0000
0000
0000
1000
0000
0000
0000
0000
0000
0000
0000
0200
0300
0000
0000
0000
0000
0000
0000
,
0200
0300
0000
0000
0000
0000
0000
0000
0001
0000
0000
0000
1000
0000
0000
0000
0020
0000
0000
0000
0000
0000
0000
0000
0000
0000
0000
0000
0000
0000
0000
0000
0230
0000
0000
0000
0000
0000
0000
0000
0301
0000
0000
0000
1000
0000
0000
0000
0001
0000
0000
0000
0000
0000
0000
0000
0010
0000
0000
0000
0000
0000
0000
0000
,
0100
0000
1000
0000
0010
0000
0100
0001
0100
0000
0010
0000
1010
0000
0000
0000
,
0011
0000
1010
0101
0000
1100
2002
0000
,
0000
0000
0000
0000
,
0000
0000
0000
0000
0000
0000
0000
0000
0000
0000
0000
0000
0000
0000
0000
0000
0000
0000
0000
0000
0000
0000
0000
0000
0000
0000
0000
0000
0000
0000
0000
3003
0000
0000
0000
0000
1000
0000
0000
0000
0000
0000
0010
0000
0000
1000
0000
0000
,
0100
0000
1000
0010
0100
0010
1000
0100
0010
0000
0011
0000
0001
0000
0100
0001
,
0010
0000
0001
0200
0000
2300
0000
3200
0000
0310
1000
0001
1000
0000
0100
0010
,
0001
0000
0100
0010
0001
0010
0100
0001
1000
0000
1001
0000
0001
0000
1000
0010
,
0100
0000
0000
0000
0010
0000
1000
0000
1001
0000
0000
0000
0001
0000
0100
0010
0100
0000
0001
0000
1000
0100
1000
0100
2000
0000
0000
0000
0000
0000
0000
0000
,
0000
3020
0000
0000
2030
0000
3001
0001
,
0010
0001
1000
0001
0010
0100
0010
0000
,
0001
1000
0100
0000
1000
0020
0000
0032
,
0000
0000
0023
0000
0000
0000
0230
0000
0301
0000
1000
0000
0001
0000
0000
0010
,
0000
0000
0011
0000
0000
0000
0100
0000
1000
0000
0001
0000
1000
0000
0000
0100
,
0000
1100
0000
1000
0010
0100
0010
1000
,
0001
0000
0100
0000
0010
0000
1000
0000
0100
0000
0010
0000
0001
0100
0001
0000
,
0010
0000
0000
0000
0000
0000
0000
0000
0001
0000
0000
0000
0000
0000
0000
0000
1000
0000
0000
0000
0000
0000
0000
0000
1000
0000
0000
0000
0000
0000
0000
0000
0001
0000
0000
0000
0100
0000
0000
0000
0010
0000
0000
0000
1000
0000
0000
0000
0002
0003
0000
0000
0000
0000
0000
0000
0000
0000
0000
0000
0000
0000
0000
0000
,
1000
0000
0100
0000
1000
0000
0010
0100
0000
0010
1000
0000
0001
0100
0010
1000
,
0100
0000
0000
0000
0010
0000
0000
0000
0001
0000
0000
0000
1000
0000
0000
0000
0020
0030
0000
0000
0000
0000
0000
0000
0000
0000
0000
0000
0000
0000
0000
0000
1000
0000
0000
0000
0000
0000
0000
0000
0001
0000
0000
0000
0000
0000
0000
0000
0010
0000
0000
0000
0000
0000
0000
0000
0100
0000
0000
0000
0010
0000
0000
0000
,
0000
0001
0100
0000
0001
0000
1000
0010
0000
0100
0001
0000
1001
0000
0000
0110
,
0000
0000
1001
0000
0000
0000
1010
0000
1000
0000
0001
0000
0100
0000
0001
0010
,
0000
0100
0010
0000
0001
1000
0100
1000
0010
0100
0001
1000
0001
0000
0100
1000
,
0100
0000
0000
0000
0001
0000
0010
0000
1000
0000
0000
0000
0001
0000
0000
0000
0100
0000
0000
0000
1000
0000
0000
0000
1100
0000
0000
0101
0000
0000
1010
0000
,
0000
0011
0000
0000
1001
0000
0110
0000
2002
0000
0000
0000
0000
0000
0000
0000
0000
0000
0000
0000
0000
0000
0000
0000
3003
0000
0000
0000
0000
0000
0000
0000
,
0010
0000
1000
0001
0000
0100
0001
0000
1000
0100
0000
1000
0001
0000
0100
0010
,
0100
0000
0010
1000
0000
0001
0010
0000
0100
0010
0000
0100
1000
0000
0001
0100
,
0001
0000
1000
0001
0000
0100
0010
0000
1000
0001
0000
0100
0010
0000
0100
0010
,
0100
0000
0000
0100
0000
0000
0100
0000
0001
1000
0100
1000
0000
0001
0100
0000
,
0001
0000
1000
0100
0000
0010
0100
0000
0010
0001
0000
1000
0010
0000
1000
0001
,
0010
0000
0100
1000
0000
0001
0100
0000
0001
0010
0000
0100
1000
0000
0001
1000
,
0100
0000
1000
0010
0000
0100
0010
0000
0100
0010
0000
1000
0001
0000
0010
0001
,
1000
0000
0000
1000
0000
0000
1000
0000
0001
0100
0001
0100
0000
0001
0010
0000
,
0011
0000
0001
1000
0000
0100
1000
0000
0001
0100
0000
0001
1000
0000
0100
0010
,
0100
0000
0010
0001
0000
1000
0010
0000
0100
0010
0000
0100
0001
0000
1000
0100
,
1000
0000
0001
1000
0000
0100
0010
0000
0001
1000
0000
0100
0010
0000
0100
0010
,
0100
0000
0000
0100
0000
0000
0100
0000
1000
0001
0100
0001
0000
1000
0100
0000
,
1000
0000
0001
0100
0000
0010
0100
0000
0010
1000
0000
0001
0010
0000
0001
1000
,
0010
0000
0100
0001
0000
1000
0100
0000
1000
0010
0000
0100
0001
0000
1000
0001
,
0100
0000
0001
0010
0000
0100
0010
0000
0100
0010
0000
0001
1000
0000
0010
1000
,
0001
0000
0000
0001
0000
0000
0001
0000
1000
0100
1000
0100
0000
1000
0010
0000
,
2002
0000
0000
0000
,
0000
0000
0000
0000
,
0000
0000
0000
0000
,
0000
0000
0000
0000
,
0000
0000
0000
0000
,
0000
0000
0000
0000
,
0000
0000
0000
0000
,
3003
0000
0000
0000
0000
0000
0000
0000
0001
0000
0010
0001
1000
0000
0010
0000
,
0100
0000
0001
1000
0100
0000
0010
0000
0001
0000
0010
1000
0010
0000
0001
1000
,
0002
0000
0000
0000
1003
0000
0100
0010
0001
0000
1000
0010
0100
0000
0010
0000
,
1000
0000
0001
1000
0010
0000
0100
0000
0101
0000
0000
0000
1100
0000
0000
0000
,
0011
0000
1010
0000
0000
0000
0110
0000
1001
0000
0001
1000
0010
0000
0100
0000
,
0010
0000
1000
0100
0010
0000
0001
0000
1000
0000
0001
0100
0001
0000
0100
1000
,
0200
0000
0000
0000
0302
0000
0013
0100
1000
0000
0001
0100
1000
0000
0100
0000
,
0010
0000
1000
0100
0010
0000
0001
0000
0101
0000
0000
0000
1100
0000
0000
0000
,
0011
1010
0000
0110
1001
0000
0000
0000
,
0000
0000
0000
0000
,
0000
0000
0000
0000
,
0000
0000
0000
0000
,
0000
0000
0000
0000
0000
0000
0110
0000
1001
0000
0000
0000
0001
0000
0100
0010
,
1000
0000
0000
0000
0100
0000
0010
0001
1000
0000
0010
1000
0100
0000
0010
0001
,
0100
0000
0010
1000
0100
0000
0010
0001
1000
0010
1000
0010
0100
0001
0100
0001
,
1000
0000
0000
0000
0100
0000
0000
0000
0010
0000
0000
0000
0001
0000
0000
0000
0010
0000
0000
0000
0100
0000
0000
0000
1000
0000
0000
0000
0001
0000
0000
0000
1000
0000
0001
0000
1000
0000
0001
0000
1000
0000
0001
0000
1000
0000
0001
0000
1000
0000
0001
0000
1000
0000
0001
0000
2000
3000
0000
0000
0000
0000
0000
0000
,
0010
0000
1000
0010
0000
0100
0001
0000
1000
0100
1000
0100
0010
0100
1000
0100
,
1000
0000
0001
0100
0000
0001
0010
0000
0100
0010
0001
1000
0001
0100
0001
0100
,
0010
0000
1000
0001
0000
0100
0010
0000
1000
0001
0000
0010
0100
0000
1000
0100
,
1000
0000
0000
1000
0000
0000
1000
0000
0001
1000
0100
1000
0000
0001
0100
0000
,
0001
0000
1000
0100
0000
0010
0001
0000
0010
0001
1000
0010
0100
0010
1000
0010
,
0100
0000
0001
1000
0000
0100
0010
0000
0001
0010
0100
1000
0001
1000
0001
1000
,
0100
0000
1000
0010
0000
0100
0010
0000
0100
0010
0000
1000
0001
0000
0010
0001
,
1000
0000
0000
1000
0000
0000
1000
0000
0001
0100
0001
0100
0000
0001
0010
0000
,
0011
0000
0000
1010
0000
0000
0101
0000
0000
1100
0000
0000
1001
0000
0110
0000
,
1001
0000
1000
0000
0100
0010
0001
0000
0100
0001
1000
0010
0000
0100
0001
0000
,
0101
0000
0000
1100
0000
0000
0011
0000
0000
1010
0000
0000
1001
0000
0110
0000
,
1001
0000
1000
0010
1000
0100
0010
0000
0001
0100
0010
0100
0000
0010
1000
0000
,
1100
0000
0000
0101
0000
0000
1010
0000
0000
0011
0000
0000
1001
0000
0110
0000
,
1001
0000
0001
0010
0100
0010
0001
0100
0010
1000
0100
0010
0000
0100
1000
0000
,
1010
0000
0000
0011
0000
0000
1100
0000
0000
0101
0000
0000
1001
0000
0110
0000
,
1001
0000
0001
0100
0010
1000
0001
0000
1000
0100
0010
0001
1000
0010
0100
0002
,
0003
0000
0000
0000
;

//--------------- dance-double - Fred-104 ----------------
#NOTES:
     dance-double:
     Fred-104:
     Easy:
     10:
     :
00000000
00000000
00000000
00000000
,
00000000
00000000
00000000
00000000
,
00000000
00000000
00000000
00000000
,
00011000
00000000
00000110
00000000
,
00000001
00000000
00001000
00000000
00002002
00003003
00000001
00001000
,
00000000
00000010
00001000
00000001
00000000
00000100
00001000
00000000
,
00010000
00000000
00002000
00000000
00023000
00000000
01030000
00100000
,
00000000
00100000
00010000
10000000
00000000
10000000
00010000
00000000
,
10000000
00000000
00100000
00100000
00000000
10100000
00000000
10000000
,
00000000
01000000
00000000
10000000
00000000
00010000
10000000
00000000
,
00100000
00000000
00020000
00000000
00032000
00000000
00003010
00000100
,
00000000
00000100
00001000
00000001
00000000
00000001
00001000
00000000
,
00000010
00000000
00000100
00000100
00000000
00000001
00002002
00000000
,
00000000
00000000
00000000
00000000
,
00000000
00000000
00000000
00000000
00000000
00000000
00000000
00000000
00000000
00000000
00000000
00000000
00000000
00000000
00000000
00000000
00000000
00000000
00000000
00000000
00000000
00000000
00000000
00000000
00000000
00000000
00003003
00000000
00000000
00000000
00000000
00000000
00000000
00000000
00000000
00000000
00000002
00000000
00000000
00000000
00000000
00000000
00000000
00000000
00000000
00002003
00000000
00000000
,
00000000
00003020
00000000
00000000
00000000
00000000
00001000
00000000
,
00000000
00000000
00001030
00000200
00000000
00020300
00000000
00032000
00000000
02003000
00000000
03020000
00000000
00000000
00000000
00000000
,
00000000
00000000
00000000
00000000
,
00000000
00030000
00110000
00000000
11000000
10000000
00020000
00000000
,
00000000
20030000
00000000
00000000
30200000
00000000
01300000
00000000
,
00010000
10000000
01000000
00100000
,
00001000
00000000
00010000
00000000
00001000
00000020
00000000
00000230
,
00000000
00002300
00000000
00003002
00000000
00000103
00000001
00000000
,
00000010
00000011
00000000
00001000
,
00010000
00011000
00000000
00001000
,
00100000
00000000
00010000
00000000
10000000
00000000
01000000
00100000
,
01000000
00000000
00100000
00001000
00100000
00000000
00011000
00000000
,
00000000
00010000
00001000
00000010
,
00000001
00001001
00000000
00000001
,
00000100
00001000
00010000
00001000
,
00000000
00011000
00000000
00000000
00001000
00000000
00010000
00000000
,
01000000
00010000
00000000
00001000
,
00000010
00000000
00000100
00000010
00000001
00000000
00002000
00000000
,
00000000
00003000
00002002
00000000
00000000
00000000
00003003
00000000
,
00001000
00000001
00000100
00000000
00000001
00000000
00000010
00000000
,
00000100
00010000
00001000
00000000
01000000
00000000
00100000
00000000
,
10000000
00010000
01000000
00000000
00100000
00000000
01000000
00000000
,
00100000
00000000
00000000
00100000
00000000
00000000
00100000
00000000
00010000
00000000
00000000
00000000
00001000
00000000
00000000
00000000
,
00000100
00000010
00001000
00000000
00000100
00000000
00000010
00000000
,
00000001
00000100
00001000
00000000
00010000
00000000
00100000
00000000
,
01000000
00010000
10000000
00000000
01000000
00000000
00100000
00000000
,
00010000
00000000
00000000
00010000
00000000
00000000
00010000
00000000
10000000
00000000
00000000
00000000
00100000
00000000
00000000
00000000
,
01000000
00001000
00010000
00000000
00000010
00000000
00000100
00000000
,
00000010
00010000
00001000
00000000
00000100
00000000
00000001
00000000
,
00000010
00000100
00000010
00000000
00001000
00000000
00010000
00000000
,
00001000
00000000
00000000
00001000
00000000
00000000
00001000
00000000
01000000
00000000
00000000
00000000
00100000
00000000
00000000
00000000
,
01000000
00001000
00010000
00000000
01000000
00000000
00100000
00000000
,
00001000
00010000
00100000
00000000
01000000
00000000
00100000
00000000
,
10000000
01000000
00010000
00000000
00001000
00000100
00000001
00000000
,
00002002
00000000
00003000
00000000
00000100
00000100
00000103
00000000
,
00002002
00000000
00000000
00000000
,
00000000
00000000
00000000
00000000
,
00000000
00000000
00000000
00000000
,
00000000
00000000
00000000
00000000
,
00000000
00000000
00000000
00000000
,
00000000
00000000
00000000
00000000
,
00000000
00000000
00000000
00000000
,
00003003
00000000
00000001
00000010
,
00000010
00000010
00001000
00010000
,
00002000
00000000
00023000
00000000
00130000
01000000
00000000
00100000
,
01000000
00100000
00000000
01000000
00010000
00000000
10000000
00000000
,
01000000
01000000
00000000
10000000
10000000
00000000
01000000
00000000
,
00100000
01000000
10000000
01000000
,
00020000
00000000
00032000
00000000
00003100
00000010
00000000
00000100
,
00000010
00001000
00000000
00000001
00000100
00000000
00001000
00000000
,
00010000
01000000
00000000
10000000
10010000
00000000
00000000
00000000
,
00000000
00000000
00000000
00000000
,
00000000
00000000
00000000
00000000
,
00000000
00000000
00000000
00000000
,
00000000
00000000
00010000
00000000
,
00001000
00000000
00010000
00010000
,
00001000
00000000
00001000
00000000
00100000
01000000
00100000
00000000
,
00001000
00010000
00001000
00000000
00022000
00000000
00000000
00033000
,
00000100
00010000
00001000
00000000
00100000
00000000
01000000
00000000
,
00100000
00001000
00010000
00000000
01000000
00000000
10000000
00000000
,
00100000
01000000
00100000
00000000
00010000
00000000
00001000
00000000
,
00010000
00000000
00000000
00010000
00000000
00000000
00010000
00000000
00000100
00000000
00000000
00000000
00000010
00000000
00000000
00000000
,
00000100
00010000
00001000
00000000
00000100
00000000
00000010
00000000
,
00010000
00001000
00000010
00000000
00000100
00000000
00000010
00000000
,
00000001
00000100
00001000
00000000
00010000
01000000
10000000
00000000
,
20020000
00000000
00030000
00000000
01000000
01000000
31000000
00000000
,
01100000
00000000
00000000
00100000
00000000
00000000
10000000
00000000
,
01000000
00000000
00000000
00000000
01000000
00000000
00000000
00000000
00100000
00000000
00000000
00001000
00000000
00000000
00010000
00000000
,
00011000
00000000
00000000
00010000
00000000
00000000
00000100
00000000
,
00001000
00000000
00000000
00000000
00001000
00000000
00000000
00000000
00000001
00000000
00000000
00000100
00000000
00000000
00000010
00000000
,
00000110
00000000
00000000
00000010
00000000
00000000
00001000
00000000
,
00000001
00000000
00000000
00000000
00000100
00000000
00000000
00000000
00001000
00000000
00000000
00010000
00000000
00000000
00001000
00000000
,
00011000
00000000
00000000
00010000
00000000
00000000
01000000
00000000
,
00100000
00000000
00000000
00000000
00010000
00000000
00000000
00000000
10000000
00000000
00000000
00010000
00000000
00000000
20020000
00000000
,
30030000
00000000
00000000
00000000
;

//--------------- dance-double - Fred-104 ----------------
#NOTES:
     dance-double:
     Fred-104:
     Medium:
     13:
     :
00000000
00000000
00000000
00000000
,
00000000
00000000
00000000
00000000
,
00000000
00000000
00000000
00000000
,
00001001
00000000
00000000
00000001
00000000
00000000
00000100
00000000
00000110
00000000
00000000
00000010
00000000
00000000
00001000
00000000
,
00000100
00000000
00000000
00010000
00000000
00000000
00001000
00000000
00022000
00000000
00033000
00000000
00001000
00000000
00010000
00000000
,
00000000
01000000
00100000
00010000
00000000
10000000
00010000
01000000
,
00100000
10000000
02000000
00000000
03200000
00000000
01300000
10000000
,
00000000
00010000
01000000
00100000
00000000
10000000
01000000
00000000
,
00100000
00000000
00001000
00011000
00000000
00010000
00000010
00001000
,
00000000
00000100
00001000
00000001
00000000
00000100
00000010
00001000
,
00000100
00000010
00000002
00000000
00000203
00000000
00001300
00010000
,
00000000
00001000
00010000
01000000
00000000
00100000
00010000
00000000
,
10000000
00000000
01000000
01000000
00000000
00100000
20020000
00000000
,
00000000
00000000
00000000
00000000
,
00000000
00000000
00000000
00000000
00000000
00000000
00000000
00000000
00000000
00000000
00000000
00000000
00000000
00000000
00000000
00000000
00000000
00000000
00000000
00000000
00000000
00000000
00000000
00000000
00000000
00000000
00000000
00000000
00000000
00000000
00000000
30030000
00000000
00000000
00000000
00000000
00020000
00000000
00000000
00000000
00000000
00000000
00000000
00000000
00000000
00230000
00000000
00000000
,
00000000
02300000
03100000
00010000
10000000
00010000
01000000
00001000
,
00010000
00000000
00001000
00000020
00000000
00000230
00000000
00002300
00000000
00003002
00000000
00002003
00003010
00000000
00000100
00000000
,
00000001
00000000
00000100
00000000
00010000
00000000
00000100
00000000
00000010
00000000
00001000
00000000
00000001
00000000
00000010
00001000
,
00010000
00000000
00100000
01000000
00010000
00000000
01000000
00100000
10000000
00100000
01000000
00000000
01020000
00000000
00000000
00000000
,
00000000
00230000
00000000
00000000
00302000
00000000
00013000
00000000
,
00000100
00001000
00000001
00000100
,
00000010
00000000
00001000
00000000
00000001
00000020
00000000
00002030
,
00000000
00000000
00023000
00000000
00000000
00000000
00230000
00000000
00000000
00000000
02300000
00000000
03010000
00000000
00000000
10000000
,
00000000
00000000
10010000
00000000
00000000
00000000
00010000
00000000
01000000
00000000
00100000
00000000
10000000
00000000
00000000
01000000
,
00000000
11000000
00000000
01000000
00100000
00001000
00010000
00000100
,
00001000
00000000
00000001
00000100
00000010
00000000
00001000
00000001
,
00000010
00000000
00000000
00000000
00000000
00000000
00000000
00000000
00000100
00000000
00000000
00000000
00000000
00000000
00000000
00000000
00010000
00000000
00000000
00000000
00000000
00000000
00000000
00000000
00001000
00000000
00000000
00000000
00000000
00000000
00000000
00000000
00010000
00000000
00000000
00000000
00000000
00000000
00000000
00000000
00010000
00000000
00000000
00000000
00000000
00000000
00000000
00000000
00020000
00030000
00000000
00000000
00000000
00000000
00000000
00000000
00000000
00000000
00000000
00000000
00000000
00000000
00000000
00000000
,
00001000
00000000
00010000
00000000
00001000
00000000
00000000
00100000
00000000
00000000
00010000
00000000
01000000
00000000
00001000
00000000
,
00010000
00000000
00000000
00000000
00000000
00000000
00000000
00000000
00001000
00000000
00000000
00000000
00000000
00000000
00000000
00000000
00022000
00033000
00000000
00000000
00000000
00000000
00000000
00000000
00000000
00000000
00000000
00000000
00000000
00000000
00000000
00000000
00001000
00000000
00000000
00000000
00000000
00000000
00000000
00000000
00000010
00000000
00000000
00000000
00000000
00000000
00000000
00000000
00010000
00000000
00000000
00000000
00000000
00000000
00000000
00000000
00000000
00000000
00000000
00000000
00000100
00000000
00000000
00000000
,
00000000
00000000
00001000
00000000
01000000
00000000
00000000
00010000
00000000
00000000
00001000
00000000
00011000
00000000
00000000
00101000
,
00000000
00000000
00011000
00000000
00000000
00000000
00010000
00000000
00000010
00000000
00001000
00000000
00000100
00000000
00000000
00010000
,
00000000
00001000
01000000
00001000
00010000
00000000
00001000
00100000
,
00001000
00000000
00000000
00000000
00100000
00000000
00000000
00000000
00010000
00000000
00000000
00000000
01000000
00000000
00000000
00000000
00010000
00000000
00000000
00000000
01000000
00000000
00000000
00000000
00100000
00000000
00000000
00100000
00000000
00000000
01000000
00000000
,
00000000
01000000
00000000
00000000
01100000
00000000
00000000
00000000
20020000
00000000
00000000
00000000
00000000
00000000
00000000
00000000
00000000
00000000
00000000
00000000
00000000
00000000
00000000
00000000
30030000
00000000
00000000
00000000
00000000
00000000
00000000
00000000
,
00010000
10000000
01000000
10000000
00100000
01000000
00010000
00000000
,
00100000
00001000
00010000
00000100
00000010
00000001
00001000
00000000
,
00000010
00000100
00000001
00001000
00000100
00000010
00000100
00000000
,
00010000
00000000
00000000
00010000
00000000
00000000
00010000
00000000
00001000
00000000
00000000
00100000
00000000
00000000
01000000
00000000
,
00100000
00010000
10000000
00010000
01000000
00100000
10000000
00000000
,
01000000
00100000
01000000
00010000
00001000
00000010
00000100
00000000
,
00010000
00001000
00000100
00000010
00001000
00000100
00000010
00000000
,
00000001
00000000
00000000
00000001
00000000
00000000
00000001
00000000
00000010
00000000
00000000
00000100
00000000
00000000
00001000
00000000
,
00000010
00000100
00001000
00010000
01000000
10000000
00010000
00000000
,
01000000
00100000
10000000
00010000
00100000
01000000
00010000
00000000
,
00001000
00000010
00000001
00001000
00000010
00000100
00000001
00000000
,
00001000
00000000
00000000
00001000
00000000
00000000
00001000
00000000
00000100
00000000
00000000
00000010
00000000
00000000
00000001
00000000
,
00000010
00000100
00010000
00001000
00100000
00010000
01000000
00000000
,
00100000
01000000
00001000
00010000
00000010
00001000
00000100
00000000
,
00000010
00000001
00000100
00000010
00000100
00001000
00010000
00100000
,
02000000
00000000
00000000
00100000
00000000
00000000
00100000
00000000
00100000
00000000
00100000
00000000
03100000
00000000
00000000
00000000
,
20020000
00000000
00000000
00000000
,
00000000
00000000
00000000
00000000
,
00000000
00000000
00000000
00000000
,
00000000
00000000
00000000
00000000
,
00000000
00000000
00000000
00000000
,
00000000
00000000
00000000
00000000
,
00000000
00000000
00000000
00000000
,
30030000
00000000
00000000
00000000
10000000
00100000
00000000
00010000
,
00001000
00000010
00000000
00000100
00001000
00000010
00000100
00000001
,
00000020
00000000
00000230
00000000
00000310
00000001
00000000
00001000
,
00000010
00000100
00000000
00000001
00000010
00000000
00000100
00000000
,
00010000
00011000
00000000
00001000
01000000
00010000
00000000
00100000
,
00010000
10000000
00000000
00100000
01000000
00010000
00100000
01000000
,
20000000
00000000
30200000
00000000
00310000
00001000
00000000
00010000
,
00001000
00000010
00000000
00000100
00001000
00000000
00000001
00000000
,
00000010
00000010
00000000
00000100
00001001
00000000
00000000
00000000
,
00000000
00000000
00000000
00000000
,
00000000
00000000
00000000
00000000
,
00000000
00000000
00000000
00000000
,
00000000
00000000
00000000
00010000
00001000
00000000
00000010
00000100
,
00001000
00000000
00000001
00001000
00000001
00000010
00000100
00001000
,
00000010
00000100
00000001
00000000
00001000
00000010
00000100
00001000
,
00010000
00100000
10000000
00000000
02000000
00000000
00000000
03000000
,
00100000
01000000
00010000
00001000
00000100
00000001
00001000
00000000
,
00000100
00000010
00000001
00001000
00000010
00000100
00001000
00000000
,
00010000
00100000
10000000
00010000
00100000
01000000
10000000
00000000
,
00010000
00000000
00000000
00010000
00000000
00000000
00010000
00000000
01000000
00000000
00000000
00100000
00000000
00000000
10000000
00000000
,
00100000
01000000
00001000
00010000
00000010
00001000
00000100
00000000
,
00000010
00000100
00010000
00001000
00100000
00010000
01000000
00000000
,
00100000
10000000
01000000
00100000
01000000
00010000
00001000
00000010
,
00000200
00000000
00000000
00000010
00000000
00000000
00000010
00000000
00000010
00000000
00000010
00000000
00000310
00000000
00000000
00000000
,
00000101
00000000
00000000
00000010
00000000
00000000
00000110
00000000
00000000
00000010
00000000
00000000
00001000
00000000
00000001
00000000
,
00000100
00000000
00000010
00000000
00001000
00000000
00000100
00000000
00010000
00000000
00000000
00001000
00000000
00000000
00010000
00000000
,
00011000
00000000
00000000
00001000
00000000
00000000
00101000
00000000
00000000
00010000
00000000
00000000
01000000
00000000
00100000
00000000
,
10000000
00000000
01000000
00000000
00100000
00000000
00001000
00000000
00010000
00000000
00000000
00100000
00000000
00000000
10000000
00000000
,
11000000
00000000
00000000
01000000
00000000
00000000
00010000
00000000
00000000
00001000
00000000
00000000
00000010
00000000
00000001
00000000
,
00001000
00000000
00000001
00000000
00000100
00000000
00000010
00000000
00000100
00000000
00000000
00000001
00000000
00000000
00001000
00000000
,
00001100
00000000
00000000
00000010
00000000
00000000
00000001
00000000
00000000
00001000
00000000
00000000
00000010
00000000
00010000
00000000
,
00001000
00000000
00010000
00000000
01000000
00000000
00010000
00000000
01000000
00000000
00000000
00100000
00000000
00000000
00022000
00000000
,
00033000
00000000
00000000
00000000
;

//--------------- dance-double - Fred-104 ----------------
#NOTES:
     dance-double:
     Fred-104:
     Hard:
     17:
     :
00000000
00000000
00000000
00000000
,
00000000
00000000
00000000
00000000
,
00000000
00000000
00000000
00000000
,
00000011
00000000
00000000
00000100
00000000
00000000
00010000
00000000
00011000
00000000
00000000
00001000
00000000
00000000
01000000
00000000
,
00010000
00000000
00100000
01000000
00000000
10000000
00100000
00000000
02200000
00000000
03300000
00000000
00010000
00000000
01000000
00000000
,
10000000
01000000
00010000
01000000
10000000
01000000
00100000
10000000
,
01000000
00000000
00100000
00010000
02000000
00000000
00000000
00000000
03002000
00000000
00000000
00000000
00013000
00000000
00000100
00000000
,
00001000
00000100
00010000
00000010
00001000
00000010
00000100
00000000
,
00000101
00000000
00000011
00001010
00000000
00000011
00000001
00000100
,
00001000
00010000
01000000
00100000
00010000
10000000
00010000
00100000
,
01000000
00000000
00100000
00010000
20000000
00000000
00000000
00000000
30200000
00000000
00000000
00000000
01300000
00000000
00010000
00000000
,
00100000
00001000
00100000
00010000
10000000
00100000
01100000
00000000
,
10010000
00000000
11000000
01010000
00000000
00001000
00022000
00000000
,
00000000
00000000
00000000
00000000
,
00000000
00000000
00000000
00000000
00000000
00000000
00000000
00000000
00000000
00000000
00000000
00000000
00000000
00000000
00000000
00000000
00000000
00000000
00000000
00000000
00000000
00000000
00000000
00000000
00000000
00000000
00000000
00000000
00000000
00000000
00000000
00033000
00000000
00000000
00000000
00000000
00010000
00000000
00000000
00000000
00000000
00000000
00001000
00000000
00000000
00000010
00000000
00000000
,
00000100
00000000
00010000
00001000
00000010
00000100
00010000
00001000
00010000
00000000
00001000
00000000
00010000
00000000
00100000
01000000
,
00001000
00000000
00010000
00200000
00000000
02300000
00000000
03002000
00000000
00023000
00000000
00230000
01300000
00000000
00001000
00010000
,
00001000
00000000
00100000
00001000
00010000
00001000
00000010
00001000
00010000
00001000
00100000
00000000
00001000
00000000
00010000
00000100
,
00001000
00000000
00000000
00000000
00000100
00000000
00000010
00000000
00000011
00000000
00000000
00000000
00000001
00000000
00001000
00000100
00001000
00000000
00000010
00000000
00000100
00000001
00000100
00000001
00000200
00000000
00000000
00000000
00000000
00000000
00000000
00000000
,
00000000
00000001
00000000
00000000
00000310
00000000
00000100
00001000
,
00000001
00000010
00001000
00010000
00100000
01000000
00010000
00000000
,
10000000
00010000
00100000
00010000
01000000
00200000
00000000
00320000
,
00000000
00000000
00230000
00000000
00000000
00000000
20300000
00000000
00000000
00000000
30020000
00000000
01030000
00000000
00000000
00100000
,
00000000
00000000
10100000
00000000
00000000
00000000
10000000
00000000
01000000
00000000
00010000
00000000
00001000
00000000
00000000
00010000
,
00000000
00011000
00000000
00010000
00000100
00001000
00000001
00000010
,
00000100
00000000
00000010
00000000
00000001
00000000
00000100
00000000
00001000
00000000
00010000
00000000
01000000
00100000
01000000
00000000
,
00100000
00000000
00000000
00000000
00000000
00000000
00000000
00000000
00010000
00000000
00000000
00000000
00000000
00000000
00000000
00000000
10000000
00000000
00000000
00000000
00000000
00000000
00000000
00000000
00010000
00000000
00000000
00000000
00000000
00000000
00000000
00000000
01000000
00000000
00000000
00000000
00100000
00000000
00000000
00000000
01000000
00000000
00000000
00000000
00100000
00000000
00000000
00000000
02000000
03000000
00000000
00000000
00000000
00000000
00000000
00000000
00000000
00000000
00000000
00000000
00000000
00000000
00000000
00000000
,
00010000
00000000
10000000
00000000
00100000
00000000
01000000
00100000
00000000
10000000
00100000
00000000
10000000
01000000
00100000
00010000
,
00100000
00000000
00000000
00000000
00001000
00000000
00000000
00000000
00010000
00000000
00000000
00000000
00001000
00000000
00000000
00000000
02000000
03000000
00000000
00000000
00000000
00000000
00000000
00000000
00000000
00000000
00000000
00000000
00000000
00000000
00000000
00000000
00001000
00000000
00000000
00000000
00000000
00000000
00000000
00000000
00010000
00000000
00000000
00000000
00000000
00000000
00000000
00000000
00000100
00000000
00000000
00000000
00000000
00000000
00000000
00000000
00001000
00000000
00000000
00000000
00000001
00000000
00000000
00000000
,
00000000
00000100
00000010
00000000
00001000
00000000
00000001
00000010
00000000
00000100
00000010
00000000
00000011
00000000
00000000
00000101
,
00000000
00000000
00001001
00000000
00000000
00000000
00001100
00000000
00000100
00000000
00000010
00000000
00000001
00000000
00000100
00000010
,
00000000
00001000
00000010
00000000
00001000
00000100
00010000
00000000
00001000
00010000
00001000
00010000
00001000
00000000
00010000
00000000
,
00100000
00000000
00000000
00000000
10000000
00000000
00000000
00000000
00010000
00000000
00000000
00000000
00100000
00000000
00000000
00000000
01000000
00000000
00000000
00000000
00010000
00000000
00000000
00000000
00011000
00000000
00000000
00010100
00000000
00000000
00000110
00000000
,
00000000
00000011
00000000
00000000
00000101
00000000
00000010
00000000
00000220
00000000
00000000
00000000
00000000
00000000
00000000
00000000
00000000
00000000
00000000
00000000
00000000
00000000
00000000
00000000
00000330
00000000
00000000
00000000
00000000
00000000
00000000
00000000
,
00001000
00000000
00000001
00000100
00000000
00000010
00000100
00000001
00000000
00000010
00000000
00000100
00010000
00000000
00001000
00010000
,
00001000
00000000
00100000
00010000
00000000
01000000
00100000
10000000
00000000
00010000
00000000
00100000
00001000
00000000
00010000
01000000
,
00010000
00000000
01000000
00100000
00000000
00010000
01000000
00001000
00000000
00010000
00000000
00000010
00001000
00000000
00000100
00000010
,
00000100
00000000
00000000
00000100
00000000
00000000
00000100
00000000
00001000
00000001
00001000
00000001
00000000
00000100
00000010
00000000
,
00010000
00000000
00001000
00100000
00000000
01000000
00100000
00010000
00000000
10000000
00000000
00100000
01000000
00000000
00010000
01000000
,
00010000
00000000
00100000
01000000
00000000
00010000
00001000
00000010
00000000
00000100
00000000
00001000
00000001
00000000
00000010
00000001
,
00000010
00000000
00000100
00001000
00000000
00000001
00000100
00000010
00000000
00000100
00000000
00001000
00010000
00000000
00001000
00010000
,
00001000
00000000
00000000
00001000
00000000
00000000
00001000
00000000
01000000
00100000
01000000
00100000
00000000
10000000
01000000
00000000
,
00100000
00000000
01000000
10000000
00000000
00010000
01000000
00100000
00000000
01000000
00000000
00001000
00010000
00000000
00000010
00001000
,
00000010
00000000
00000100
00000010
00000000
00001000
00000100
00000010
00000000
00000100
00000000
00001000
00000001
00000000
00000100
00000010
,
00000100
00000000
00000010
00010000
00000000
00001000
00010000
00001000
00000000
00100000
00000000
01000000
10000000
00000000
00010000
01000000
,
00010000
00000000
00000000
00010000
00000000
00000000
00010000
00000000
01000000
00100000
01000000
00100000
00000000
10000000
00010000
00000000
,
10000000
00000000
01000000
00100000
00000000
00001000
00010000
00000010
00000000
00001000
00000000
00000001
00000100
00000000
00000010
00000100
,
00000010
00000000
00000100
00000001
00000000
00001000
00000010
00010000
00000000
00001000
00000000
00100000
00010000
00000000
01000000
00100000
,
01000000
00000000
00010000
01000000
00000000
01000000
00100000
00000000
00100000
10000000
00000000
10000000
01000000
00000000
00010000
00000000
,
00021000
00000000
00000000
00001000
00000000
00000000
00001000
00000000
00001000
00000000
00001000
00000000
00031000
00000000
00000000
00000000
,
00022000
00000000
00000000
00000000
,
00000000
00000000
00000000
00000000
,
00000000
00000000
00000000
00000000
,
00000000
00000000
00000000
00000000
,
00000000
00000000
00000000
00000000
,
00000000
00000000
00000000
00000000
,
00000000
00000000
00000000
00000000
,
00033000
00000000
00000000
00000000
00010000
00001000
00000010
00000001
,
00001000
00000000
00000010
00000000
00000001
00000000
00000010
00000000
00000100
00000000
00000001
00000000
00000010
00000000
00000100
00001000
,
00000020
00000000
00020030
00000000
00031000
00010000
01000000
00100000
,
00010000
00001000
00010000
00100000
01000000
00000000
01100000
00000000
,
11000000
01010000
00000000
10010000
10000000
00100000
00010000
00001000
,
00000010
00000000
00000100
00000000
00001000
00000000
00000001
00000000
00001000
00000000
00000100
00000000
00000010
00000000
00000100
00001000
,
00000002
00000000
00000203
00000000
00000310
00001000
00000100
00010000
,
00000100
00001000
00000001
00000100
00000110
00000000
00001001
00000000
,
00000011
00001010
00000000
00010000
00011000
00000000
00000000
00000000
,
00000000
00000000
00000000
00000000
,
00000000
00000000
00000000
00000000
,
00000000
00000000
00000000
00000000
,
00000000
00000000
00000000
00000000
00000000
00000000
01100000
00000000
10010000
00000000
00010000
00000000
00100000
00000000
01000000
10000000
,
01000000
00000000
00100000
00000000
00010000
00000000
01000000
00001000
01000000
00000000
00001000
00010000
00001000
00000000
00010000
00000100
,
00010000
00000000
00000010
00001000
00000010
00000000
00001000
00000001
00001000
00000100
00001000
00000100
00000010
00000001
00000010
00000001
,
00001000
00000000
00000000
00000000
00000010
00000000
00000000
00000000
00001000
00000000
00000000
00000000
00000010
00000000
00000000
00000000
00000100
00000000
00000000
00000000
00000001
00000000
00000000
00000000
00000100
00000000
00000000
00000000
00000001
00000000
00000000
00000000
00000100
00000000
00000010
00000000
00000100
00000000
00000010
00000000
00000100
00000000
00000010
00000000
00000100
00000000
00000010
00000000
00000100
00000000
00000010
00000000
00000100
00000000
00000010
00000000
00000200
00000300
00000000
00000000
00000000
00000000
00000000
00000000
,
00000010
00000000
00000100
00000001
00000000
00001000
00000100
00000010
00000000
00000100
00000000
00010000
00001000
00000000
00100000
00010000
,
00100000
00000000
01000000
00100000
00000000
00010000
01000000
00100000
00000000
01000000
00000000
00010000
10000000
00000000
01000000
00100000
,
01000000
00000000
00100000
00001000
00000000
00010000
00001000
00010000
00000000
00000010
00000000
00000100
00000001
00000000
00001000
00000100
,
00001000
00000000
00000000
00001000
00000000
00000000
00001000
00000000
00000100
00000010
00000100
00000010
00000000
00000001
00001000
00000000
,
00000001
00000000
00000100
00000010
00000000
00010000
00001000
00100000
00000000
00010000
00000000
10000000
01000000
00000000
00100000
01000000
,
00100000
00000000
01000000
10000000
00000000
00010000
00100000
00001000
00000000
00010000
00000000
00000010
00001000
00000000
00000100
00000010
,
00000100
00000000
00001000
00000100
00000000
00000100
00000010
00000000
00000010
00000001
00000000
00000001
00000100
00000000
00001000
00000000
,
00012000
00000000
00000000
00010000
00000000
00000000
00010000
00000000
00010000
00000000
00010000
00000000
00013000
00000000
00000000
00000000
,
00011000
00000000
00000000
01001000
00000000
00000000
00011000
00000000
00000000
00010100
00000000
00000000
00000100
00000000
00001000
00000000
,
00000010
00000000
00000100
00000000
00000001
00000010
00000001
00000000
00000100
00000010
00000000
00001000
00000000
00000000
00000100
00000000
,
00010100
00000000
00000000
00011000
00000000
00000000
01001000
00000000
00000000
00101000
00000000
00000000
00100000
00000000
00010000
00000000
,
10000000
00000000
00010000
00000000
00100000
01000000
00100000
00000000
00010000
01000000
00000000
00100000
00000000
10000000
01000000
00000000
,
11000000
00000000
00000000
01010000
00000000
00000000
00011000
00000000
00000000
00001010
00000000
00000000
00000011
00000000
00000001
00000000
,
00001000
00000000
00000001
00000000
00000010
00000100
00001000
00000000
00000001
00000100
00000010
00000100
00000000
00000001
00000010
00000000
,
00000011
00000000
00000000
00001010
00000000
00000000
00011000
00000000
00000000
01010000
00000000
00000000
11000000
00000000
10000000
00000000
,
00100000
01000000
00010000
01000000
00001000
00010000
00000100
00000000
00001000
00000001
00000100
00000010
00001000
00000010
00000100
00000002
,
00000003
00000000
00000000
00000000
;
