#TITLE:FEEL THE FORCE;
#ARTIST:brz1128;
#BANNER:FEEL THE FORCE.png;
#BACKGROUND:FEEL THE FORCE-bg.png;
#CDTITLE:./CDTitles/SDVX EXCEED GEAR.png;
#MUSIC:FEEL THE FORCE.ogg;
#SAMPLESTART:73.286;
#SAMPLELENGTH:15;
#BPMS:0=210;
#BGSTAGE:27;

//--------------- dance-single - Fred-104 ----------------
#NOTES:
     dance-single:
     Fred-104:
     Beginner:
     5:
     :
0000
0000
0000
0000
,
0000
0000
0000
0000
,
0000
0000
0000
0000
,
0000
0000
0000
0000
,
0000
0000
0000
0000
,
1000
0000
1000
0000
,
0001
0000
0001
0000
,
1000
0000
1000
0000
,
1001
0000
0000
0000
,
0001
0000
0001
0000
,
0010
0000
0010
0000
,
1000
0000
1000
0000
,
0100
0000
0100
0000
,
0001
0000
0001
0000
,
0000
1000
1000
0000
,
0000
0001
0001
0000
,
1001
0000
0000
0000
,
0001
0000
0010
0000
,
0100
0000
0010
0000
,
1000
0000
0010
0000
,
0001
0000
1000
0000
,
0001
0000
0100
0000
,
1000
0000
0100
0000
,
0010
0000
0100
0000
,
1001
0000
0000
0000
,
0001
0000
0010
0000
,
0010
0000
0100
0000
,
1000
0000
0010
0000
,
1000
0000
0100
0000
,
1000
0000
1000
0000
,
0100
0000
0100
0000
,
0001
0000
0001
0000
,
0010
0010
0010
0000
,
1000
0000
1000
0000
,
0100
0000
0010
0000
,
0001
0000
0001
0000
,
1000
0000
0010
0000
,
1000
0000
1000
0000
,
0010
0000
0001
0000
,
0100
0000
1000
0000
,
1001
0000
0000
0000
,
2000
0000
0000
3000
,
0002
0000
0000
0003
,
2000
0000
0000
3000
,
0002
0000
0000
0003
,
0200
0000
0000
0300
,
0002
0000
0000
0003
,
2000
0000
0000
3000
,
0002
0000
0000
0003
,
1000
0000
0100
0000
,
1000
0000
0100
0000
,
0001
0000
1000
0000
,
0001
0000
1000
0000
,
0001
0000
0010
0000
,
0001
0000
0010
0000
,
1000
0000
0001
0000
,
1001
0000
0000
0000
,
0001
0000
0001
0000
,
1000
0000
0010
0000
,
1000
0000
1000
0000
,
0001
0000
0010
0000
,
0001
0000
0001
0000
,
1000
0000
1000
0000
,
0001
0000
1000
0000
,
2002
0000
0000
3003
,
1000
0000
0100
0000
,
0010
0000
0010
0000
,
0001
0000
0010
0000
,
0001
0000
0001
0000
,
0100
0000
0010
0000
,
0100
0000
0100
0000
,
0001
0000
1000
0000
,
0100
0000
1000
0000
,
1000
0000
0010
0000
,
1000
0000
1000
0000
,
0001
0000
0010
0000
,
0001
0000
0001
0000
,
0100
0000
0010
0000
,
0100
0000
0100
0000
,
0001
0000
1000
0000
,
0001
0001
1001
0000
,
2000
0000
3000
0000
,
0200
0000
0300
0000
,
0020
0000
0030
0000
,
0002
0000
0003
0000
,
2000
0000
3000
0000
,
0002
0000
0003
0000
,
1000
0000
0001
0000
,
1000
0000
0001
0000
,
1001
0000
0000
0000
,
0001
0000
0000
0000
,
0100
0000
0000
0000
,
0010
0000
0000
0000
,
0100
0000
0100
0000
,
0010
0000
0010
0000
,
1001
0000
0000
0000
,
1001
0000
0000
0000
,
1000
0000
0010
0000
,
1000
0000
0001
0000
,
1000
0000
0001
0000
,
0010
0000
0010
0000
,
0100
0000
1000
0000
,
0001
0000
1000
0000
,
0001
0000
1000
0000
,
2002
0000
0000
3003
;

//--------------- dance-single - Fred-104 ----------------
#NOTES:
     dance-single:
     Fred-104:
     Easy:
     8:
     :
0000
0000
0000
0000
,
0000
0000
0000
0000
,
0000
0000
0000
0000
,
0000
0000
0000
0000
,
0000
0000
0000
0000
,
0001
0000
1000
0000
,
0010
0010
0100
0001
,
1000
0000
0001
0000
,
2000
3200
0320
0032
,
1003
0000
0100
0000
,
0001
0000
0010
0000
,
1000
0000
0100
0000
,
0010
0020
0032
2003
,
3001
0000
0100
0000
,
0000
1000
0010
0000
,
0000
0001
1000
0000
,
0001
0010
0100
1000
,
0001
0000
0001
0000
,
0010
0100
0010
0000
0100
0000
1000
0000
,
0100
0000
1000
0000
,
0002
2003
3002
0203
,
0310
0000
1000
0000
,
0010
0100
0010
0000
0100
0000
0001
0000
,
1000
0100
1000
0100
,
0002
0203
0302
0203
,
1300
0000
0001
0000
1000
0000
0000
0010
,
0000
1000
0001
0010
,
0100
0000
0010
0000
0001
0000
0000
0001
,
0000
1000
0010
1000
,
0001
0001
0001
0010
,
1000
1000
1000
0010
,
0001
1000
0010
0100
,
0110
0020
2030
3002
,
1003
0000
0100
0000
0010
0000
0000
0010
,
0000
0001
1000
0010
,
0100
0000
0010
0000
0100
0000
0000
0100
,
0000
0001
1000
0001
,
1000
1000
1000
0100
,
0001
0001
0001
0100
,
1000
0001
0100
0010
,
0210
0000
0320
0000
1030
0001
1000
0000
,
0001
0000
0000
0002
0000
0000
0003
0000
,
1000
0000
0000
2000
0000
0000
3000
0000
,
0100
0000
0000
0200
0000
0000
0300
0000
,
0010
0000
0000
0010
0000
0000
0010
0000
,
0001
0000
0000
0001
0000
0000
0100
0000
,
0010
0000
0000
0010
0000
0000
1000
0000
,
0100
0000
0000
0100
0000
0000
0010
0000
,
0001
0000
0000
1000
0000
0000
1001
0000
,
0001
0000
0100
0000
0001
0000
0000
1000
,
0000
1000
0100
0010
,
0001
0000
1000
0000
0010
0000
0000
0010
,
0000
0010
0100
0001
,
1000
0000
0100
0000
0010
0000
0000
1000
,
0000
0010
0001
1000
,
0001
0010
0001
1000
,
1001
0000
0000
0110
0000
0000
1001
0000
,
1000
0000
1000
0000
,
0001
0002
2003
3020
,
1030
0000
0001
0000
,
1000
0200
0320
0230
,
1300
0000
0100
0000
,
0001
0000
0010
0000
,
1000
1000
0001
0001
,
2002
0000
0000
3003
,
1000
0000
1000
0000
0010
0000
0000
0100
,
0000
0001
1000
0001
,
1000
0000
0100
0000
1000
0000
0000
0100
,
0000
0000
0100
0000
0010
0001
0010
0000
,
0001
0000
1000
0000
0010
0000
0000
0100
,
0000
0100
0001
0001
,
1000
0000
0100
0000
0010
0000
0000
0001
,
0000
1000
2002
3003
,
1000
0000
0100
0000
1000
0000
0000
0100
,
0000
0001
0100
1000
,
0001
0000
0010
0000
1000
0000
0000
0010
,
0000
0000
0001
0000
1000
0010
1000
0000
,
0001
0000
1000
0000
0010
0000
0000
0100
,
0000
0001
0010
0100
,
1000
0000
0001
0000
0100
0000
0000
0010
,
0000
0100
2002
3003
,
1000
0000
1000
0010
,
0001
0000
0001
0010
,
1000
0000
1000
0100
,
0001
0000
0100
0000
,
1000
0000
0001
1000
,
0002
0203
0320
2030
,
3001
0000
0010
0000
0100
0010
0100
0000
,
1000
1000
0001
0001
,
1000
0000
0100
0000
,
0001
0100
1000
0001
,
1001
0000
0000
0000
0001
0000
0000
0001
,
0000
1000
0010
1000
0010
0000
1000
0000
,
1001
0000
0110
0000
,
1001
0000
0110
0000
,
1001
0000
0001
0000
,
0010
0010
0010
0010
,
0100
0000
0100
0000
,
2000
3002
0203
0320
,
0130
0000
0100
0000
,
0002
2003
3200
0320
,
0130
0000
1000
0000
,
0020
0230
0302
0203
,
0310
0000
0000
0000
0010
0000
0000
0010
,
0000
1000
0001
1000
0001
0000
1001
0000
;

//--------------- dance-single - Fred-104 ----------------
#NOTES:
     dance-single:
     Fred-104:
     Medium:
     13:
     :
0000
0000
0000
0000
,
0000
0000
0000
0000
,
0000
0000
0000
0000
,
0000
0000
0000
0000
,
0000
0000
0000
0000
,
1000
1000
0000
0100
0010
0100
0000
1000
,
0010
1000
0002
0000
2003
0000
3001
0100
,
0001
0001
0000
1000
0100
1000
0000
0001
,
0010
0100
0010
0100
0010
0010
0020
0000
,
0031
0010
0000
0001
0100
0001
0000
0100
,
0010
0100
0000
0010
1000
0010
0000
1000
,
0100
1000
0000
0001
0100
0001
0000
1000
,
0100
0010
0002
0000
2003
0000
3002
0000
,
0103
0000
0010
0000
0000
0000
0100
0000
0010
0000
0000
0100
0000
0000
0100
0000
,
0000
0000
0001
0000
1000
0000
0001
0000
0010
0000
0000
0010
0000
0000
0010
0000
,
0000
0000
0001
0000
1000
0000
0010
0000
0100
0000
0000
0100
0000
0000
0100
0000
,
0002
2003
3200
0320
,
0031
1000
0001
0100
0010
0100
0001
0000
,
1000
0001
1000
0100
0010
0100
1000
0000
,
0001
0100
0001
1000
0100
0010
0001
0000
,
1000
1000
0020
0000
0230
0000
0302
0000
,
1003
0100
1000
0100
0010
0001
1000
0000
,
0001
0100
0010
1000
0001
0010
0001
0000
,
0100
0010
0100
0001
0010
0001
1000
0001
,
0200
0320
1030
1001
,
0001
0000
0100
0000
0100
0000
0010
0100
,
0000
0010
1000
0010
0100
0001
0010
0100
,
1000
0000
1000
0000
0100
0000
0010
0100
,
0000
0010
0001
0000
1000
0001
0100
0010
,
1000
0100
0000
0001
0100
0000
0010
1000
,
0000
0010
0001
0000
1000
0100
0010
0001
,
1000
0010
0100
0000
0001
0010
0100
1000
,
1020
0230
0302
2003
,
3001
0000
0001
0000
0010
0000
0100
0010
,
0000
0100
1000
0100
1000
0001
1000
0010
,
1000
0000
0100
0000
0010
0000
0001
1000
,
0000
0100
1000
0000
0001
1000
0100
1000
,
0001
0100
0000
1000
0100
0000
0010
0001
,
0010
1000
0100
0000
0010
0010
0001
1000
,
0001
0100
1000
0000
0100
0010
0100
0001
,
2001
3002
0023
0130
,
1100
0000
0000
1000
0000
0000
0000
0000
,
0001
0000
0000
0100
0000
0000
0010
0000
,
1000
0000
0000
0010
0000
0000
0000
0000
,
0100
0000
0000
0001
0000
0000
1000
0000
,
0001
0000
0001
0001
0000
0000
0010
0000
,
0100
0000
0100
0100
0000
0000
1000
0000
,
0001
0000
1000
1000
0000
0000
0100
0000
,
1000
0000
0100
1000
0000
0001
1000
0000
,
0001
0100
0010
0100
,
1000
0100
0001
1000
,
0100
0001
0100
0010
,
0100
1000
0001
0010
,
0100
0010
1000
0010
,
0001
1000
0010
0001
,
0010
0100
0010
1000
,
1001
0000
0000
0110
0000
0000
1001
0000
,
1000
0010
0000
0100
0001
0100
0000
0001
,
1000
0001
0020
0000
0032
0000
1003
0100
,
0010
0001
0000
1000
0100
1000
0000
0001
,
0010
0100
2000
0000
3020
0000
2030
0000
,
3001
0010
0000
0010
0100
0010
0000
0100
,
1000
0100
0000
1000
0010
1000
0000
0001
,
1000
0001
1000
0001
0100
0010
0100
0010
,
1000
0100
0001
1000
0010
0001
2000
0000
,
3001
0000
0001
0000
0100
0000
0010
0100
,
0000
0100
0010
0100
0010
0100
1000
0100
,
0001
0000
1000
0000
0001
0000
0010
0100
,
0000
0100
0001
0000
0100
1000
0100
1000
,
0001
0000
0010
0000
0100
0000
1000
0001
,
0000
0001
0010
1000
0010
0100
0010
0001
,
1000
0000
1000
0000
0001
0000
0100
1000
,
0000
1000
0100
0001
0010
0000
1001
0000
,
1000
0000
0001
0000
1000
0000
0100
1000
,
0000
0001
1000
0010
0001
0010
0100
1000
,
0100
0000
0001
0000
1000
0000
0100
0010
,
0000
0001
0100
0000
0010
0001
0010
0100
,
0001
0000
1000
0000
0001
0000
1000
1000
,
0000
0100
0001
1000
0010
0100
0010
0001
,
1000
0000
1000
0000
0001
0000
0010
0010
,
0000
0100
1000
0001
2000
0000
3000
0000
,
0001
0000
0000
0001
0000
0000
0001
0000
1000
0000
0000
0000
0010
0000
0000
0000
,
0100
0000
0000
0100
0000
0000
0100
0000
0010
0000
0000
0000
1000
0000
0000
0000
,
0100
0000
0000
0100
0000
0000
0100
0000
0010
0000
0000
0000
0001
0000
0000
0000
,
1000
0000
0001
1000
0020
0000
0130
0000
,
0001
0000
0000
0001
0000
0000
1000
0000
0100
0000
0000
0000
0010
0000
0000
0000
,
0100
1000
0020
0000
0230
0000
0302
0000
,
1003
0100
0000
0010
0100
1000
0010
0000
,
0002
0023
0130
0101
,
1001
0000
0000
0000
0100
0000
0010
1000
,
0010
0000
1100
0101
,
1001
0000
0000
0000
0110
0000
0000
0010
,
0000
0010
1000
0001
1000
0000
1001
0000
,
2100
3010
0102
0013
,
1200
0310
0201
0310
,
1000
0100
0000
0100
0010
0001
1000
0000
,
0001
0100
0020
0000
2030
0000
3002
0000
,
1003
0010
0000
1000
0001
1000
0000
0001
,
0010
0100
2000
0000
3020
0000
0130
0001
,
0100
0010
0000
0010
1000
0010
0000
0010
,
0100
0010
2000
0000
3200
0000
0320
0000
,
0031
1000
0000
0001
0100
0001
0000
0010
,
0001
0010
0000
0001
1000
0001
0000
1000
,
0010
1000
0000
0010
0100
0010
0000
1001
,
0000
1000
0100
0010
0001
0000
1001
0000
;

//--------------- dance-single - Fred-104 ----------------
#NOTES:
     dance-single:
     Fred-104:
     Hard:
     16:
     :
0000
0000
0000
0000
,
0000
0000
0000
0000
,
0000
0000
0000
0000
,
0000
0000
0000
0000
,
0000
0000
0000
0000
,
1000
1000
0000
0010
0100
0010
0000
1000
,
0100
0010
0002
0000
2003
0000
3001
0001
,
0100
0100
0000
1000
0100
0001
0000
1000
,
0100
0001
1000
0010
0001
1000
0002
0000
,
1003
0001
0000
0001
0100
0010
0000
0010
,
1000
0100
0000
0100
0010
0001
0000
0001
,
1000
0010
0000
0010
1000
0001
0000
0010
,
0010
0100
2000
0000
3020
0000
2030
0000
,
3001
0000
0001
0000
0000
0000
1000
0100
1000
0000
0000
0010
0000
0000
0110
0000
,
0000
0000
0001
0000
1000
0000
0001
0000
0100
0000
0000
0010
0000
0000
0110
0000
,
0000
0000
1000
0000
0100
0000
0010
0000
0001
0000
0000
1000
0000
0000
1001
0000
,
1000
0010
0001
1000
0100
0010
2000
0000
,
3001
0000
0100
0000
0001
0000
0100
0010
0100
0000
0010
0000
1000
0000
0001
0000
,
1000
0001
1000
0001
1000
0000
0100
0000
0010
0000
0001
0000
2000
0000
0000
0000
,
3001
0000
0010
0000
0001
0000
0100
0001
0100
0000
0010
0100
0010
0000
1000
0000
,
0001
0001
0201
0000
0320
2030
3200
0000
,
0310
0001
1000
0001
0100
0010
1000
0100
,
0010
0001
0010
0001
0010
0000
0001
0000
1000
0000
0010
0000
0100
0000
0001
0000
,
1000
0000
0001
0000
0010
0000
0100
0010
0100
0000
1000
0100
1000
0000
0001
0000
,
2001
0000
3002
0000
0023
0230
2300
0000
,
3001
0000
0100
0000
0010
0000
0100
0000
0001
0000
1000
0100
1000
0000
0001
0000
,
0010
0100
0010
0000
0001
0000
0000
0000
1000
0000
0001
0000
1000
0100
1000
0000
,
0001
0000
0010
0000
0100
0000
1000
0000
0001
0000
1000
0010
1000
0000
0100
0000
,
0010
0001
0010
0000
0100
0000
0000
0000
1000
0010
1000
0000
0001
0000
0001
0000
,
1000
0001
0100
0001
1000
0100
0001
0100
,
0010
0100
0010
0100
0010
0000
0001
0000
1000
0000
0010
0000
1000
0001
1000
0001
,
1000
0000
0010
0000
0100
0000
0010
1000
0010
0000
0100
0001
0100
0000
0001
0000
,
1000
0100
0120
0000
0032
2003
3002
0000
,
0013
0000
1000
0000
0010
0000
0100
0000
0010
0000
0001
1000
0001
0000
0100
0000
,
0010
0100
0010
0000
1000
0000
0001
0000
1000
0000
0100
0000
0010
0001
0010
0000
,
0001
0000
1000
0000
0010
0000
0100
0010
0100
0000
0001
0100
0001
0000
1000
0000
,
0001
0000
0010
0000
0100
0000
1000
0000
0001
0100
0001
0100
0002
0000
2003
0000
,
3001
0010
1000
0001
1000
0010
0001
1000
,
0001
0010
0001
0010
0001
0000
1000
0000
0001
0000
0100
0000
0010
0100
0010
0100
,
0010
0000
1000
0000
0100
0000
0010
0001
0010
0000
0001
1000
0001
0000
1000
0000
,
0001
0001
0201
0000
0320
2030
3002
0000
,
1003
0000
0000
0010
0000
0000
1000
0000
,
0001
0000
0000
0010
0000
0000
0100
0000
,
1000
0000
0000
0100
0000
0000
0010
0000
,
0001
0000
0000
0100
0000
0000
0010
0000
,
1000
0000
0000
0100
0000
0000
0010
0000
,
0001
0000
0000
1000
0000
0000
0001
0000
,
0100
0000
0000
0010
0000
0000
1000
0000
,
0001
0010
1000
0001
0100
1000
1001
0000
,
0001
0000
0010
0001
1000
0001
0100
0002
,
0000
1003
0010
0100
1000
0001
0010
1000
,
0001
0000
1000
0100
0010
0001
1000
0002
,
0000
1003
0100
0001
1000
0010
0100
1000
,
0001
0000
0100
0010
1000
0001
0010
2000
,
0000
3010
0001
0100
0010
0001
1000
0100
,
0001
0000
1000
0000
0100
0000
0010
0001
,
1001
0000
1000
0000
0010
0000
0110
0000
0100
0000
0001
1000
0001
0000
0100
0000
,
0001
0000
0001
0000
0000
0000
1000
0100
0010
0000
0001
0000
0000
0000
1000
0000
,
0001
0000
1000
0000
1020
0000
0000
0000
0130
0000
0001
0000
0100
0010
0100
0000
,
0001
0000
0001
0000
0000
0000
1000
0100
0010
0000
0001
0000
0000
0000
1000
0000
,
0001
0100
0120
0000
2030
3002
2003
0000
,
3001
0000
0001
0000
0000
0000
0010
0100
1000
0000
1000
0000
0000
0000
0001
0000
,
1000
0010
0000
1001
0010
1000
0000
1000
,
0001
0000
0010
0000
0100
0000
1000
0001
1000
0000
0010
0000
0100
0000
0001
0000
,
2000
3200
0302
2003
3020
0032
2003
0000
,
3100
0010
0001
1000
0010
1000
0100
1000
,
0001
0010
0001
0000
1000
0000
0010
0100
0010
0000
1000
0000
0001
0000
1000
0000
,
0100
0000
0010
0000
0100
0000
0001
0000
0100
0000
1000
0001
0100
0000
0001
0000
,
1000
0100
1000
0000
0001
0000
1000
0010
1000
0000
0001
0000
1000
0000
1000
0000
,
1010
0000
0001
0100
1000
0100
0010
1000
,
0001
1000
0100
0010
0001
0000
1000
0000
0010
0000
0100
0000
0001
0000
1000
0000
,
1100
0000
0000
0000
0011
0000
0000
0000
1000
0000
0001
0100
0001
0000
1001
0000
,
0000
0000
1000
0001
0100
0000
0001
0000
1000
0000
0100
0010
0002
0000
0000
0000
,
1003
0000
0010
0000
0100
0000
0010
0000
1000
0000
0001
0010
0100
0000
1000
0000
,
0001
1000
0010
0000
0100
0000
0001
1000
0010
0000
0100
0000
0001
0000
1000
0000
,
0001
0000
0010
0000
1000
0000
0010
0000
0100
0000
1000
0001
1000
0000
0001
0000
,
0010
0100
0010
0000
1000
0000
0010
0000
0001
0100
0001
0000
1000
0000
0100
0000
,
1100
0000
0000
0000
0011
0000
0000
0000
0001
0000
1000
0010
1000
0000
1001
0000
,
0000
0000
0001
0100
0010
0000
1000
0000
0100
0000
0001
0000
0100
0000
1000
0000
,
1010
0000
0000
0000
0101
0000
0000
0000
0001
0000
1000
0100
1000
0000
1001
0000
,
0000
0000
1000
0000
0100
0000
0010
0000
0001
0000
1000
0001
2000
0000
0000
0000
,
3001
0000
0000
0001
0000
0000
0001
0000
1000
0000
0010
0000
0100
0000
0001
0010
,
0001
1000
0010
0100
0001
0000
1000
0100
,
1000
0000
0000
1000
0000
0000
1000
0000
0010
0100
0010
0100
0001
0000
1000
0100
,
0010
0001
0100
0010
0100
0000
0100
0001
,
1000
0000
0000
0001
0000
0000
1000
0000
0001
0000
0010
0000
0100
0000
1000
0100
,
2000
3002
0203
0320
,
1030
0000
0001
0000
0010
0000
0001
1000
0001
0000
0100
0010
0100
0000
0001
0000
,
1000
0000
0001
1000
0100
0000
0000
0000
0010
0000
0100
0000
0110
0000
0000
0000
,
1000
0000
0000
0010
0000
0000
0100
0000
0001
0000
1000
0000
0100
0000
0010
0001
,
0010
0010
0001
0001
1001
0000
0110
0000
,
1001
0000
0000
1000
0000
0000
0010
0000
0100
0000
0001
0000
1000
0000
1100
0000
,
0000
0001
0100
0010
0110
0000
1001
0000
,
2100
3010
0102
0013
,
1200
0310
0201
0310
,
1000
0000
0001
0000
0010
0000
0100
0001
0100
0000
1000
0001
1000
0000
0001
0000
,
1000
0000
0001
1000
0020
0000
0000
0000
0130
0000
0100
0000
0002
0000
0000
0000
,
1003
0000
1000
0000
0000
0000
0001
0010
0100
0000
1000
0000
0000
0000
0001
0100
,
0010
1000
0002
0000
2003
0000
3010
0010
,
0100
0000
0001
0000
0000
0000
1000
0001
0010
0000
0001
0000
0000
0000
0010
0000
,
0010
0001
2000
0000
3020
0000
0230
0000
,
0301
0000
0100
0000
0000
0000
0010
1000
0100
0000
0010
0000
0000
0000
0010
0000
,
0001
0000
1000
0000
0020
0000
0000
0000
2030
0000
0000
0000
3001
1000
0001
0000
,
1000
0000
0100
0000
0000
0000
0001
0100
0010
0000
0001
0000
0000
0000
0011
0000
,
0000
0001
0010
1000
0100
0000
0101
0000
;

//--------------- dance-single - Fred-104 ----------------
#NOTES:
     dance-single:
     Fred-104:
     Challenge:
     17:
     :
0000
0000
0000
0000
,
0000
0000
0000
0000
,
0000
0000
0000
0000
,
0000
0000
0000
0000
,
0000
0000
0000
0000
,
0011
0000
0011
0000
0000
0000
0001
1000
0001
0000
1001
0000
0000
0000
1010
0000
,
1000
0000
0001
0000
0011
0000
0000
0000
1001
0000
0000
0000
0001
0100
0001
0000
,
0101
0000
0101
0000
0000
0000
1000
0100
1000
0000
1100
0000
0000
0000
1001
0000
,
2000
3200
0302
2003
3020
0032
2003
0000
,
3001
0000
0010
0000
0100
0000
1000
0001
1000
0000
0001
0000
0100
0000
0010
1000
,
0010
0000
1000
0000
0001
0000
0010
0100
0010
0000
0100
0000
1000
0000
0001
1000
,
0001
0000
0100
0000
0010
0000
1000
0010
1000
0000
0001
0000
0010
0000
0100
1000
,
0001
0200
1000
0000
0310
0100
0101
0000
,
1001
0000
1001
0000
0000
0000
1000
0100
0010
0000
0000
0001
0000
0000
0011
0000
,
0000
0000
0101
0000
0100
0000
0010
0000
1000
0000
0000
0100
0000
0000
1100
0000
,
0000
0000
0011
0000
0001
0000
1000
0000
0001
0000
0000
0100
0000
0000
0010
0000
,
1010
0000
0000
0000
0000
0000
0001
1000
0100
0010
0001
1000
0001
0000
0000
0000
,
1000
0100
1000
0000
0001
0000
0100
0000
0010
1000
0010
0000
0100
0000
0001
0000
,
1000
0100
0010
0001
1000
0000
0001
0000
0100
0000
0010
0000
1000
0000
0001
0000
,
0010
0100
0010
0000
0001
0000
1000
0010
0100
0010
1000
0010
0100
0000
0001
0000
,
1000
0200
0010
0000
0301
0100
1100
0000
,
0001
1000
0010
0000
1000
0000
0001
0000
0010
0100
1000
0000
0001
0000
0100
0000
,
0010
1000
0010
0100
0001
0000
1000
0000
0100
0010
0001
0000
1000
0000
0010
0000
,
0100
0001
1000
0000
0001
0000
0010
0100
1000
0100
0010
0100
1000
0000
0001
0000
,
0100
0020
0001
0000
1030
0001
1001
0000
,
1000
0000
0100
0010
0100
0000
1000
0001
1000
0000
0100
0010
0100
0000
2100
0000
,
0000
0000
3001
1000
0001
0000
0100
0000
0010
1000
0010
0000
0100
0001
0100
0000
,
0001
0000
1000
0100
1000
0000
0001
1000
0001
0000
1000
0100
1000
0000
1002
0000
,
0000
0000
0103
0010
0100
0000
0001
0000
1000
0010
1000
0000
0001
0100
0001
0000
,
1000
0100
0001
1000
0010
0100
1000
0010
,
0100
0001
1000
0010
0100
0000
0001
0000
1000
0100
1000
0000
0001
0100
0010
1000
,
0001
0000
0010
0100
1000
0001
1000
0000
0010
0100
0001
0000
0100
0010
1000
0000
,
0001
0020
1000
0000
0130
0010
0011
0000
,
1000
0000
0001
0010
0001
0000
1000
0010
1000
0000
0001
0100
0001
0000
2001
0000
,
0000
0000
3100
0010
0100
0000
1000
0000
0001
0010
0001
0000
1000
0010
1000
0000
,
0001
0000
0010
0100
0010
0000
0100
1000
0100
0000
1000
0001
1000
0000
1020
0000
,
0000
0000
0130
0001
0100
0000
0001
0000
1000
0100
1000
0000
0001
0010
0001
0000
,
1000
0010
0100
1000
0001
0010
0100
0001
,
1000
0100
0010
0001
1000
0000
0010
0000
0100
0001
1000
0000
0001
0010
0100
0010
,
0001
0000
1000
0010
0100
0001
1000
0000
0100
0010
0001
0000
1000
0010
1000
0000
,
0001
0010
0001
0010
0100
0010
0100
0010
0001
0000
1000
0000
1001
0000
0000
0000
,
2000
0000
0000
0010
0000
0000
3010
0000
,
0002
0000
0000
0010
0000
0000
0013
0000
,
2000
0000
0000
0100
0000
0000
3100
0000
,
0010
0001
0001
1000
0000
0001
0100
0000
,
0002
0000
1003
0200
0000
0310
0002
0000
,
2003
0000
3010
0200
0000
0310
2000
0000
,
3002
0000
0013
0200
0000
0310
0002
0000
,
1003
0100
0001
0100
0010
0000
0011
0000
,
0001
0000
1000
0100
0010
1000
0010
0001
,
0000
1000
0010
0001
0010
0100
0010
1000
,
0001
0000
0010
0100
0001
0100
1000
0001
,
0000
0100
1000
0100
0010
1000
0001
0010
,
0001
0000
1000
0100
0001
1000
0010
0100
,
0000
1000
0001
0100
1000
0001
0010
0100
,
0001
0000
1000
0100
0010
0001
0100
0010
,
1010
0000
1000
0000
0001
0000
0010
0100
1000
0000
0010
0100
0001
0000
1000
0000
,
1010
0000
1010
0000
0000
0000
0001
1000
0001
0000
0011
0000
0000
0000
1001
0000
,
1100
0000
0100
0000
0110
0000
0000
0000
0011
0000
0000
0000
0001
1000
0001
0000
,
0101
0000
0101
0000
0000
0000
0010
1000
0010
0000
1010
0000
0000
0000
1001
0000
,
1000
0000
0100
0000
0110
0000
0010
0001
0010
0000
0001
0000
1001
0000
0000
0000
,
1010
0000
1010
0000
0000
0000
0001
0100
0001
0000
0101
0000
0000
0000
1100
0000
,
1100
1100
0000
0011
0011
0011
0000
1001
,
1001
0000
0001
0000
1000
0000
0010
0100
0010
0000
1000
0000
0001
0000
1000
0000
,
2002
0000
0000
3003
,
1000
0000
0100
0010
0001
0000
1000
0100
0010
0000
0001
1000
0100
0000
0020
0000
,
0000
0000
0031
1000
0001
0000
0100
0000
0010
1000
0010
0000
0100
0001
0100
0000
,
0001
0000
1000
0010
0100
0000
0001
1000
0010
0000
0100
0001
1000
0000
0020
0000
,
0000
0000
0130
0001
0100
0000
0001
0000
1000
0100
1000
0000
0001
0010
0001
0000
,
1000
0000
0001
0010
0100
0000
1000
0001
0010
0000
0100
1000
0001
0000
0020
0000
,
0000
0000
0130
1000
0001
0000
0100
0000
0010
1000
0010
0000
0100
0001
0100
0000
,
0001
0000
1000
0010
0100
0000
0001
1000
0010
0000
0100
0001
1000
0000
0020
0000
,
0000
0000
0130
0001
1000
0000
0001
0000
0010
0100
0010
0100
1000
0000
0001
0000
,
1000
0001
0100
0000
0010
1000
0001
0000
0100
0010
1000
0000
0001
0000
0020
0000
,
0000
0000
0130
0000
1000
0000
0001
0000
0100
0010
0100
0010
0100
0000
0001
0000
,
1000
0001
0010
0000
0100
1000
0001
0000
0010
0100
1000
0000
0001
0000
0200
0000
,
0000
0000
0310
0000
1000
0000
0001
0000
0010
0100
0010
0100
1000
0000
0001
0000
,
1000
0001
0100
0000
0010
1000
0001
0000
0100
0010
1000
0000
0001
0000
0020
0000
,
0000
0000
0130
0000
0010
0000
0001
0000
1000
0010
1000
0010
1000
0000
0001
0000
,
0010
0100
1000
0000
0001
0010
0100
0000
1000
0001
0010
0000
0100
0000
0020
0000
,
0000
0000
0031
1000
0010
0000
1000
0000
0001
0010
0100
1000
0001
0000
0000
0000
,
1000
0000
0001
0100
0000
0001
0100
0000
0010
0000
1000
0000
0001
0000
0010
0100
,
0010
0100
1000
0001
0100
0010
2000
0000
,
3001
0000
1000
0100
0000
1000
0100
0000
0010
0000
0001
0000
1000
0000
0010
0100
,
0010
1000
0001
0010
0100
0000
2100
0000
,
3001
0000
0100
0010
0000
0100
0010
0000
1000
0000
0001
0000
0010
0000
0100
1000
,
0001
0100
1000
0001
0010
0100
0001
1000
,
0100
0000
0010
0000
0001
0000
1000
0010
1000
0000
0001
0010
0001
0000
1000
0000
,
0010
0100
0110
0000
0001
1000
1001
0000
,
2000
0000
0000
3020
0000
0000
0230
0000
0301
0000
1000
0000
0100
0000
0010
0001
,
1000
0010
0001
0010
0110
0000
0101
0000
,
2001
0000
0000
3002
0000
0000
0203
0000
0310
0000
0100
0000
0001
0000
1001
0000
,
0000
1100
0100
0010
0011
0000
1001
0000
,
1100
0100
0010
0000
0101
0100
0010
0000
,
1100
0100
0010
0000
0101
0100
0010
0000
,
1000
0000
0001
0100
0001
0000
1000
0000
0100
0010
0001
1000
0010
0000
1000
0000
,
0001
0020
0100
0000
1030
0010
0011
0000
,
1001
0000
1001
0000
0000
0000
0100
0010
0100
0000
0110
0000
0000
0000
1001
0000
,
1000
0000
0010
0000
0110
0000
0000
0000
0101
0000
0000
0000
0001
1000
0001
0000
,
0011
0000
0011
0000
0000
0000
1000
0100
1000
0000
1100
0000
0000
0000
1001
0000
,
0001
0000
0100
0000
0001
0000
1000
0010
1000
0000
0001
0000
1001
0000
0000
0000
,
1100
0000
1100
0000
0000
0000
0010
0001
0010
0000
0011
0000
0000
0000
1001
0000
,
0001
0000
0100
0000
0110
0000
0000
0000
1010
0000
0000
0000
0001
1000
0001
0000
,
0101
0000
1001
0000
0000
0000
1000
0100
1000
0000
1001
0000
0000
0000
0110
0000
,
0000
0100
0100
0100
0010
0000
1001
0000
;

//--------------- dance-double - Fred-104 ----------------
#NOTES:
     dance-double:
     Fred-104:
     Easy:
     8:
     :
00000000
00000000
00000000
00000000
,
00000000
00000000
00000000
00000000
,
00000000
00000000
00000000
00000000
,
00000000
00000000
00000000
00000000
,
00000000
00000000
00000000
00000000
,
10000000
00000000
00010000
00000000
,
10000000
01000000
00010000
00001000
,
00010000
00000000
00001000
00000000
,
00020000
00032000
00003020
00000230
,
00010300
00000000
00001000
00000000
,
00000100
00000000
00000010
00000000
,
00010000
00000000
00001000
00000000
,
00000100
00000002
00002003
00003002
,
00000013
00000000
00001000
00000000
,
00000000
00010000
00001000
00000000
,
00000000
00010000
00100000
00000000
,
10000000
10000000
00010000
00010000
,
10000000
00000000
01000000
00000000
,
00100000
00010000
00100000
00000000
00001000
00000000
00010000
00000000
,
00001000
00000000
00010000
00000000
,
00002000
00023000
02030000
03200000
,
00301000
00000000
00010000
00000000
,
00000100
00001000
00000100
00000000
00010000
00000000
00001000
00000000
,
00010000
00001000
00000100
00000010
,
00002000
00003200
00000320
00000032
,
00000103
00000000
00000010
00000000
00001000
00000000
00000000
00000001
,
00000000
00000010
00000100
00000010
,
00001000
00000000
00010000
00000000
00001000
00000000
00000000
00010000
,
00000000
00001000
00010000
00100000
,
10000000
10000000
01000000
00010000
,
00001000
00001000
00010000
00010000
,
00001000
00010000
00000100
00000010
,
00000011
00002000
00003002
00002003
,
00003010
00000000
00000100
00000000
00001000
00000000
00000000
00010000
,
00000000
00001000
00100000
00010000
,
00100000
00000000
00001000
00000000
00010000
00000000
00000000
00000100
,
00000000
00000010
00000001
00001000
,
00000001
00000001
00000100
00001000
,
00010000
00010000
00100000
10000000
,
00010000
00100000
01000000
00100000
,
00120000
00000000
20030000
00000000
31000000
00100000
00001000
00000000
,
00010000
00000000
00000000
00020000
00000000
00000000
00030000
00000000
,
00001000
00000000
00000000
00002000
00000000
00000000
00003000
00000000
,
00000100
00000000
00000000
00000200
00000000
00000000
00000300
00000000
,
00000001
00000000
00000000
00001000
00000000
00000000
00000001
00000000
,
00000010
00000000
00000000
00000100
00000000
00000000
00010000
00000000
,
00001000
00000000
00000000
01000000
00000000
00000000
00010000
00000000
,
00100000
00000000
00000000
00001000
00000000
00000000
01000000
00000000
,
00100000
00000000
00000000
10000000
00000000
00000000
10010000
00000000
,
00010000
00000000
10000000
00000000
01000000
00000000
00000000
01000000
,
00000000
01000000
00100000
00001000
,
00010000
00000000
00001000
00000000
00000100
00000000
00000000
00000100
,
00000000
00000001
00001000
00000100
,
00000010
00000000
00000001
00000000
00001000
00000000
00000000
00001000
,
00000000
00000010
00010000
00001000
,
00010000
00000100
00010000
00010000
,
00011000
00000000
00000000
00010010
00000000
00000000
00011000
00000000
,
00010000
00000000
00010000
00000000
,
00010000
00002000
00003200
00000320
,
00001030
00000000
00000100
00000000
,
00000010
00002000
00023000
00032000
,
01003000
00000000
00001000
00000000
,
00010000
00000000
00100000
00000000
,
01000000
00100000
00010000
00001000
,
00022000
00000000
00000000
00033000
,
00010000
00000000
00001000
00000000
00000100
00000000
00000000
00000001
,
00000000
00001000
00000100
00000010
,
00000001
00000000
00001000
00000000
00000010
00000000
00000000
00010000
,
00000000
00000000
00000010
00000000
00010000
00001000
00010000
00000000
,
00001000
00000000
01000000
00000000
00001000
00000000
00000000
01000000
,
00000000
00010000
10000000
01000000
,
00010000
00000000
00001000
00000000
00000100
00000000
00000000
00000001
,
00000000
00001000
00002002
00003003
,
00000001
00000000
00001000
00000000
00000010
00000000
00000000
00010000
,
00000000
00001000
00100000
00001000
,
00010000
00000000
00000100
00000000
00010000
00000000
00000000
00001000
,
00000000
00000000
00010000
00000000
00100000
01000000
00100000
00000000
,
10000000
00000000
00010000
00000000
00100000
00000000
00000000
00001000
,
00000000
00010000
00000010
00001000
,
00000100
00000000
00010000
00000000
00001000
00000000
00000000
00010000
,
00000000
00001000
00022000
00033000
,
00010000
00000000
00001000
00000010
,
00001000
00000000
00010000
00100000
,
00010000
00000000
00001000
00000100
,
00001000
00010000
01000000
00010000
,
00001000
00000000
00010000
00001000
,
00020000
00030200
00002300
00003200
,
00000310
00000000
00000001
00000000
00001000
00000010
00001000
00000000
,
00000010
00000010
00010000
00010000
,
00001000
00000000
00010000
00000000
,
00100000
01000000
00010000
10000000
,
10010000
00000000
00000000
00000000
10000000
00000000
00000000
01000000
,
00000000
00100000
00010000
00100000
00001000
00000000
00010000
00000000
,
00011000
00000000
00010100
00000000
,
00011000
00000000
01001000
00000000
,
00011000
00000000
00010000
00000000
,
00001000
00001000
00010000
00010000
,
00001000
00000000
00001000
00000000
,
00020000
00032000
00003020
00000032
,
00001003
00000000
00001000
00000000
,
00000020
00000230
00002300
00023000
,
00031000
00000000
01000000
00000000
,
00020000
00230000
02300000
23000000
,
30010000
00000000
00000000
00000000
01000000
00000000
00000000
00001000
,
00000000
00010000
00000100
00000000
00001000
00000000
00001001
00000000
;

//--------------- dance-double - Fred-104 ----------------
#NOTES:
     dance-double:
     Fred-104:
     Medium:
     13:
     :
00000000
00000000
00000000
00000000
,
00000000
00000000
00000000
00000000
,
00000000
00000000
00000000
00000000
,
00000000
00000000
00000000
00000000
,
00000000
00000000
00000000
00000000
,
00001000
00001000
00000000
00010000
00001000
00010000
00000000
00001000
,
00000100
00000010
00002000
00000000
00003002
00000000
00001003
00000001
,
00000010
00000010
00000000
00000100
00000010
00000100
00000000
00001000
,
00000100
00010000
00001000
00100000
00010000
10000000
00020000
00000000
,
01030000
00100000
00000000
00010000
00001000
00010000
00000000
00001000
,
01000000
00001000
00000000
00010000
00100000
10000000
00000000
00010000
,
00100000
10000000
00000000
00100000
00010000
01000000
00000000
00001000
,
00010000
00001000
00000200
00000000
00000302
00000000
00000023
00000000
,
00000130
00000000
00010000
00000000
00000000
00000000
00001000
00000000
00000100
00000000
00000000
00000010
00000000
00000000
00010000
00000000
,
00000000
00000000
00001000
00000000
00010000
00000000
00100000
00000000
01000000
00000000
00000000
00010000
00000000
00000000
00100000
00000000
,
00000000
00000000
01000000
00000000
00010000
00000000
00001000
00000000
00010000
00000000
00000000
00000010
00000000
00000000
00001000
00000000
,
00000200
00020300
02030000
03020000
,
00031000
00010000
00001000
00000010
00000100
00001000
00000010
00000000
,
00000100
00000001
00000010
00001000
00010000
00001000
00000100
00000000
,
00001000
00010000
00100000
01000000
00010000
00100000
10000000
00000000
,
00100000
01000000
00200000
00000000
00302000
00000000
00023000
00000000
,
00031000
00010000
01000000
00100000
01000000
10000000
00010000
00000000
,
10000000
00100000
01000000
00100000
00010000
00001000
00010000
00000000
,
00001000
00000010
00000100
00001000
00000001
00000100
00001000
00010000
,
00002000
00023000
00031000
00011000
,
00010000
00000000
00001000
00000000
00000010
00000000
00000001
00001000
,
00000000
00001000
00000010
00010000
00001000
00010000
00100000
10000000
,
00010000
00000000
00010000
00000000
00100000
00000000
01000000
10000000
,
00000000
10000000
00010000
00000000
10000000
00100000
00010000
00100000
,
10000000
01000000
00000000
01000000
00010000
00000000
00010000
00001000
,
00000000
00001000
00000010
00000000
00000001
00001000
00000001
00000000
,
00000010
00000100
00010000
00000000
00001000
00010000
01000000
00100000
,
00120000
20030000
32000000
03200000
,
00310000
00000000
00010000
00000000
10000000
00000000
00100000
01000000
,
00000000
01000000
00010000
10000000
00100000
01000000
00010000
00001000
,
00000100
00000000
00000010
00000000
00000001
00000000
00000100
00000010
,
00000000
00000100
00001000
00000000
00010000
00001000
00000010
00001000
,
00010000
00001000
00000000
00001000
00000100
00000000
00000100
00000010
,
00000000
00000010
00010000
00000000
00010000
00001000
00010000
00100000
,
01000000
00010000
00100000
00000000
01000000
10000000
00100000
00010000
,
00012000
00023000
00032000
00013000
,
00011000
00000000
00000000
00010000
00000000
00000000
00000000
00000000
,
00001000
00000000
00000000
00000100
00000000
00000000
00000001
00000000
,
00000010
00000000
00000000
00001000
00000000
00000000
00000000
00000000
,
00010000
00000000
00000000
01000000
00000000
00000000
10000000
00000000
,
10010000
00000000
00000000
10000000
00000000
00000000
01000000
00000000
,
00010000
00000000
00000000
00001000
00000000
00000000
00000010
00000000
,
00000001
00000000
00000000
00000100
00000000
00000000
00001000
00000000
,
00010000
00000000
00000000
00001000
00000000
00000000
00010000
00000000
,
00001000
00000000
00010000
00000000
00100000
00000000
01000000
00010000
,
00000000
00100000
01000000
00000000
00010000
00000000
00001000
00000000
,
00010000
00000000
00001000
00000000
00000100
00000000
00000010
00001000
,
00000000
00000100
00000010
00000000
00001000
00000000
00010000
00000000
,
00001000
00000000
00010000
00000000
00100000
00000000
01000000
00010000
,
00000000
00100000
01000000
00000000
00010000
00000000
00001000
00000000
,
00010000
00000000
00100000
00000000
10000000
00000000
01000000
00100000
,
01100000
00000000
00000000
00011000
00000000
00000000
00000110
00000000
,
00000001
00000001
00000000
00000100
00000010
00000100
00000000
00000010
,
00010000
00001000
00200000
00000000
02300000
00000000
13000000
01000000
,
00100000
00100000
00000000
00010000
01000000
00100000
00000000
10000000
,
01000000
00010000
00002000
00000000
00003200
00000000
00000320
00000000
,
00001030
00001000
00000000
00000001
00000010
00000100
00000000
00010000
,
00001000
00100000
00000000
01000000
10000000
00010000
00000000
10000000
,
00100000
10000000
01000000
00010000
01000000
00100000
00001000
00010000
,
00000010
00000100
00001000
00000001
00000010
00001000
00000002
00000000
,
00000013
00000000
00000100
00000000
00001000
00000000
00000001
00000001
,
00000000
00000010
00000100
00000010
00001000
00010000
00100000
01000000
,
00010000
00000000
00100000
00000000
01000000
00000000
10000000
10000000
,
00000000
00100000
00010000
00000000
00100000
10000000
01000000
00100000
,
01000000
00000000
00100000
00000000
00001000
00000000
00010000
00001000
,
00000000
00010000
00001000
00000010
00000100
00010000
00001000
00000100
,
00000010
00000000
00000100
00000000
00000001
00000000
00000010
00001000
,
00000000
00000010
00000100
00010000
00001000
00000000
00011000
00000000
,
00010000
00000000
00001000
00000000
00000100
00000000
00000001
00000100
,
00000000
00001000
00010000
00001000
00000010
00000100
00000010
00001000
,
00010000
00000000
00001000
00000000
00010000
00000000
00100000
01000000
,
00000000
00100000
00010000
00000000
00001000
00010000
01000000
10000000
,
01000000
00000000
00010000
00000000
00001000
00000000
00010000
00010000
,
00000000
00001000
00000100
00000010
00001000
00000100
00000010
00001000
,
00010000
00000000
01000000
00000000
00010000
00000000
00001000
00010000
,
00000000
00001000
00000100
00000010
00002000
00000000
00003000
00000000
,
00000001
00000000
00000000
00000001
00000000
00000000
00000001
00000000
00000010
00000000
00000000
00000000
00001000
00000000
00000000
00000000
,
00010000
00000000
00000000
00010000
00000000
00000000
00010000
00000000
00100000
00000000
00000000
00000000
01000000
00000000
00000000
00000000
,
00010000
00000000
00000000
00010000
00000000
00000000
00010000
00000000
10000000
00000000
00000000
00000000
00100000
00000000
00000000
00000000
,
01000000
00000000
00100000
00010000
00002000
00000000
00013000
00000000
,
00001000
00000000
00000000
00001000
00000000
00000000
00001000
00000000
00000010
00000000
00000000
00000000
00000100
00000000
00000000
00000000
,
00001000
00000001
00000200
00000000
00002300
00000000
00023000
00000000
,
00031000
00010000
00000000
01000000
00010000
00001000
00010000
00000000
,
00000200
00020300
00031000
01001000
,
00011000
00000000
00000000
00000000
00000100
00000000
00001000
00010000
,
00100000
00000000
10100000
11000000
,
10010000
00000000
00000000
00000000
01100000
00000000
00000000
00001000
,
00000000
00010000
00100000
01000000
00100000
00000000
10000000
00000000
,
10010000
00000000
00011000
00000000
,
00001001
00000000
00011000
00000000
,
00010000
00001000
00010000
00000000
00001000
00000100
00000001
00000000
,
00000010
00000010
00000200
00000000
00020300
00000000
00032000
00000000
,
00013000
00010000
00000000
00100000
01000000
00010000
00000000
00100000
,
01000000
00010000
02000000
00000000
23000000
00000000
30010000
01000000
,
00100000
00010000
00000000
00001000
00010000
00000010
00000000
00010000
,
00001000
00000010
00000200
00000000
00002300
00000000
00003002
00000000
,
00000103
00001000
00000000
00010000
00001000
00010000
00000000
00000100
,
00000001
00000100
00010000
00000000
00001000
00010000
00001000
00000000
,
00010000
00100000
00000000
10000000
00100000
00010000
00000000
00011000
,
00000000
00001000
00010000
00001000
00010000
00000000
00011000
00000000
;

//--------------- dance-double - Fred-104 ----------------
#NOTES:
     dance-double:
     Fred-104:
     Hard:
     16:
     :
00000000
00000000
00000000
00000000
,
00000000
00000000
00000000
00000000
,
00000000
00000000
00000000
00000000
,
00000000
00000000
00000000
00000000
,
00000000
00000000
00000000
00000000
,
00010000
00010000
00000000
00001000
00000100
00000001
00000000
00001000
,
00000001
00000010
00002000
00000000
00023000
00000000
00031000
00001000
,
00010000
00100000
00000000
01000000
00100000
00010000
00000000
00001000
,
00010000
00001000
00100000
01000000
10000000
00010000
02000000
00000000
,
03100000
10000000
00000000
10000000
01000000
00010000
00000000
00010000
,
00001000
00000100
00000000
00000100
00000001
00001000
00000000
00001000
,
00000010
00000100
00000000
00000100
00001000
00010000
00000000
00010000
,
00001000
00000010
00000200
00000000
00002300
00000000
00003020
00000000
,
00010030
00000000
00001000
00000000
00000000
00000000
01000000
00010000
01000000
00000000
00000000
00010000
00000000
00000000
10000000
00000000
,
00000000
00000000
01000000
00000000
00010000
00000000
00000100
00000000
00000010
00000000
00000000
00000001
00000000
00000000
00001000
00000000
,
00000000
00000000
00001000
00000000
00000100
00000000
00000010
00000000
00000001
00000000
00000000
00001000
00000000
00000000
00000001
00000000
,
00000100
00000010
00001000
00010000
01000000
00100000
20000000
00000000
,
30010000
00100000
10000000
00100000
00001000
00010000
01000000
10000000
,
00100000
01000000
00100000
00010000
00001000
00000100
00000020
00000000
,
00001030
00000100
00000001
00000100
00010000
00001000
00000010
00000100
,
00000010
00000001
00002001
00000000
00003001
00000100
00002000
00000000
,
00013000
00001000
01000000
00001000
00010000
00100000
01000000
00010000
,
10000000
01000000
00100000
01000000
10000000
00000000
00010000
00000000
01000000
00000000
00100000
00000000
00010000
00000000
00001000
00000000
,
00010000
00000000
00000100
00000000
00000010
00000000
00000001
00001000
00000001
00000000
00000100
00000010
00000100
00000000
00001000
00000000
,
00021000
00000000
00032000
00000000
00203000
00302000
00023000
00000000
,
00031000
00000000
00000100
00000000
00000001
00000000
00001000
00000000
00000100
00000000
00000001
00000100
00000010
00000000
00000100
00000000
,
00001000
00000001
00000100
00000000
00000010
00000000
00000000
00000000
00010000
00000000
00001000
00000000
00100000
00010000
00100000
00000000
,
00001000
00000000
00010000
00000000
00100000
00000000
10000000
00000000
00010000
00000000
00100000
01000000
00100000
00000000
10000000
00000000
,
00100000
00010000
00100000
00000000
00001000
00000000
00000000
00000000
00010000
00000010
00010000
00000000
00001000
00000000
00001000
00000000
,
00010000
00001000
00000100
00000001
00001000
00000100
00000010
00000001
,
00000000
00000000
00001000
00000010
00001000
00000000
00000000
00000000
00000100
00000000
00010000
00000000
00001000
01000000
00001000
00000000
,
00010000
00000000
01000000
00000000
00100000
00000000
00010000
10000000
00010000
00000000
01000000
00000000
10000000
00000000
01000000
00000000
,
00010000
10000000
12000000
00000000
03200000
00000000
00302000
00000000
,
00013000
00000000
00001000
00000000
00000100
00000000
00000010
00000000
00001000
00000000
00000100
00010000
00000100
00000000
00010000
00000000
,
00001000
01000000
00001000
00000000
00010000
00000000
00100000
00000000
01000000
00000000
00001000
00000000
00010000
00000000
00000010
00000000
,
00000100
00000000
00001000
00000000
01000000
00000000
00001000
00000000
00010000
00000000
00000100
00001000
00000100
00000000
00010000
00000000
,
00001000
00000000
00000100
00000000
00001000
00000000
00010000
00000000
00100000
01000000
00100000
01000000
00020000
00000000
00000000
00000000
,
10030000
00000000
01000000
00000000
00100000
00000000
01000000
00000000
00010000
00000000
00001000
00010000
00001000
00000000
00000100
00000000
,
00000010
00000000
00001000
00000000
00000100
00000000
00000010
00000000
00001000
00000000
00010000
00000000
00001000
00010000
00001000
00000000
,
00100000
00000000
00010000
00000000
01000000
00000000
00001000
00010000
00001000
00000000
00100000
00010000
00100000
00000000
00001000
00000000
,
00010000
00001000
00021000
00000000
00032000
00003200
00000302
00000000
,
00001003
00000000
00000000
00000001
00000000
00000000
00000010
00000000
,
00001000
00000000
00000000
00010000
00000000
00000000
00001000
00000000
,
00000010
00000000
00000000
00000100
00000000
00000000
00001000
00000000
,
00000010
00000000
00000000
00000100
00000000
00000000
00001000
00000000
,
01000000
00000000
00000000
00010000
00000000
00000000
10000000
00000000
,
01000000
00000000
00000000
00100000
00000000
00000000
00001000
00000000
,
00000010
00000000
00000000
00000100
00000000
00000000
00010000
00000000
,
00001000
00000100
00000010
00001000
00000100
00000010
00000001
00000000
,
00001001
00000000
00001000
00000100
00001000
00000010
00000100
00000001
,
00000000
00000100
00001000
00010000
00100000
00010000
00001000
00010000
,
01000000
00000000
10000000
00100000
01000000
00100000
10000000
00010000
,
00000000
00100000
10000000
00100000
00001000
00010000
00000010
00000001
,
00000010
00000000
00001000
00000100
00000001
00000100
00000010
00000100
,
00000000
00001000
00000001
00000100
00000010
00000100
00001000
00010000
,
00001000
00000000
00010000
00000000
01000000
00100000
00010000
10000000
,
10010000
00000000
00000000
00000000
10000000
00000000
11000000
00000000
00000000
00000000
00010000
01000000
00010000
00000000
00000000
00000000
,
10000000
00000000
10000000
00000000
00000000
00000000
01000000
00100000
01000000
00000000
00010000
00000000
00000000
00000000
00001000
00000000
,
00010000
00000000
00000100
00000000
00000120
00000000
00000000
00000000
00000031
00000000
00001000
00000000
00000010
00001000
00000010
00000000
,
00001000
00000000
00001000
00000000
00000000
00000000
00000001
00000010
00000001
00000000
00000100
00000000
00000000
00000000
00001000
00000000
,
00010000
00001000
00021000
00000000
00032000
00023000
02030000
00000000
,
13000000
00000000
10000000
00000000
00000000
00000000
01000000
00100000
00001000
00000000
00010000
00000000
00000000
00000000
00001000
00000000
,
00010000
00000100
00000000
00010100
00001000
00010000
00000000
00010000
,
00001000
00000000
00000100
00000000
00000010
00000000
00000100
00000001
00000100
00000000
00000010
00000000
00001000
00000000
00000001
00000000
,
00000001
00000010
00001000
00010000
01000000
10000000
10010000
00000000
,
00010000
10000000
01000000
00100000
01000000
10000000
00100000
00010000
,
00001000
00100000
00001000
00000000
00010000
00000000
00001000
00000010
00001000
00000000
00010000
00000000
00001000
00000000
00010000
00000000
,
00000100
00000000
00000010
00000000
00000001
00000000
00001000
00000000
00000010
00000000
00000100
00000010
00000100
00000000
00000001
00000000
,
00001000
00000100
00000010
00000000
00000100
00000000
00010000
00001000
00010000
00000000
00001000
00000000
01000000
00000000
00001000
00000000
,
00011000
00000000
00010000
00000010
00001000
00010000
01000000
00001000
,
00010000
00001000
00010000
00001000
00010000
00000000
00001000
00000000
00000010
00000000
00000100
00000000
00000010
00000000
00000001
00000000
,
00000101
00000000
00000000
00000000
00001100
00000000
00000000
00000000
00010000
00000000
00001000
00010000
00001000
00000000
00011000
00000000
,
00000000
00000000
00001000
00010000
00100000
00000000
01000000
00000000
00010000
00000000
10000000
01000000
20000000
00000000
00000000
00000000
,
30010000
00000000
01000000
00000000
10000000
00000000
01000000
00000000
00010000
00000000
10000000
01000000
00100000
00000000
00001000
00000000
,
00010000
00100000
01000000
00000000
00100000
00000000
10000000
01000000
00100000
00000000
00001000
00000000
00010000
00000000
00000100
00000000
,
00000001
00000000
00001000
00000000
00000010
00000000
00000001
00000000
00000100
00000000
00000010
00001000
00000010
00000000
00000100
00000000
,
00001000
00010000
00001000
00000000
00010000
00000000
00000100
00000000
00000010
00000100
00001000
00000000
00000001
00000000
00000100
00000000
,
00000110
00000000
00000000
00000000
00011000
00000000
00000000
00000000
00010000
00000000
00000010
00001000
00000010
00000000
00010010
00000000
,
00000000
00000000
00010000
00001000
00010000
00000000
00100000
00000000
10000000
00000000
01000000
00000000
00100000
00000000
00010000
00000000
,
01010000
00000000
00000000
00000000
11000000
00000000
00000000
00000000
00010000
00000000
10000000
01000000
10000000
00000000
10100000
00000000
,
00000000
00000000
10000000
00000000
00100000
00000000
00010000
00000000
00001000
00000000
00010000
00000010
00020000
00000000
00000000
00000000
,
00031000
00000000
00000000
00100000
00000000
00000000
00001000
00000000
00010000
00000000
00001000
00000000
00000100
00000000
00000010
00000001
,
00000010
00001000
00000100
00000010
00001000
00000000
00010000
00001000
,
00010000
00000000
00000000
00001000
00000000
00000000
00010000
00000000
00100000
01000000
00100000
00000000
10000000
00000000
01000000
00100000
,
00010000
00100000
00001000
00010000
00100000
00000000
10000000
01000000
,
00100000
00000000
00000000
00001000
00000000
00000000
00000010
00000000
00000100
00000000
00001000
00000000
00000010
00000000
00000100
00000001
,
00000200
00000000
00002300
00010000
00023000
00000000
00031000
00010000
,
00000100
00000000
00010000
00000000
00000000
00000000
00001000
00000100
00001000
00000000
00000100
00000001
00000100
00000000
00000010
00000000
,
00001000
00000000
00000001
00000010
00000100
00000000
00000000
00000000
00011000
00000000
00010000
00000000
00011000
00000000
00000000
00000000
,
00001000
00000000
00000000
00010000
00000000
00000000
00100000
00000000
01000000
00000000
10000000
00000000
01000000
00000000
00010000
10000000
,
01000000
00010000
00001000
00010000
00011000
00000000
00000110
00000000
,
00001001
00000000
00000000
00000001
00000000
00000000
00000010
00000000
00000100
00000000
00000010
00000000
00001000
00000000
00011000
00000000
,
00000000
00100000
00001000
00010000
00010100
00000000
00011000
00000000
,
00020010
00031000
00102000
00013000
,
00020100
00031000
01002000
00013000
,
00001000
00000000
00010000
00000000
00001000
00000000
00010000
00100000
00010000
00000000
00100000
01000000
00100000
00000000
10000000
00000000
,
01000000
00000000
00100000
00001000
00020000
00000000
00000000
00000000
00031000
00000000
00010000
00000000
00002000
00000000
00000000
00000000
,
00013000
00000000
00001000
00000000
00000000
00000000
00010000
00000010
00001000
00000000
00000010
00000000
00000000
00000000
00010000
00000000
,
00001000
00000100
00000002
00000000
00002003
00000000
00003100
00000100
,
00000010
00000000
00000010
00000000
00000000
00000000
00000001
00000100
00000010
00000000
00000100
00000000
00000000
00000000
00001000
00000000
,
00010000
00001000
00200000
00000000
00302000
00000000
00023000
00000000
,
00031000
00000000
00001000
00000000
00000000
00000000
00010000
00000100
00001000
00000000
00000100
00000000
00000000
00000000
00010000
00000000
,
00010000
00000000
01000000
00000000
00200000
00000000
00000000
00000000
00320000
00000000
00000000
00000000
10030000
00010000
10000000
00000000
,
01000000
00000000
01000000
00000000
00000000
00000000
00010000
00001000
00010000
00000000
00001000
00000000
00000010
00000000
00000011
00000000
,
00000000
00000001
00000100
00001000
00010000
00000000
10100000
00000000
;

//--------------- dance-double - Fred-104 ----------------
#NOTES:
     dance-double:
     Fred-104:
     Challenge:
     17:
     :
00000000
00000000
00000000
00000000
,
00000000
00000000
00000000
00000000
,
00000000
00000000
00000000
00000000
,
00000000
00000000
00000000
00000000
,
00000000
00000000
00000000
00000000
,
00000001
00000000
00001001
00000000
00000000
00000000
00000001
00000100
00000001
00000000
00000101
00000000
00000000
00000000
00000001
00000000
,
00000100
00000000
00001000
00000000
00010000
00000000
00000000
00000000
00011000
00000000
00000000
00000000
00001000
00010000
00001000
00000000
,
01000000
00000000
01010000
00000000
00000000
00000000
00010000
10000000
00010000
00000000
00110000
00000000
00000000
00000000
00010000
00000000
,
20000000
32000000
03020000
00032000
00003020
00000032
00002003
00000000
,
00003001
00000100
00000010
00000100
00001000
00010000
00001000
01000000
,
00010000
00100000
00001000
00100000
01000000
00010000
10000000
00100000
,
00010000
01000000
00100000
00010000
00001000
00010000
00000100
00000001
,
00001000
00000010
00000002
00000000
00000103
00001000
00011000
00000000
,
00010000
00000000
00011000
00000000
00000000
00000000
00001000
01000000
00001000
00000000
00000000
00010000
00000000
00000000
00011000
00000000
,
00000000
00000000
00010100
00000000
00000100
00000000
00001000
00000000
00000001
00000000
00000000
00000100
00000000
00000000
00000110
00000000
,
00000000
00000000
00000101
00000000
00000100
00000000
00001000
00000000
00010000
00000000
00000000
00000100
00000000
00000000
00010000
00000000
,
00011000
00000000
00000000
00000000
00000000
00000000
00001000
00010000
00000100
00000000
00000010
00000000
00000011
00000000
00000000
00000000
,
00001000
00000010
00001000
00000000
00000001
00000000
00000010
00000000
00000100
00001000
00000100
00000000
00010000
00000000
00001000
00000000
,
01000000
00010000
10000000
00010000
00100000
00000000
01000000
00000000
10000000
00000000
00010000
00000000
01000000
00000000
00100000
00000000
,
00010000
00001000
00010000
00000000
00000100
00000000
00001000
00000010
00000100
00000000
00000010
00001000
00000001
00000000
00000010
00000000
,
00000001
00000100
00002000
00000000
00013000
00100000
10100000
00000000
,
00010000
00100000
01000000
00000000
10000000
00000000
00010000
00000000
01000000
00100000
10000000
00000000
00010000
00000000
00100000
00000000
,
01000000
00100000
00010000
00100000
00001000
00000000
00010000
00000000
00000100
00001000
00000001
00000000
00000010
00000000
00000100
00000000
,
00001000
00000100
00010000
00000000
00001000
00000000
00100000
00010000
10000000
00000000
00100000
01000000
00010000
00000000
00100000
00000000
,
01000000
00010000
00002000
00000000
00003010
00000100
00001100
00000000
,
00000001
00000000
00000010
00000100
00000010
00000000
00000100
00001000
00000100
00000000
00010000
00001000
00010000
00000000
00012000
00000000
,
00000000
01003000
00001000
00010000
00100000
10000000
00010000
01000000
,
00100000
00000000
10000000
00010000
10000000
00000000
01000000
00100000
01000000
00000000
00100000
00010000
00100000
00000000
00102000
00000000
,
00000000
00013000
00001000
00000010
00000001
00001000
00000010
00010000
,
00001000
00100000
10000000
00010000
01000000
00100000
00010000
00100000
,
00001000
00100000
00010000
00100000
00001000
00000000
00010000
00000000
00001000
00000000
00000100
00000000
00000010
00001000
00000001
00001000
,
00000100
00000000
00000010
00000001
00001000
00000000
00000010
00000000
00010000
00001000
00010000
00000000
00001000
00100000
00010000
00000000
,
10000000
00100000
00020000
00000000
00031000
00000100
00000101
00000000
,
00001000
00000000
00000100
00000010
00000100
00000000
00010000
00001000
00010000
00000000
00001000
00100000
00001000
00000000
00021000
00000000
,
00000000
00000000
00031000
01000000
00001000
00000000
00010000
00000000
00100000
00000000
01000000
00000000
00010000
10000000
00010000
00000000
,
00100000
00000000
00001000
00010000
00001000
00000000
00010000
00000100
00010000
00000000
00000100
00001000
00000100
00000000
00000120
00000000
,
00000000
00000000
00000031
00001000
00000001
00000000
00000100
00000000
00001000
00000000
00010000
00000000
00001000
00100000
00001000
00000000
,
00010000
00000100
00000010
00001000
00000001
00000100
00001000
00000010
,
00010000
00001000
00100000
00001000
00010000
00000000
00100000
00000000
01000000
00000000
00010000
00000000
10000000
01000000
00100000
00010000
,
00100000
00000000
00001000
00010000
00000100
00001000
00000001
00000000
00000100
00000010
00000100
00000000
00000010
00001000
00000010
00000000
,
00010000
00001000
00010000
00001000
00100000
00001000
00100000
00001000
00010000
00000000
00001000
00000000
00011000
00000000
00000000
00000000
,
00002000
00000000
00000000
00103000
00000000
00000000
00001000
00000000
,
00020000
00000000
00000000
00030010
00000000
00000000
00010000
00000000
,
00002000
00000000
00000000
01003000
00000000
00000000
00001000
00000000
,
00020000
00000000
00000000
00030100
00000000
00000000
00010000
00000000
,
00002000
00000000
00013000
00200000
00000000
01300000
00020000
00000000
,
20030000
00000000
30100000
00020000
00000000
00031000
00000200
00000000
,
00002300
00000000
00013000
00002000
00000000
00003010
00000002
00000000
,
00001003
00000010
00000100
00001000
00010000
00100000
01000000
00000000
,
00010000
00000000
10000000
01000000
00010000
00001000
00010000
00100000
,
00000000
00010000
00001000
00000100
00000010
00001000
00000100
00000010
,
00000001
00000000
00001000
00000010
00010000
00100000
01000000
00001000
,
00000000
00010000
01000000
00100000
00010000
01000000
00001000
00000100
,
00000010
00000000
00001000
00000100
00000010
00000001
00000100
00001000
,
00000000
00010000
00001000
00010000
00100000
01000000
00100000
10000000
,
00010000
00000000
10000000
00100000
00010000
00001000
00000100
00000001
,
00000011
00000000
00000010
00000000
00000100
00000000
00001000
00000001
00000100
00000000
00000010
00001000
00000100
00000000
00010000
00000000
,
00001000
00000000
00011000
00000000
00000000
00000000
00001000
01000000
00001000
00000000
01001000
00000000
00000000
00000000
01010000
00000000
,
01000000
00000000
00010000
00000000
10010000
00000000
00000000
00000000
01100000
00000000
00000000
00000000
10000000
01000000
10000000
00000000
,
01000000
00000000
01100000
00000000
00000000
00000000
00100000
00001000
00010000
00000000
00011000
00000000
00000000
00000000
00010010
00000000
,
00000010
00000000
00001000
00000000
00000100
00000000
00000010
00000001
00000010
00000000
00000001
00000000
00001001
00000000
00000000
00000000
,
00000001
00000000
00000101
00000000
00000000
00000000
00000010
00001000
00000010
00000000
00010010
00000000
00000000
00000000
00010000
00000000
,
00001000
00101000
00000000
00001000
00010000
00010100
00000000
01001000
,
00001000
00000000
00010000
00000000
00100000
00000000
01000000
00010000
10000000
00000000
01000000
00000000
00100000
00000000
00001000
00000000
,
00022000
00000000
00000000
00033000
,
00001000
00000000
00010000
00000010
00010000
00000000
00000010
00001000
00000010
00000000
00010000
00001000
00010000
00000000
00002000
00000000
,
00000000
01003000
00010000
00000100
00000010
00001000
00000100
00000010
,
00001000
00000000
00010000
00001000
00010000
00000000
00001000
00100000
00001000
00000000
00010000
00000010
00010000
00000000
00002000
00000000
,
00000000
00013000
00001000
01000000
00010000
00100000
01000000
00010000
,
00001000
00000000
00100000
00010000
00100000
00000000
00001000
00010000
00001000
00000000
00010000
00000100
00010000
00000000
00002000
00000000
,
00000000
00000000
00013000
00000010
00010000
00000000
00001000
00000000
00000010
00000000
00000100
00000000
00010000
00001000
00010000
00000000
,
00001000
00000000
01000000
00010000
01000000
00000000
00001000
00010000
00001000
00000000
00100000
00010000
00100000
00000000
00002000
00000000
,
00000000
00000000
00013000
00001000
00010000
00000000
00001000
00000000
00010000
00000010
00010000
00000010
00010000
00000000
00001000
00000000
,
00100000
00000000
00010000
10000000
00100000
00000000
10000000
00010000
00100000
00000000
00010000
10000000
00100000
00000000
00020000
00000000
,
00000000
00000000
00031000
00000000
00000100
00000000
00000001
00000000
00001000
00000100
00001000
00000000
00000001
00000100
00000001
00000000
,
00001000
00000000
00000010
00010000
00001000
00000000
00010000
00000010
00001000
00000000
00000010
00010000
00001000
00000000
00020000
00000000
,
00000000
00000000
00130000
00000000
01000000
00000000
00010000
00000000
10000000
01000000
10000000
00000000
00010000
10000000
00010000
00000000
,
01000000
00000000
00010000
10000000
01000000
00000000
10000000
00010000
01000000
00000000
00010000
10000000
01000000
00000000
00020000
00000000
,
00000000
00000000
00031000
00000000
00000010
00000000
00000100
00000000
00001000
00000001
00001000
00000000
00000010
00001000
00000010
00000000
,
00010000
00000000
00001000
00100000
00010000
00000000
00100000
00001000
00010000
00000000
00001000
00100000
00010000
00000000
20000000
00000000
,
00000000
00000000
30100000
01000000
00100000
00000000
00010000
00000000
00001000
00010000
00001000
00010000
00001000
00000000
00000000
00000000
,
00010000
00000000
00000100
00001000
00000000
00000100
00001000
00000000
00000010
00000000
00000001
00000000
00000010
00000000
00000100
00000001
,
00001000
00000001
00000010
00001000
00010000
00001000
02000000
00000000
,
03010000
00000000
00100000
01000000
00000000
00100000
01000000
00000000
10000000
00000000
00100000
00000000
00010000
00000000
00100000
01000000
,
00100000
10000000
01000000
00010000
00001000
00000000
00021000
00000000
,
00031000
00000000
00010000
00000100
00000000
00010000
00000100
00000000
00000010
00000000
00000001
00000000
00000100
00000000
00000010
00000100
,
00000010
00000100
00001000
00010000
01000000
00100000
00010000
10000000
,
00100000
00000000
01000000
00000000
00100000
00000000
00010000
00001000
00010000
00000000
00000010
00001000
00000010
00000000
00010000
00000000
,
00001000
00000010
00000100
00001000
00000001
00001000
00001010
00000000
,
00000002
00000000
00000000
00000203
00000000
00000000
00002300
00000000
00013000
00000000
00001000
00000000
00000010
00000000
00001000
00010000
,
00001000
00010000
00100000
10000000
10010000
00000000
01100000
00000000
,
20010000
00000000
00000000
30020000
00000000
00000000
02030000
00000000
03100000
00000000
00010000
00000000
00001000
00000000
00011000
00000000
,
00000000
00010100
00000100
00000010
00000011
00000000
00001001
00000000
,
00000011
00000010
00000100
00000000
00010100
00010000
00001000
00000000
,
00110000
00100000
01000000
00000000
10010000
10000000
00100000
00000000
,
01000000
00000000
00010000
10000000
00010000
00000000
10000000
00000000
01000000
00100000
00010000
00100000
00001000
00000000
00010000
00000000
,
00000100
00000010
00000002
00000000
00000103
00001000
00011000
00000000
,
00010000
00000000
00011000
00000000
00000000
00000000
00001000
01000000
00001000
00000000
01001000
00000000
00000000
00000000
01010000
00000000
,
00010000
00000000
10000000
00000000
10100000
00000000
00000000
00000000
00110000
00000000
00000000
00000000
00010000
00001000
00010000
00000000
,
00001000
00000000
00011000
00000000
00000000
00000000
00010000
00000010
00010000
00000000
00010010
00000000
00000000
00000000
00001010
00000000
,
00001000
00000000
00000001
00000000
00000010
00000000
00000100
00001000
00000100
00000000
00010000
00000000
00011000
00000000
00000000
00000000
,
01001000
00000000
01001000
00000000
00000000
00000000
00010000
00000100
00010000
00000000
00010100
00000000
00000000
00000000
00101000
00000000
,
00001000
00000000
00010000
00000000
00010010
00000000
00000000
00000000
00011000
00000000
00000000
00000000
01000000
00010000
01000000
00000000
,
01010000
00000000
10010000
00000000
00000000
00000000
10000000
01000000
10000000
00000000
10010000
00000000
00000000
00000000
00011000
00000000
,
00000000
00010000
00001000
00000100
00000001
00000000
00001001
00000000
;
