#VERSION:0.83;
#TITLE:Everlasting Message;
#ARTIST:ぺのれり;
#ARTISTTRANSLIT:penoreri;
#GENRE:EPIC ORCHESTRA;
#BANNER:Everlasting Message.png;
#BACKGROUND:Everlasting Message-bg.png;
#CDTITLE:./CDTitles/SDVX III GRAVITY WARS.png;
#MUSIC:Everlasting Message.ogg;
#SAMPLESTART:45.904;
#SAMPLELENGTH:15;
#BPMS:0=230;
#TIMESIGNATURES:0=4=4,4=7=4,11=3=4,17=5=4,27=3=4,30=2=4,32=4=4;
#BGSTAGE:30;

//--------------- dance-single - Fred-104 ----------------
#NOTEDATA:;
#STEPSTYPE:dance-single;
#DESCRIPTION:Fred-104;
#DIFFICULTY:Beginner;
#METER:5;
#CREDIT:Fred-104;
#NOTES:
0000
0000
0000
0000
,
0000
0000
0000
0000
,
0000
0000
0000
0000
,
0000
0000
0000
0000
,
0000
0000
0000
0000
,
0000
0000
0000
0000
,
1000
0000
0000
0000
,
0000
0000
0000
0000
,
0000
0000
0000
0000
,
0000
0000
0000
0000
,
0001
0000
0010
0000
,
0100
0000
1000
0000
,
0002
0000
0000
0000
,
0003
0000
0000
0000
,
0002
0000
0003
0000
,
1000
0000
1000
0000
,
0001
0000
0000
0001
,
0000
0000
0001
0000
,
1000
0000
1000
0000
,
0100
0000
0100
0000
,
0010
0000
0010
0000
,
0001
0000
0001
0000
,
1000
0000
0000
1000
,
0000
0000
1000
0000
,
1001
0000
0001
0000
,
1001
0000
1000
0000
,
1001
0000
0000
0000
,
0000
0000
0000
0000
,
0000
0000
0000
0000
,
0000
0000
0000
0000
,
0000
0000
0000
0000
,
0000
0000
0000
0000
,
0000
0000
0000
0000
,
0000
0000
0000
0000
,
1000
0000
1000
0000
,
0100
0000
0100
0000
,
0001
0000
0001
0000
,
0010
0000
0010
0000
,
1000
0000
1000
0000
,
0001
0000
0001
0000
,
1000
0000
0000
0001
,
0000
0000
1000
0000
,
0001
0000
0000
1001
,
0000
0000
0000
0000
,
1000
0000
0010
0000
,
1000
0000
1000
0000
,
0001
0000
0010
0000
,
0100
0000
0100
0000
,
1000
0000
0000
0000
,
0001
0000
0000
0000
,
1001
0000
1000
0000
,
1001
0000
0001
0000
,
1000
0000
0100
0000
,
0010
0000
0100
0000
,
1000
0000
0001
0000
,
1001
0000
0000
0000
,
0001
0000
1000
0000
,
0010
0000
1000
0000
,
1001
0000
0001
0000
,
1001
0000
1000
0000
,
1001
0000
0000
0000
,
0000
0000
0000
0000
,
0001
0000
0000
0001
,
0000
0000
0001
0000
,
2002
0000
0000
0000
,
0000
0000
0000
0000
,
3003
0000
0000
0000
,
0000
0000
0000
0000
,
1000
0000
1000
0000
,
0100
0000
0100
0000
,
0001
0000
0001
0000
,
0010
0000
0010
0000
,
1000
0000
0001
0000
,
0100
0000
1000
0000
,
0010
0000
0001
0000
,
1000
0000
0001
0000
,
1001
0000
0000
0000
,
0110
0000
0000
0000
,
1001
0000
0000
0000
,
0110
0000
0000
0000
,
1001
0000
0000
0000
,
0110
0000
0000
0000
,
1000
0000
0000
0001
,
0000
0000
1000
0000
,
0001
0000
0001
0000
,
2002
0000
0000
0000
,
3003
0000
0000
0000
,
1000
0000
0001
0000
,
1000
0000
0010
0000
,
1000
0000
1000
0000
,
0001
0000
0010
0000
,
0010
0000
0001
0000
,
1001
0000
1000
0000
,
1001
0000
0001
0000
,
1000
0000
1000
0000
,
0001
0000
0010
0000
,
0100
0000
0100
0000
,
0110
0000
0000
0000
,
1000
0000
0001
0000
,
0001
0000
1000
0000
,
0001
0000
1000
0000
,
1001
0000
0000
0000
,
1000
0000
0001
0000
,
1001
0000
0000
0000
,
2002
0000
0000
0000
,
3003
0000
0000
0000
,
1000
0000
0000
0100
,
0000
0000
0001
0000
,
0001
0000
0000
0010
,
0000
0000
1000
0000
,
1000
0000
0000
0010
,
0000
0000
0001
0000
,
0100
0000
1000
0000
,
0001
0000
0001
0000
0001
0000
2002
3003
;

//--------------- dance-single - Fred-104 ----------------
#NOTEDATA:;
#STEPSTYPE:dance-single;
#DESCRIPTION:Fred-104;
#DIFFICULTY:Easy;
#METER:10;
#CREDIT:Fred-104;
#NOTES:
0000
0000
0000
0000
,
0000
0000
0000
0000
,
0000
0000
0000
0000
,
0000
0000
0000
0000
,
0000
0000
0000
0000
,
0000
0000
0000
0000
,
0001
0000
0000
1000
,
0000
0100
0000
0000
0010
0000
0001
0000
,
1000
0000
0000
0010
0000
0000
0100
0000
,
0000
0001
0000
0000
1000
0000
0100
0000
,
0110
0000
0002
0013
,
0200
0310
0002
1003
,
0010
0000
0100
0001
0100
0000
0010
1000
,
0010
0000
1000
0100
1000
0000
0001
0000
,
2000
3100
0020
0130
,
2000
3001
0200
0310
,
0110
0000
0000
0010
0000
0000
0010
0000
,
0000
0100
0000
0000
0100
0000
0001
0000
,
1000
0100
1000
0100
,
0001
0100
1000
0001
,
1000
0010
1000
0010
,
0001
0010
1000
0001
,
1001
0000
0000
1000
0000
0000
0100
0000
,
0000
0010
0000
0000
0001
0000
1000
0000
,
0001
0010
0001
0010
,
1000
0100
1000
0100
,
0001
0000
1000
0100
,
0010
0000
0001
0000
,
1000
0000
0001
0100
,
0010
0000
0100
0000
,
0001
0000
1000
0001
,
0010
0000
0100
0000
,
1000
0000
0001
0100
,
0010
0000
2002
3003
,
0001
0010
0100
1000
,
0010
0100
0001
1000
,
0100
0010
0001
0100
,
0010
1000
0001
0010
,
0011
0000
0000
0001
0000
0000
1000
0000
,
0010
0100
0001
1000
,
1100
0000
0000
0001
0000
0000
0101
0000
,
0000
1000
0000
0000
0001
0000
0100
0000
,
0010
0000
0000
0100
0000
0000
0110
0000
,
0000
0001
1000
0000
0100
0000
0010
0000
,
0001
0000
0000
0001
0000
0000
1000
0000
,
0010
0100
0001
1000
,
0100
0000
0000
0010
0000
0000
0001
0000
,
1000
0000
0000
0001
0001
0000
0000
0000
,
1000
0000
0000
0100
0010
0000
0010
0000
,
0001
0000
0000
1000
0000
0000
0001
0000
,
1001
0000
0110
0000
,
1001
0000
0001
1000
,
0001
0000
0000
1000
0000
0000
0010
0000
,
0100
0100
0001
1000
,
0100
0010
0001
1000
,
0001
0000
0000
0001
0000
0000
0001
0000
,
0100
0000
0000
0010
0000
0000
0100
0000
,
0001
1000
0100
0010
,
0011
0000
1100
0000
,
1010
0000
0101
0000
,
2002
0000
0000
0000
,
0000
0000
0000
3003
,
0001
0000
0000
0100
0000
0000
1000
0000
,
0000
0010
0000
0000
0001
0000
1000
0000
,
0002
0000
0000
0003
,
2000
0000
0000
3000
,
1001
0000
0000
0000
,
1001
0000
1001
0000
,
0001
0000
0000
0010
0000
0000
0100
0000
,
0000
1000
0000
0000
0010
0000
0100
0000
,
0001
0000
0000
1000
0000
0000
0100
0000
,
0000
0010
0000
0000
0100
0000
1000
0000
,
0001
1000
0001
0100
,
1000
0100
1000
0100
,
0001
1000
0001
0010
,
1000
0010
1000
0010
,
0001
0000
0000
1000
0000
1000
0010
0000
,
0110
0100
0001
1000
,
0100
0010
0001
1000
,
0010
0100
0001
1000
,
1001
0000
0000
0001
0000
0000
0100
0000
,
0010
1000
0100
1000
,
0001
0000
0000
0100
0000
0000
0010
0000
,
0000
1000
0000
0000
0100
0000
0010
0000
,
0001
1000
0010
0100
,
0220
0000
0000
0330
,
1001
0000
0000
0001
0000
0000
1000
0000
,
0010
1000
0100
0010
,
0001
0000
0000
1000
0000
0000
0001
0000
,
0100
0000
0000
0010
0010
0000
0000
0000
,
1000
0000
0000
0001
0000
0000
1000
0000
,
0100
0000
0000
0010
0000
0000
0001
0000
,
1000
0010
1000
0001
,
0010
0100
1000
0001
,
1000
0000
0000
0001
0000
0000
0100
0000
,
0010
1000
0100
0010
,
0001
1000
0001
0100
,
0001
0000
0000
0010
0000
0000
0010
0000
,
0100
0000
0000
1000
0000
0000
0001
0000
,
0100
0010
1000
0100
,
0010
0010
0001
0001
,
1000
0000
0001
0100
0000
0001
0010
0000
,
0100
0000
0000
1000
0000
0000
0001
0000
,
0100
0100
0010
0010
,
1000
0100
0010
0001
,
2000
0000
0002
3003
,
0001
0000
0000
0010
0000
0000
0100
0000
,
0000
1000
0000
0000
0010
0000
0100
0000
,
0001
0000
0000
0100
0000
0000
0010
0000
,
0000
1000
0000
0000
0100
0000
0010
0000
,
0001
0000
0000
1000
0000
0000
0100
0000
,
0000
0010
0000
0000
0001
0000
1000
0000
,
0001
0000
0000
0100
0000
0000
0010
0000
,
0000
0010
0100
0000
0010
0000
0000
0110
;

//--------------- dance-single - Fred-104 ----------------
#NOTEDATA:;
#STEPSTYPE:dance-single;
#DESCRIPTION:Fred-104;
#DIFFICULTY:Medium;
#METER:14;
#CREDIT:Fred-104;
#NOTES:
0000
0000
0000
0000
,
0000
0000
0000
0000
,
0000
0000
0000
0000
,
0000
0000
0000
0000
,
0000
0000
0000
0000
,
0000
0000
0000
0000
,
1000
1001
0000
0000
0000
0000
0000
0000
,
0000
0000
0000
0000
,
0000
0000
0000
0000
,
0000
0000
0000
0000
,
0011
0001
1000
0010
,
0100
0000
0001
0000
1000
0000
0001
0010
,
0100
0000
1000
0001
0100
0010
1000
1000
,
0001
0010
0100
1000
0001
0001
0100
0010
,
0100
0001
1000
0100
,
0001
0000
0100
0000
1000
0001
0100
0010
,
1000
0000
0001
0010
0000
1000
0010
0000
,
0001
0100
0000
1000
0100
0001
1000
0000
,
0001
0010
0001
0010
0100
1000
0100
1000
,
0001
1000
0001
0100
0010
1000
0001
0001
,
0010
0100
0010
0100
1000
0001
0100
0001
,
1000
0100
0010
0001
0010
0100
1000
0000
,
1100
0000
0000
0011
0000
0000
1010
0000
,
0000
0101
0000
0000
0110
0000
1001
0000
,
0011
1000
1010
0001
,
0101
1000
1100
0001
,
1001
0000
1000
0001
,
0100
0000
0010
0000
,
1000
0000
0001
0010
,
0100
0000
1000
0000
,
0001
0000
0100
0010
,
0100
0000
0000
0100
0001
0000
0000
0001
,
1000
0000
0001
1000
,
0001
0000
0000
1000
2002
0000
3003
0000
,
0001
0000
1100
0010
,
0011
0000
1001
0000
,
0110
0000
0101
0010
,
1010
0000
1001
0000
,
1100
0000
0000
0101
0000
0000
1100
0000
,
0110
0011
0101
1001
,
0011
0000
0000
1010
0000
0000
0101
0000
,
0000
1100
0000
0000
0110
0000
1001
0000
,
1000
0100
0000
0001
0100
0000
1000
0001
,
0000
0100
0010
1000
0001
0010
0100
0000
,
1000
0001
1000
0100
0000
1000
0001
0100
,
0010
1000
0010
1000
0010
0100
0001
0000
,
1000
0100
0010
0001
0000
1000
0001
0000
,
0100
0000
0010
1000
1001
0000
0000
0000
,
1000
0100
0001
0100
1000
0000
0001
0000
,
1000
0100
0001
0100
1000
0001
1000
0000
,
0110
0000
0001
0010
0100
0000
1000
0010
,
0100
0000
0001
0010
0100
1000
0001
0000
,
0100
0001
1000
0001
0000
0010
0100
1000
,
0100
0010
0100
0010
0001
1000
0010
0000
,
0110
0000
0000
0000
1001
0000
0000
0000
0001
0000
0000
0010
0000
0000
0100
0000
,
1100
0000
0001
0100
0000
0010
1000
0000
,
0110
0000
1000
0100
0000
0010
0001
0000
,
1001
0000
0001
0100
0010
1000
0001
0000
,
0010
0000
0001
0100
1000
0000
0100
0001
,
0010
0000
1000
0010
0001
0010
0100
1000
,
2002
0000
0000
0000
,
0000
0000
0000
3003
,
1000
0100
0000
0001
0100
0000
0010
1000
,
0000
0010
0001
0000
1000
0001
1000
0000
,
2002
0000
0000
0000
,
0000
0000
0000
0000
,
3003
0000
0000
0000
,
0110
0000
1001
0000
,
0001
0010
0000
1000
0010
0000
0001
1000
,
0000
0010
0100
0000
0001
1000
0100
0000
,
0010
0100
0000
1000
0010
0000
0001
0010
,
0000
0100
0010
0000
1000
0001
1000
0000
,
0001
0100
0010
0100
0001
0100
0010
1000
,
0001
0010
0100
0010
0001
0010
0100
1000
,
0001
0100
1000
0100
0001
0100
1000
0100
,
0010
0001
0010
1000
0001
0010
0100
1000
,
1100
0000
0001
0100
0000
0001
0010
0000
,
0011
1100
0101
1010
,
0001
0010
0100
0100
1000
0010
0100
0100
,
0010
1000
0100
0010
0001
1000
0010
0000
,
1010
0000
0001
0100
0000
1000
0100
0000
,
0001
1000
0100
0010
0001
1000
0001
0000
,
1000
0010
0000
0001
0010
0000
0100
1000
,
0000
0100
0001
0000
1000
0100
0010
0001
,
0100
0010
1000
0010
0100
0001
0010
0100
,
2000
0000
0000
3000
,
1001
0000
0000
0001
0100
1000
0100
0001
,
0000
1000
0100
0000
0010
0100
1000
0000
,
0001
0100
0010
1000
0100
0010
0100
1000
,
0001
1000
0010
0100
0101
0000
0000
0000
,
1000
0100
0001
0100
0010
0100
1000
0000
,
0001
0100
0010
0100
1000
0100
0001
0000
,
1100
0001
0101
1000
,
1001
0000
0001
0010
0100
1000
0001
1000
,
0010
0100
0010
1000
0100
0010
0001
0000
,
0011
1001
1010
1001
,
0110
0000
0000
0000
1001
0000
0000
0000
1000
0000
0000
0100
0000
0000
0010
0000
,
0011
0000
0001
0100
0000
1000
0100
0000
,
0001
1000
0100
0010
0001
1000
0010
0000
,
0100
0001
0010
0100
1000
0001
0100
0000
,
0101
0011
1100
1010
,
0001
0100
1000
0001
0010
1000
0001
0000
,
0110
0000
1000
0100
0000
0010
0001
0000
,
0011
1010
0101
1100
,
2001
3100
1002
0013
,
2000
0000
0002
3003
,
1000
0100
0000
0001
0100
0000
1000
0100
,
0000
0001
0100
0000
1000
0001
1000
0000
,
0001
0100
0000
1000
0100
0000
0001
0100
,
0000
1000
0100
0000
0001
1000
0001
0000
,
1000
0010
0100
0001
0010
0100
1000
0100
,
0010
0001
0100
0010
1000
0001
1000
0000
,
0001
0010
1000
0001
0100
1000
0001
0010
,
0000
0100
1000
0001
1000
0001
1000
1001
;

//--------------- dance-single - Fred-104 ----------------
#NOTEDATA:;
#STEPSTYPE:dance-single;
#DESCRIPTION:Fred-104;
#DIFFICULTY:Hard;
#METER:18;
#CREDIT:Fred-104;
#NOTES:
0000
0000
0000
0000
,
0000
0000
0000
0000
,
0000
0000
0000
0000
,
0000
0000
0000
0000
,
0000
0000
0000
0000
,
0000
0000
0000
0000
,
1001
1001
0000
0000
0000
0000
0000
0000
,
0000
0000
0000
0000
,
0000
0000
0000
0000
,
0000
0000
0000
0000
,
1020
1030
0200
0310
,
0002
0000
1003
0000
0002
0000
0103
0010
,
0110
0000
0000
0000
0001
0000
1000
0000
0001
0010
0001
0010
0100
1000
0100
0000
,
1000
0100
1000
0100
1000
0000
0001
1000
,
1002
1003
0010
0100
,
0002
0000
0000
0000
1003
0000
0000
0000
0200
0000
0310
0000
0001
0000
1000
0001
,
1000
0000
0001
0011
0000
1000
1010
0000
,
0001
0000
0101
0000
0000
0000
1000
0000
1100
0000
0100
0000
0010
0001
0010
0001
,
0010
0001
1000
0010
0100
0100
0100
0001
,
1000
0100
0010
0001
1000
0010
0100
0010
,
1000
0001
0010
0100
0010
0001
1000
0010
,
1000
0000
0001
0000
0100
0000
0010
0000
1000
0000
0001
0000
0010
0100
1000
0000
,
0001
0100
0001
0100
0001
0000
1000
0100
1000
0100
1000
0000
0001
0010
0001
0010
,
0001
0000
0000
0000
0000
0000
1000
0000
0000
0010
0000
0000
1000
0000
0000
0010
0000
0000
1000
0000
0000
0000
0000
0000
0001
0000
0000
0000
0100
0000
0000
0000
0010
0000
0000
0000
1010
0000
0000
0000
0000
0000
0000
0000
0000
0000
0000
0000
,
0001
0010
0100
1000
0100
0010
0001
1000
0010
0100
0001
0100
,
0010
1000
0001
0010
0100
0010
1000
0010
0100
0010
0001
1000
,
0001
0000
1000
0100
,
0010
0000
0001
0000
,
1000
0000
0001
0100
,
1000
0000
0100
0000
,
0001
0000
1000
0100
,
0010
0000
0000
0010
0001
0000
0000
0001
,
1000
0000
0001
0100
,
0010
0000
0000
1000
2002
0000
3003
0000
,
0001
0010
0100
1000
0100
0010
0001
1000
0010
0100
0001
1000
,
0001
0100
0010
1000
0010
0100
0001
1000
0100
0010
0001
1000
,
0001
0010
1000
0010
0100
1000
0010
0100
1000
0100
0001
1000
,
0100
0001
0100
0010
0001
0100
0010
0001
0010
1000
0001
1000
,
0001
0100
1000
0001
1000
0100
0001
1000
,
1100
1000
1010
0000
0101
0001
0011
0000
,
1000
1100
0000
0001
0101
0000
0001
0011
,
0000
1000
1010
0000
0110
0000
1001
0000
,
0001
0010
0001
0010
0100
0000
1000
0010
1000
0010
0100
0000
0001
1000
0001
0000
,
0000
0100
0100
0100
0010
0010
0100
0100
,
0001
1000
0010
0000
0100
0000
0001
1000
0100
0000
0010
0000
0100
1000
0001
0000
,
1000
0100
0001
0100
0010
1000
0010
0100
,
1000
0001
0010
0000
0100
0000
1000
0001
0100
0000
0010
0000
1000
0001
0010
0000
,
0100
0000
0010
0000
0001
0000
0100
0000
0110
0000
0000
0000
0001
1000
0001
0000
,
1000
0100
0010
0000
0001
0000
1000
0010
0100
0000
0001
0000
1000
0000
0000
0000
,
0001
0010
0100
0000
1000
0000
0001
0100
0010
0000
1000
0000
0001
0000
0000
0000
,
1000
0100
0001
1000
0001
0100
1000
0001
,
1000
0000
0100
0000
0010
0000
0001
0000
1000
0001
1000
0001
1000
0000
0000
0000
,
0001
0010
0100
0000
1000
0000
0001
1000
0010
0000
0100
0000
0010
1000
0001
0000
,
1000
0100
0001
1000
0010
0100
0010
0001
,
1001
0000
0000
0000
0110
0000
0000
0000
1010
0000
0000
0101
0000
0000
1100
0000
,
0011
0000
0100
0110
0000
1000
1001
0000
,
1000
0001
0100
0000
0010
0000
1000
0001
0010
0000
0100
0000
0010
0001
1000
0000
,
1100
0101
0011
1010
,
1000
0000
0100
0000
0010
0001
0010
0001
0010
0000
0100
0000
1000
0001
1000
0001
,
1000
0000
0000
0000
0000
0000
0001
0000
0000
0000
0000
0000
0100
0000
0000
0001
0000
0000
0100
0000
0000
0001
0000
0000
0100
0000
0000
0000
0001
0000
0000
0000
1000
0000
0000
0000
0100
0000
0000
0000
0010
0000
0000
0000
0001
0000
0000
0000
,
1000
0010
1000
0010
0001
1000
0001
1000
,
0100
0001
0100
0001
1000
0100
0010
0001
,
0011
1001
0000
1010
1001
0000
0101
1001
,
0000
0000
0000
1100
0000
0000
1001
0000
0000
0000
0000
0000
0001
0000
0010
0000
0100
0000
1000
0000
0100
0000
0010
0000
,
0001
0100
0001
0100
1000
0001
1000
0001
,
0010
0000
1000
0000
0010
0000
1000
0000
0100
0000
0010
0000
0001
0000
1000
0001
,
1000
0000
0000
0000
,
0110
0000
1001
0000
,
0001
0010
0100
1000
0100
0010
0001
1000
0010
0100
0001
1000
,
0001
0100
0010
0001
0010
0100
1000
0100
0001
1000
0001
1000
,
0010
0100
0001
1000
0100
0010
0100
1000
0001
0100
0010
1000
,
0001
0010
0100
0010
1000
0010
0001
0010
0100
1000
0001
1000
,
0010
0000
0100
0000
0001
0000
0010
0100
1000
0000
0001
0000
0100
0000
0001
1000
,
0100
1000
0100
1000
0001
0100
0001
0100
0010
1000
0010
1000
0001
0010
0100
0000
,
1000
0001
0100
1000
0100
0010
0100
0001
1000
0100
0010
0100
,
0001
0100
1000
0001
0010
0100
1000
0100
0010
0001
1000
0010
,
0110
0000
0001
0101
0000
1000
1001
0000
,
1100
0000
0101
0001
0011
0000
1010
0000
,
1000
0100
0010
1000
0001
0100
0010
0001
,
1000
0010
0100
1000
0100
0001
0010
0100
,
1100
0000
0001
0101
0000
1000
1010
0000
,
0001
0010
0100
1000
0001
0100
0010
1000
,
0001
0010
0100
0000
0100
0000
1000
0010
0100
0000
0100
0000
0001
0010
0100
0000
,
0100
0000
1000
0010
0100
0000
0100
0000
0001
1000
0001
1000
0100
0010
0100
0010
,
0001
1000
0010
0001
0010
0100
0010
1000
,
0001
1000
0100
0010
0001
1000
0100
0010
0001
0010
0100
1000
0001
0010
0100
1000
,
0001
0000
0000
0100
0100
0001
1000
1001
,
0000
0000
0001
0010
0100
0000
1000
0000
0001
0000
0100
0010
1000
0000
0001
0000
,
0010
0100
0010
0000
0001
0000
1000
0010
0100
0000
0001
0000
1000
0100
0010
0000
,
0001
0000
1000
0000
0010
0000
0100
0000
0110
0000
0000
0000
0001
1000
0001
1000
,
0001
0010
0100
0000
1000
0000
0001
0100
0010
0000
1000
0000
0100
0000
0010
0000
,
0001
0100
0010
0000
1000
0000
0001
0010
0100
0000
1000
0000
0010
0000
0100
0000
,
0101
0000
0000
0000
1000
0100
1000
0100
1000
0000
0000
0000
0001
0100
0001
0100
,
0001
0000
0000
1000
0000
0000
0001
0000
0000
1000
0000
0000
0100
0000
0010
0000
0001
0000
1000
0000
0010
0000
0100
0000
,
0110
0000
0000
1000
0001
0100
0010
1000
,
1010
0000
0101
0000
1000
0100
0110
0000
,
0001
0000
0100
0000
1000
0000
0100
0000
0001
0000
0000
0001
0000
0000
0001
0000
,
1001
0000
0001
0011
0000
1000
1010
0000
,
0001
1000
0010
0000
0100
0000
0010
1000
0001
0000
0010
0000
0100
1000
0001
0000
,
0100
0001
0100
0000
0010
1000
0010
0000
1000
0100
1000
0000
0001
0010
0001
0000
,
0011
0101
1010
1100
,
1001
1000
0100
0110
0010
0001
0011
0000
,
0001
1000
0100
0000
0010
0000
0001
1000
0010
0000
0100
0000
0001
1000
0100
0000
,
1100
0101
0011
1010
,
1000
0010
0100
1000
0100
0010
0001
0010
1000
0001
0010
0100
,
2000
0000
0002
3003
,
1000
1100
0000
0001
0101
0000
1000
1010
,
0000
0000
0001
0000
0011
0000
0000
0000
1000
0100
1000
0000
0001
0100
0001
0000
,
1000
1010
0000
0001
0011
0000
1000
1100
,
0000
0000
0001
0000
0101
0000
0000
0000
1000
0010
1000
0000
0001
0010
0001
0000
,
1000
0010
0001
1000
0100
0001
1000
0100
,
0001
0000
1000
0000
0010
0000
0001
0000
0010
0100
1000
0000
0001
1000
0010
0000
,
0100
0001
1000
0001
0010
0000
0100
0010
0001
1000
0010
0000
0100
0001
1000
0000
,
0000
1001
1001
1001
1001
1001
1001
1001
;

//--------------- dance-single - Fred-104 ----------------
#NOTEDATA:;
#STEPSTYPE:dance-single;
#DESCRIPTION:Fred-104;
#DIFFICULTY:Challenge;
#METER:19;
#CREDIT:Fred-104;
#NOTES:
0000
0000
0000
0000
,
0000
0000
0000
0000
,
0000
0000
0000
0000
,
0000
0000
0000
0000
,
0000
0000
0000
0000
,
0000
0000
0000
0000
,
1001
0000
1001
0000
1000
0001
1000
0001
1000
0001
1000
0001
1000
0000
0100
0000
,
0010
0001
0010
0100
1000
0010
0100
0001
,
1000
0100
0001
1000
0010
0001
1000
0010
,
0001
1000
0100
0001
0010
0100
0110
0000
,
0002
0100
2003
0010
,
3200
0000
0001
0000
2300
0000
3001
1000
,
1100
0000
0000
0000
0010
0000
0001
0000
1000
0010
0100
0001
1000
0010
0100
0001
,
0100
0010
0100
0010
0100
0000
0101
0001
,
2000
0010
0001
0100
,
3020
0000
0000
0000
0001
0000
0000
0000
2030
0000
0000
0000
3001
0000
0010
0100
,
1000
0000
1100
0101
0000
0011
1010
0000
,
0110
0000
1001
0000
0000
0000
1001
0000
0001
0010
0100
1000
0001
0100
0010
1000
,
0001
1000
0010
0001
0010
1000
0010
0100
,
0001
1000
0100
0001
0100
0010
1000
0010
,
0001
1000
0010
0001
0010
0100
0010
1000
,
0001
0000
0010
0000
0100
0000
1000
0000
0010
0000
0100
0000
0001
1000
0100
1000
,
0001
0010
0100
1000
0001
0000
1000
0010
0100
0001
1000
0000
0001
1000
0100
0010
,
0001
0000
0000
0000
0000
0000
0010
0000
0000
0100
0000
0000
1000
0000
0000
0001
0000
0000
0100
0000
0000
0000
0000
0000
0001
0000
0000
0000
1000
0000
0000
0000
0001
0000
0000
0000
1000
0000
0000
0000
0000
0000
0000
0000
0000
0000
0000
0000
,
1000
0100
0001
1000
0010
0001
1000
0010
0001
1000
0100
0001
,
0010
0100
0001
1000
0010
0001
1000
0010
0100
1000
0001
0010
,
1000
0000
0100
0010
,
0001
0000
1000
0000
,
0001
0000
0100
0010
,
1000
0000
0100
0000
,
0010
0000
0001
1000
,
0010
0000
0000
1000
0100
0000
0000
0100
,
0010
0000
0001
1000
,
0001
0000
0000
0000
0000
0000
0000
0000
0000
1000
0000
0000
0001
0000
0001
0000
0100
0000
1000
0000
1000
0000
0100
0000
,
0001
0010
0100
0001
0100
1000
0001
0100
1000
0100
0010
1000
,
0100
0010
1000
0010
0001
1000
0010
0001
0010
0100
0001
1000
,
0001
0100
1000
0100
0010
0100
0001
0100
0010
0100
1000
0100
,
0001
0010
1000
0010
0100
0010
0001
0010
0100
0010
1000
0010
,
0001
0010
0100
1000
0001
0000
0100
0001
1000
0001
0010
0000
0100
0010
0001
1000
,
0010
0100
0010
1000
0010
0100
0010
1000
0001
0010
0100
1000
0001
0000
0000
0000
,
1100
0101
0000
0011
1010
0000
1010
0011
,
0000
0000
0101
0000
1100
0000
0000
0000
1000
0010
0100
0001
0100
0010
1000
0000
,
0001
0010
0100
1000
0001
0000
1000
0010
0100
0001
1000
0000
1001
0000
1001
0000
,
0000
0000
1100
0000
0100
0010
0100
0010
0001
1000
0100
1000
0001
0100
0010
1000
,
0001
0010
0100
0000
1000
0000
0001
0100
0010
0000
1000
0000
0001
0010
0100
0000
,
1000
0001
0100
0000
0010
1000
0100
0000
0010
0001
1000
0000
0010
1000
0001
0000
,
0010
0100
1000
0000
0001
0000
0100
0001
0010
0000
0001
0000
0010
0100
1000
0000
,
0001
0000
0100
0010
1000
0010
0100
0000
0101
0000
0001
0000
1000
0100
0010
0001
,
1000
0010
0100
0010
1000
0000
0001
0010
0100
1000
0001
0000
0100
0001
0010
0000
,
0100
0010
0001
1000
0010
0000
0100
0001
1000
0100
0010
0000
0001
1000
0010
0000
,
1010
0000
0010
1000
0001
0000
1001
0000
0011
0000
0010
0001
1000
0000
1001
0000
,
0001
0100
0001
0100
0010
0000
1000
0000
0001
0010
0100
1000
0002
0000
0000
0000
,
1003
0010
0100
0001
0100
0000
0010
1000
0001
0010
0001
0000
1000
0001
0100
0000
,
0010
1000
0001
0000
0010
0100
1000
0000
0100
0010
0001
0000
1000
0010
0100
0000
,
0101
0000
0001
0000
1001
0000
1000
0000
1100
0000
0000
0101
0000
0000
1010
0000
,
0011
0000
0001
0010
0100
0000
1100
0000
0000
0000
0101
0000
1001
0000
0000
0000
,
0001
0010
0100
0000
1000
0000
0010
0100
0001
0000
1000
0000
0100
0010
0001
0000
,
1001
1000
1010
0010
0110
0100
0101
0001
,
1000
0100
0010
0001
1000
0001
1000
0001
1000
0010
0100
0001
1000
0001
1000
0001
,
0010
0000
0000
0100
0000
0000
1000
0000
0000
0001
0000
0000
0100
0000
0000
0010
0000
0000
0100
0000
0000
0010
0000
0000
0100
0000
0000
0000
0001
0000
0000
0000
1000
0000
0000
0000
0100
0000
0000
0000
0010
0000
0000
0000
0001
0000
0000
0000
,
2002
0000
0000
0000
,
0000
0000
0000
3003
,
0011
1010
0000
1100
0101
0000
0101
1100
,
0000
0000
0000
1010
0000
0000
0011
0000
0000
0000
0000
0000
1000
0000
0100
0000
0001
0000
1000
0000
0010
0000
0001
0000
,
1000
0100
0010
1000
0001
0100
0010
0001
,
1000
0000
0000
0010
0000
0000
0001
0000
0000
1000
0000
0000
0100
0000
0000
0010
0000
0000
1000
0000
0000
0001
1000
0001
,
1000
0000
0000
0000
,
1001
0000
0000
0000
0000
0000
0000
0000
0000
0000
0001
1000
0001
0000
0100
0000
1000
0000
0001
0000
0010
0000
1000
0000
,
0001
0100
0010
1000
0100
0010
0001
1000
0010
0100
0010
1000
,
0001
0010
0100
1000
0010
0100
0001
1000
0100
1000
0001
0100
,
0010
1000
0010
0100
0010
0001
0010
0100
0001
1000
0100
1000
,
0001
1000
0100
0010
0100
0001
0100
0010
0001
0010
0100
1000
,
0001
0000
0100
0000
0010
1000
0100
0010
0100
0000
1000
0000
0001
0100
0010
1000
,
0100
0010
0001
1000
0100
0010
0001
1000
0001
0100
0010
1000
0010
0100
0001
1000
,
0010
0100
1000
0001
0010
0100
0001
0010
1000
0001
0100
1000
,
0001
0100
0010
0001
1000
0100
0001
1000
0100
0001
1000
0010
,
0011
0000
0000
0000
1010
0000
0101
0000
0000
0000
0001
1000
0001
0000
0000
0000
,
0110
0000
0000
0000
1001
0000
0001
0010
0100
1000
0100
1000
0100
0000
0000
0000
,
1001
0000
0001
0100
0110
0000
1010
0000
,
0001
0010
0100
0001
1000
0010
0001
1000
0010
0001
1000
0100
,
0010
0000
1010
0101
0000
1100
0011
0000
,
0001
0000
1000
0000
0001
0000
0100
0010
1000
0000
0001
0000
0010
0100
1000
0000
,
0001
0010
0100
0000
1100
0000
1000
0010
0100
0000
0101
0000
0001
0100
0010
0000
,
1010
0000
1000
0100
0010
0000
0011
0000
1000
0010
0100
0001
1000
0001
0100
0010
,
1000
0000
0001
1000
0100
0010
0001
0010
0100
0000
1000
0000
0001
0000
1000
0000
,
0010
1000
0001
0100
0010
1000
0001
0100
0010
1000
0001
0010
0100
1000
0001
0010
,
0100
0000
0000
0000
0000
0000
1000
0100
0010
0100
1000
0001
0100
0001
1000
0000
,
0000
0000
0001
1000
0010
0000
0100
0001
1000
0000
0100
0010
0001
1000
0010
0000
,
1000
0001
0010
0000
0100
0000
1000
0010
0100
0000
0001
0000
0010
0001
1000
0000
,
0001
0000
0100
0001
0010
0000
0100
1000
0001
0000
0100
0000
0010
1000
0010
0100
,
0001
1000
0100
0010
0100
0000
1000
0001
0100
0010
1000
0000
0001
0010
0100
0000
,
1000
0001
0100
0001
1000
0000
0100
0010
0001
1000
0010
0000
0100
0010
1000
0001
,
0010
0000
0000
0000
0001
0100
0010
1000
0001
0000
0000
0000
1000
0100
0010
0001
,
1000
0000
0000
1000
0000
0000
0001
0000
0000
0001
0000
0000
1000
0000
0100
0000
0001
0000
1000
0000
0010
0000
0001
0000
,
1001
1000
0000
0100
0110
0010
0001
1000
,
0001
0000
0000
0010
0000
0000
0100
0000
0000
1000
0000
0000
0001
0000
0100
0000
0010
0000
1000
0000
0001
0000
1000
0000
,
0001
0000
0000
0000
0100
0000
0000
0000
1000
0000
0000
0000
0001
0000
0000
0000
0010
0000
0000
0000
1000
0000
0000
0000
1001
0000
0000
0000
0000
0000
0000
0000
0000
0101
0000
0000
0000
0000
0000
0000
0000
0000
1100
0000
0000
0000
0000
0000
,
0011
0000
0000
0000
1010
0000
1001
0000
0000
0000
1000
0001
1000
0100
0010
0001
,
1000
0010
0100
0010
1000
0000
0100
0010
0001
1000
0001
0000
1000
0001
0010
0000
,
0100
1000
0001
1000
0100
0010
0001
0000
1000
0010
0100
0001
0100
0010
1000
0000
,
1100
0100
0110
0010
0011
0001
1001
1000
,
1010
0000
0100
0000
0001
0000
0011
0000
0100
0000
1000
0000
0001
1000
0001
0000
,
0010
0100
1000
0001
0100
0010
1000
0010
0100
0001
1000
0100
0010
0001
1000
0000
,
0001
0100
0010
0100
1000
0001
0010
1000
0001
0010
0100
1000
,
0001
0010
1000
0001
0100
0001
1000
0010
0001
1000
0010
0100
,
0002
0000
2000
3003
,
1100
1001
0000
0101
1001
0000
1010
1001
,
0000
0000
0011
0000
1001
0000
0000
0000
1000
0100
0010
0000
0001
0010
0100
0000
,
1100
0101
0000
1010
0011
0000
1010
0101
,
0000
0000
1100
0000
0011
0000
0000
0000
1000
0010
0100
0000
0001
0100
0010
0000
,
1000
0100
0010
0001
1000
0000
0001
0010
0100
0010
0001
0000
1000
0001
0010
0001
,
1000
0000
0010
0100
0001
1000
0001
0000
1000
0010
0100
0001
0100
0010
1000
0000
,
0001
0010
0100
1000
0100
0010
0001
1000
0001
0100
0010
1000
0010
0100
0001
1000
,
0001
0011
0110
1100
1010
0101
0110
1001
;

//--------------- dance-double - Fred-104 ----------------
#NOTEDATA:;
#STEPSTYPE:dance-double;
#DESCRIPTION:Fred-104;
#DIFFICULTY:Easy;
#METER:10;
#CREDIT:Fred-104;
#NOTES:
00000000
00000000
00000000
00000000
,
00000000
00000000
00000000
00000000
,
00000000
00000000
00000000
00000000
,
00000000
00000000
00000000
00000000
,
00000000
00000000
00000000
00000000
,
00000000
00000000
00000000
00000000
,
10000000
00000000
00000000
00010000
,
00000000
10000000
00000000
00000000
01000000
00000000
00010000
00000000
,
00001000
00000000
00000000
00010000
00000000
00000000
00000100
00000000
,
00000000
00000010
00000000
00000000
00000001
00000000
00001000
00000000
,
00001001
00000000
00000002
00000103
,
00002000
00013000
02000000
13000000
,
00010000
00000000
10000000
01000000
10000000
00000000
00100000
00010000
,
00100000
00000000
00010000
00001000
00010000
00000000
00000010
00000000
,
00002000
00003100
00000020
00000031
,
00000200
00001300
00020000
00031000
,
00011000
00000000
00000000
00001000
00000000
00000000
01000000
00000000
,
00000000
00001000
00000000
00000000
00010000
00000000
00001000
00000000
,
00100000
00010000
00100000
01000000
,
10000000
00010000
01000000
00100000
,
00010000
00001000
00010000
00000010
,
00001000
00000100
00000010
00000001
,
00001001
00000000
00000000
00000001
00000000
00000000
00000100
00000000
,
00000000
00001000
00000000
00000000
00010000
00000000
00001000
00000000
,
00011000
00000000
00101000
00000000
,
00010010
00000000
01001000
00000000
,
01100000
00000000
10000000
01000000
,
00100000
00000000
00001000
00000000
,
00010000
00000000
00000010
00001000
,
00000010
00000000
00000100
00000000
,
00000001
00000000
00001000
00000100
,
00000010
00000000
00001000
00000000
,
00010000
00000000
00001000
01000000
,
00001000
00000000
00022000
00033000
,
00001000
00010000
00001000
00010000
,
00100000
10000000
00100000
10000000
,
01000000
00010000
01000000
00010000
,
00001000
00010000
00000100
00010000
,
00011000
00000000
00000000
00001000
00000000
00000000
01000000
00000000
,
00010000
00100000
01000000
10000000
,
00010000
00000000
00000000
01000000
00000000
00000000
10000000
00000000
,
00000000
01000000
00000000
00000000
00010000
00000000
10000000
00000000
,
01000000
00000000
00000000
00010000
00000000
00000000
00001000
00000000
,
00000000
00010000
00001000
00000000
00010000
00000000
00010000
00000000
,
00011000
00000000
00000000
00010000
00000000
00000000
00001000
00000000
,
01000000
00010000
00100000
01000000
,
10000000
00000000
00000000
00100000
00000000
00000000
01000000
00000000
,
00100000
00000000
00000000
00010000
00001000
00000000
00000000
00000000
,
00010000
00000000
00000000
00001000
00010000
00000000
00000010
00000000
,
00001000
00000000
00000000
00000100
00000000
00000000
00000010
00000000
,
00000001
00000100
00001000
00000100
,
00000001
00000010
00001000
00010000
,
00001000
00000000
00000000
00010000
00000000
00000000
00001000
00000000
,
00100000
00010000
00100000
01000000
,
10000000
00010000
01000000
00100000
,
10000000
00000000
00000000
10000000
00000000
00000000
01000000
00000000
,
00100000
00000000
00000000
00001000
00000000
00000000
00010000
00000000
,
00001000
00001000
00010000
00010000
,
00000010
00001000
00000100
00000010
,
00000001
00000000
00000100
00000000
00001000
00010000
00001000
00000000
,
00022000
00000000
00000000
00000000
,
00000000
00000000
00000000
00033000
,
00001000
00000000
00000000
00100000
00000000
00000000
00001000
00000000
,
00000000
00010000
00000000
00000000
00000010
00000000
00010000
00000000
,
00002000
00000000
00000000
00003000
,
00020000
00000000
00000000
00030000
,
00011000
00000000
00000000
00000000
,
00000110
00000000
00001001
00000000
,
00000001
00000000
00000000
00001000
00000000
00000000
00000010
00000000
,
00000000
00010000
00000000
00000000
00001000
00000000
00100000
00000000
,
00010000
00000000
00000000
00100000
00000000
00000000
01000000
00000000
,
00000000
10000000
00000000
00000000
00010000
00000000
01000000
00000000
,
00100000
10000000
01000000
00100000
,
00001000
00010000
00000100
00001000
,
00000010
00000100
00000001
00001000
,
00000100
00000010
00001000
00010000
,
00011000
00000000
00000000
00001000
00000000
01000000
01000000
00000000
,
00010000
00000000
10000000
01000000
00100000
00000000
00001000
00000000
,
00010000
00001000
00000100
00001000
,
00010000
00001000
00010000
00000010
,
00001000
00000000
00000000
00000100
00000000
00000010
00000010
00000000
,
00000001
00001000
00000010
00000100
,
00001000
00000000
00000000
00001000
00000000
00000000
00010000
00000000
,
00000000
00010000
00000000
00000000
00001000
00000000
00010000
00000000
,
00001000
00010000
00100000
10000000
,
20020000
00000000
00000000
30030000
,
10010000
00000000
00000000
10000000
01000000
00000000
00100000
00100000
,
00000000
00001000
00001000
00000000
00010000
00000000
00000010
00000000
,
00001000
00000010
00000100
00000001
,
00001000
00000000
00000000
00000100
00000010
00000000
00000000
00000000
,
00000001
00000000
00000000
00000100
00000000
00000000
00000001
00000000
,
00001000
00000000
00000000
00000100
00000000
00000000
00010000
00000000
,
00001000
01000000
00001000
00010000
,
00001000
00000000
00010000
00000000
00100000
10000000
00100000
00000000
,
10010000
00000000
00000000
10000000
00000000
00000000
01000000
00000000
,
00100000
00100000
00001000
00001000
,
00010000
00001000
00010000
00010000
,
00000100
00000000
00000000
00000100
00000000
00000000
00000100
00000000
,
00000010
00000000
00000000
00000001
00000000
00000000
00001000
00000000
,
00000001
00000001
00000010
00000010
,
00000100
00000100
00010000
00010000
,
00001000
00000000
01000000
00010000
00000000
10000000
00010000
00000000
,
00100000
00000000
00000000
01000000
00000000
00000000
10000000
00000000
,
00100000
10000000
01000000
00010000
,
00001000
00000100
00000001
00001000
,
00000002
00000000
00002000
00003003
,
00000001
00000000
00000000
00000010
00000000
00000000
00000100
00000000
,
00000000
00010000
00000000
00000000
00001000
00000000
00001000
00000000
,
00010000
00000000
00000000
00001000
00000000
00000000
01000000
00000000
,
00000000
00010000
00000000
00000000
10000000
00000000
01000000
00000000
,
00100000
00000000
00000000
00001000
00000000
00000000
00010000
00000000
,
00000000
00000010
00000000
00000000
00001000
00000000
00000100
00000000
,
00000010
00000000
00000000
00000001
00000000
00000000
00000100
00000000
,
00000000
00001000
00010000
00000000
00001000
00000000
00000000
00011000
;

//--------------- dance-double - Fred-104 ----------------
#NOTEDATA:;
#STEPSTYPE:dance-double;
#DESCRIPTION:Fred-104;
#DIFFICULTY:Medium;
#METER:14;
#CREDIT:Fred-104;
#NOTES:
00000000
00000000
00000000
00000000
,
00000000
00000000
00000000
00000000
,
00000000
00000000
00000000
00000000
,
00000000
00000000
00000000
00000000
,
00000000
00000000
00000000
00000000
,
00000000
00000000
00000000
00000000
,
00001000
00011000
00000000
00000000
00000000
00000000
00000000
00000000
,
00000000
00000000
00000000
00000000
,
00000000
00000000
00000000
00000000
,
00000000
00000000
00000000
00000000
,
10010000
10000000
00100000
00010000
,
00001000
00000000
00010000
00000000
01000000
00000000
00010000
00001000
,
00010000
00000000
00001000
00000100
00000010
00001000
00000100
00000010
,
00000001
00001000
00000010
00000100
00001000
00010000
00001000
00001000
,
00010000
00001000
00100000
00001000
,
00000010
00000000
00000100
00000000
00010000
00001000
00010000
01000000
,
00100000
00000000
00010000
10000000
00000000
01000000
00010000
00000000
,
01000000
10000000
00000000
00100000
00010000
00001000
00010000
00000000
,
00001000
00010000
00001000
00010000
00100000
10000000
00100000
10000000
,
01000000
00010000
01000000
00010000
00001000
00000100
00000001
00000001
,
00000010
00000100
00000010
00000100
00001000
00000010
00001000
00000010
,
00000100
00001000
00000100
00001000
00010000
00100000
10000000
00000000
,
11000000
00000000
00000000
01010000
00000000
00000000
00011000
00000000
,
00000000
00001010
00000000
00000000
00000011
00000000
00001001
00000000
,
00000011
00000010
00001010
00001000
,
00011000
00010000
01010000
01000000
,
11000000
00000000
00010000
10000000
,
00100000
00000000
00001000
00000000
,
00000010
00000000
00000100
00001000
,
00010000
00000000
01000000
00000000
,
00001000
00000000
00000100
00000010
,
00000001
00000000
00000000
00000100
00001000
00000000
00000000
00010000
,
00001000
00000000
00010000
00001000
,
00000010
00000000
00000000
00000001
00002002
00000000
00003003
00000000
,
00001001
00000000
00000001
00001000
,
00001100
00000000
00011000
00000000
,
01001000
00000000
00100000
10000000
,
01100000
00000000
00011000
00000000
,
00000110
00000000
00001000
00000100
00000000
00000001
00000100
00000000
,
00000010
00000001
00000100
00000000
00001000
00010000
00001000
00000000
,
00010000
00100000
00000000
01000000
00100000
00000000
00010000
00001000
,
00000000
01000000
00001000
00000000
00011000
00000000
00010100
00000000
,
00001000
00010000
01000000
10000000
00010000
00010000
10000000
10000000
,
00000000
01000000
00100000
00001000
00010000
00000100
00000010
00000000
,
00000001
00001000
00000010
00001000
00000000
00000001
00000010
00000100
,
00010000
00001000
00010000
00001000
00010000
01000000
10000000
00000000
,
00010000
01000000
10000000
01000000
00000000
00010000
10000000
00000000
,
00100000
00000000
00010000
00001000
00011000
00000000
00000000
00000000
,
00001000
00010000
00100000
00010000
00001000
00000000
00100000
00000000
,
00001000
00010000
01000000
00010000
00001000
01000000
00001000
00000000
,
00011000
00000000
00010000
00001000
00000100
00000000
00000010
00001000
,
00000100
00000000
00000010
00001000
00010000
00001000
00010000
00000000
,
00001000
00010000
01000000
00100000
00000000
01000000
00010000
00001000
,
00010000
00001000
00000100
00001000
00010000
00000100
00001000
00000000
,
00000110
00000000
00000000
00000000
00001001
00000000
00000000
00000000
00000001
00000000
00000000
00000010
00000000
00000000
00001000
00000000
,
00011000
00000000
00001000
00010000
00000000
00100000
10000000
00000000
,
01100000
00000000
10000000
01000000
00000000
00010000
00001000
00000000
,
00011000
00000000
00010000
00001000
00000100
00000000
00000010
00000000
,
00001000
00000000
00000001
00000100
00001000
00000000
00010000
00100000
,
10000000
00000000
10000000
01000000
00010000
00001000
00000010
00000001
,
00002002
00000000
00000000
00000000
,
00000000
00000000
00000000
00003003
,
00000001
00000100
00000000
00010000
01000000
00000000
00001000
00100000
,
00000000
10000000
00100000
00000000
00010000
10000000
00100000
00010000
,
00022000
00000000
00000000
00000000
,
00000000
00000000
00000000
00000000
,
00033000
00000000
00000000
00000000
,
00000110
00000000
00011000
00000000
,
00001000
00010000
00000000
01000000
10000000
00000000
00010000
01000000
,
00000000
00100000
10000000
00000000
01000000
00100000
00010000
00000000
,
01000000
00001000
00000000
00000100
00000010
00000000
00001000
00000100
,
00000000
00000010
00000001
00000000
00000100
00001000
00010000
00000000
,
00001000
00010000
00001000
00010000
01000000
10000000
01000000
10000000
,
00100000
00010000
00100000
00010000
00001000
00000100
00001000
00000100
,
00000001
00001000
00000010
00000100
00001000
00010000
00100000
01000000
,
10000000
01000000
00010000
00100000
01000000
00010000
00001000
00000000
,
00011000
00000000
00000100
00010100
00000000
01000000
01001000
00000000
,
00011000
00110000
10100000
11000000
,
00010000
00100000
01000000
00000000
10000000
00100000
01000000
00000000
,
00010000
00100000
01000000
00010000
00001000
00000100
00000010
00000000
,
00000110
00000000
00001000
00000010
00000000
00000001
00000010
00000000
,
00001000
00000001
00000100
00000010
00000100
00001000
00010000
00000000
,
00001000
00010000
00000000
01000000
00100000
00000000
00001000
00010000
,
00000000
00100000
01000000
00000000
01001000
00000000
10010000
00000000
,
00010000
10000000
01000000
00100000
00010000
00001000
00000100
00000010
,
00000002
00000000
00000000
00000003
,
00001001
00000000
00000000
00000001
00000010
00000100
00000010
00001000
,
00000000
00010000
01000000
00100000
00010000
10000000
00100000
00000000
,
00010000
00001000
01000000
00001000
00000100
00001000
00010000
00001000
,
00000010
00000100
00000010
00000001
00001001
00000000
00000000
00000000
,
00000001
00000100
00001000
00010000
00000000
00100000
10000000
00000000
,
10000000
01000000
00010000
00001000
00000000
00000010
00000001
00000000
,
00000110
00001000
00000110
00000001
,
00001001
00000000
00000001
00000010
00000100
00001000
00000100
00010000
,
00001000
00010000
00100000
10000000
01000000
00100000
00010000
00000000
,
01001000
00010100
00101000
00010010
,
00011000
00000000
00000000
00000000
00000110
00000000
00000000
00000000
00001000
00000000
00000000
00000100
00000000
00000000
00000010
00000000
,
00000011
00000000
00000001
00000100
00000000
00001000
00010000
00000000
,
00001000
00010000
01000000
00100000
00010000
00001000
00010000
00100000
,
00001000
00010000
00100000
01000000
00100000
10000000
00010000
00000000
,
10100000
00110000
00011000
00010010
,
00010000
00001000
00000100
00000010
00000100
00001000
00010000
00000000
,
00011000
00000000
00001000
00010000
00000000
00100000
10000000
00000000
,
11000000
01010000
00011000
00010100
,
00011000
00001100
00000101
00001001
,
00000002
00000000
00002000
00003003
,
00000001
00000100
00000000
00001000
00010000
00000000
01000000
00010000
,
00000000
00001000
00010000
00000000
00100000
10000000
00010000
00000000
,
10000000
01000000
00000000
00010000
00001000
00000000
00000100
00001000
,
00000000
00010000
00001000
00000000
00000010
00000001
00001000
00000000
,
00000001
00000100
00000001
00000100
00001000
00000100
00001000
00010000
,
00001000
00010000
01000000
00010000
01000000
10000000
00100000
00000000
,
10000000
01000000
00010000
00001000
00000010
00000001
00001000
00000010
,
00000000
00001000
00000001
00001000
00000001
00001000
00000001
00001001
;

//--------------- dance-double - Fred-104 ----------------
#NOTEDATA:;
#STEPSTYPE:dance-double;
#DESCRIPTION:Fred-104;
#DIFFICULTY:Hard;
#METER:18;
#CREDIT:Fred-104;
#NOTES:
00000000
00000000
00000000
00000000
,
00000000
00000000
00000000
00000000
,
00000000
00000000
00000000
00000000
,
00000000
00000000
00000000
00000000
,
00000000
00000000
00000000
00000000
,
00000000
00000000
00000000
00000000
,
00001001
00001001
00000000
00000000
00000000
00000000
00000000
00000000
,
00000000
00000000
00000000
00000000
,
00000000
00000000
00000000
00000000
,
00000000
00000000
00000000
00000000
,
00000120
00001030
00000002
00000103
,
00002000
00000000
00013000
00000000
00200000
00000000
01300000
00010000
,
10010000
00000000
00000000
00000000
00010000
00000000
10000000
00000000
00010000
00100000
00001000
00000000
00010000
00000100
00001000
00000000
,
00000100
00000010
00000100
00000010
00000001
00000000
00001000
00000001
,
00002001
00003001
00000010
00001000
,
00020000
00000000
00000000
00000000
00130000
00000000
00000000
00000000
02000000
00000000
03010000
00000000
00100000
00000000
01000000
00100000
,
01000000
00000000
10000000
10100000
00000000
00010000
00110000
00000000
,
10000000
00000000
11000000
00000000
00000000
00000000
00010000
00000000
01010000
00000000
01000000
00000000
00010000
10000000
00010000
10000000
,
00010000
00100000
01000000
00010000
00001000
00001000
00001000
00010000
,
00000100
00001000
00000010
00000100
00001000
00010000
00001000
00000000
,
00010000
00001000
00000100
00000010
00001000
00000100
00000010
00001000
,
00010000
01000000
00100000
00010000
01000000
00001000
00010000
00000000
,
00001000
00010000
00100000
01000000
00001000
00100000
01000000
00010000
,
00001000
00000000
00000000
00000100
00000000
00000000
00000010
00000000
00000000
00010000
00000000
00000000
00001000
00000000
00010000
00000000
00001000
00000000
00010000
00000000
00000000
00000000
00000000
00000000
,
00010000
00001000
00010000
00001000
00000100
00000001
00000100
00000001
00001000
00000001
00001000
00000100
,
00000010
00000100
00000010
00001000
00010000
00001000
00010000
00100000
01000000
00100000
10000000
00010000
,
00100000
00000000
00010000
00000010
,
00001000
00000000
00010000
00000000
,
00100000
00000000
01000000
00010000
,
00100000
00000000
01000000
00000000
,
00001000
00000000
00000100
00000001
,
00000100
00000000
00000000
00010000
00001000
00000000
00000000
00010000
,
00100000
00000000
01000000
00010000
,
10000000
00000000
00000000
00010000
20020000
00000000
30030000
00000000
,
10000000
01000000
10000000
01000000
00010000
01000000
00010000
00001000
00010000
00001000
00000100
00000010
,
00000100
00000001
00001000
00000001
00000010
00000100
00000010
00001000
00010000
00001000
00000000
00000000
,
00010000
00001000
00010000
00001000
00000010
00000001
00000010
00000001
00001000
00000001
00000100
00000010
,
00000100
00001000
00010000
00001000
00010000
00100000
01000000
00100000
10000000
00010000
00000000
00000000
,
10000000
00100000
00010000
00001000
00000010
00000001
00001000
00000000
,
00000011
00001100
00110000
11000000
,
10000000
10100000
00000000
00001000
00011000
00000000
00100000
00101000
,
00000000
00000010
00010010
00000000
00011000
00000000
00011000
00000000
,
00010000
00001000
00000100
00000001
00001000
00000100
00000010
00000011
,
00000000
00000001
00000100
00001000
00010000
00100000
10000000
00000000
,
10000000
01000000
10000000
00000000
00010000
00000000
00100000
00001000
00100000
00000000
00001000
00000000
00000010
00000100
00000010
00000000
,
00000100
00001000
00000010
00000100
00001000
01000000
00010000
00100000
,
01000000
10000000
01000000
00000000
00010000
00000000
00001000
00010000
00001000
00000000
00000010
00000000
00000100
00000010
00000001
00000000
,
00001000
00000000
00000001
00000000
00000100
00000000
00001000
00000000
00011000
00000000
00000000
00000000
00010000
00001000
00010000
00000000
,
00001000
00000000
00010000
00000000
00100000
00000000
10000000
00000000
01000000
00000000
10000000
00010000
10000000
00000000
00000000
00000000
,
10000000
00000000
00100000
00000000
00010000
00000000
00001000
00000000
00000100
00000000
00000001
00001000
00000001
00000000
00000000
00000000
,
00000001
00000010
00001000
00010000
01000000
10000000
00010000
01000000
,
00010000
00000000
10000000
00000000
01000000
00100000
00010000
00000000
00100000
00001000
00010000
00001000
00010000
00000000
00000000
00000000
,
00010000
00001000
00010000
00000000
00001000
00000000
00000010
00000100
00000010
00000000
00000001
00000000
00001000
00000010
00001000
00000000
,
00000100
00000010
00001000
00100000
00010000
01000000
00001000
00010000
,
00011000
00000000
00000000
00000000
01010000
00000000
00000000
00000000
11000000
00000000
00000000
10100000
00000000
00000000
00110000
00000000
,
00011000
00000000
00010000
00001000
00000000
00000100
00000101
00000000
,
00000001
00000010
00000100
00010000
01000000
10000000
00010000
01000000
,
01001000
00010100
00101000
00010010
,
00010000
00000000
00001000
00000000
00000100
00000010
00000100
00000010
00001000
00000000
00000001
00000000
00000010
00000100
00000010
00000100
,
00010000
00000000
00000000
00000000
00000000
00000000
00001000
00000000
00000000
00000000
00000000
00000000
01000000
00000000
00000000
00010000
00000000
00000000
01000000
00000000
00000000
00010000
00000000
00000000
10000000
00000000
00000000
00000000
01000000
00000000
00000000
00000000
00010000
00000000
00000000
00000000
00001000
00000000
00000000
00000000
00000100
00000000
00000000
00000000
00000001
00000000
00000000
00000000
,
00001000
00000001
00001000
00000001
00000010
00001000
00000010
00001000
,
00010000
00100000
10000000
00010000
00100000
01000000
00010000
00000000
,
00001000
00101000
00000000
00000010
00010010
00000000
01000000
01001000
,
00000000
00000000
00000000
00000100
00000000
00000000
00010100
00000000
00000000
00000000
00000000
00000000
00010000
00000000
00001000
00000000
00000010
00000000
00000100
00000000
00000010
00000000
00001000
00000000
,
00010000
00100000
01000000
00010000
00100000
01000000
00010000
00001000
,
00000010
00000000
00000100
00000000
00010000
00000000
00000010
00000000
00000100
00000000
00001000
00000000
00010000
00000000
00001000
01000000
,
00001000
00000000
00000000
00000000
,
01100000
00000000
10010000
00000000
,
10000000
01000000
00100000
00010000
01000000
00100000
10000000
01000000
00010000
00001000
00000100
00000001
,
00001000
00000010
00000100
00000001
00000010
00000100
00001000
00000010
00000100
00001000
00000000
00000000
,
00010000
00100000
01000000
00010000
00100000
01000000
10000000
00100000
01000000
00010000
10000000
00100000
,
00010000
00001000
00000010
00000001
00000100
00000010
00001000
00000100
00000010
00000001
00000000
00000000
,
00001000
00000000
00000001
00000000
00000010
00000000
00000100
00001000
00000100
00000000
00010000
00000000
00001000
00000000
01000000
00010000
,
10000000
00010000
00100000
00000000
00001000
00010000
00001000
00000000
00010000
00000010
00001000
00000010
00010000
00001000
00010000
00000000
,
00001000
00010000
00100000
01000000
10000000
01000000
00010000
10000000
01000000
00010000
00001000
00000100
,
00000001
00001000
00000100
00000010
00001000
00000001
00000100
00000010
00000001
00001000
00000100
00000010
,
00000011
00000000
00000000
00000000
00000001
00000000
00000100
00000000
00000000
00000000
00001000
00010000
00001000
00000000
00000000
00000000
,
01100000
00000000
00001000
00010000
00011000
00000000
00011000
00000000
,
01000000
00100000
00010000
00001000
01000000
00001000
00000100
00000010
,
00010000
00001000
00000010
00000100
00001000
00010000
00100000
01000000
,
01100000
00000000
10000000
11000000
00000000
00010000
01010000
00000000
,
10000000
01000000
00100000
00010000
00001000
00000100
00000010
00000001
,
00001000
00000010
00001000
00000000
00000001
00000000
00000010
00000100
00001000
00000000
00000100
00000000
00010000
00001000
01000000
00000000
,
00010000
00000000
10000000
01000000
00100000
00000000
00010000
00000000
00100000
00000000
00001000
00000000
00000010
00000000
00001000
00000000
,
00100000
01000000
00010000
00001000
00000010
00000100
00001000
00000001
,
00000100
00000010
00001000
00000000
00000010
00010000
00001000
00000000
00100000
00010000
00100000
00010000
10000000
00010000
10000000
00010000
,
01000000
00000000
00000000
00100000
00010000
00001000
00010000
00011000
,
00000000
00000000
00010000
00000000
00001000
00000000
00000100
00000000
00000001
00000000
00001000
00000000
00000100
00000010
00000001
00000000
,
00001000
00000010
00000100
00000000
00001000
00000000
00010000
00001000
00010000
00000000
01000000
00000000
00100000
00010000
10000000
00000000
,
00100000
00000000
00010000
00000000
00001000
00000000
00010000
00000000
00011000
00000000
00000000
00000000
00010000
00001000
00010000
00001000
,
00010000
00001000
00000100
00000001
00000010
00000010
00000110
00000000
,
00000001
00000100
00001000
00010000
00001000
00001000
00011000
00000000
,
00011000
00000000
00000000
00000000
00100000
00010000
00100000
00010000
00100000
00000000
00000000
00000000
00010000
10000000
00010000
10000000
,
00010000
00000000
00000000
01000000
00000000
00000000
00100000
00000000
00000000
00010000
00000000
00000000
00001000
00000000
00010000
00000000
00001000
00000000
00000010
00000000
00000100
00000000
00001000
00000000
,
00000010
00000000
00000100
00000001
00000000
00000010
00000100
00010000
,
00011000
01001000
10100000
01010000
,
10000000
00000000
01000000
00000000
00010000
00000000
00001000
00000000
00010000
00000000
00000000
00000100
00000000
00000000
00000010
00000000
,
00000011
00000000
00000000
00000000
00000001
00000000
00000101
00000000
00000000
00000000
00001000
00000001
00001000
00000001
00001000
00000000
,
00000001
00000010
00001000
00010000
01000000
10000000
10010000
00000000
,
10100000
01010000
00001010
00000101
,
00000011
00001100
00110000
11000000
,
10000000
00100000
00010000
00001000
00000100
00000001
00000010
00000100
,
00001000
00000001
00001000
00000000
00000001
00000000
00000010
00000100
00001000
00000000
00000100
00000000
00010000
00001000
01000000
00000000
,
00010000
10000000
00100000
01000000
00100000
10000000
00010000
00100000
01000000
10000000
01000000
00100000
,
00010000
01000000
00100000
00010000
00001000
00010000
00000100
00000010
00000001
00000100
00001000
00010000
,
00002000
00000000
00020000
00033000
,
00001000
00000000
00000000
00000000
00000000
00000000
00000000
00000000
00020000
00030000
00000000
00000000
00000000
00000000
00000000
00000000
00020000
00030000
00000000
00000000
00000000
00000000
00000000
00000000
01000000
00000000
00000000
00000000
00000000
00000000
00000000
00000000
00002000
00003000
00000000
00000000
00000000
00000000
00000000
00000000
00002000
00003000
00000000
00000000
00000000
00000000
00000000
00000000
00000100
00000000
00000000
00000000
00000000
00000000
00000000
00000000
00020000
00030000
00000000
00000000
00000000
00000000
00000000
00000000
,
00020000
00030000
00000000
00000000
00000000
00000000
00000000
00000000
01000000
00000000
00000000
00000000
00000000
00000000
00000000
00000000
00002000
00003000
00000000
00000000
00000000
00000000
00000000
00000000
00002000
00003000
00000000
00000000
00000000
00000000
00000000
00000000
00000100
00000000
00000000
00000000
00000000
00000000
00000000
00000000
00010000
00000000
00000000
00000000
00000000
00000000
00000000
00000000
00001000
00000000
00000000
00000000
00000000
00000000
00000000
00000000
00000000
00000000
00000000
00000000
00000000
00000000
00000000
00000000
,
00010000
00000000
00000000
00000000
00000000
00000000
00000000
00000000
00002000
00003000
00000000
00000000
00000000
00000000
00000000
00000000
00002000
00003000
00000000
00000000
00000000
00000000
00000000
00000000
00000010
00000000
00000000
00000000
00000000
00000000
00000000
00000000
00020000
00030000
00000000
00000000
00000000
00000000
00000000
00000000
00020000
00030000
00000000
00000000
00000000
00000000
00000000
00000000
00100000
00000000
00000000
00000000
00000000
00000000
00000000
00000000
00002000
00003000
00000000
00000000
00000000
00000000
00000000
00000000
,
00002000
00003000
00000000
00000000
00000000
00000000
00000000
00000000
00000010
00000000
00000000
00000000
00000000
00000000
00000000
00000000
00020000
00030000
00000000
00000000
00000000
00000000
00000000
00000000
00020000
00030000
00000000
00000000
00000000
00000000
00000000
00000000
00100000
00000000
00000000
00000000
00001000
00000000
00000000
00000000
00100000
00000000
00000000
00000000
00001000
00000000
00000000
00000000
00010000
00000000
00000000
00000000
00000000
00000000
00000000
00000000
00000000
00000000
00000000
00000000
00000000
00000000
00000000
00000000
,
00001000
00010000
00001000
00000000
01000000
00000000
00001000
00010000
00001000
00000000
00100000
00000000
00001000
00010000
00001000
00000000
,
00000010
00000000
00001000
00010000
00001000
00000000
00000100
00000000
00001000
00010000
00001000
00000000
01000000
00010000
01000000
00000000
,
00010000
10000000
00010000
10000000
01000000
00000000
00100000
00010000
00100000
00001000
00010000
00000000
00000100
00001000
00000001
00000000
,
00000000
00000001
00000100
00001000
00010000
00100000
10000000
10010000
;

//--------------- dance-double - Fred-104 ----------------
#NOTEDATA:;
#STEPSTYPE:dance-double;
#DESCRIPTION:Fred-104;
#DIFFICULTY:Challenge;
#METER:19;
#CREDIT:Fred-104;
#NOTES:
00000000
00000000
00000000
00000000
,
00000000
00000000
00000000
00000000
,
00000000
00000000
00000000
00000000
,
00000000
00000000
00000000
00000000
,
00000000
00000000
00000000
00000000
,
00000000
00000000
00000000
00000000
,
00011000
00000000
00011000
00000000
00001000
00010000
00001000
00010000
00001000
00010000
00001000
00000000
00010000
00000000
00000100
00000000
,
00000001
00001000
00000010
00000100
00001000
00000010
00000100
00001000
,
00010000
01000000
00100000
00010000
01000000
00100000
00010000
10000000
,
01000000
00010000
00100000
01000000
00010000
00001000
00011000
00000000
,
00002000
00010000
02003000
00010000
,
03002000
00000000
00010000
00000000
00003020
00000000
00001030
00010000
,
00011000
00000000
00000000
00000000
00001000
00000000
00010000
00000000
00100000
01000000
00010000
01000000
00010000
01000000
00010000
01000000
,
00100000
10000000
00010000
10000000
01000000
00000000
00101000
00001000
,
00020000
00001000
01000000
00000100
,
00032000
00000000
00000000
00000000
00010000
00000000
00000000
00000000
00023000
00000000
00000000
00000000
00031000
00000000
00010000
00000010
,
00001000
00000000
00000001
00000101
00000000
00001000
00001100
00000000
,
00000001
00000000
00000011
00000000
00000000
00000000
00001000
00000000
00001010
00000000
00000001
00000010
00000100
00000000
00010000
00001000
,
00010000
00001000
00010000
01000000
00100000
10000000
00100000
00010000
,
01000000
00001000
00000100
00000001
00000010
00001000
00000001
00000100
,
00001000
00000100
00000010
00001000
00010000
00001000
01000000
00100000
,
00010000
00000000
10000000
00000000
01000000
00000000
00100000
00000000
10000000
00000000
00010000
00000000
00100000
00001000
00010000
00001000
,
00010000
00000010
00001000
00000010
00000100
00000000
00000001
00001000
00000100
00001000
00000001
00000000
00001000
00000100
00010000
00001000
,
00010000
00000000
00000000
00000000
00000000
00000000
00001000
00000000
00000000
01000000
00000000
00000000
00010000
00000000
00000000
10000000
00000000
00000000
01000000
00000000
00000000
00000000
00000000
00000000
00100000
00000000
00000000
00000000
00001000
00000000
00000000
00000000
00010000
00000000
00000000
00000000
00011000
00000000
00000000
00000000
00000000
00000000
00000000
00000000
00000000
00000000
00000000
00000000
,
00001000
00010000
00100000
01000000
10000000
01000000
00100000
01000000
00010000
00100000
01000000
00010000
,
00001000
00000010
00000100
00000001
00000100
00000010
00000100
00001000
00000010
00000100
00001000
00010000
,
00001000
00000000
01000000
00001000
,
00000100
00000000
00000001
00000000
,
00001000
00000000
00000100
00000010
,
00000001
00000000
00001000
00000000
,
01000000
00000000
10000000
00100000
,
00010000
00000000
00000000
00001000
00010000
00000000
00000000
00001000
,
00000100
00000000
00001000
00010000
,
00001000
00000000
00000000
00000000
00000000
00000000
00000000
00000000
00000000
00010000
00000000
00000000
00001000
00000000
00010000
00000000
00001000
00000000
01000000
00000000
00010000
00000000
01000000
00000000
,
00001000
00010000
00100000
01000000
10000000
01000000
00010000
10000000
01000000
00100000
00001000
00010000
,
00001000
00000100
00000010
00000001
00000010
00001000
00000001
00000010
00000100
00000010
00001000
00010000
,
01000000
00100000
00010000
10000000
00100000
10000000
00010000
00100000
00010000
01000000
00100000
10000000
,
00010000
00100000
01000000
00010000
00001000
00000010
00000100
00001000
00000001
00000100
00000010
00001000
,
00000001
00000010
00000100
00001000
00000100
00000000
00010000
00001000
00100000
00010000
00100000
00000000
01000000
10000000
00010000
00000000
,
01000000
00010000
01000000
00000000
00100000
10000000
00100000
00000000
10000000
00010000
10000000
00010000
10000000
00000000
00000000
00000000
,
11000000
10010000
00000000
01001000
00011000
00000000
00010100
00001100
,
00000000
00000000
00001001
00000000
00000101
00000000
00000000
00000000
00001000
00000001
00000010
00000000
00000100
00010000
00001000
00000000
,
00010000
00001000
00010000
00001000
01000000
00000000
00010000
10000000
00010000
10000000
01000000
00000000
01100000
00000000
00110000
00000000
,
00000000
00000000
00001000
00000000
00010000
00000010
00010000
00000010
00001000
00000001
00001000
00000001
00000010
00000100
00000010
00000100
,
00001000
00000001
00000010
00000000
00000100
00000000
00010000
00001000
00010000
00000000
00100000
00000000
01000000
00010000
10000000
00000000
,
00010000
00100000
01000000
00000000
11000000
00000000
00000000
00000000
10000000
00100000
01000000
00000000
01010000
00000000
00000000
00000000
,
10000000
00100000
01000000
00000000
00100000
00000000
00010000
00001000
00010000
00000000
00000010
00000000
00001000
00000001
00000010
00000000
,
00000001
00000000
00001000
00000010
00000100
00000000
00001000
00000000
00011000
00000000
00000000
00000000
00010000
00001000
00010000
00000000
,
00001000
00100000
00010000
00100000
00001000
00000000
00010000
00000010
00001000
00000010
00010000
00000000
00001000
01000000
00010000
00000000
,
10000000
01000000
00100000
00010000
00100000
00000000
00001000
00010000
00000010
00001000
00000010
00000000
00000100
00000001
00001000
00000000
,
00000100
00000010
00000001
00001000
00000010
00000000
00000010
00000000
00010000
00001000
01000000
00010000
10000000
00000000
10000000
00000000
,
01000000
00100000
00010000
00100000
00001000
00000000
00001000
00000000
00010000
00001000
00010000
00001000
00020000
00000000
00000000
00000000
,
00031000
00100000
00010000
00000000
00100000
00000000
01000000
10000000
00010000
00000000
01000000
00000000
00100000
00010000
00001000
00000000
,
00010000
00000100
00001000
00000000
00001001
00000000
00000000
00000000
00000001
00000010
00000100
00000000
00001100
00000000
00000000
00000000
,
00010100
00000000
00000000
00000000
01001000
00000000
00000000
00000000
00011000
00000000
00001000
00010000
00000000
00100000
10000000
00000000
,
10010000
00010000
01000000
01100000
00000000
10100000
10010000
00000000
,
10000000
00010000
00100000
00000000
01000000
00000000
00010000
00001000
00010000
00000000
00001000
00000000
00000100
00000001
00001000
00000000
,
00001100
00000101
00000011
00001010
,
00001001
00000000
00000001
00000000
00000010
00000100
00001000
00000100
00010000
00000000
00001000
00000000
01000000
00010000
01000000
00100000
,
10000000
00000000
00000000
00000000
00000000
00000000
00010000
00000000
00000000
00000000
00000000
00000000
00100000
00000000
00000000
01000000
00000000
00000000
10000000
00000000
00000000
00010000
00000000
00000000
01000000
00000000
00000000
00000000
00010000
00000000
00000000
00000000
00100000
00000000
00000000
00000000
01000000
00000000
00000000
00000000
00010000
00000000
00000000
00000000
00001000
00000000
00000000
00000000
,
00022000
00000000
00000000
00000000
,
00000000
00000000
00000000
00033000
,
00011000
00010010
00000000
00011000
00101000
00000000
00011000
00010100
,
00000000
00000000
00000000
00011000
00000000
00000000
01001000
00000000
00000000
00000000
00000000
00000000
00010000
00000000
00001000
00000000
00000100
00000000
00000010
00000000
00000100
00000000
00001000
00000000
,
00010000
00001000
00000010
00000100
00010000
00000010
00001000
00100000
,
00010000
00000000
00001000
00000000
00100000
00000000
01000000
00000000
00010000
00000000
00001000
00000000
00000010
00000000
00001000
00010000
,
00001000
00000000
00000000
00000000
,
00001001
00000000
00000000
00000000
00000000
00000000
00000001
00000010
00000100
00001000
00000001
00001000
,
00000001
00000100
00000010
00000100
00001000
00010000
00100000
01000000
10000000
01000000
00010000
10000000
,
01000000
00100000
01000000
00010000
00001000
00000010
00000100
00000001
00000100
00000010
00000100
00001000
,
00000001
00000100
00001000
00010000
01000000
00010000
00001000
00010000
00100000
10000000
00010000
00100000
,
00010000
10000000
00100000
00010000
00001000
00010000
00100000
00010000
00001000
00000100
00000001
00001000
,
00000100
00000000
00000010
00000000
00000001
00001000
00000001
00001000
00000010
00000000
00010000
00000000
00001000
00100000
00001000
00100000
,
00010000
00100000
01000000
10000000
00010000
01000000
00100000
00000000
10000000
00010000
00100000
01000000
10000000
00010000
10000000
00000000
,
00010000
00100000
10000000
00100000
01000000
00010000
00001000
00000010
00001000
00010000
01000000
00100000
,
00010000
01000000
00100000
00010000
00001000
00000100
00000001
00001000
00000100
00000010
00001000
00010000
,
00011000
00000000
00000000
00000000
00010100
00000000
00011000
00000000
00000000
00000000
00001000
01000000
00001000
00000000
00000000
00000000
,
00011000
00000000
00000000
00000000
00101000
00000000
00001000
00010000
00100000
00000000
10000000
00000000
01000000
00000000
00000000
00000000
,
01100000
00000000
10000000
01000000
01010000
00000000
00011000
00000000
,
00001010
00000000
00000000
00000000
00000011
00000000
00000000
00000000
00001001
00000000
00001000
00000000
00000001
00000100
00000001
00000000
,
00001001
00000000
00001000
00010010
00000000
00010000
00101000
00000000
,
00001000
00000000
00010000
00000000
01000000
00000000
00100000
00010000
10000000
00000000
00010000
00000000
10010000
00000000
00000000
00000000
,
10000000
00100000
01000000
00000000
00100000
00000000
00010000
00001000
00000100
00000000
00000001
00000000
00001000
00000100
00000010
00000000
,
00001000
00000000
00010000
01000000
00100000
00000000
00010000
00000000
10000000
00010000
01000000
00010000
10000000
01000000
00100000
00010000
,
00100000
00000000
00001000
00010000
00001000
01000000
00010000
01000000
00001000
00000000
00010000
00000000
00000100
00000000
00010000
00000000
,
00001000
00010000
00000100
00001000
00000001
00000010
00000001
00001000
00000010
00010000
00001000
01000000
00010000
10000000
00010000
00100000
,
00001000
00000000
00000000
00000000
00000000
00000000
00010000
00001000
00010000
00000100
00001000
00000100
00010000
00000000
00011000
00000000
,
00000000
00000000
00001000
00100000
00010000
00000000
10000000
00010000
00100000
00000000
01000000
10000000
00010000
00000000
10000000
00000000
,
01000000
00100000
00010000
00000000
00100000
00000000
00001000
00010000
00001000
00000000
00000100
00000000
00000001
00001000
00000100
00000000
,
00000010
00000000
00000001
00000000
00000100
00000000
00001000
00010000
00001000
00000000
01000000
00000000
00010000
10000000
00010000
10000000
,
01000000
00100000
00010000
00100000
00001000
00000000
00010000
00000100
00001000
00000100
00000010
00000000
00000001
00001000
00000001
00000000
,
00000100
00000001
00001000
00000100
00000010
00000000
00000100
00010000
00001000
00010000
00100000
00000000
01000000
00010000
10000000
00000000
,
10010000
00000000
00000000
00000000
00010000
00100000
01000000
10000000
00010000
00000000
00000000
00000000
10000000
00100000
01000000
00010000
,
10000000
00000000
00000000
10000000
00000000
00000000
00010000
00000000
00000000
00010000
00000000
00000000
10000000
00000000
01000000
00000000
00010000
00000000
00001000
00000000
00000100
00000000
00000001
00000000
,
00000011
00000010
00000000
00000100
00001100
00001000
00000001
00001000
,
00001010
00000000
00000000
00000010
00000000
00000000
00010010
00000000
00000000
00000000
00000000
00000000
00010000
00000000
00001000
00000000
00000100
00000000
00001000
00000000
00010000
00000000
00001000
00000000
,
00010000
00000000
00000000
00000000
01000000
00000000
00000000
00000000
00100000
00000000
00000000
00000000
00010000
00000000
00000000
00000000
10000000
00000000
00000000
00000000
00010000
00000000
00000000
00000000
10010000
00000000
00000000
00000000
00000000
00000000
10000000
00000000
00000000
01000000
00000000
00000000
00000000
00000000
00000000
00010000
00000000
00000000
00001000
00000000
00000000
00000000
00000000
00000000
,
00011000
00000000
00000000
00000000
00010100
00000000
00001100
00000000
00000000
00000000
00001001
00000000
00000001
00000010
00000100
00000010
,
00000001
00001000
00000010
00001000
00000001
00000000
00000010
00000100
00001000
00000100
00010000
00000000
00001000
01000000
00001000
00000000
,
00010000
00001000
00100000
00000000
01000000
10000000
00010000
00000000
01000000
00100000
00010000
00000000
00001000
00010000
00001000
00000000
,
00010000
00000010
00000001
00001000
00000100
00000010
00000001
00000010
,
00001000
00000000
00000100
00000000
00010000
00000000
01000000
00000000
10000000
00000000
01000000
00000000
00100000
00001000
00010000
00000000
,
00001000
01000000
00010000
10000000
00010000
00000000
00100000
01000000
10000000
00010000
01000000
00000000
00100000
00010000
00001000
00000000
,
00010000
00001000
00000010
00000100
00000010
00001000
00010000
01000000
00100000
01000000
00010000
00001000
,
00010000
00001000
00000100
00000001
00000100
00001000
00010000
00100000
10000000
00100000
00010000
00001000
,
00022000
00033000
00022000
00033000
,
00010000
00000100
00000001
00001000
00000010
00000001
00000100
00001000
,
00000001
00000000
00000010
00000000
00001000
00000000
00000100
00000000
00010000
00001000
00100000
00000000
01000000
00100000
00010000
00000000
,
10000000
00100000
00010000
10000000
01000000
00001000
00010000
00000100
,
00000010
00000000
00001000
00000000
00000001
00000000
00000100
00000000
00001000
00000001
00000100
00000001
00001000
00000100
00010000
00000000
,
00001000
00010000
00100000
00000000
01000000
00000000
00010000
10000000
01000000
00000000
00100000
00000000
00001000
00010000
00000010
00000000
,
00001000
00000000
00000001
00000010
00000100
00000000
00001000
00000000
00000001
00001000
00000010
00000100
00000001
00001000
00000001
00000000
,
00000010
00000100
00001000
00000100
00010000
00000000
00001000
00100000
00010000
00100000
01000000
00000000
10000000
00010000
01000000
00010000
,
10000000
10100000
00100000
00010000
00011000
00001000
00000100
00000101
;
