#VERSION:0.83;
#TITLE:Ether Strike;
#ARTIST:Akira Complex;
#CREDIT:RIP Akira Complex;
#BANNER:Ether Strike.png;
#BACKGROUND:Ether Strike-bg.png;
#CDTITLE:./CDTitles/Arcaea.png;
#MUSIC:Ether Strike.ogg;
#SAMPLESTART:112.31;
#SAMPLELENGTH:15;
#BPMS:0=156;
#BGSTAGE:15;

//--------------- dance-single - Fred-104 ----------------
#NOTEDATA:;
#STEPSTYPE:dance-single;
#DESCRIPTION:Fred-104;
#DIFFICULTY:Beginner;
#METER:3;
#CREDIT:Fred-104;
#NOTES:
0000
0000
0000
0000
,
0000
0000
0000
0000
,
0000
0000
0000
0000
,
0000
0000
0000
0000
,
0000
0000
0000
0000
,
1000
0000
0000
0000
,
0000
0000
0000
0000
,
0001
0000
0000
0000
,
0000
0000
0000
0000
,
1000
0000
0000
0000
,
0001
0000
0000
0000
,
0010
0000
0000
0000
,
0100
0000
0000
0000
,
2000
0000
0000
0000
,
0000
0000
0000
3000
,
0002
0000
0000
0003
,
2000
0000
3000
0000
,
0001
0000
0001
0000
,
0100
0000
0100
0000
,
1000
0000
1000
0000
,
0010
0000
0010
0000
,
0001
0000
1000
0000
,
0001
0000
0100
0000
,
0010
0000
1000
2000
,
0000
0000
0000
3000
,
0001
0000
0001
0000
,
0010
0000
0010
0000
,
1000
0000
1000
0000
,
0100
0000
0100
0000
,
0001
0000
1000
0000
,
0100
0000
1000
0000
,
0001
0000
0010
0020
,
0000
0000
0000
0030
,
0001
0000
1000
0000
,
0010
0000
0100
0000
,
0001
0000
1000
0000
,
0100
0000
0100
0000
,
0200
0000
0000
0000
,
0000
0000
0000
0300
,
2000
0000
0000
3000
,
0002
0000
0003
0000
,
1001
0000
0000
0000
,
0000
0000
0000
0000
,
0110
0000
0000
0000
,
0000
0000
0000
0000
,
1001
0000
0000
0000
,
0000
0000
0000
0000
,
0110
0000
0000
0000
,
1001
0000
0000
0000
,
1001
0000
0000
0000
,
0000
0000
0000
0000
,
0110
0000
0000
0000
,
0000
0000
0000
0000
,
0002
0000
0000
0000
,
0000
0000
0000
0003
,
2000
0000
0000
3000
,
0002
0000
0003
0000
,
1000
0000
0001
0000
,
0010
0000
0010
0000
,
0100
0000
0100
0000
,
1000
0000
1000
0000
,
0001
0000
0001
0000
,
0100
0000
0010
0000
,
0100
0000
0001
0000
,
0001
0000
1000
0000
,
1000
0000
0100
0000
,
0010
0000
0100
0000
,
1000
0000
1000
0000
,
0001
0000
0100
0000
,
0010
0000
0100
0000
,
0001
0000
1000
0000
,
0001
0000
1000
0000
,
0002
0000
0000
0003
,
1000
0000
0100
0000
,
0010
0000
0001
0000
,
1000
0000
0001
0000
,
0100
0000
0010
0010
,
0010
0000
0100
0000
,
0001
0000
1000
0000
,
1001
0000
0000
0000
,
1001
0000
0000
0000
,
0001
0000
1000
0000
,
0010
0000
0100
0100
,
0100
0000
0001
0000
,
1000
0000
0100
0100
,
0100
0000
0010
0000
,
0001
0000
1000
0000
,
0001
0000
1000
0000
,
0002
0000
0000
0003
,
2002
0000
0000
0000
,
3003
0000
0000
0000
;

//--------------- dance-single - Fred-104 ----------------
#NOTEDATA:;
#STEPSTYPE:dance-single;
#DESCRIPTION:Fred-104;
#DIFFICULTY:Easy;
#METER:8;
#CREDIT:Fred-104;
#NOTES:
0000
0000
0000
0000
,
0000
0000
0000
0000
,
0000
0000
0000
0000
,
0000
0000
0000
0000
,
0000
0000
0000
0000
,
1001
0000
0000
0000
,
0000
0000
0000
0000
,
0110
0000
0000
0000
,
0000
1001
0000
0000
0110
0000
0000
0001
,
1000
0100
0001
0010
,
1000
0100
0001
0010
,
1000
0010
0001
0100
,
1000
0010
0001
0100
,
1000
0000
0000
1000
0000
0000
0100
0000
0000
0100
0000
0000
0010
0000
0000
0010
,
0000
0000
0001
0000
0000
0001
0000
0000
1000
0000
0000
0001
0000
0000
1000
0000
,
0001
0010
0100
1000
,
0001
1000
0001
1000
0001
0000
0000
0000
,
2000
3100
0010
0001
,
2000
3010
0100
0001
,
2000
3100
0001
0100
,
2000
3001
1000
1001
,
0002
0013
1000
0010
,
0002
1003
0010
0100
,
0002
0000
1003
0000
0100
0000
0010
0010
,
0000
0000
0011
0000
0000
0001
0000
0000
1000
0000
0000
0001
0000
0000
0100
0000
,
0120
1030
0001
0010
,
0200
0000
0000
0000
1300
0000
0000
0000
0001
0000
0000
1000
0000
0000
1001
0000
,
0000
0001
1000
0000
0100
0000
0001
0000
,
0200
0000
0000
0000
0310
0000
0000
0000
0001
0000
0000
1000
0000
0000
0100
0000
,
2000
3100
0001
0010
,
2000
3001
0010
0100
,
2000
0000
3001
0000
0100
0000
0010
0010
,
0000
0000
1010
0000
0000
1000
0000
0000
0001
0000
0000
0010
0000
0000
0100
0000
,
2000
0000
3001
0000
0100
0010
0100
0000
,
0002
0000
1003
0000
0100
0010
0001
0000
,
2000
0000
3010
0000
0100
0001
1000
0000
,
0002
0000
0013
0100
1000
0000
0001
0000
,
1000
0000
0000
1000
0000
0000
0100
0000
0000
0100
0000
0000
0001
0000
0000
0001
,
0000
0000
0010
0000
0000
0010
0000
0000
1000
0000
0000
0001
0000
0000
1000
0000
,
0001
0010
0100
1000
,
0001
1000
0001
1000
0001
0000
0000
0000
,
1001
0000
0000
0000
,
0000
0000
0000
0000
,
0110
0000
0000
0000
,
0000
0000
0000
0000
,
1001
0000
0000
0000
,
0000
0000
0000
0000
,
1100
0000
0000
0000
,
0011
0000
0000
0001
0000
0000
1000
0000
0000
0001
0000
0000
0000
0100
0000
0000
,
0102
0000
0000
0000
,
0000
0000
0000
0000
,
2003
0000
0000
0000
,
0000
3000
0001
1000
,
0001
0000
0000
0001
0000
0000
0010
0000
0000
0010
0000
0000
1000
0000
0000
1000
,
0000
0000
0100
0000
0000
0100
0000
0000
0001
0000
0000
1000
0000
0000
0001
0000
,
0100
0010
1000
0001
,
0010
0100
0010
0100
0010
0000
0000
0000
,
1001
0000
0002
0023
,
0130
0000
1000
0000
0001
1000
0001
0000
,
1001
0000
1000
0020
,
0000
0000
0000
0000
0031
0000
0000
0000
0010
0000
0000
1000
0000
0000
1000
0000
,
1001
0000
0001
1000
,
0010
0000
0100
0000
0010
0010
0010
0000
,
1001
0001
0010
0200
,
1000
1300
1001
0000
,
0110
1000
0001
0020
,
0100
0000
0130
0000
1000
0001
1000
0000
,
1001
0001
1000
0010
,
0200
0000
0000
0000
0010
0000
0000
0000
0310
0000
0000
0010
0000
0000
0010
0000
,
0110
1000
0001
2000
,
0100
0100
3100
0010
,
1001
0100
0110
0002
,
0000
2003
0000
3020
,
1030
0100
1000
0100
,
0001
0100
0001
0100
,
1000
0100
0001
0100
,
1000
0000
0000
0000
0100
0000
0000
0000
0010
0000
0000
0010
0000
0000
0010
0000
,
0001
0010
0001
0010
,
1000
0010
1000
0010
,
0011
0000
1010
0000
,
0001
0000
0000
0001
0000
0000
1000
0000
0000
1000
0000
0000
0010
0000
0100
0000
,
0001
0100
1000
0100
,
0001
0000
0000
0000
1000
0000
0000
0000
0100
0000
0000
0010
0000
0000
0100
0000
,
0010
0001
1000
0010
,
0110
0000
0000
0000
0100
0000
0000
0000
0001
0000
0000
1000
0000
0000
0001
0000
,
0100
0010
1000
0100
,
0001
0000
0100
0000
1000
0001
1000
0000
,
1100
0000
0011
0000
,
0000
0000
1000
0000
0000
0001
0000
0000
0100
0000
0000
0010
0000
0000
0100
0000
,
0220
0000
0000
0000
,
0330
0000
0000
0000
;

//--------------- dance-single - Fred-104 ----------------
#NOTEDATA:;
#STEPSTYPE:dance-single;
#DESCRIPTION:Fred-104;
#DIFFICULTY:Medium;
#METER:13;
#CREDIT:Fred-104;
#NOTES:
0000
0000
0000
0000
,
0000
0000
0000
0000
,
0000
0000
0000
0000
,
0000
0000
0000
0000
,
0000
0000
0000
0000
,
1001
0000
0000
0000
,
0000
0000
0000
0000
0000
0000
0000
0000
0000
0000
0000
0001
0000
1000
0000
0000
,
1100
0000
0000
0000
,
0000
0000
0110
0000
0000
0010
0000
0000
0011
0000
0000
0001
0000
0000
1000
0000
,
1100
0100
0010
0010
,
0002
0003
0001
0000
1000
0000
0010
0100
,
0002
0003
0001
0000
0010
0000
0010
0000
,
2000
3000
1000
0000
0100
0000
0100
0001
,
1000
0000
0000
1100
0000
0000
0001
0000
0000
0101
0000
0000
1000
0000
0000
1010
,
0000
0000
0001
0000
0000
0011
0000
0000
1001
0000
0000
0110
0000
0000
1001
0000
,
0001
0010
0100
1000
0001
0100
0010
1000
,
0001
1000
0001
1000
0001
1000
0001
1000
0001
0000
0000
0000
0000
0000
0000
0000
,
0120
0000
1030
0100
0001
1000
0010
0001
,
2000
0000
3001
0100
1000
0001
0010
1000
,
0002
0000
1003
0100
0010
1000
0010
0001
,
0020
0000
0000
0000
0130
0000
1000
0000
0001
0100
0000
0001
1000
0000
0000
0000
,
2001
0000
3001
0100
1000
0100
0010
1000
,
0002
0000
1003
0100
0010
1000
0010
0001
,
2000
0000
3010
0100
1000
0100
0001
1000
,
0000
0000
1100
0000
0000
0101
0000
0000
1010
0000
0000
0011
0000
0000
0110
0000
,
1002
0000
1003
0100
0001
0100
0010
0001
,
2000
0000
0000
0000
3001
0000
0100
0000
0010
0000
0000
0110
0000
0000
1001
0000
,
0000
1000
0100
0001
0100
0010
0100
1000
,
0002
0000
0000
0000
0103
0000
0010
0000
0110
0000
0000
1010
0000
0000
0101
0000
,
2001
0000
3001
0100
1000
0001
0010
1000
,
0200
0000
0310
0001
1000
0010
0001
0010
,
2000
0000
3001
0010
1000
0010
0001
1000
,
0000
0000
1100
0000
0000
0011
0000
0000
1010
0000
0000
0101
0000
0000
1001
0000
,
0120
0000
1030
0001
0010
1000
0010
0100
,
2000
0000
3100
1000
0001
0100
1000
0100
,
0020
0000
0130
0001
1000
0100
0001
0100
,
2000
0000
0000
0000
3001
0000
0100
0000
0010
1000
0000
0001
1000
0000
0000
0000
,
0001
0000
0000
0011
0000
0000
1000
0000
0000
1010
0000
0000
0001
0000
0000
0101
,
0000
0000
1000
0000
0000
1100
0000
0000
1001
0000
0000
0110
0000
0000
1001
0000
,
0001
1000
0100
0010
0001
1000
0010
1000
,
0001
1000
0001
1000
0001
1000
0001
1000
0001
0000
0000
0000
0000
0000
0000
0000
,
1001
0000
0000
0000
,
0000
0000
0000
0000
0000
0000
0000
0000
0000
0000
0000
0000
0000
0110
0000
0000
,
1010
0000
0000
0000
,
0000
0000
0000
0000
,
0101
0000
0000
0000
,
0000
0000
0000
0000
0000
0000
0000
0000
0000
0000
0000
1000
0000
1100
0000
0000
,
0011
0000
0000
0000
,
0011
0000
0000
0101
0000
0000
1010
0000
0000
1100
0000
0000
0001
1000
0000
0000
,
2001
0000
0000
0000
,
0000
0000
0000
0000
,
3002
0000
0000
0000
,
0000
0000
0003
0000
1000
0100
0001
0100
,
1000
0000
0000
1100
0000
0000
0001
0000
0000
0101
0000
0000
1000
0000
0000
1010
,
0000
0000
0001
0000
0000
0011
0000
0000
1001
0000
0000
0110
0000
0000
1001
0000
,
0001
0100
1000
0100
0010
0100
0001
1000
,
0100
0010
0100
0010
0100
0010
0100
0010
0100
0000
0000
0000
0000
0000
0000
0000
,
1001
0000
1000
0000
0001
0100
0020
0000
,
2030
0000
0001
0000
0100
0100
0100
3100
,
0110
0001
0012
2003
,
3010
0000
0000
0000
0100
0000
0001
0000
0010
0000
0000
0011
0000
0000
1001
0000
,
1010
0001
1200
0320
,
0032
1000
1003
0000
0100
0010
0001
1000
,
1001
0000
1000
0000
0001
0100
0002
0000
,
0100
0000
1003
0001
1001
0000
0001
0000
,
0101
0000
1000
0000
0001
0010
0200
0000
,
1000
0000
0001
0000
1300
0001
0100
0010
,
0100
0000
0101
0000
1000
0100
0020
0000
,
0001
0000
0000
0000
0100
0000
0000
0000
0031
0000
0000
1001
0000
0000
1100
0000
,
0101
0000
0110
0000
0001
0020
1000
0000
,
0001
1000
0031
1001
,
0110
0000
1000
0100
0110
0000
0002
0000
,
0000
2003
0000
3002
,
0103
0000
0000
0010
0100
0000
0001
0000
1000
0000
0000
0100
0010
0000
0001
0000
,
1000
0000
0000
0001
0100
0000
0010
0000
1000
0000
0000
0001
0010
0000
0100
0000
,
1000
0000
0000
0010
0100
0000
0010
0000
1000
0000
0000
0100
0010
0000
0001
0000
,
1000
0000
0001
0000
0100
0000
0010
0000
1010
0000
0000
0101
0000
0000
1100
0000
,
0100
0000
0000
0010
0001
0000
1000
0000
0001
0000
0000
0100
0010
0000
0100
0000
,
0001
0000
0000
0010
0100
0000
1000
0000
0001
0000
0000
1000
0100
0000
1000
0000
,
1100
0000
0010
0000
0101
0000
0010
1000
,
0001
0000
0000
0011
0000
0000
1010
0000
0000
0101
0000
0000
1100
0000
0001
0000
,
0100
0001
0000
1000
0001
0000
0001
0000
1000
0100
0000
0010
0001
0000
0001
0000
,
1000
0001
0000
0100
0010
0000
1000
0000
1001
0000
0000
0110
0000
0000
1001
0000
,
1000
0000
0000
0001
0020
0030
0100
0000
1000
0001
0000
0100
0001
0000
1000
0000
,
1001
0000
0000
0000
0001
0000
0100
0000
0010
0000
0000
1010
0000
0000
0101
0000
,
0001
1000
0000
0001
0100
0000
0100
0000
0001
1000
0000
0100
0010
0000
0010
0000
,
0100
1000
0000
0001
0100
0000
0100
0000
0010
1000
0000
0001
0010
0000
0100
0000
,
2100
0000
3001
0000
0102
0000
1003
0001
,
0000
0000
1100
0000
0000
1010
0000
0000
0101
0000
0000
0011
0000
0000
0110
0000
,
2002
0000
0000
0000
,
3003
0000
0000
0000
;

//--------------- dance-single - Fred-104 ----------------
#NOTEDATA:;
#STEPSTYPE:dance-single;
#DESCRIPTION:Fred-104;
#DIFFICULTY:Hard;
#METER:16;
#CREDIT:Fred-104;
#NOTES:
0000
0000
0000
0000
,
0000
0000
0000
0000
,
0000
0000
0000
0000
,
0000
0000
0000
0000
,
0000
0000
0000
0000
,
1001
0000
0000
0000
,
0000
0000
0000
0000
0000
0000
0000
0000
0000
0000
0000
1010
0000
0011
0000
0000
,
0110
0000
0000
0000
,
0000
0000
0011
0000
0000
1010
0000
0000
0101
0000
0000
1100
0000
0000
1001
0000
,
1000
1000
0010
0010
,
0200
0000
0300
0000
0100
0000
0000
0000
0001
0000
0000
0000
0001
1000
0001
1000
,
0200
0300
0100
0000
0010
0000
0010
0000
,
0200
0000
0000
0000
0000
0000
0000
0000
0300
0000
0000
0000
0000
0000
0000
0000
0100
0000
0000
0000
0000
0000
0000
0000
0000
0000
0000
0000
0000
0000
0000
0000
1000
0000
0000
0000
0000
0000
0000
0000
0001
0000
0000
0000
0000
0000
0000
0000
0100
0000
0000
0000
0000
0000
0000
0000
0001
0000
0000
0000
0000
1000
0000
0000
,
0001
0000
0000
0011
0000
0000
1010
0000
0000
1100
0000
0000
0101
0000
0000
0011
,
0000
0000
1010
0000
0000
1100
0000
0000
0101
0000
0000
0011
0000
0000
1001
0000
,
1000
0100
1000
0100
0010
0001
0010
0001
1000
0010
1000
0010
0100
0001
0100
0001
,
1000
0100
0010
0001
0010
0100
1000
0001
0100
0000
0000
0000
0000
0000
0000
0000
,
1002
0000
0000
0000
1003
0100
1000
0100
0010
0001
0010
0001
1000
0100
0010
0001
,
2000
0000
0000
0000
3001
0100
0001
0100
0010
1000
0010
1000
0001
0100
0010
0000
,
1000
0002
0000
0000
0013
0100
1000
0001
0010
0100
1000
0001
0100
0010
1000
0001
,
0020
0000
0000
0000
0130
0010
0001
1000
0010
0100
0000
0100
0001
1000
0000
0000
,
2001
0000
0000
0000
0000
0000
0000
0000
0000
0000
0000
0000
0000
0000
0000
0000
3001
0000
0000
0000
0000
0100
0000
0000
0010
0000
0000
0000
0000
1000
0000
0000
0001
0000
0000
0000
0000
0010
0000
0000
0100
0000
0000
0000
0000
1000
0000
0000
0100
0000
0000
0000
0000
0010
0000
0000
0001
0000
0000
0000
0000
1000
0000
0000
,
0020
0000
0000
0000
0000
0000
0000
0000
0000
0000
0000
0000
0000
0000
0000
0000
0130
0000
0000
0000
0000
0001
0000
0000
1000
0000
0000
0000
0000
0001
0000
0000
0010
0000
0000
0000
0000
0100
0000
0000
0010
0000
0000
0000
0000
0001
0000
0000
1000
0000
0000
0000
0000
0010
0000
0000
0100
0000
0000
0000
0000
0000
0000
0000
,
0001
0000
0000
0000
0000
2000
0000
0000
0000
0000
0000
0000
0000
0000
0000
0000
3100
0000
0000
0000
0000
0010
0000
0000
0001
0000
0000
0000
0000
1000
0000
0000
0010
0000
0000
0000
0000
0100
0000
0000
0001
0000
0000
0000
0000
1000
0000
0000
0100
0000
0000
0000
0000
0010
0000
0000
0100
0000
0000
0000
0000
1000
0000
0000
,
0000
0000
1010
0000
0000
0011
0000
0000
0101
0000
0000
1100
0000
0000
1001
0000
,
0102
0000
0000
0000
0000
0000
0000
0000
0000
0000
0000
0000
0000
0000
0000
0000
1003
0000
0000
0000
0000
0100
0000
0000
1000
0000
0000
0000
0000
0001
0000
0000
0100
0000
0000
0000
0000
0001
0000
0000
1000
0000
0000
0000
0000
0100
0000
0000
0010
0000
0000
0000
0000
0001
0000
0000
0010
0000
0000
0000
0000
0100
0000
0000
,
2000
0000
0000
0000
0000
0000
0000
0000
0000
0000
0000
0000
0000
0000
0000
0000
3001
0000
0000
0000
0000
0010
0000
0000
0100
0000
0000
0000
0000
0000
0000
0000
1100
0000
0000
0000
0000
0000
0000
0000
0000
0000
0000
0000
0101
0000
0000
0000
0000
0000
0000
0000
0000
0000
0000
0000
1001
0000
0000
0000
0000
0000
0000
0000
,
0000
0000
0000
0000
0000
0001
0000
0000
0020
0000
0000
0000
0000
0000
0000
0000
0130
0000
0000
0000
0000
1000
0000
0000
0001
0000
0000
0000
0000
1000
0000
0000
0010
0000
0000
0000
0000
0100
0000
0000
0010
0000
0000
0000
0000
1000
0000
0000
0001
0000
0000
0000
0000
0010
0000
0000
0100
0000
0000
0000
0000
1000
0000
0000
,
0002
0000
0000
0000
0000
0000
0000
0000
0000
0000
0000
0000
0000
0000
0000
0000
1003
0000
0000
0000
0000
0001
0000
0000
0010
0000
0000
0000
0000
0000
0000
0000
0011
0000
0000
0000
0000
0000
0000
0000
0000
0000
0000
0000
1100
0000
0000
0000
0000
0000
0000
0000
0000
0000
0000
0000
0101
0000
0000
0000
0000
0000
0000
0000
,
2001
0000
0000
0000
0000
0000
0000
0000
0000
0000
0000
0000
0000
0000
0000
0000
3001
0000
0000
0000
0000
1000
0000
0000
0100
0000
0000
0000
0000
0010
0000
0000
0001
0000
0000
0000
0000
0010
0000
0000
0100
0000
0000
0000
0000
1000
0000
0000
0001
0000
0000
0000
0000
0100
0000
0000
0010
0000
0000
0000
0000
1000
0000
0000
,
0002
0000
0000
0000
0000
0000
0000
0000
0000
0000
0000
0000
0000
0000
0000
0000
0013
0000
0000
0000
0000
0100
0000
0000
1000
0000
0000
0000
0000
0001
0000
0000
0100
0000
0000
0000
0000
0010
0000
0000
1000
0000
0000
0000
0000
0010
0000
0000
0100
0000
0000
0000
0000
0001
0000
0000
1000
0000
0000
0000
0000
0000
0000
0000
,
0100
0000
0000
0000
0000
0020
0000
0000
0000
0000
0000
0000
0000
0000
0000
0000
0031
0000
0000
0000
0000
1000
0000
0000
0010
0000
0000
0000
0000
1000
0000
0000
0001
0000
0000
0000
0000
0010
0000
0000
0001
0000
0000
0000
0000
1000
0000
0000
0010
0000
0000
0000
0000
0100
0000
0000
0001
0000
0000
0000
0000
1000
0000
0000
,
0000
0000
1100
0000
0000
0101
0000
0000
1001
0000
0001
0100
0010
1000
0001
0000
,
1002
0000
0000
0000
1003
0001
0100
0010
1000
0001
0010
0100
1000
0001
1000
0010
,
0200
0000
0000
0000
0301
1000
0010
1000
0001
0100
0001
1000
0100
1000
0001
0000
,
0100
0020
0000
0000
1030
0001
0010
0100
1000
0100
0010
0001
1000
0010
0100
0001
,
2000
0000
0000
0000
3100
1000
0001
0100
0010
1000
0000
1000
0001
0010
0000
0000
,
0011
0000
0000
1010
0000
0000
1100
0000
0000
0101
0000
0000
0011
0000
0000
1010
,
0000
0000
1100
0000
0000
0101
0000
0000
1001
0000
0000
0110
0000
0000
1001
0000
,
0001
0100
0001
0100
0010
1000
0010
1000
0001
0010
0001
0010
0100
1000
0100
1000
,
0001
0100
0010
1000
0010
0100
0001
1000
0100
0010
0000
0010
0000
0001
0000
0000
,
2002
0000
0000
0000
,
0000
0000
0000
0000
0000
0000
0000
0000
3003
0000
0000
0000
0000
1010
0000
0000
,
0101
0000
0000
0000
,
0000
0000
0000
0000
,
1100
0000
0000
0000
,
0000
0000
0000
0000
0000
0000
0000
0000
0000
0000
0000
0011
0000
0110
0000
0000
,
1001
0000
0000
0000
,
1100
0000
0000
1010
0000
0000
0101
0000
0000
0011
0000
0000
0001
1000
0000
0000
,
2100
0000
0000
0000
,
0000
0000
0000
0000
,
3002
0000
0000
0000
,
0000
0000
0000
0000
0000
0000
0000
0000
0000
0000
0000
0000
0000
0000
0000
0000
0003
0000
0000
0000
0000
0000
0000
0000
0000
0000
0000
0000
0000
0000
0000
0000
1000
0000
0000
0000
0000
0000
0000
0000
0100
0000
0000
0000
0000
0000
0000
0000
0010
0000
0000
0000
0000
0000
0000
0000
0001
0000
0000
0000
0000
1000
0000
0000
,
0001
0000
0000
0011
0000
0000
1010
0000
0000
1100
0000
0000
0101
0000
0000
0011
,
0000
0000
1010
0000
0000
1100
0000
0000
0101
0000
0000
0011
0000
0000
1001
0000
,
1000
0100
0010
0001
1000
0100
0010
0001
1000
0010
0100
0001
1000
0010
0100
0001
,
1000
0001
0010
0100
0010
0001
1000
0010
0100
0000
0000
0000
0000
0000
0000
0000
,
1001
0000
1000
0100
0110
0010
0001
0000
,
2000
0010
0010
3010
0100
0001
1000
0100
,
0110
0000
0001
0100
0101
0001
1000
0000
,
0200
0000
0010
0000
0010
0000
0310
0000
0011
0000
0000
1010
0000
0000
0101
0000
,
1001
0000
0001
0010
0110
0100
1000
0000
,
0002
0100
0100
0103
1000
0100
0001
0010
,
0110
0000
1000
0001
0101
0001
2000
0100
,
0100
0000
3100
0000
0010
0000
0001
1000
0001
0000
0000
0000
0100
0010
0000
0000
,
0110
0000
0001
1000
1010
0010
0200
0000
,
0301
1000
0002
0003
1001
1000
0010
0100
,
0101
0000
1000
0001
0011
0001
0200
0010
,
0010
0000
0010
0000
0310
0000
0000
0000
1010
0000
0000
0101
0000
0000
1100
0000
,
0110
0000
0010
0001
0101
0100
0020
1000
,
1000
1000
1030
0001
0201
0000
0310
0000
,
0110
0000
1000
0001
1001
1000
0200
0000
,
0000
0320
0000
0032
,
2003
0001
0000
3001
0010
0000
0100
0000
1000
0001
0000
0001
0100
0000
0010
0000
,
2000
0100
0000
3100
0010
0000
0001
0000
1000
0001
0000
0001
0010
0000
0100
0000
,
2000
0001
0000
3001
0100
0000
0010
0000
0200
0001
0000
0301
1000
0000
0100
0000
,
0010
0000
0001
0010
0100
1000
0001
1000
0010
0000
0000
0110
0000
0000
0001
1000
,
0002
1000
0000
1003
0010
0000
0100
0000
0010
1000
0000
1000
0001
0000
0010
0000
,
0200
1000
0000
1300
0001
0000
0100
0000
0020
1000
0000
1030
0002
0000
0023
0030
,
0110
0000
0000
1000
0000
0000
0001
0000
0000
0000
0000
0000
1001
0000
0000
1000
0000
0000
0001
0000
0000
0100
0001
0100
,
0001
0000
0000
0101
0000
0000
1010
0000
0000
0011
0000
0000
1100
0000
1001
0000
,
0001
0100
0000
1000
0100
0000
0010
0000
1000
0001
0000
0010
1000
0000
0010
0000
,
0100
1000
0000
0001
0100
0000
0010
0000
1010
0000
0000
0101
0000
0000
1100
0000
,
0001
0010
0000
1000
0010
0000
0001
0000
1000
0010
0000
0001
0010
0000
0100
0000
,
0101
0000
0000
0000
1100
0000
0001
1000
0010
0000
0000
0110
0000
0000
1001
0000
,
1000
0100
0000
0010
1000
0000
0010
0000
0001
1000
0000
0010
0001
0000
0010
0000
,
0100
0001
0000
0010
0100
0000
0001
0000
0100
1000
0000
0001
1000
0000
0001
0000
,
0101
0000
0000
0000
0000
0000
0000
0000
0010
0000
0000
0000
0000
0000
0000
0000
1000
0000
0000
0000
0000
0000
0000
0000
0000
0000
0000
0000
0000
0000
0000
0000
1100
0000
0000
0000
0000
0000
0000
0000
0010
0000
0000
0000
0000
0000
0000
0000
0001
0000
0000
0000
0000
1000
0000
0000
0001
0000
0000
0000
0000
1000
0000
0000
,
0000
0000
1100
0000
0000
0101
0000
0000
1001
0000
0001
0010
0000
0000
1010
0000
,
2002
0000
0000
0000
,
3003
0000
0000
0000
;

//--------------- dance-double - Fred-104 ----------------
#NOTEDATA:;
#STEPSTYPE:dance-double;
#DESCRIPTION:Fred-104;
#DIFFICULTY:Easy;
#METER:8;
#CREDIT:Fred-104;
#NOTES:
00000000
00000000
00000000
00000000
,
00000000
00000000
00000000
00000000
,
00000000
00000000
00000000
00000000
,
00000000
00000000
00000000
00000000
,
00000000
00000000
00000000
00000000
,
10010000
00000000
00000000
00000000
,
00000000
00000000
00000000
00000000
,
11000000
00000000
00000000
00000000
,
00000000
11000000
00000000
00000000
01010000
00000000
00000000
00010000
,
00001000
00010000
00100000
10000000
,
01000000
00010000
00001000
00010000
,
00001000
00000010
00000001
00000100
,
00001000
00010000
00011000
00000000
,
00001000
00000000
00000000
00010000
00000000
00000000
00100000
00000000
00000000
10000000
00000000
00000000
01000000
00000000
00000000
00010000
,
00000000
00000000
00001000
00000000
00000000
00000010
00000000
00000000
00000001
00000000
00000000
00000100
00000000
00000000
00001000
00000000
,
00010000
00001000
00000100
00000001
,
00000010
00000100
00000010
00000100
00000010
00000000
00000000
00000000
,
00000002
00000103
00001000
00010000
,
00002000
00013000
01000000
00200000
,
00310000
10000000
00100000
01000000
,
00020000
10030000
01000000
01100000
,
00020000
10030000
01000000
00010000
,
00002000
00003010
00000100
00001000
,
00000020
00000000
00010030
00000000
00001000
00000000
00010000
00010000
,
00000000
00000000
00011000
00000000
00000000
00001000
00000000
00000000
01000000
00000000
00000000
00010000
00000000
00000000
10000000
00000000
,
12000000
03100000
00001000
00010000
,
00002000
00000000
00000000
00000000
00003010
00000000
00000000
00000000
00000001
00000000
00000000
00001000
00000000
00000000
00001001
00000000
,
00000000
00000001
00000100
00000000
00001000
00000000
00010000
00000000
,
02000000
00000000
00000000
00000000
13000000
00000000
00000000
00000000
00010000
00000000
00000000
10000000
00000000
00000000
01000000
00000000
,
00200000
00301000
00010000
00001000
,
02000000
03001000
00010000
00001000
,
00000200
00000000
00000310
00000000
00010000
00000000
00001000
00001000
,
00000000
00000000
00011000
00000000
00000000
00001000
00000000
00000000
01000000
00000000
00000000
00001000
00000000
00000000
00010000
00000000
,
00002000
00000000
00003100
00000000
00000001
00001000
00000001
00000000
,
00002000
00000000
00003010
00000000
00010000
00001000
00010000
00000000
,
00002000
00000000
01003000
00000000
00010000
10000000
00010000
00000000
,
20000000
00000000
31000000
00100000
00001000
00000000
00010000
00000000
,
00001000
00000000
00000000
00010000
00000000
00000000
01000000
00000000
00000000
10000000
00000000
00000000
00100000
00000000
00000000
00010000
,
00000000
00000000
00001000
00000000
00000000
00000100
00000000
00000000
00000001
00000000
00000000
00000010
00000000
00000000
00001000
00000000
,
00010000
00001000
00010000
00000100
,
00001000
00000001
00001000
00000001
00000010
00000000
00000000
00000000
,
00000110
00000000
00000000
00000000
,
00000000
00000000
00000000
00000000
,
00001001
00000000
00000000
00000000
,
00000000
00000000
00000000
00000000
,
00010100
00000000
00000000
00000000
,
00000000
00000000
00000000
00000000
,
01001000
00000000
00000000
00000000
,
00011000
00000000
00000000
00001000
00000000
00000000
01000000
00000000
00000000
00010000
00000000
00000000
00000000
10000000
00000000
00000000
,
12000000
00000000
00000000
00000000
,
00000000
00000000
00000000
00000000
,
23000000
00000000
00000000
00000000
,
00000000
30000000
01000000
00010000
,
00001000
00000000
00000000
00010000
00000000
00000000
01000000
00000000
00000000
10000000
00000000
00000000
00100000
00000000
00000000
00010000
,
00000000
00000000
00001000
00000000
00000000
00000100
00000000
00000000
00000001
00000000
00000000
00000010
00000000
00000000
00001000
00000000
,
00010000
00001000
00010000
00000100
,
00001000
00000001
00001000
00000001
00000100
00000000
00000000
00000000
,
00001001
00000000
00000002
00000203
,
00001300
00000000
00010000
00000000
00001000
00010000
00001000
00000000
,
00011000
00000000
00001000
00020000
,
00000000
00000000
00000000
00000000
00130000
00000000
00000000
00000000
10000000
00000000
00000000
00010000
00000000
00000000
10000000
00000000
,
10010000
00000000
10000000
01000000
,
00010000
00000000
01000000
00000000
00100000
00100000
00100000
00000000
,
10010000
10000000
00100000
00020000
,
00001000
00031000
00011000
00000000
,
00000110
00001000
00000001
00000020
,
00000100
00000000
00000130
00000000
00010000
00001000
00010000
00000000
,
00011000
00001000
01000000
00010000
,
20000000
00000000
00000000
00000000
01000000
00000000
00000000
00000000
31000000
00000000
00000000
00100000
00000000
00000000
00010000
00000000
,
00110000
10000000
00100000
02000000
,
00010000
00010000
03010000
00100000
,
00011000
00010000
00010010
00002000
,
00000000
00023000
00000000
00032000
,
00013000
00001000
00010000
00001000
,
00000100
00001000
00000100
00001000
,
00010000
00001000
00000100
00001000
,
00010000
00001000
00011000
00000000
,
00001000
00010000
00100000
00010000
,
00001000
00000000
00010000
00000000
00100000
00000000
10000000
00010000
,
10000000
00000000
01100000
00000000
,
10000000
00000000
00000000
10000000
00000000
00000000
01000000
00000000
00000000
01000000
00000000
00000000
00100000
00000000
00001000
00000000
,
00010000
00001000
01000000
00001000
,
00010000
00000000
00000000
00000000
00000100
00000000
00000000
00000000
00001000
00000000
00000000
00001000
00000000
00000000
00001000
00000000
,
00000001
00000100
00000010
00000100
,
00001000
00000000
00000000
00000000
00010000
00000000
00000000
00000000
00001000
00000000
00000000
00010000
00000000
00000000
00001000
00000000
,
00010000
01000000
00100000
00010000
,
10000000
00000000
00100000
00000000
01000000
00010000
10000000
00000000
,
10100000
00000000
01010000
00000000
,
00000000
00000000
00100000
00000000
00000000
01000000
00000000
00000000
00010000
00000000
00000000
00001000
00000000
00000000
00010000
00000000
,
00022000
00000000
00000000
00000000
,
00033000
00000000
00000000
00000000
;

//--------------- dance-double - Fred-104 ----------------
#NOTEDATA:;
#STEPSTYPE:dance-double;
#DESCRIPTION:Fred-104;
#DIFFICULTY:Medium;
#METER:13;
#CREDIT:Fred-104;
#NOTES:
00000000
00000000
00000000
00000000
,
00000000
00000000
00000000
00000000
,
00000000
00000000
00000000
00000000
,
00000000
00000000
00000000
00000000
,
00000000
00000000
00000000
00000000
,
00001001
00000000
00000000
00000000
,
00000000
00000000
00000000
00000000
00000000
00000000
00000000
00000000
00000000
00000000
00000000
00000001
00000000
00001000
00000000
00000000
,
00001010
00000000
00000000
00000000
,
00000000
00000000
00101000
00000000
00000000
00010000
00000000
00000000
11000000
00000000
00000000
00010000
00000000
00000000
00100000
00000000
,
00101000
00001000
00010000
00000010
,
00002000
00003000
00000001
00000000
00000010
00000000
00000100
00010000
,
00002000
00003000
00010000
00000000
00100000
00000000
10000000
00000000
,
02000000
03000000
00010000
00000000
00001000
00000000
00010000
00001000
,
00010000
00000000
00000000
00010010
00000000
00000000
00001000
00000000
00000000
00101000
00000000
00000000
00010000
00000000
00000000
00010100
,
00000000
00000000
00001000
00000000
00000000
01001000
00000000
00000000
00001000
00000000
00000000
00010000
00000000
00000000
00001000
00000000
,
00010000
00100000
01000000
00010000
00100000
01000000
10000000
00010000
,
10000000
00100000
10000000
00100000
10000000
00100000
10000000
00100000
10000000
00000000
00000000
00000000
00000000
00000000
00000000
00000000
,
01200000
00000000
10300000
01000000
00010000
00001000
00000100
00000001
,
00002000
00000000
00003001
00000010
00001000
00010000
00100000
10000000
,
00020000
00000000
10030000
01000000
00010000
00001000
00000100
00000010
,
00002000
00000000
00000000
00000000
00003001
00000000
00000100
00000000
00000010
00001000
00000000
00000010
00001000
00000000
00000000
00000000
,
00002001
00000000
00003001
00000100
00001000
00010000
01000000
00100000
,
00020000
00000000
10030000
00100000
00010000
00001000
00000010
00000100
,
00002000
00000000
00003001
00000010
00001000
00010000
00100000
01000000
,
00000000
00000000
01010000
00000000
00000000
01100000
00000000
00000000
10100000
00000000
00000000
11000000
00000000
00000000
00110000
00000000
,
10020000
00000000
10030000
01000000
00010000
00001000
00010000
00100000
,
20000000
00000000
00000000
00000000
31000000
00000000
00100000
00000000
00001000
00000000
00000000
00011000
00000000
00000000
00010100
00000000
,
00000000
00010000
00000100
00000010
00000001
00000100
00001000
00010000
,
00002000
00000000
00000000
00000000
00103000
00000000
00001000
00000000
00011000
00000000
00000000
01000000
00000000
00000000
00100000
00000000
,
20100000
00000000
30010000
00100000
01000000
00010000
00001000
00010000
,
00002000
00000000
00013000
00001000
00000100
00000010
00001000
00000001
,
00000020
00000000
00001030
00010000
00100000
10000000
01000000
00100000
,
00000000
00000000
00101000
00000000
00000000
00001000
00000000
00000000
00011000
00000000
00000000
00010000
00000000
00000000
00010010
00000000
,
00012000
00000000
00013000
00001000
00000100
00000001
00001000
00000100
,
00000020
00000000
00000031
00001000
00000010
00000100
00001000
00010000
,
00002000
00000000
00013000
00100000
01000000
00010000
10000000
01000000
,
00200000
00000000
00000000
00000000
00301000
00000000
00010000
00000000
00001000
00010000
00000000
00001000
00010000
00000000
00000000
00000000
,
00001000
00000000
00000000
01001000
00000000
00000000
00010000
00000000
00000000
00010100
00000000
00000000
00001000
00000000
00000000
00101000
,
00000000
00000000
00010000
00000000
00000000
00010010
00000000
00000000
00001000
00000000
00000000
00010000
00000000
00000000
00001000
00000000
,
00010000
00001000
00000100
00000001
00001000
00000100
00000010
00001000
,
00010000
00001000
00010000
00001000
00010000
00001000
00010000
00001000
00010000
00000000
00000000
00000000
00000000
00000000
00000000
00000000
,
00011000
00000000
00000000
00000000
,
00000000
00000000
00000000
00000000
00000000
00000000
00000000
00000000
00000000
00000000
00000000
00000000
00000000
01010000
00000000
00000000
,
10010000
00000000
00000000
00000000
,
00000000
00000000
00000000
00000000
,
11000000
00000000
00000000
00000000
,
00000000
00000000
00000000
00000000
00000000
00000000
00000000
00000000
00000000
00000000
00000000
00100000
00000000
00110000
00000000
00000000
,
00101000
00000000
00000000
00000000
,
00010010
00000000
00000000
00000010
00000000
00000000
00001010
00000000
00000000
00001000
00000000
00000000
00000001
00001000
00000000
00000000
,
00001200
00000000
00000000
00000000
,
00000000
00000000
00000000
00000000
,
00002300
00000000
00000000
00000000
,
00000000
00000000
00003000
00000000
00000001
00000100
00001000
00010000
,
00001000
00000000
00000000
01001000
00000000
00000000
00010000
00000000
00000000
00010010
00000000
00000000
00001000
00000000
00000000
00101000
,
00000000
00000000
00010000
00000000
00000000
00010100
00000000
00000000
00001000
00000000
00000000
00010000
00000000
00000000
00011000
00000000
,
00001000
00010000
00100000
10000000
00010000
10000000
01000000
00100000
,
00001000
00010000
00001000
00010000
00001000
00010000
00001000
00010000
00001000
00000000
00000000
00000000
00000000
00000000
00000000
00000000
,
00011000
00000000
00010000
00000000
00001000
00000100
00000020
00000000
,
00002030
00000000
00000001
00000000
00000100
00000100
00003100
00000000
,
00000110
00010000
00021000
00032000
,
01003000
00000000
00000000
00000000
00010000
00000000
00100000
00000000
01000000
00000000
00000000
11000000
00000000
00000000
10100000
00000000
,
01010000
10000000
00120000
20030000
,
32000000
00100000
03100000
00000000
00001000
00010000
00001000
00010000
,
00011000
00000000
00001000
00000000
00010000
00000100
00020000
00000000
,
00001000
00000000
00031000
00010000
00011000
00000000
00000010
00000000
,
00001001
00000000
00000100
00000010
00000001
00001000
00000020
00000000
,
00000100
00000000
00001000
00000000
00001030
00000100
00010000
00001000
,
00010000
00000000
00011000
00000000
00001000
00010000
00200000
00000000
,
10000000
00000000
00000000
00000000
00010000
00000000
00000000
00000000
10300000
00000000
00000000
11000000
00000000
00000000
01010000
00000000
,
00011000
00000000
00101000
00000000
00010000
00002000
01000000
00000000
,
00010000
01003000
00001000
00011000
,
00010100
00000000
00001000
00000100
00000110
00000000
00000002
00000000
,
00000000
00002003
00000000
00003020
,
00000130
00000000
00000000
00000001
00001000
00000000
00000100
00000000
00010000
00000000
00000000
00001000
01000000
00000000
00001000
00000000
,
00010000
00000000
00000000
00100000
01000000
00000000
00010000
00000000
10000000
00000000
00000000
01000000
00100000
00000000
00001000
00000000
,
00010000
00000000
00000000
00001000
00000100
00000000
00000010
00000000
00001000
00000000
00000000
00000001
00000010
00000000
00000100
00000000
,
00010000
00000000
00001000
00000000
01000000
00000000
00001000
00000000
00011000
00000000
00000000
00101000
00000000
00000000
00011000
00000000
,
00001000
00000000
00000000
01000000
00010000
00000000
10000000
00000000
01000000
00000000
00000000
00100000
00001000
00000000
00010000
00000000
,
00100000
00000000
00000000
01000000
00010000
00000000
10000000
00000000
01000000
00000000
00000000
00010000
00001000
00000000
00000100
00000000
,
00000110
00000000
00000001
00000000
00000110
00000000
00001000
00000001
,
00000010
00000000
00000000
00000110
00000000
00000000
00010000
00000000
00000000
00011000
00000000
00000000
00001000
00000000
01000000
00000000
,
00010000
10000000
00000000
00010000
10000000
00000000
00000000
00000000
01000000
00100000
00000000
01000000
00100000
00000000
00001000
00000000
,
00010000
00000100
00000000
00010000
00000100
00000000
00000000
00000000
00001000
00000100
00000000
00001000
00000100
00000000
00000010
00000000
,
00000001
00000000
00000000
00000001
00002000
00000000
00003000
00000000
00000010
00010000
00000000
00001000
00010000
00000000
00100000
00000000
,
01000000
00010000
00000000
01000000
00010000
00000000
10000000
00000000
11000000
00000000
00000000
01010000
00000000
00000000
00011000
00000000
,
00010000
00001000
00000000
00010000
00000010
00000000
00001000
00000000
00000001
00000010
00000000
00000100
00000010
00000000
00000001
00000000
,
00001000
00000010
00000000
00010000
00001000
00000000
01000000
00000000
00010000
10000000
00000000
01000000
00100000
00000000
00001000
00000000
,
00011000
00000000
01000000
00000000
10010000
10000000
01000000
00100000
,
00000000
00000000
10100000
00000000
00000000
00110000
00000000
00000000
00011000
00000000
00000000
00001100
00000000
00000000
00000101
00000000
,
00002002
00000000
00000000
00000000
,
00003003
00000000
00000000
00000000
;

//--------------- dance-double - Fred-104 ----------------
#NOTEDATA:;
#STEPSTYPE:dance-double;
#DESCRIPTION:Fred-104;
#DIFFICULTY:Hard;
#METER:16;
#CREDIT:Fred-104;
#NOTES:
00000000
00000000
00000000
00000000
,
00000000
00000000
00000000
00000000
,
00000000
00000000
00000000
00000000
,
00000000
00000000
00000000
00000000
,
00000000
00000000
00000000
00000000
,
00011000
00000000
00000000
00000000
,
00000000
00000000
00000000
00000000
00000000
00000000
00000000
00000000
00000000
00000000
00000000
00001000
00000000
00010000
00000000
00000000
,
00010010
00000000
00000000
00000000
,
00000000
00000000
00011000
00000000
00000000
00110000
00000000
00000000
10100000
00000000
00000000
01010000
00000000
00000000
11000000
00000000
,
00100000
00100000
00001000
00001000
,
00020000
00000000
00030000
00000000
00010000
00000000
00000000
00000000
00000010
00000000
00000000
00000000
00000010
00001000
00000010
00001000
,
00000002
00000003
00000001
00000000
00000010
00000000
00000010
00000000
,
00002000
00000000
00000000
00000000
00000000
00000000
00000000
00000000
00003000
00000000
00000000
00000000
00000000
00000000
00000000
00000000
00001000
00000000
00000000
00000000
00000000
00000000
00000000
00000000
00000000
00000000
00000000
00000000
00000000
00000000
00000000
00000000
00010000
00000000
00000000
00000000
00000000
00000000
00000000
00000000
00001000
00000000
00000000
00000000
00000000
00000000
00000000
00000000
01000000
00000000
00000000
00000000
00000000
00000000
00000000
00000000
00001000
00000000
00000000
00000000
00000000
00010000
00000000
00000000
,
00001000
00000000
00000000
00011000
00000000
00000000
00110000
00000000
00000000
10100000
00000000
00000000
11000000
00000000
00000000
01010000
,
00000000
00000000
00011000
00000000
00000000
00001010
00000000
00000000
00000011
00000000
00000000
00000110
00000000
00000000
00001001
00000000
,
00000001
00000100
00000001
00000100
00000010
00010000
00000010
00010000
00001000
00100000
00001000
00100000
01000000
10000000
01000000
10000000
,
00010000
10000000
00100000
01000000
00001000
00010000
00000100
00000010
00000001
00000000
00000000
00000000
00000000
00000000
00000000
00000000
,
00002001
00000000
00000000
00000000
00003001
00000010
00000001
00000000
00001000
00000010
00001000
00000000
00000010
00010000
00001000
00100000
,
00020000
00000000
00000000
00000000
10030000
00010000
10000000
00000000
00010000
01000000
00010000
00000000
10000000
01000000
00100000
00001000
,
00010000
00000020
00000000
00000000
00001030
00000001
00000010
00000000
00000100
00000010
00000001
00000000
00001000
00000001
00000010
00000100
,
00020000
00000000
00000000
00000000
00031000
00100000
00010000
10000000
00100000
01000000
00000000
01000000
00001000
00010000
00000000
00000000
,
00012000
00000000
00000000
00000000
00000000
00000000
00000000
00000000
00000000
00000000
00000000
00000000
00000000
00000000
00000000
00000000
00013000
00000000
00000000
00000000
00000000
00001000
00000000
00000000
00010000
00000000
00000000
00000000
00000000
00000000
00000000
00000000
00000010
00000000
00000000
00000000
00000000
00001000
00000000
00000000
00000010
00000000
00000000
00000000
00000000
00000000
00000000
00000000
00000100
00000000
00000000
00000000
00000000
00000001
00000000
00000000
00001000
00000000
00000000
00000000
00000000
00000100
00000000
00000000
,
00000020
00000000
00000000
00000000
00000000
00000000
00000000
00000000
00000000
00000000
00000000
00000000
00000000
00000000
00000000
00000000
00000031
00000000
00000000
00000000
00000000
00001000
00000000
00000000
00000010
00000000
00000000
00000000
00000000
00000000
00000000
00000000
00000100
00000000
00000000
00000000
00000000
00001000
00000000
00000000
00010000
00000000
00000000
00000000
00000000
00000000
00000000
00000000
00100000
00000000
00000000
00000000
00000000
01000000
00000000
00000000
00010000
00000000
00000000
00000000
00000000
00000000
00000000
00000000
,
10000000
00000000
00000000
00000000
00000000
02000000
00000000
00000000
00000000
00000000
00000000
00000000
00000000
00000000
00000000
00000000
03100000
00000000
00000000
00000000
00000000
00001000
00000000
00000000
00010000
00000000
00000000
00000000
00000000
00000000
00000000
00000000
00001000
00000000
00000000
00000000
00000000
00010000
00000000
00000000
00000010
00000000
00000000
00000000
00000000
00001000
00000000
00000000
00000001
00000000
00000000
00000000
00000000
00001000
00000000
00000000
00000100
00000000
00000000
00000000
00000000
00000010
00000000
00000000
,
00000000
00000000
00000011
00000000
00000000
00001010
00000000
00000000
00011000
00000000
00000000
01010000
00000000
00000000
11000000
00000000
,
10020000
00000000
00000000
00000000
00000000
00000000
00000000
00000000
00000000
00000000
00000000
00000000
00000000
00000000
00000000
00000000
10030000
00000000
00000000
00000000
00000000
00100000
00000000
00000000
01000000
00000000
00000000
00000000
00000000
00000000
00000000
00000000
00100000
00000000
00000000
00000000
00000000
00010000
00000000
00000000
00001000
00000000
00000000
00000000
00000000
00000000
00000000
00000000
00000100
00000000
00000000
00000000
00000000
00000010
00000000
00000000
00000100
00000000
00000000
00000000
00000000
00000001
00000000
00000000
,
00002000
00000000
00000000
00000000
00000000
00000000
00000000
00000000
00000000
00000000
00000000
00000000
00000000
00000000
00000000
00000000
00003100
00000000
00000000
00000000
00000000
00000010
00000000
00000000
00001000
00000000
00000000
00000000
00000000
00010000
00000000
00000000
00001000
00000000
00000000
00000000
00000000
00000000
00000000
00000000
00000000
00000000
00000000
00000000
01100000
00000000
00000000
00000000
00000000
00000000
00000000
00000000
00000000
00000000
00000000
00000000
01001000
00000000
00000000
00000000
00000000
00000000
00000000
00000000
,
00000000
00000000
00000000
00000000
00000000
00001000
00000000
00000000
00020000
00000000
00000000
00000000
00000000
00000000
00000000
00000000
00031000
00000000
00000000
00000000
00000000
01000000
00000000
00000000
00010000
00000000
00000000
00000000
00000000
01000000
00000000
00000000
00001000
00000000
00000000
00000000
00000000
00010000
00000000
00000000
00000100
00000000
00000000
00000000
00000000
00001000
00000000
00000000
00000001
00000000
00000000
00000000
00000000
00001000
00000000
00000000
00000010
00000000
00000000
00000000
00000000
00010000
00000000
00000000
,
00002000
00000000
00000000
00000000
00000000
00000000
00000000
00000000
00000000
00000000
00000000
00000000
00000000
00000000
00000000
00000000
00013000
00000000
00000000
00000000
00000000
00100000
00000000
00000000
01000000
00000000
00000000
00000000
00000000
00000000
00000000
00000000
01010000
00000000
00000000
00000000
00000000
00000000
00000000
00000000
00000000
00000000
00000000
00000000
11000000
00000000
00000000
00000000
00000000
00000000
00000000
00000000
00000000
00000000
00000000
00000000
00101000
00000000
00000000
00000000
00000000
00000000
00000000
00000000
,
00012000
00000000
00000000
00000000
00000000
00000000
00000000
00000000
00000000
00000000
00000000
00000000
00000000
00000000
00000000
00000000
00013000
00000000
00000000
00000000
00000000
00001000
00000000
00000000
00010000
00000000
00000000
00000000
00000000
00000100
00000000
00000000
00001000
00000000
00000000
00000000
00000000
00000001
00000000
00000000
00000100
00000000
00000000
00000000
00000000
00000010
00000000
00000000
00001000
00000000
00000000
00000000
00000000
00000001
00000000
00000000
00000010
00000000
00000000
00000000
00000000
00000100
00000000
00000000
,
00000020
00000000
00000000
00000000
00000000
00000000
00000000
00000000
00000000
00000000
00000000
00000000
00000000
00000000
00000000
00000000
00000031
00000000
00000000
00000000
00000000
00001000
00000000
00000000
00000010
00000000
00000000
00000000
00000000
00010000
00000000
00000000
00001000
00000000
00000000
00000000
00000000
00010000
00000000
00000000
00100000
00000000
00000000
00000000
00000000
01000000
00000000
00000000
00100000
00000000
00000000
00000000
00000000
10000000
00000000
00000000
00010000
00000000
00000000
00000000
00000000
00000000
00000000
00000000
,
10000000
00000000
00000000
00000000
00000000
02000000
00000000
00000000
00000000
00000000
00000000
00000000
00000000
00000000
00000000
00000000
03100000
00000000
00000000
00000000
00000000
00001000
00000000
00000000
00010000
00000000
00000000
00000000
00000000
00000010
00000000
00000000
00001000
00000000
00000000
00000000
00000000
00000001
00000000
00000000
00000010
00000000
00000000
00000000
00000000
00000100
00000000
00000000
00001000
00000000
00000000
00000000
00000000
00000100
00000000
00000000
00010000
00000000
00000000
00000000
00000000
00001000
00000000
00000000
,
00000000
00000000
00011000
00000000
00000000
01001000
00000000
00000000
00011000
00000000
00010000
00000100
00001000
00000001
00000010
00000000
,
00000210
00000000
00000000
00000000
00001300
00000001
00000100
00000001
00001000
00000100
00010000
00001000
01000000
00010000
10000000
01000000
,
00200000
00000000
00000000
00000000
00301000
00010000
00001000
00100000
00010000
00100000
00001000
00010000
00000010
00001000
00000001
00000000
,
00000010
00000200
00000000
00000000
00010300
00001000
00100000
00001000
00010000
00001000
01000000
00010000
10000000
01000000
00100000
00010000
,
20000000
00000000
00000000
00000000
30100000
01000000
00001000
00010000
00000100
00001000
00000000
00001000
00000001
00000100
00000000
00000000
,
00000101
00000000
00000000
00001100
00000000
00000000
00011000
00000000
00000000
00110000
00000000
00000000
10100000
00000000
00000000
11000000
,
00000000
00000000
01010000
00000000
00000000
00011000
00000000
00000000
00001010
00000000
00000000
00000011
00000000
00000000
00001001
00000000
,
00000001
00001000
00000010
00010000
00001000
00100000
00010000
10000000
00100000
01000000
00001000
00010000
00000100
00001000
00000100
00000010
,
00000001
00001000
00000010
00000100
00001000
00010000
00100000
10000000
00010000
00100000
00000000
00100000
00000000
01000000
00000000
00000000
,
20020000
00000000
00000000
00000000
,
00000000
00000000
00000000
00000000
00000000
00000000
00000000
00000000
30030000
00000000
00000000
00000000
00000000
01001000
00000000
00000000
,
00011000
00000000
00000000
00000000
,
00000000
00000000
00000000
00000000
,
00000110
00000000
00000000
00000000
,
00000000
00000000
00000000
00000000
00000000
00000000
00000000
00000000
00000000
00000000
00000000
00000001
00000000
00001000
00000000
00000000
,
00001010
00000000
00000000
00000000
,
00000001
00000000
00000000
00000100
00000000
00000000
00001000
00000000
00000000
00010000
00000000
00000000
00100000
01000000
00000000
00000000
,
20010000
00000000
00000000
00000000
,
00000000
00000000
00000000
00000000
,
30020000
00000000
00000000
00000000
,
00000000
00000000
00000000
00000000
00000000
00000000
00000000
00000000
00000000
00000000
00000000
00000000
00000000
00000000
00000000
00000000
00030000
00000000
00000000
00000000
00000000
00000000
00000000
00000000
00000000
00000000
00000000
00000000
00000000
00000000
00000000
00000000
10000000
00000000
00000000
00000000
00000000
00000000
00000000
00000000
01000000
00000000
00000000
00000000
00000000
00000000
00000000
00000000
00100000
00000000
00000000
00000000
00000000
00000000
00000000
00000000
00001000
00000000
00000000
00000000
00000000
00010000
00000000
00000000
,
00001000
00000000
00000000
00011000
00000000
00000000
00001010
00000000
00000000
00000011
00000000
00000000
00000101
00000000
00000000
00001100
,
00000000
00000000
00011000
00000000
00000000
00110000
00000000
00000000
10100000
00000000
00000000
01010000
00000000
00000000
10010000
00000000
,
10000000
01000000
00100000
00010000
00100000
00001000
00010000
00000100
00001000
00000100
00000010
00000001
00001000
00000001
00000100
00000010
,
00000100
00001000
00010000
00100000
01000000
00010000
10000000
01000000
00100000
00000000
00000000
00000000
00000000
00000000
00000000
00000000
,
10010000
00000000
10000000
01000000
01100000
00100000
00002000
00000000
,
00010000
00000000
00000010
00000000
00013000
00001000
00000100
00000001
,
00001001
00000000
00000001
00000010
00000110
00000100
00020000
00000000
,
00001000
00000000
00000000
00000000
01000000
00000000
00000000
00000000
00031000
00000000
00000000
00011000
00000000
00000000
00010100
00000000
,
00011000
00000000
00001000
01000000
01010000
00010000
00200000
00000000
,
01000000
00000000
00010000
00000000
01000000
00000000
00301000
00010000
,
00011000
00000000
00010000
00000010
00001010
00001000
00000002
00000000
,
00000100
00000000
00000000
00000000
00001003
00000000
00000001
00000010
00000100
00000000
00000000
00000000
00010000
00001000
00000000
00000000
,
00011000
00000000
00001000
00100000
00110000
00010000
20000000
00000000
,
00100000
00000000
01000000
00000000
30100000
10000000
01000000
00100000
,
00110000
00000000
00100000
00001000
00011000
00010000
00000020
00000000
,
00001000
00000000
00000000
00000000
00000100
00000000
00000000
00000000
00001030
00000000
00000000
00001010
00000000
00000000
00010010
00000000
,
00011000
00000000
00010000
00000100
00001100
00001000
00000020
00000000
,
00000001
00000000
00000100
00000000
00001030
00000001
00001000
00000100
,
00010100
00000000
00010000
00001000
01001000
01000000
00200000
00000000
,
00000000
20300000
00000000
32000000
,
03100000
00001000
00000000
00010000
00000010
00000000
00001000
00000000
00000001
00000010
00000000
00000100
00010000
00000000
00001000
00000000
,
00010000
00100000
00000000
01000000
00100000
00000000
10000000
00000000
01000000
00100000
00000000
00001000
00010000
00000000
00000100
00000000
,
00010000
00001000
00000000
00000100
00000001
00000000
00001000
00000000
00000100
00000010
00000000
00000001
00001000
00000000
00000010
00000000
,
00010000
00000000
00001000
00000000
00100000
00010000
10000000
00010000
01000000
00000000
00000000
01100000
00000000
00000000
00010000
10000000
,
00010000
10000000
00000000
01000000
00100000
00000000
00001000
00000000
00010000
00100000
00000000
01000000
00010000
00000000
10000000
00000000
,
01000000
00100000
00000000
00001000
00000010
00000000
00000100
00000000
00001000
00000001
00000000
00000100
00000010
00000000
00010000
00000000
,
00011000
00000000
00000000
00000000
00000000
00000000
01000000
00000000
00000000
00000000
00000000
00000000
01100000
00000000
00000000
00000000
00000000
00000000
00010000
00000000
00000000
10000000
01000000
10000000
,
01000000
00000000
00000000
01100000
00000000
00000000
00101000
00000000
00000000
00010010
00000000
00000000
00011000
00000000
00010100
00000000
,
00010000
00000100
00000000
00001000
00000100
00000000
00000010
00000000
00000001
00000100
00000000
00000010
00001000
00000000
00000100
00000000
,
00000010
00001000
00000000
00010000
01000000
00000000
00100000
00000000
00110000
00000000
00000000
10100000
00000000
00000000
01010000
00000000
,
10000000
01000000
00000000
00010000
00001000
00000000
00010000
00000000
00000100
00001000
00000000
00000001
00000100
00000000
00000010
00000000
,
00001010
00000000
00000000
00000000
00000011
00000000
00001000
00000100
00000010
00000000
00000000
00000011
00000000
00000000
00001010
00000000
,
00000001
00000100
00000000
00000010
00000100
00000000
00001000
00000000
00010000
00100000
00000000
01000000
00010000
00000000
10000000
00000000
,
01000000
00100000
00000000
00001000
00010000
00000000
00000100
00000000
00000010
00000100
00000000
00001000
00000001
00000000
00000100
00000000
,
00000110
00000000
00000000
00000000
00000000
00000000
00000000
00000000
00001000
00000000
00000000
00000000
00000000
00000000
00000000
00000000
00000001
00000000
00000000
00000000
00000000
00000000
00000000
00000000
00000000
00000000
00000000
00000000
00000000
00000000
00000000
00000000
00000110
00000000
00000000
00000000
00000000
00000000
00000000
00000000
00000001
00000000
00000000
00000000
00000000
00000000
00000000
00000000
00001000
00000000
00000000
00000000
00000000
00000001
00000000
00000000
00001000
00000000
00000000
00000000
00000000
00000001
00000000
00000000
,
00000000
00000000
00000101
00000000
00000000
00001100
00000000
00000000
00011000
00000000
00010000
00100000
00000000
00000000
10100000
00000000
,
20020000
00000000
00000000
00000000
,
30030000
00000000
00000000
00000000
;
