#VERSION:0.83;
#TITLE:Erosion Mark;
#ARTIST:kors k REASM Des-ROW;
#GENRE:FALLIN APART CORE;
#BANNER:Erosion Mark.png;
#BACKGROUND:Erosion Mark-bg.png;
#CDTITLE:./CDTitles/pnm rhythmin.png;
#MUSIC:Erosion Mark.ogg;
#SAMPLESTART:67.5;
#SAMPLELENGTH:15;
#BPMS:0=96,20=192,48=96,50=192,110=96,144=192;
#TIMESIGNATURES:0=4=4,48=2=4,50=4=4,106=6=4,112=4=4;
#BGSTAGE:14;

//--------------- dance-single - Fred-104 ----------------
#NOTEDATA:;
#STEPSTYPE:dance-single;
#DESCRIPTION:Fred-104;
#DIFFICULTY:Beginner;
#METER:4;
#CREDIT:Fred-104;
#NOTES:
0000
0000
0000
0000
,
0000
0000
0000
0000
,
0000
0000
0000
0000
,
0000
0000
0000
0000
,
0000
0000
0000
0000
,
1000
0000
0001
0000
,
1000
0000
0010
0000
,
0100
0000
0001
0000
,
1000
0000
1000
0000
,
0001
0000
0100
0000
,
0001
0000
1000
0000
,
0001
0000
1000
0000
,
2002
3003
1000
0000
,
0010
0000
1000
0000
,
0000
0000
0001
0000
,
0010
0000
0001
0000
,
0000
0000
1000
0000
,
0100
0000
1000
0000
,
0000
0000
0001
0000
,
0100
0000
0001
0000
,
0000
0000
1000
0000
,
0010
0000
0100
0000
,
0001
0001
0001
0000
,
1000
0000
0020
0030
,
0100
0100
0100
0000
,
0001
0000
1000
0000
,
0001
0000
1000
0000
,
0001
0000
2002
3003
,
2000
0000
0000
3000
,
0002
0000
0000
0003
,
2000
0000
0000
3000
,
0002
0000
1003
0001
,
2000
0000
3020
0000
,
0230
0000
0301
1000
,
0002
0000
0000
0000
0203
0000
0000
0300
,
0020
0000
1030
0001
,
1000
0000
0000
0000
,
0001
0000
0000
0000
,
1000
0000
0001
0000
,
2002
0000
0000
3003
,
0001
0000
0100
0000
,
0001
0000
0100
0100
,
0100
0000
0010
0000
,
0100
0100
0100
0000
,
0001
0000
1000
0000
,
0001
0000
1000
1000
,
1000
0000
0001
0000
,
0200
0000
0000
0300
,
0010
0000
1000
0000
,
0001
0000
1000
1000
,
1000
0000
0001
0000
,
0100
0000
0001
0001
,
1001
0000
0000
0000
,
1001
0000
0000
0000
,
1000
0000
0000
0000
,
0001
0000
1000
0000
,
0001
0000
0100
0000
,
0010
0000
0100
0000
,
0010
0000
1000
0000
,
0100
0000
0010
0000
,
0001
0000
0100
0000
,
0001
0000
1000
0000
,
0001
0001
0001
0000
,
1000
0000
1000
0000
,
0001
0000
1000
0000
,
0010
0000
0100
0100
,
0100
0000
0001
0000
,
1000
1000
1000
1000
,
1000
0000
0001
0000
,
1000
0000
0100
0000
,
0010
0000
0001
0000
,
1000
1000
1000
1000
,
2000
0000
0000
3000
,
0002
0000
0000
0003
,
2000
0000
0000
3000
,
2002
0000
0000
0000
,
0000
0000
0000
0000
0000
3003
0000
0000
;

//--------------- dance-single - Fred-104 ----------------
#NOTEDATA:;
#STEPSTYPE:dance-single;
#DESCRIPTION:Fred-104;
#DIFFICULTY:Easy;
#METER:8;
#CREDIT:Fred-104;
#NOTES:
0000
0000
0000
0000
,
0000
0000
0000
0000
,
0000
0000
0000
0000
,
0000
0000
0000
0000
,
0000
0000
0000
0000
,
1000
1000
0010
0100
,
0001
1000
0001
0001
,
0100
0010
0100
0100
,
0002
0003
2000
3000
,
0001
0010
0100
1000
,
0001
0100
0010
1000
,
0001
1000
0001
1000
,
0002
2003
3010
0010
,
0100
0010
1000
0001
,
1000
0100
1000
0000
0001
0000
0001
0000
,
0100
0010
0100
0001
,
1000
0010
1000
0000
0001
0000
1000
0000
,
0100
0010
0100
1000
,
0001
0010
0001
0000
1000
0000
0010
0000
,
0100
0001
2000
3002
,
0203
0000
0301
0010
,
0001
0001
1000
0010
,
0100
0010
0100
0000
0001
0000
1000
0000
,
1000
0010
0100
0002
,
2003
3000
1000
0100
,
0010
0001
1000
0010
,
0100
0001
2000
3000
,
0002
0003
2002
3003
,
2000
0000
3020
0000
,
0230
0000
0302
0000
,
0023
0000
0230
0000
,
1300
0100
0010
0001
1000
0001
0100
0010
,
1000
0000
1010
0000
0010
0100
0001
0000
,
0010
0000
0011
0000
0001
1000
0010
0000
,
0100
0000
1100
0000
0010
0001
2000
3000
,
0001
0100
0010
0100
0001
1000
0001
0001
,
1000
1000
1000
1000
,
0001
0001
0001
0001
,
2000
0000
0000
0000
3000
0000
0002
0000
0000
0000
0003
0000
,
2002
0000
0000
3003
,
0001
0001
0100
0001
,
0100
0010
0100
0010
,
0010
1000
0001
1000
,
0100
1000
0001
0100
,
0100
0010
0100
0001
,
1000
0100
1000
0001
,
0100
0000
0100
0000
0010
1000
0001
0000
,
1000
0001
1000
1001
,
0001
0010
0100
1000
,
0001
0100
0010
0010
,
1000
0100
0010
0001
,
1000
0000
0001
0000
0100
0010
0100
0000
,
2002
3003
1000
0010
,
0200
0000
0000
0000
0301
1000
0001
0000
,
0100
0000
0000
0100
0000
0000
0100
0000
,
0002
0203
0320
2030
,
3002
0103
0010
1000
,
0001
0000
0010
0000
0100
0000
1000
0100
,
1000
0010
0100
0100
,
0001
0000
1000
0000
0001
0000
0100
0001
,
0100
0001
0010
0100
,
0010
0100
0100
0000
,
1000
0010
1000
0000
0001
0100
0000
0001
,
0100
0010
0220
0330
,
1000
0010
0100
0100
,
0001
0000
1000
0000
0001
0100
0001
0000
,
0100
0100
0010
1000
,
0001
0010
0001
0000
0100
0000
0100
0000
,
0010
1000
0100
1000
,
0010
0100
0001
0010
,
0001
0010
0100
1000
,
0001
0100
0001
0000
1000
0010
1000
0000
,
1002
0000
0023
0000
,
0032
0000
2003
0000
,
3200
0000
0000
0300
,
2002
0000
0000
0000
,
0000
0000
0000
0000
0000
3003
0000
0000
;

//--------------- dance-single - Fred-104 ----------------
#NOTEDATA:;
#STEPSTYPE:dance-single;
#DESCRIPTION:Fred-104;
#DIFFICULTY:Medium;
#METER:13;
#CREDIT:Fred-104;
#NOTES:
0000
0000
0000
0000
,
0000
0000
0000
0000
,
0000
0000
0000
0000
,
0000
0000
0000
0000
,
0000
0000
0000
0000
,
1100
0100
0010
0001
,
0100
0010
0100
0100
0200
0000
0302
0000
,
1003
0010
0100
0010
1000
0100
0010
0010
,
0001
1000
0001
0000
0100
0010
0000
0010
,
1000
0100
1000
0000
0001
0100
0010
0000
,
1000
0100
0010
0000
0001
0100
0001
0000
,
0100
0010
1000
0100
0010
0100
0010
0001
,
2000
0000
0002
3003
0001
0100
0001
0100
,
0010
0100
0001
0010
0100
0000
1000
0010
,
0000
0100
0100
0010
1000
0100
0010
0100
,
1000
0010
0100
0001
1000
0000
0100
0010
,
0001
1000
0010
0000
0100
0001
1000
0001
,
0100
0001
0010
0100
1000
0000
0001
0100
,
0000
0010
0100
0010
1000
0100
0010
0100
,
0010
0001
1000
0010
0200
0000
0320
0000
,
1030
1000
0000
0001
1000
0100
0100
0000
,
0001
0100
0100
0000
1000
0010
0010
0000
,
0001
0010
0010
0000
1000
0100
0010
0000
,
0001
0100
0010
0000
1100
0000
0200
0000
,
0320
0000
0032
0000
1003
0100
0010
0000
,
0001
0100
0010
0000
1000
0100
0001
0000
,
0001
0100
1000
0000
0001
0100
0010
0000
,
1000
0000
0010
0000
0100
0000
0000
0000
0001
0100
0002
0000
0203
0000
0320
0000
,
1030
0100
1000
0100
1000
0000
0010
0100
0001
0000
2000
0000
0000
0000
0000
0000
,
3001
0100
0010
0100
0010
0000
1000
0010
0100
0000
0001
0010
0000
0100
0000
1000
,
0000
0010
0100
0010
1000
0000
0001
1000
0100
0000
1000
1000
0000
0010
0000
0200
,
0000
0000
0000
0000
0000
0000
0301
2000
0000
0000
3100
0020
0000
0000
0031
0000
,
1000
0010
0110
0100
0001
0010
0110
1100
,
1000
0000
0001
0000
0101
0000
0100
0000
0010
0000
1000
0010
0000
0010
0000
1000
,
0001
0000
1000
0000
1001
0000
0001
0000
0100
0000
0010
0000
0110
0000
0202
0303
,
1000
0000
0000
0000
0001
0000
0100
0020
0000
0030
0010
0200
0300
2002
3003
0000
,
0001
0001
0100
0100
,
0010
0010
1000
1000
,
0001
0000
0010
0000
0100
0000
1000
0000
0010
0000
0100
0000
,
0001
0100
0001
1000
0100
0010
0001
0000
,
1000
0000
0000
1000
0010
0000
0100
0000
0001
0000
0000
0001
0010
0000
0100
0000
,
0010
0000
0000
0010
0001
0000
1000
0000
0001
0000
0000
0001
0100
0000
0010
0000
,
0100
0000
0000
0100
0010
0000
1000
0000
0100
0000
0000
0100
0010
0000
0001
0000
,
1000
1000
0001
0001
1000
0001
1001
0000
,
0001
0000
0000
0001
0010
0000
0100
0000
1000
0000
0000
1000
0010
0000
0100
0000
,
0010
0000
0000
0010
1000
0000
0100
0000
0010
0000
0000
0010
0001
0000
0100
0000
,
0001
0000
0000
0001
0100
0000
0010
0000
1000
0000
0100
0000
0001
0000
0100
0000
,
1000
0010
1100
0011
,
1000
0100
0010
0001
0100
0010
0100
0001
,
0100
0001
0100
0001
1000
0001
1000
0000
,
0001
0100
0001
0100
0001
0010
0100
0010
,
0001
0100
0001
1000
0010
0100
0001
0000
,
2002
0000
0000
3003
1000
0010
0100
0100
,
0002
0000
0000
0000
1003
0100
0010
0001
,
1001
0000
0000
0110
0000
0000
1001
0000
,
0001
0100
0002
0000
1003
0100
2000
0000
,
3002
0000
0103
0200
0000
0310
1000
0020
,
0000
1030
0100
1000
0100
0010
0001
1000
,
0002
0000
0103
0200
0000
0310
0100
0020
,
0000
1030
0010
1000
0001
0010
0001
0100
,
0010
1000
0010
0000
0100
0001
0100
0000
,
0001
0010
0001
0000
1000
0100
1000
0000
,
0001
0100
0010
0000
1000
1000
0000
0001
,
0001
0000
0000
0000
0100
0000
0010
0000
0100
0000
0000
0100
0000
0000
0001
0000
,
1001
0000
1000
0200
0000
0310
0001
1000
,
0002
0000
0103
0020
0000
1030
0020
0000
,
0130
0000
0001
0002
0000
0103
0010
1000
,
0001
0010
0100
0010
0001
0100
0001
0000
,
1000
0100
1000
0000
0100
0010
0100
0000
,
0010
0001
0010
0000
0001
1000
0001
0000
,
1000
0100
1000
0100
0010
0001
0010
0001
,
0100
0010
0100
0010
0100
0010
0100
0010
,
0200
0000
0000
0000
0000
0000
0000
0000
0301
0000
0000
0000
0000
0000
0100
0001
,
0200
0000
0000
0000
0000
0000
0000
0000
0310
0000
0000
0000
0000
0000
0100
1000
,
0200
0000
0000
0300
,
2002
0000
0000
0000
,
0000
0000
0000
0000
0000
3003
0000
0000
;

//--------------- dance-single - Fred-104 ----------------
#NOTEDATA:;
#STEPSTYPE:dance-single;
#DESCRIPTION:Fred-104;
#DIFFICULTY:Hard;
#METER:16;
#CREDIT:Fred-104;
#NOTES:
0000
0000
0000
0000
,
0000
0000
0000
0000
,
0000
0000
0000
0000
,
0000
0000
0000
0000
,
0000
0000
0000
0000
,
1100
0110
0101
1001
,
0001
0000
0000
1000
0000
0000
0001
0000
0010
0000
0100
0000
2000
0000
0000
0000
0000
0000
3002
0000
0000
0000
0000
0000
,
1003
0000
0010
0000
0100
0000
0001
0000
1000
0000
0100
0000
0010
0100
0010
0100
,
0010
0000
0000
0001
0000
0000
1000
0000
0000
0000
0000
0000
0001
0000
0000
0101
0000
0000
0000
0000
0000
1000
0001
1000
,
0001
0010
0100
0010
0100
1000
0010
0100
,
0001
0000
1000
0000
0100
0000
0001
0000
0100
0000
0010
0000
0001
1000
0001
1000
,
0001
0000
0010
0000
0100
0000
1000
0001
1000
0000
0010
0000
0100
0001
1000
0001
,
0200
0000
0320
0000
1030
0100
0001
0100
,
1000
0100
0001
0101
1001
0000
0001
0100
,
0010
0000
0000
0000
0000
0000
0000
0000
0000
0000
0000
0000
0000
0000
0000
0000
0000
0000
0000
0000
0000
0000
0000
0000
1000
0000
0000
0000
0000
0000
0000
0000
0000
0000
0000
0000
0000
0000
0000
0000
0000
0000
0000
0000
0000
0000
0000
0000
0200
0300
0000
0000
0000
0000
0000
0000
0000
0000
0000
0000
0000
0000
0000
0000
0000
0000
0000
0000
0000
0000
0000
0000
0200
0300
0000
0000
0000
0000
0000
0000
0000
0000
0000
0000
0000
0000
0000
0000
0000
0000
0000
0000
0000
0000
0000
0000
0001
0000
0000
0000
0000
0000
0000
0000
0000
0000
0000
0000
0000
0000
0000
0000
0000
0000
0000
0000
0000
0000
0000
0000
0010
0000
0000
0000
0000
0000
0000
0000
0000
0000
0000
0000
0000
0000
0000
0000
0000
0000
0000
0000
0000
0000
0000
0000
1000
0000
0000
0000
0000
0000
0000
0000
0000
0000
0000
0000
0000
0000
0000
0000
0000
0000
0000
0000
0000
0000
0000
0000
0010
0000
0000
0000
0000
0000
0000
0000
0000
0000
0000
0000
0000
0000
0000
0000
0000
0000
0000
0000
0000
0000
0000
0000
,
0001
0010
1000
0010
0001
0000
0100
0010
,
1000
0000
0000
0000
0000
0000
0000
0000
0000
0000
0000
0000
0000
0000
0000
0000
0000
0000
0000
0000
0000
0000
0000
0000
0001
0000
0000
0000
0000
0000
0000
0000
0000
0000
0000
0000
0000
0000
0000
0000
0000
0000
0000
0000
0000
0000
0000
0000
0020
0030
0000
0000
0000
0000
0000
0000
0000
0000
0000
0000
0000
0000
0000
0000
0000
0000
0000
0000
0000
0000
0000
0000
0020
0030
0000
0000
0000
0000
0000
0000
0000
0000
0000
0000
0000
0000
0000
0000
0000
0000
0000
0000
0000
0000
0000
0000
1000
0000
0000
0000
0000
0000
0000
0000
0000
0000
0000
0000
0000
0000
0000
0000
0000
0000
0000
0000
0000
0000
0000
0000
0010
0000
0000
0000
0000
0000
0000
0000
0000
0000
0000
0000
0000
0000
0000
0000
0000
0000
0000
0000
0000
0000
0000
0000
0100
0000
0000
0000
0000
0000
0000
0000
0000
0000
0000
0000
0000
0000
0000
0000
0000
0000
0000
0000
0000
0000
0000
0000
0010
0000
0000
0000
0000
0000
0000
0000
0000
0000
0000
0000
0000
0000
0000
0000
0000
0000
0000
0000
0000
0000
0000
0000
,
1000
0010
0100
0101
1001
0000
1000
0010
,
0100
0000
0000
0000
0000
0000
0000
0000
0000
0000
0000
0000
0000
0000
0000
0000
0000
0000
0000
0000
0000
0000
0000
0000
0001
0000
0000
0000
0000
0000
0000
0000
0000
0000
0000
0000
0000
0000
0000
0000
0000
0000
0000
0000
0000
0000
0000
0000
0200
0300
0000
0000
0000
0000
0000
0000
0000
0000
0000
0000
0000
0000
0000
0000
0000
0000
0000
0000
0000
0000
0000
0000
0200
0300
0000
0000
0000
0000
0000
0000
0000
0000
0000
0000
0000
0000
0000
0000
0000
0000
0000
0000
0000
0000
0000
0000
1000
0000
0000
0000
0000
0000
0000
0000
0000
0000
0000
0000
0000
0000
0000
0000
0000
0000
0000
0000
0000
0000
0000
0000
0010
0000
0000
0000
0000
0000
0000
0000
0000
0000
0000
0000
0000
0000
0000
0000
0000
0000
0000
0000
0000
0000
0000
0000
0100
0000
0000
0000
0000
0000
0000
0000
0000
0000
0000
0000
0000
0000
0000
0000
0000
0000
0000
0000
0000
0000
0000
0000
0010
0000
0000
0000
0000
0000
0000
0000
0000
0000
0000
0000
0000
0000
0000
0000
0000
0000
0000
0000
0000
0000
0000
0000
,
1000
0001
0010
0001
0200
0000
0320
0000
,
1030
0000
1010
0000
0010
0000
0110
0000
0100
0000
0001
0100
0010
0000
1000
0000
,
0100
0000
0010
0001
0010
0000
0001
0000
1000
0000
0010
0100
0001
0000
1000
0000
,
0010
0000
1000
0001
2000
0000
3002
0000
1003
0000
0100
0000
0010
0000
0100
0010
,
0001
0000
1000
0100
1000
0000
0010
0100
0010
0000
0100
0000
0001
0010
0100
0000
,
1000
0000
1000
0000
0001
0000
0001
0000
1000
0000
0100
0010
0001
0000
0100
0010
,
1000
0000
0100
0010
0002
0000
2003
0000
3001
0000
0010
0100
1000
0000
0010
0100
,
0001
0000
0010
0100
2000
0000
3002
0000
1003
0000
1000
0000
0010
0000
0100
0001
,
0100
0000
0001
0000
0100
0000
0010
0000
1000
0000
0010
0000
1000
0000
0100
0000
1000
0001
1000
0001
2000
0000
0000
0000
3002
0000
0000
0000
0203
0000
0000
0000
,
0301
0100
0001
0100
0001
0000
0100
1000
0100
0000
0001
0000
0000
0000
0000
0000
,
1000
0100
1000
0100
1000
0000
0100
0001
0100
0000
1000
0010
0000
0100
0000
0100
,
0001
0010
0001
0010
0001
0000
0010
1000
0010
0000
0001
0010
0000
0100
0000
1000
,
0001
0100
0001
0010
0001
0100
0020
2030
3010
0100
0020
0032
0013
1000
0001
1000
,
1000
0010
0100
0001
0011
0000
0001
0100
0110
0000
1010
0000
1000
0000
1100
0000
,
0100
0010
0001
1000
1001
0000
0001
0100
0010
0000
1000
1100
0000
0101
0000
1100
,
1000
0100
0010
0001
0101
0000
0001
0100
0110
0000
0010
1010
0000
0022
0033
0100
,
0100
0010
1000
0100
0010
0001
2000
3020
0130
0001
0002
2003
3000
2002
3003
0000
,
1000
1000
0010
0010
,
0100
0100
0001
0001
,
1000
0000
0100
0000
0110
0000
0001
0000
0100
0000
0110
0000
,
1000
0100
1000
0001
0100
0001
1000
0100
1000
0001
0100
0010
1000
0000
0000
0000
,
0001
0000
0001
0100
0010
0000
1000
0000
0001
0000
0001
0010
0100
0000
1000
0000
,
0010
0000
0010
1000
0100
0000
0010
0000
0100
0000
0100
0010
0001
0000
1001
0000
,
1000
0000
0010
0100
0001
0000
1000
0000
0100
0000
0010
0001
1000
0000
0001
0000
,
1000
1100
0001
0101
1000
0001
1001
0000
,
1000
0000
0100
0010
0100
0000
1000
0000
0001
0000
0100
0010
0100
0000
0001
0000
,
1000
0000
0001
0100
0010
0000
1000
0000
0001
0000
1000
0100
0010
0000
0001
0000
,
1000
0000
0001
1000
0100
0000
1000
0000
0001
0000
0001
0100
0001
0000
0001
0000
,
1001
0110
1100
0101
,
1001
0000
1000
0100
0010
0000
0001
0000
1000
0000
0001
0100
0010
0000
0100
0000
,
0001
0000
1000
0100
0010
0000
0100
0000
1000
0000
0010
0100
0001
0000
0100
0000
,
0010
0000
1000
0010
0100
0000
0010
0000
0001
0000
0010
1000
0001
0000
0010
0000
,
1000
0000
0010
0001
0100
0000
0010
0000
0001
0000
0010
1000
0001
0000
0000
0000
,
2002
0000
0000
0000
0000
0000
3003
0000
1000
0000
0010
1000
0001
1000
0010
1000
,
0002
0000
0000
0003
0001
0010
0100
1000
,
1001
0000
0000
0110
0000
0000
1001
0000
,
0010
0000
0001
0010
0002
0000
1003
0010
2000
0000
3001
0100
0002
0000
1003
0100
,
2000
0000
0000
0000
0000
0000
0000
0000
0000
0000
0000
0000
0000
0000
0000
0000
0000
0000
0000
0000
0000
0000
0000
0000
0000
0000
0000
0000
0000
0000
0000
0000
0000
0000
0000
0000
0000
0000
0000
0000
0000
0000
0000
0000
0000
0000
0000
0000
3020
0030
0000
0000
0000
0000
0000
0000
0000
0000
0000
0000
0000
0000
0000
0000
0000
0000
0000
0000
0000
0000
0000
0000
0020
0030
0000
0000
0000
0000
0000
0000
0000
0000
0000
0000
0000
0000
0000
0000
0000
0000
0000
0000
0000
0000
0000
0000
0001
0000
0000
0000
0000
0000
0000
0000
0000
0000
0000
0000
0000
0000
0000
0000
0000
0000
0000
0000
0000
0000
0000
0000
1000
0000
0000
0000
0000
0000
0000
0000
0000
0000
0000
0000
0010
0000
0000
0000
0000
0000
0000
0000
0000
0000
0000
0000
0100
0000
0000
0000
0000
0000
0000
0000
0000
0000
0000
0000
0000
0000
0000
0000
0000
0000
0000
0000
0000
0000
0000
0000
0010
0000
0000
0000
0000
0000
0000
0000
0000
0000
0000
0000
0000
0000
0000
0000
0000
0000
0000
0000
0000
0000
0000
0000
,
1000
0000
0100
0000
0001
0000
0100
0000
1000
0000
0100
1000
0100
0000
0010
0001
,
2000
0000
0000
0000
0000
0000
0000
0000
0000
0000
0000
0000
0000
0000
0000
0000
0000
0000
0000
0000
0000
0000
0000
0000
0000
0000
0000
0000
0000
0000
0000
0000
0000
0000
0000
0000
0000
0000
0000
0000
0000
0000
0000
0000
0000
0000
0000
0000
3200
0300
0000
0000
0000
0000
0000
0000
0000
0000
0000
0000
0000
0000
0000
0000
0000
0000
0000
0000
0000
0000
0000
0000
0200
0300
0000
0000
0000
0000
0000
0000
0000
0000
0000
0000
0000
0000
0000
0000
0000
0000
0000
0000
0000
0000
0000
0000
0001
0000
0000
0000
0000
0000
0000
0000
0000
0000
0000
0000
0000
0000
0000
0000
0000
0000
0000
0000
0000
0000
0000
0000
1000
0000
0000
0000
0000
0000
0000
0000
0000
0000
0000
0000
0000
0000
0000
0000
0000
0000
0000
0000
0000
0000
0000
0000
0010
0000
0000
0000
0000
0000
0000
0000
0000
0000
0000
0000
0000
0000
0000
0000
0000
0000
0000
0000
0000
0000
0000
0000
0100
0000
0000
0000
0000
0000
0000
0000
0000
0000
0000
0000
0000
0000
0000
0000
0000
0000
0000
0000
0000
0000
0000
0000
,
0001
0000
1000
0000
0001
0000
0010
0000
0100
0000
1000
0010
0100
0010
1000
0010
,
0100
0000
0001
1000
0001
0000
0010
0000
0100
0000
1000
0000
0010
0000
0010
0100
,
0010
0000
0100
0000
0001
0000
1000
0000
0001
0000
0010
0100
1000
0000
0001
0000
,
0200
0300
0000
0000
0000
0000
0000
0000
0000
0000
0000
0000
0000
0000
0000
0000
0000
0000
0000
0000
0000
0000
0000
0000
0200
0300
0000
0000
0000
0000
0000
0000
0000
0000
0000
0000
0000
0000
0000
0000
0000
0000
0000
0000
0000
0000
0000
0000
1000
0000
0000
0000
0000
0000
0000
0000
0000
0000
0000
0000
0000
0000
0000
0000
0000
0000
0000
0000
0000
0000
0000
0000
0000
0000
0000
0000
0000
0000
0000
0000
0000
0000
0000
0000
0000
0000
0000
0000
0000
0000
0000
0000
0000
0000
0000
0000
0001
0000
0000
0000
0000
0000
0000
0000
0000
0000
0000
0000
0000
0000
0000
0000
0000
0000
0000
0000
0000
0000
0000
0000
0101
0000
0000
0000
0000
0000
0000
0000
0000
0000
0000
0000
0000
0000
0000
0000
0000
0000
0000
0000
0000
0000
0000
0000
0000
0000
0000
0000
0000
0000
0000
0000
0000
0000
0000
0000
0000
0000
0000
0000
0000
0000
0000
0000
0000
0000
0000
0000
1000
0000
0000
0000
0000
0000
0000
0000
0000
0000
0000
0000
0000
0000
0000
0000
0000
0000
0000
0000
0000
0000
0000
0000
,
1100
0000
0000
0000
0010
0000
0001
0000
0100
0000
0000
0100
0000
0000
0100
0000
,
0020
0000
0000
0000
1030
0000
0100
0010
0001
0000
1000
0010
0100
0000
0001
0000
,
2000
0000
0000
0000
3001
0000
0010
0000
0001
0000
0001
1000
0002
0000
0000
0000
,
2003
0000
3010
1000
0100
0100
0100
0100
,
0010
0000
0001
0100
0001
0100
0010
0000
1000
0000
0100
0000
0010
0001
1000
0010
,
0100
0001
1000
0010
0100
0001
0010
0100
,
1000
0100
0001
0100
1000
0010
0001
0010
,
1000
1000
0100
0100
0010
0010
0001
0001
,
1000
0010
1000
0010
0100
0001
0100
0001
1000
0100
0010
0001
0010
0100
1000
0001
,
0100
0000
0010
0000
1000
0000
0001
0000
0020
0000
0000
0000
0000
0000
0031
0100
,
1000
0000
0100
0000
0001
0000
0100
0000
0020
0000
0000
0000
0000
0000
0031
0010
,
0200
0000
0000
0300
,
2200
0000
0000
0000
,
0000
0000
0000
0000
0000
3300
0000
0000
;

//--------------- dance-single - Fred-104† ----------------
#NOTEDATA:;
#STEPSTYPE:dance-single;
#DESCRIPTION:Fred-104†;
#DIFFICULTY:Challenge;
#METER:17;
#CREDIT:Fred-104†;
#NOTES:
0000
0000
0000
0000
,
0000
0000
0000
0000
,
0000
0000
0000
0000
,
0001
0010
0001
0010
0100
0010
0100
0010
0002
2003
3200
0320
0031
0100
0010
1000
,
0001
0100
0001
0100
0010
0100
0010
0100
0002
2003
3020
0230
0301
1000
0100
0010
,
0011
1010
0011
1010
,
0001
0000
0000
0100
0000
0000
0001
0000
0010
0000
0100
0000
1000
0000
0000
0001
0000
0000
1001
0000
0000
0000
0000
0000
,
1000
0000
0100
0000
0010
0000
1000
0000
0010
0000
0100
0000
1000
0001
0100
0010
,
0100
0000
0000
0001
0000
0000
1001
0000
0000
0000
0000
0000
0011
0000
0000
1001
0000
0000
0000
0000
0000
1000
0100
0010
,
0001
1000
0001
0100
0010
1000
0001
0010
,
0100
0000
1000
0000
0001
0000
0100
0000
0010
0000
1000
0000
0001
0010
0001
0010
,
0100
0000
1000
0000
0001
0000
0100
0010
1000
0000
0001
0010
0100
1000
0001
0100
,
0010
0000
0000
0000
1001
0000
0000
0000
0001
0000
0010
0100
1000
0000
0001
0010
,
0100
0000
1000
0001
0010
0000
0110
0000
1100
0000
0000
0000
1000
0000
0001
0000
,
0010
0000
0100
0000
2100
0000
3001
0000
1000
0000
0010
0100
0001
0000
1000
0010
,
0100
0000
0001
1000
0010
0000
0100
0000
0001
0000
0000
0000
0010
0000
0100
0000
,
1000
0000
0001
0000
0110
0000
1000
0000
0001
0000
1000
0010
0100
0000
0001
1000
,
0010
0000
0100
0001
1000
0000
1010
0000
0110
0000
0000
0000
1000
0000
0010
0000
,
0100
0000
0001
0000
2001
0000
3100
0000
1000
0000
0100
0010
0001
0000
1000
0100
,
0010
0000
0001
1000
0100
0000
0010
0000
0002
0000
0000
0000
2003
0000
0000
0000
,
3001
0000
0101
0000
0000
0000
1001
0000
1100
0000
1000
0100
0010
0000
0001
0000
,
1000
0000
0001
0100
0010
0000
1000
0000
0001
0000
0010
0100
1000
0000
0001
0000
,
0100
0010
1000
0010
0200
0000
0302
0000
1003
0000
0100
0010
0001
0000
1000
0000
,
0001
0000
0100
0010
1000
0000
0001
0000
0010
0000
0100
1000
0010
0100
0001
0000
,
0010
0000
0100
0000
1100
0000
0000
0000
1000
0100
1000
0100
0010
0001
0010
0001
,
1000
0010
0100
0001
1000
0000
0001
0000
1000
0010
1000
0010
0100
0001
0100
0001
,
1000
0100
0010
0001
1000
0000
0001
0000
0010
0100
0010
0100
1000
0001
1000
0001
,
0010
0100
1000
0100
0010
0001
1000
0010
0100
0100
0200
0000
0302
0000
2003
0000
,
3001
0010
0100
1000
0001
0000
0100
0010
0100
0000
0002
0000
0000
0000
0000
0000
,
1003
0010
0100
0001
1000
0000
0100
0010
0001
0000
1000
0010
0000
0100
0000
0001
,
0000
0100
0010
0001
0010
0000
0100
0001
1000
0000
0001
0010
0000
1000
0000
0020
,
0000
0000
0000
0000
0000
0000
0130
2000
0000
0000
3100
0020
0000
0030
1001
0000
,
1100
0100
0010
0001
0101
0000
0001
0100
0110
0000
1001
0000
0011
0000
1100
0000
,
1010
0010
1000
0001
0101
0000
0001
0010
0110
0000
0100
1000
1001
0001
0100
0010
,
0110
0000
0100
0000
0001
0000
0010
0000
0110
0000
0000
0000
0100
0000
1000
0000
1010
0000
0000
0000
0001
0000
0100
0000
0110
0000
0010
0000
0100
0001
0100
0001
,
1000
0000
0000
0000
0001
0000
0010
0000
0110
0000
0100
0000
1000
0000
0001
0000
0100
0000
0010
0000
0001
0000
0010
0000
0100
0000
0001
1000
0001
1000
0100
0000
,
0010
0010
0010
0010
,
0010
0010
0010
0010
,
0001
0000
0010
0000
1000
0000
0001
0000
0100
0000
1000
0000
,
0001
0010
0100
1000
0010
0100
0001
0010
0100
1000
0010
0100
0001
0000
0000
0000
,
1000
0000
0100
0010
0100
0000
1000
0000
0001
0000
0100
0010
0100
0000
0001
0000
,
1000
0000
0010
0100
0010
0000
1000
0000
0001
0000
0010
0100
0010
0000
0001
0000
,
1000
0000
0001
0010
0100
0000
1000
0000
0001
0000
0010
0100
1000
0000
0001
0000
,
0011
0000
0001
0100
0010
0000
1000
0100
0010
0000
0001
0100
0010
0000
0000
0000
,
1001
0000
0001
0100
0010
0000
1000
0000
0001
0000
1000
0100
0010
0000
0001
0000
,
1000
0000
0001
0010
0100
0000
1000
0000
0001
0000
1000
0010
0100
0000
0001
0000
,
1001
0000
1000
0001
0010
0000
0100
0010
0001
0000
1000
0010
0100
0000
0001
0000
,
1001
1100
0101
0110
,
0001
1000
0010
1000
0001
0000
0010
0000
0100
1000
0100
1000
0100
0000
0010
0000
,
0001
1000
0010
0100
0001
0000
1000
0000
0100
0010
0100
0010
0100
0000
1000
0000
,
0001
0010
0100
1000
0001
0000
0100
0000
0010
1000
0010
1000
0001
0000
0010
0000
,
0100
1000
0100
1000
0001
0100
0001
0100
0001
1000
0100
0010
0001
0000
0000
0000
,
2002
0000
0000
0000
0000
0000
3003
0000
0001
0000
0010
0100
1000
0010
0100
0001
,
0020
0000
0000
0000
0130
0010
0001
1000
,
1010
0000
0000
0101
0000
0000
1100
0000
,
0001
0010
0100
1000
0001
0100
0010
1000
0001
0010
0100
0010
0001
1000
0010
0100
,
0002
0000
0000
0000
1003
0000
0100
0000
0001
0000
0100
0010
0001
0000
1000
0000
,
0001
0000
0100
0000
0010
0000
0001
0000
0010
0000
1000
0001
0010
0000
0100
0010
,
0002
0000
1003
0010
0001
0010
0100
0010
,
1000
0000
0000
0000
0000
0000
0001
0000
0000
0000
0000
0000
0010
0000
0000
0100
0000
0000
0010
0000
0000
0001
0000
0000
1000
0000
0000
0000
0000
0000
0001
0000
0100
0000
0001
0000
0100
0000
0000
0000
0000
0000
0010
0000
1000
0000
0010
0000
,
1000
0000
0001
1000
0010
0000
0100
0001
1000
0000
0001
0010
0100
0000
1000
0001
,
0100
0000
0010
0100
0001
0000
1000
0001
0010
0001
1000
0001
0010
0100
1000
0000
,
0001
0101
1001
0000
1010
1001
0000
0011
,
1001
0000
0000
0000
1100
0000
0001
0000
1000
0000
0000
0001
0000
0000
1000
0000
,
1200
0000
0000
0000
0310
0001
1000
0000
0001
0000
0010
0100
0010
0000
0001
0000
,
1000
0000
0001
0000
0100
0010
0001
0000
0010
0000
0100
0001
2000
0000
0000
0000
,
3002
0000
0000
0000
0013
0100
1000
0000
0001
0000
0100
1000
0100
0000
0010
0000
,
1000
0001
1000
0100
1000
0001
0100
0000
0010
0000
0100
0000
0001
1000
0100
0010
,
0001
0000
1000
0001
0010
0000
0100
0000
1000
0000
0001
0100
0010
0000
0100
0000
,
0001
0000
1000
0100
0010
0000
0001
0000
1000
0000
0001
0100
0010
0000
0100
0000
,
0001
0010
0100
1000
0001
0100
0010
1000
,
0001
0010
0001
0010
0100
1000
0100
1000
0001
0100
0010
1000
0100
0010
0001
1000
,
0100
0000
0001
0000
0100
0000
1000
0000
0002
0000
0000
0000
0000
0000
0103
1000
,
0100
0000
0000
0001
0000
0000
1000
0000
0000
0100
0000
0000
0020
0000
0000
0000
0000
0000
0000
0000
0000
0031
1000
0001
,
2000
0000
0000
3000
,
0202
0000
0000
0000
,
0000
0000
0000
0000
0000
0303
0000
0000
;

//--------------- dance-double - Fred-104 ----------------
#NOTEDATA:;
#STEPSTYPE:dance-double;
#DESCRIPTION:Fred-104;
#DIFFICULTY:Easy;
#METER:8;
#CREDIT:Fred-104;
#NOTES:
00000000
00000000
00000000
00000000
,
00000000
00000000
00000000
00000000
,
00000000
00000000
00000000
00000000
,
00000000
00000000
00000000
00000000
,
00000000
00000000
00000000
00000000
,
10000000
10000000
00100000
01000000
,
00010000
00100000
01000000
00100000
,
00001000
00010000
00001000
00010000
,
00000200
00000000
00002300
00000000
,
00003001
00000100
00000001
00000100
,
00000010
00001000
00000100
00010000
,
00001000
00010000
00001000
00000000
01000000
00010000
01000000
00000000
,
00020000
20030000
30010000
01000000
,
00010000
10000000
01000000
00100000
,
00001000
00010000
00001000
00000000
00010000
00000000
00001000
00000000
,
00000100
00000010
00001000
00000001
,
00000100
00000010
00000100
00000000
00000001
00000000
00000010
00000000
,
00000100
00001000
00000001
00001000
,
00000010
00001000
00000010
00000000
00010000
00000000
00001000
00000000
,
00100000
00010000
10000000
00010000
,
01000000
01000000
00000000
00100000
00100000
00000000
01000000
00000000
,
00010000
10000000
01000000
00100000
,
00010000
00100000
00010000
00000000
00100000
00000000
00001000
00000000
,
00010000
00001000
00011000
00000020
,
00002030
00003002
00001003
00000010
,
00000100
00000001
00000010
00000100
,
00010000
00001000
00200000
00300000
,
02000000
03000000
20020000
30030000
,
20000000
00000000
32000000
00000000
,
03020000
00000000
00032000
00000000
,
00003200
00000000
00000302
00000000
,
00001003
00000100
00000010
00000001
00000100
00000010
00000100
00000001
,
00001000
00000000
00000001
00000000
00001000
00000100
00010100
00000000
,
00010000
00000000
00001000
00000000
01000000
00100000
01100000
00000000
,
00010000
00000000
10000000
00000000
01000000
00100000
00101000
00000000
,
00010000
00010000
00001000
00000010
00000100
00001000
00000001
00000100
,
00000001
00000001
00000100
00000100
,
00001000
00001000
00010000
00010000
,
00200000
00300000
00200000
00300000
,
20020000
00000000
00000000
30030000
,
10000000
10000000
00000000
00100000
,
01000000
01000000
00000000
00001000
,
00010000
00010000
00000000
00000100
,
00001000
00001000
00000001
00000001
,
00000100
00000010
00000000
00000010
,
00001000
00000100
00000000
00000100
,
00010000
00001000
00000000
00001000
,
00100000
01000000
10000000
10010000
,
00010000
10000000
00100000
00100000
,
10000000
01000000
00100000
00001000
,
00010000
00000100
00010000
00000100
,
00001000
00000001
00000100
00000010
,
00000220
00000330
00010000
00001000
,
00022000
00033000
00001000
00010000
,
01000000
00000000
00000000
00100000
00000000
00000000
00010000
00000000
,
20000000
30200000
02300000
03020000
,
00130000
00001000
00020000
00000000
,
00031000
00010000
00000100
00001000
,
00000001
00001000
00000002
00000000
,
00001003
00000000
00000100
00000000
00000010
00000001
00000010
00000000
,
00000001
00000100
00001000
00010000
,
00100000
01000000
00010000
10000000
,
01000000
00100000
01000000
00000000
10000000
01000000
00000000
00100000
,
00001000
00010000
00022000
00033000
,
01000000
00001000
00010000
00001000
,
00000100
00000000
00000010
00000000
00001000
00000001
00001000
00000000
,
00000001
00000100
00000010
00001000
,
00000100
00000000
00010000
00000000
00001000
00010000
00001000
00000000
,
00010000
00000000
00100000
00000000
,
10000000
00000000
01000000
00000000
,
00010000
00001000
00000010
00000001
,
00001000
00000100
00001000
00000000
00000001
00000100
00000001
00000000
,
00002000
00000000
00003100
00000000
,
00000020
00000000
00000031
00000000
,
00000220
00000000
00000000
00000330
,
00002002
00000000
00000000
00000000
,
00000000
00000000
00000000
00000000
00000000
00003003
00000000
00000000
;

//--------------- dance-double - Fred-104 ----------------
#NOTEDATA:;
#STEPSTYPE:dance-double;
#DESCRIPTION:Fred-104;
#DIFFICULTY:Medium;
#METER:13;
#CREDIT:Fred-104;
#NOTES:
00000000
00000000
00000000
00000000
,
00000000
00000000
00000000
00000000
,
00000000
00000000
00000000
00000000
,
00000000
00000000
00000000
00000000
,
00000000
00000000
00000000
00000000
,
00010000
00001000
00100000
00010000
,
10000000
00100000
01000000
00010000
02000000
00000000
03020000
00000000
,
10030000
01000000
10000000
00000000
01000000
00100000
00001000
00000000
,
00010000
00000000
00001000
00000000
00010000
00010000
00000000
00000100
,
00001100
00000001
00001000
00000001
,
00000010
00000100
00001000
00000100
,
00010000
00001000
00010000
00000000
00000010
00001000
00000010
00000000
,
00020000
00000000
00002000
00033000
00001000
00100000
00000000
00100000
,
00000000
00100000
00010000
10000000
00010000
00000000
01000000
00100000
,
00000000
10000000
01000000
00100000
00010000
00100000
00000000
00100000
,
00000000
00010000
00100000
00001000
00010000
00000000
00001000
00000100
,
00000010
00001000
00000001
00000000
00001000
00000001
00000000
00000100
,
00000000
00000010
00001000
00000010
00000100
00000000
00000001
00001000
,
00000000
00000100
00010000
00001000
00010000
00100000
00000000
01000000
,
00000000
00010000
10000000
00010000
00100000
00000000
01000000
00000000
,
00100000
00010000
00000000
10000000
00010000
10000000
00100000
01000000
,
00100000
00010000
00001000
00000100
00000010
00000000
00000100
00000000
,
00000001
00001000
00000100
00000010
00000001
00001000
00000010
00000100
,
00000010
00001000
00001001
00000000
00000002
00000000
00000203
00000000
,
00002300
00000000
00023000
00000000
00031000
00010000
00100000
00000000
,
01000000
00000000
00100000
00000000
10000000
01000000
00010000
00000000
,
00001000
00000000
00000100
00000000
00000010
00001000
00000001
00000000
,
00001000
00000100
00000010
00000000
00002002
00000000
00003003
00000000
,
00000001
00000100
00000001
00000100
00000001
00000000
00000001
00000010
00001000
00000000
00020000
00000000
00000000
00000000
00000000
00000000
,
00130000
10000000
00100000
10000000
00010000
00000000
10000000
01000000
00100000
00000000
00001000
00010000
00000000
00100000
00000000
01000000
,
00000000
00001000
00010000
00001000
00000100
00000000
00000010
00001000
00000001
00000000
00001000
00000100
00000000
00000010
00000000
00000002
,
00000000
00000000
00000000
00000000
00000000
00000000
00000103
00000020
00000000
00000000
00010030
00002000
00000000
00003000
00011000
00000000
,
00100000
00000000
00010000
00000000
10010000
00000000
00010000
01000000
00100000
00000000
10000000
00000000
11000000
00000000
00110000
00000000
,
00001000
00000000
00010000
00000000
00000100
00000000
00001000
00000010
00000100
00000000
00000001
00000010
00000000
00000110
00000000
00000100
,
00000000
00001000
00000001
00000100
00000001
00000000
00000010
00000001
00000100
00000000
00001000
00010000
00000000
00200000
00300000
01000000
,
00010000
00000000
00000000
00000000
10000000
01000000
00200000
00302000
00003000
00000000
00020000
00032000
00003000
00022000
00033000
00000000
,
00010000
00010000
00001000
00001000
,
00000010
00000010
00000001
00000001
,
00001000
00000000
00000100
00000000
00000010
00000000
00000001
00000000
00000100
00000000
00000010
00000000
,
00002000
00000000
00000000
00003001
,
00000010
00000000
00000000
00000010
00000100
00000000
00001000
00000000
00000010
00000000
00000000
00000010
00000100
00000000
00000001
00000000
,
00000010
00000000
00000000
00000010
00000100
00000000
00010000
00000000
00001000
00000000
00000000
00001000
01000000
00000000
00001000
00000000
,
00010000
00000000
00000000
00010000
00001000
00000000
00100000
00000000
00010000
00000000
00000000
00010000
10000000
00000000
00100000
00000000
,
01000000
01000000
00100000
00100000
01000000
00100000
01100000
00000000
,
00010000
00000000
00000000
00010000
00100000
00000000
01000000
00000000
10000000
00000000
00000000
10000000
01000000
00000000
00100000
00000000
,
00001000
00000000
00000000
00001000
00010000
00000000
00000010
00000000
00010000
00000000
00000000
00010000
00001000
00000000
00000100
00000000
,
00000001
00000000
00000000
00000001
00001000
00000000
00000001
00000000
00000010
00000000
00000100
00000000
00010000
00000000
00001000
00000000
,
00000100
00000001
00000110
00001001
,
00010000
00001000
00000100
00000001
00001000
00000100
00000010
00000000
,
00000001
00000100
00000010
00000100
00000001
00000010
00000100
00000000
,
00010000
00001000
00010000
00000010
00001000
00000100
00010000
00000000
,
00001000
00100000
00010000
10000000
00010000
01000000
00100000
00000000
,
20020000
00000000
00000000
30030000
10000000
10000000
00010000
01000000
,
00200000
00000000
00000000
00000000
01300000
00100000
01000000
00100000
,
01100000
00000000
00000000
00011000
00000000
00000000
00000110
00000000
,
00000001
00000100
00000002
00000000
00001003
00000100
00002000
00000000
,
00003002
00000000
00000103
00000200
00000000
00000310
00001000
00000200
,
00000000
00010300
00001000
00020000
00000000
01030000
00100000
00010000
,
20000000
00000000
30100000
00200000
00000000
01300000
00010000
10000000
,
01000000
00100000
01000000
00100000
00001000
00010000
00001000
00000100
,
00000010
00001000
00000001
00000000
00001000
00000100
00000001
00000000
,
00000100
00001000
00000010
00000000
00010000
00001000
00010000
00000000
,
00001000
00010000
00010000
00000000
00001000
00001000
00000000
01000000
,
01000000
00000000
00000000
00000000
00100000
00000000
10000000
00000000
00010000
00000000
00000000
00010000
00000000
00000000
00010000
00000000
,
20000000
00000000
31000000
00200000
00000000
00301000
00010000
00001000
,
00000200
00000000
00000310
00002000
00000000
00003001
00000020
00000000
,
00000230
00000000
00010300
00002000
00000000
00003100
00000010
00001000
,
00000100
00000010
00000001
00000100
00000010
00001000
00001001
00000000
,
00000001
00000010
00001000
00000000
00010000
01000000
10000000
00000000
,
10000000
00100000
00010000
00000000
00001000
00000100
00000001
00000000
,
00000001
00000010
00000100
00000010
00001000
00010000
01000000
00100000
,
01000000
10000000
00100000
01000000
00001000
00010000
00011000
00000000
,
00020000
00000000
00000000
00000000
00000000
00000000
00000000
00000000
00031000
00000000
00000000
00000000
00000000
00000000
00000010
00000001
,
00000020
00000000
00000000
00000000
00000000
00000000
00000000
00000000
00001030
00000000
00000000
00000000
00000000
00000000
00010000
00001000
,
00020000
00000000
00000000
00030000
,
20020000
00000000
00000000
00000000
,
00000000
00000000
00000000
00000000
00000000
30030000
00000000
00000000
;

//--------------- dance-double - Fred-104 ----------------
#NOTEDATA:;
#STEPSTYPE:dance-double;
#DESCRIPTION:Fred-104;
#DIFFICULTY:Hard;
#METER:16;
#CREDIT:Fred-104;
#NOTES:
00000000
00000000
00000000
00000000
,
00000000
00000000
00000000
00000000
,
00000000
00000000
00000000
00000000
,
00000000
00000000
00000000
00000000
,
00000000
00000000
00000000
00000000
,
00001001
00001100
00001001
00000101
,
00000001
00000000
00000000
00000010
00000000
00000000
00000001
00000000
00001000
00000000
00000010
00000000
00000200
00000000
00000000
00000000
00000000
00000000
00000302
00000000
00000000
00000000
00000000
00000000
,
00001003
00000000
00000010
00000000
00000100
00000000
00000001
00000000
00000010
00000000
00000100
00000000
00010000
00001000
00010000
00001000
,
00010000
00000000
00001000
00000000
00010000
00000000
00000000
00000000
00001000
00000000
00101000
00000000
00000000
00000000
00010000
00100000
,
00010000
10000000
00100000
01000000
00010000
10000000
01000000
00100000
,
00001000
00000000
00010000
00000000
00000100
00000000
00001000
00000000
00000100
00000000
00000010
00000000
00000001
00001000
00000001
00001000
,
00000001
00000000
00000100
00000000
00000010
00000000
00001000
00000100
00001000
00000000
00000100
00000000
00010000
00001000
00010000
00001000
,
00020000
00000000
00032000
00000000
01003000
00100000
10000000
01000000
,
00100000
00001000
00010000
00011000
00010010
00000000
00001000
00000100
,
00000010
00000000
00000000
00000000
00000000
00000000
00000000
00000000
00000000
00000000
00000000
00000000
00000000
00000000
00000000
00000000
00000000
00000000
00000000
00000000
00000000
00000000
00000000
00000000
00000001
00000000
00000000
00000000
00000000
00000000
00000000
00000000
00000000
00000000
00000000
00000000
00000000
00000000
00000000
00000000
00000000
00000000
00000000
00000000
00000000
00000000
00000000
00000000
00000200
00000300
00000000
00000000
00000000
00000000
00000000
00000000
00000000
00000000
00000000
00000000
00000000
00000000
00000000
00000000
00000000
00000000
00000000
00000000
00000000
00000000
00000000
00000000
00000200
00000300
00000000
00000000
00000000
00000000
00000000
00000000
00000000
00000000
00000000
00000000
00000000
00000000
00000000
00000000
00000000
00000000
00000000
00000000
00000000
00000000
00000000
00000000
00001000
00000000
00000000
00000000
00000000
00000000
00000000
00000000
00000000
00000000
00000000
00000000
00000000
00000000
00000000
00000000
00000000
00000000
00000000
00000000
00000000
00000000
00000000
00000000
00000010
00000000
00000000
00000000
00000000
00000000
00000000
00000000
00000000
00000000
00000000
00000000
00000000
00000000
00000000
00000000
00000000
00000000
00000000
00000000
00000000
00000000
00000000
00000000
00000100
00000000
00000000
00000000
00000000
00000000
00000000
00000000
00000000
00000000
00000000
00000000
00000000
00000000
00000000
00000000
00000000
00000000
00000000
00000000
00000000
00000000
00000000
00000000
00000010
00000000
00000000
00000000
00000000
00000000
00000000
00000000
00000000
00000000
00000000
00000000
00000000
00000000
00000000
00000000
00000000
00000000
00000000
00000000
00000000
00000000
00000000
00000000
,
00001000
00000100
00000010
00000001
00001000
00000000
00000001
00000100
,
00000010
00000000
00000000
00000000
00000000
00000000
00000000
00000000
00000000
00000000
00000000
00000000
00000000
00000000
00000000
00000000
00000000
00000000
00000000
00000000
00000000
00000000
00000000
00000000
00001000
00000000
00000000
00000000
00000000
00000000
00000000
00000000
00000000
00000000
00000000
00000000
00000000
00000000
00000000
00000000
00000000
00000000
00000000
00000000
00000000
00000000
00000000
00000000
00000020
00000030
00000000
00000000
00000000
00000000
00000000
00000000
00000000
00000000
00000000
00000000
00000000
00000000
00000000
00000000
00000000
00000000
00000000
00000000
00000000
00000000
00000000
00000000
00000020
00000030
00000000
00000000
00000000
00000000
00000000
00000000
00000000
00000000
00000000
00000000
00000000
00000000
00000000
00000000
00000000
00000000
00000000
00000000
00000000
00000000
00000000
00000000
00000001
00000000
00000000
00000000
00000000
00000000
00000000
00000000
00000000
00000000
00000000
00000000
00000000
00000000
00000000
00000000
00000000
00000000
00000000
00000000
00000000
00000000
00000000
00000000
00000100
00000000
00000000
00000000
00000000
00000000
00000000
00000000
00000000
00000000
00000000
00000000
00000000
00000000
00000000
00000000
00000000
00000000
00000000
00000000
00000000
00000000
00000000
00000000
00001000
00000000
00000000
00000000
00000000
00000000
00000000
00000000
00000000
00000000
00000000
00000000
00000000
00000000
00000000
00000000
00000000
00000000
00000000
00000000
00000000
00000000
00000000
00000000
00010000
00000000
00000000
00000000
00000000
00000000
00000000
00000000
00000000
00000000
00000000
00000000
00000000
00000000
00000000
00000000
00000000
00000000
00000000
00000000
00000000
00000000
00000000
00000000
,
01000000
10000000
00010000
10010000
01010000
00000000
00010000
10000000
,
00100000
00000000
00000000
00000000
00000000
00000000
00000000
00000000
00000000
00000000
00000000
00000000
00000000
00000000
00000000
00000000
00000000
00000000
00000000
00000000
00000000
00000000
00000000
00000000
10000000
00000000
00000000
00000000
00000000
00000000
00000000
00000000
00000000
00000000
00000000
00000000
00000000
00000000
00000000
00000000
00000000
00000000
00000000
00000000
00000000
00000000
00000000
00000000
02000000
03000000
00000000
00000000
00000000
00000000
00000000
00000000
00000000
00000000
00000000
00000000
00000000
00000000
00000000
00000000
00000000
00000000
00000000
00000000
00000000
00000000
00000000
00000000
02000000
03000000
00000000
00000000
00000000
00000000
00000000
00000000
00000000
00000000
00000000
00000000
00000000
00000000
00000000
00000000
00000000
00000000
00000000
00000000
00000000
00000000
00000000
00000000
00010000
00000000
00000000
00000000
00000000
00000000
00000000
00000000
00000000
00000000
00000000
00000000
00000000
00000000
00000000
00000000
00000000
00000000
00000000
00000000
00000000
00000000
00000000
00000000
00100000
00000000
00000000
00000000
00000000
00000000
00000000
00000000
00000000
00000000
00000000
00000000
00000000
00000000
00000000
00000000
00000000
00000000
00000000
00000000
00000000
00000000
00000000
00000000
10000000
00000000
00000000
00000000
00000000
00000000
00000000
00000000
00000000
00000000
00000000
00000000
00000000
00000000
00000000
00000000
00000000
00000000
00000000
00000000
00000000
00000000
00000000
00000000
00100000
00000000
00000000
00000000
00000000
00000000
00000000
00000000
00000000
00000000
00000000
00000000
00000000
00000000
00000000
00000000
00000000
00000000
00000000
00000000
00000000
00000000
00000000
00000000
,
00010000
00100000
01000000
00100000
00002000
00000000
00023000
00000000
,
00031000
00000000
00011000
00000000
00000000
00000000
00010010
00000000
00010000
00000000
00000100
00001000
00000100
00000000
00010000
00000000
,
00000010
00000000
00001000
00000010
00001000
00000000
00000100
00000000
00010000
00000000
00001000
01000000
00001000
00000000
01000000
00000000
,
00100000
00000000
10000000
00010000
00200000
00000000
00302000
00000000
00013000
00000000
00001000
00000000
00000100
00000000
00000010
00000100
,
00000010
00000000
00001000
00000001
00001000
00000000
00000001
00000010
00000100
00000000
00010000
00000000
00001000
00010000
00001000
00000000
,
00010000
00000000
00001000
00000000
00000100
00000000
00000010
00000000
00001000
00000000
00000001
00000010
00000100
00000000
00010000
00001000
,
00010000
00000000
00001000
00100000
00020000
00000000
20030000
00000000
30010000
00000000
00100000
01000000
10000000
00000000
00010000
01000000
,
00001000
00000000
00010000
00000100
00002000
00000000
00003002
00000000
00001003
00000000
00000001
00000000
00000100
00000000
00000010
00001000
,
00000001
00000000
00000010
00000000
00000001
00000000
00000010
00000000
00000100
00000000
00000010
00000000
00000100
00000000
00000010
00000000
00000001
00001000
00000001
00001000
00000002
00000000
00000000
00000000
00000203
00000000
00000000
00000000
00002300
00000000
00000000
00000000
,
00013000
00100000
10000000
01000000
00100000
00000000
00001000
00010000
00001000
00000000
00011000
00000000
00000000
00000000
00000000
00000000
,
00010000
00001000
00000100
00000001
00001000
00000000
00000001
00000010
00000100
00000000
00010000
00001000
00000000
00010000
00000000
00100000
,
00010000
01000000
10000000
01000000
00100000
00000000
10000000
00100000
00010000
00000000
00001000
00000010
00000000
00000001
00000000
00000001
,
00000100
00000001
00000100
00000010
00001000
00000100
00000020
00000032
00000103
00000010
00002000
00003200
00010300
00001000
00001000
00001000
,
00100000
00010000
10000000
00010000
01010000
00000000
01000000
00100000
10100000
00000000
01010000
00000000
00010000
00000000
00101000
00000000
,
00010000
00001000
00010000
00000010
00001010
00000000
00001000
00000100
00000010
00000000
00000001
00000101
00000000
00001100
00000000
00000101
,
00000100
00000010
00001000
00000100
00000110
00000000
00000010
00000001
00001001
00000000
00000010
00010010
00000000
00022000
00033000
01000000
,
00010000
00000000
10000000
00000000
01000000
00100000
00002000
00023000
00030000
00000000
00002000
00023000
00030000
20020000
30030000
00000000
,
10000000
00100000
01000000
00001000
,
00010000
00000010
00000100
00000001
,
00001000
00000000
00000001
00000000
00000100
00000000
00001000
00000000
00010000
00000000
01000000
00000000
,
10000000
00010000
10000000
00010000
00100000
01000000
00100000
01000000
10000000
00010000
01000000
00100000
10000000
00000000
00000000
00000000
,
10000000
00000000
01000000
10000000
01000000
00000000
00100000
00000000
00001000
00000000
00010000
00001000
00010000
00000000
00001000
00000000
,
01000000
00000000
00001000
00010000
00001000
00000000
00010000
00000000
00000010
00000000
00001000
00000001
00001000
00000000
00000010
00000000
,
00000100
00000000
00000001
00000100
00000001
00000000
00000010
00000000
00000100
00000000
00001000
00000100
00001000
00000000
00000100
00000000
,
00010000
00011000
00001000
00011000
00010000
00001000
00011000
00000000
,
00100000
00000000
00001000
00010000
00001000
00000000
00010000
00000000
00000010
00000000
00010000
00001000
00010000
00000000
00001000
00000000
,
01000000
00000000
00001000
00010000
00001000
00000000
00010000
00000000
00000100
00000000
00010000
00001000
00010000
00000000
00001000
00000000
,
00100000
00000000
00010000
01000000
00010000
00000000
10000000
00000000
01000000
00000000
00100000
00010000
00100000
00000000
00001000
00000000
,
00011000
00001010
00000011
00001001
,
00000110
00000000
00000001
00001000
00000010
00000000
00000100
00000000
00000001
00000000
00000010
00000001
00000010
00000000
00000100
00000000
,
00010000
00000000
00001000
00010000
00001000
00000000
00010000
00000000
00000010
00000000
00001000
00000100
00001000
00000000
00000010
00000000
,
00010000
00000000
00001000
00100000
00010000
00000000
01000000
00000000
00010000
00000000
00100000
00010000
10000000
00000000
01000000
00000000
,
00010000
00000000
00001000
00000010
00000100
00000000
00001000
00000000
00000010
00000000
00000100
00000001
00001000
00000000
00000000
00000000
,
00002002
00000000
00000000
00000000
00000000
00000000
00003003
00000000
00000001
00000000
00001000
00000010
00010000
00001000
00010000
00000010
,
00020000
00000000
00000000
00000000
00031000
00010000
00100000
10000000
,
10010000
00000000
00000000
11000000
00000000
00000000
00110000
00000000
,
00100000
00000000
00010000
00100000
00020000
00000000
10030000
00100000
20000000
00000000
30010000
01000000
00020000
00000000
10030000
01000000
,
20000000
00000000
00000000
00000000
00000000
00000000
00000000
00000000
00000000
00000000
00000000
00000000
00000000
00000000
00000000
00000000
00000000
00000000
00000000
00000000
00000000
00000000
00000000
00000000
00000000
00000000
00000000
00000000
00000000
00000000
00000000
00000000
00000000
00000000
00000000
00000000
00000000
00000000
00000000
00000000
00000000
00000000
00000000
00000000
00000000
00000000
00000000
00000000
30200000
00300000
00000000
00000000
00000000
00000000
00000000
00000000
00000000
00000000
00000000
00000000
00000000
00000000
00000000
00000000
00000000
00000000
00000000
00000000
00000000
00000000
00000000
00000000
00200000
00300000
00000000
00000000
00000000
00000000
00000000
00000000
00000000
00000000
00000000
00000000
00000000
00000000
00000000
00000000
00000000
00000000
00000000
00000000
00000000
00000000
00000000
00000000
00010000
00000000
00000000
00000000
00000000
00000000
00000000
00000000
00000000
00000000
00000000
00000000
00000000
00000000
00000000
00000000
00000000
00000000
00000000
00000000
00000000
00000000
00000000
00000000
01000000
00000000
00000000
00000000
00000000
00000000
00000000
00000000
00000000
00000000
00000000
00000000
00010000
00000000
00000000
00000000
00000000
00000000
00000000
00000000
00000000
00000000
00000000
00000000
01000000
00000000
00000000
00000000
00000000
00000000
00000000
00000000
00000000
00000000
00000000
00000000
00000000
00000000
00000000
00000000
00000000
00000000
00000000
00000000
00000000
00000000
00000000
00000000
00100000
00000000
00000000
00000000
00000000
00000000
00000000
00000000
00000000
00000000
00000000
00000000
00000000
00000000
00000000
00000000
00000000
00000000
00000000
00000000
00000000
00000000
00000000
00000000
,
10000000
00000000
01000000
00000000
00010000
00000000
00001000
00000000
00000100
00000000
00000010
00001000
00000001
00000000
00000010
00000001
,
00000020
00000000
00000000
00000000
00000000
00000000
00000000
00000000
00000000
00000000
00000000
00000000
00000000
00000000
00000000
00000000
00000000
00000000
00000000
00000000
00000000
00000000
00000000
00000000
00000000
00000000
00000000
00000000
00000000
00000000
00000000
00000000
00000000
00000000
00000000
00000000
00000000
00000000
00000000
00000000
00000000
00000000
00000000
00000000
00000000
00000000
00000000
00000000
00000230
00000300
00000000
00000000
00000000
00000000
00000000
00000000
00000000
00000000
00000000
00000000
00000000
00000000
00000000
00000000
00000000
00000000
00000000
00000000
00000000
00000000
00000000
00000000
00000200
00000300
00000000
00000000
00000000
00000000
00000000
00000000
00000000
00000000
00000000
00000000
00000000
00000000
00000000
00000000
00000000
00000000
00000000
00000000
00000000
00000000
00000000
00000000
00000001
00000000
00000000
00000000
00000000
00000000
00000000
00000000
00000000
00000000
00000000
00000000
00000000
00000000
00000000
00000000
00000000
00000000
00000000
00000000
00000000
00000000
00000000
00000000
00001000
00000000
00000000
00000000
00000000
00000000
00000000
00000000
00000000
00000000
00000000
00000000
00000000
00000000
00000000
00000000
00000000
00000000
00000000
00000000
00000000
00000000
00000000
00000000
00000010
00000000
00000000
00000000
00000000
00000000
00000000
00000000
00000000
00000000
00000000
00000000
00000000
00000000
00000000
00000000
00000000
00000000
00000000
00000000
00000000
00000000
00000000
00000000
00001000
00000000
00000000
00000000
00000000
00000000
00000000
00000000
00000000
00000000
00000000
00000000
00000000
00000000
00000000
00000000
00000000
00000000
00000000
00000000
00000000
00000000
00000000
00000000
,
00000010
00000000
00000100
00000000
00000001
00000000
00000010
00000000
00000100
00000000
00001000
00000001
00000100
00000001
00001000
00000001
,
00000100
00000000
00000010
00001000
00000001
00000000
00000010
00000000
00000100
00000000
00010000
00000000
00001000
00000000
00100000
00010000
,
00100000
00000000
00001000
00000000
00010000
00000000
00100000
00000000
01000000
00000000
00001000
00010000
00001000
00000000
00010000
00000000
,
00001000
00001000
00010000
00000000
00001000
00101000
00000000
00001000
,
00010010
00000000
00000000
00000000
00010000
00000000
00001000
00000000
00000100
00000000
00000000
00000001
00000000
00000000
00000010
00000000
,
00000200
00000000
00000000
00000000
00001300
00000000
00000010
00000100
00000010
00000000
00001000
00000100
00000010
00000000
00000001
00000000
,
00000200
00000000
00000000
00000000
00001300
00000000
00010000
00000000
01000000
00000000
00100000
00010000
00200000
00000000
00000000
00000000
,
01300000
00000000
10000000
00100000
10000000
10000000
00010000
00010000
,
10000000
00000000
01000000
00100000
00010000
00100000
00001000
00000000
00010000
00000000
00001000
00000000
00000100
00000010
00001000
00000010
,
00001000
00000001
00001000
00000010
00000100
00000001
00000010
00001000
,
00010000
00100000
10000000
00010000
01000000
00100000
10000000
01000000
,
10000000
01000000
00100000
00001000
00010000
00000100
00001000
00000001
,
00000100
00000001
00000100
00000001
00001000
00000100
00001000
00000100
00010000
00001000
00010000
00001000
00100000
00010000
10000000
00010000
,
01000000
00000000
00100000
00000000
10000000
00000000
00100000
00000000
00020000
00000000
00000000
00000000
00000000
00000000
00031000
00010000
,
00001000
00000000
00000010
00000000
00000001
00000000
00000100
00000000
00002000
00000000
00000000
00000000
00000000
00000000
00013000
00001000
,
00020000
00000000
00000000
00030000
,
00022000
00000000
00000000
00000000
,
00000000
00000000
00000000
00000000
00000000
00033000
00000000
00000000
;

//--------------- dance-double - Fred-104† ----------------
#NOTEDATA:;
#STEPSTYPE:dance-double;
#DESCRIPTION:Fred-104†;
#DIFFICULTY:Challenge;
#METER:17;
#CREDIT:Fred-104†;
#NOTES:
00000000
00000000
00000000
00000000
,
00000000
00000000
00000000
00000000
,
00000000
00000000
00000000
00000000
,
00010000
00001000
00010000
00001000
00000010
00001000
00000010
00001000
00010000
00001000
00000100
00000010
00001000
00000001
00000010
00000100
,
00010000
00001000
00010000
00001000
00000100
00001000
00000100
00001000
00010000
00001000
00100000
00010000
10000000
00100000
01000000
00000000
,
01100000
10100000
00110000
10010000
,
10000000
00000000
00000000
01000000
00000000
00000000
00100000
00000000
00010000
00000000
00100000
00000000
00001000
00000000
00000000
00010000
00000000
00000000
00011000
00000000
00000000
00000000
00000000
00000000
,
00010000
00000000
00001000
00000000
00000010
00000000
00000100
00000000
00001000
00000000
00000001
00000000
00000100
00000010
00001000
00000010
,
00001000
00000000
00000000
00000001
00000000
00000000
00000011
00000000
00000000
00000000
00000000
00000000
00001000
00000000
00000000
00001010
00000000
00000000
00000000
00000000
00000000
00000001
00001000
00000001
,
00000010
00000100
00001000
00000100
00010000
00001000
00100000
00010000
,
10000000
00000000
00010000
00000000
01000000
00000000
00100000
00000000
10000000
00000000
00010000
00000000
00100000
01000000
00100000
01000000
,
00100000
00000000
00010000
00000000
10000000
00000000
00100000
01000000
00100000
00000000
10000000
00010000
01000000
00001000
00010000
00000010
,
00002000
00000000
00000000
00000000
00000002
00000000
00003003
00000000
00001000
00000000
00000001
00000010
00000100
00000000
00001000
00000001
,
00000010
00000000
00000100
00001000
00000100
00000000
00010000
00000000
00011000
00000000
00000000
00000000
00100000
00000000
00010000
00000000
,
10000000
00000000
00100000
00000000
01100000
00000000
01010000
00000000
10000000
00000000
00010000
00100000
01000000
00000000
10000000
00010000
,
00100000
00000000
01000000
00100000
00001000
00000000
00010000
00000000
00011000
00000000
00000000
00000000
00010000
00000000
00001000
00000000
,
00000100
00000000
00000001
00000000
00001001
00000000
00000100
00000000
00001000
00000000
00000001
00000100
00000010
00000000
00001000
00000001
,
00000100
00000000
00000010
00001000
00000100
00000000
00010000
00000000
00011000
00000000
00000000
00000000
00001000
00000000
00010000
00000000
,
00100000
00000000
10000000
00000000
11000000
00000000
01100000
00000000
00100000
00000000
00010000
10000000
00100000
00000000
01000000
00010000
,
00100000
00000000
00001000
00010000
00000010
00000000
00001000
00000000
00000002
00000000
00000000
00000000
00002003
00000000
00000000
00000000
,
00003100
00000000
00010100
00000000
00000000
00000000
00010000
00000000
00001000
00100000
00001000
00100000
00001000
00000000
00010000
00000000
,
00000010
00001000
00000010
00001000
00000001
00000000
00000010
00000000
00000100
00001000
00000100
00001000
00000100
00000000
00010000
00001000
,
00010000
00000000
00001000
00100000
00002000
00000000
00023000
00000000
00031000
00000000
01000000
00010000
01000000
00000000
00010000
00000000
,
10000000
00000000
01000000
00100000
01000000
00000000
10000000
00000000
00010000
00000000
10000000
01000000
00100000
00010000
00100000
00000000
,
00001000
00000000
00010000
00000000
00011000
00000000
00000000
00000000
00010000
00001000
00010000
00000010
00001000
00000010
00010000
00001000
,
00010000
00000010
00001000
00000010
00010000
00000000
00001000
00000000
00010000
00001000
00010000
00000100
00001000
00000100
00010000
00001000
,
00010000
00000100
00001000
00000100
00010000
00000000
00001000
00000000
00010000
00001000
00010000
00000010
00001000
00000010
00010000
00001000
,
00010000
00000100
00001000
00000100
00010000
00000000
00001000
00000000
00010000
00010000
00020000
00000000
00032000
00000000
00023000
00000000
,
00031000
00010000
00100000
01000000
00010000
00000000
00100000
01000000
10000000
00000000
00020000
00000000
00000000
00000000
00000000
00000000
,
01030000
00100000
00010000
00001000
00010000
00000000
00000100
00000010
00000001
00000000
00000010
00000100
00000000
00010000
00000000
00001000
,
00000000
00000100
00000001
00000100
00000010
00000000
00001000
00000001
00000010
00000000
00001000
00010000
00000000
00100000
00000000
02000000
,
00000000
00000000
00000000
00000000
00000000
00000000
13000000
02000000
00000000
00000000
03100000
20000000
00000000
30000000
10010000
00000000
,
11000000
01000000
00100000
00001000
00011000
00000000
00010000
00000010
00001010
00000000
00000011
00000000
00001100
00000000
00000101
00000000
,
00001001
00000001
00001000
00000100
00010100
00000000
00010000
00001000
01001000
00000000
00001000
00010000
00011000
00001000
00100000
00010000
,
10010000
00000000
10000000
00000000
00100000
00000000
01000000
00000000
01010000
00000000
00000000
00000000
10000000
00000000
01000000
00000000
01100000
00000000
00000000
00000000
00100000
00000000
00001000
00000000
00011000
00000000
00010000
00000000
00000010
00001000
00000010
00001000
,
00000001
00000000
00000000
00000000
00001000
00000000
00000100
00000000
00000010
00000000
00000001
00000000
00000100
00000000
00001000
00000000
00010000
00000000
00100000
00000000
10000000
00000000
00010000
00000000
00100000
00000000
01000000
00100000
00010000
10000000
00010000
00000000
,
10000000
10000000
00010000
00010000
,
10000000
10000000
00010000
00010000
,
10000000
00000000
01000000
00000000
00010000
00000000
00001000
00000000
00000010
00000000
00000001
00000000
,
00001000
00000001
00000100
00000001
00001000
00000100
00001000
00000001
00000100
00000001
00001000
00000100
00000010
00000000
00000000
00000000
,
00000001
00000000
00000100
00000010
00000100
00000000
00001000
00000000
00010000
00000000
00100000
01000000
00100000
00000000
10000000
00000000
,
00010000
00000000
01000000
00100000
10000000
00000000
00010000
00000000
00100000
00000000
01000000
00100000
00010000
00000000
10000000
00000000
,
00010000
00000000
01000000
00001000
00010000
00000000
00001000
00000000
00000010
00000000
00000001
00000010
00000100
00000000
00001000
00000000
,
00001100
00000000
00001000
00000100
00000010
00000000
00000001
00000100
00000010
00000000
00001000
00000000
00001001
00000000
00000000
00000000
,
00000001
00000000
00000010
00000100
00000010
00000000
00001000
00000000
00010000
00000000
01000000
00100000
01000000
00000000
10000000
00000000
,
00010000
00000000
10000000
01000000
00100000
00000000
00001000
00000000
00010000
00000000
00100000
01000000
00001000
00000000
00010000
00000000
,
00001000
00000000
00000100
00000010
00010000
00000000
00001000
00000000
00000100
00000000
00000001
00001000
00000100
00000000
00000010
00000000
,
00000110
00000000
00011000
00000000
01100000
00000000
10010000
10000000
,
00010000
01000000
00010000
01000000
00100000
00000000
10000000
00000000
00010000
00100000
00010000
00100000
01000000
00000000
10000000
00000000
,
00010000
01000000
00010000
01000000
00001000
00000000
00010000
00000000
00000100
00001000
00000100
00001000
00000001
00000000
00000100
00000000
,
00000001
00001000
00000001
00001000
00000010
00000000
00010000
00000000
00001000
00100000
00001000
00100000
00010000
00000000
10000000
00000000
,
00010000
01000000
00010000
00000000
10000000
00100000
10000000
00000000
00010000
00100000
01000000
10000000
00010000
00000000
00000000
00000000
,
20020000
00000000
00000000
00000000
00000000
00000000
30030000
00000000
10000000
00000000
01000000
00100000
00010000
00100000
00001000
00010000
,
00002000
00000000
00000000
00000000
00013000
00001000
00000100
00000001
,
00000011
00000000
00000000
00001010
00000000
00000000
00001001
00000000
,
00000001
00000100
00000001
00000100
00000010
00001000
00000010
00001000
00000001
00000010
00000001
00000010
00000100
00001000
00000100
00010000
,
00002000
00000000
00000000
00000000
00013000
00000000
01000000
00000000
10000000
00000000
01000000
00100000
00010000
00000000
10000000
00000000
,
00010000
00000000
01000000
00000000
00100000
00000000
01000000
00000000
10000000
00000000
01000000
00100000
10000000
00000000
00010000
00100000
,
00002000
00000000
00013000
00001000
00000010
00000001
00000010
00000100
,
00001000
00000000
00000001
00000000
00000100
00000001
00001000
00000001
00000010
00000000
00000100
00001000
00000100
00010000
00001000
00010000
,
00001000
00000000
00100000
00001000
00010000
00000000
00000010
00000000
00001000
00000000
00000010
00010000
00001000
00000000
00100000
00010000
,
10000000
00000000
00010000
00100000
01000000
00000000
10000000
00010000
01000000
00010000
10000000
01000000
00100000
00010000
00100000
00000000
,
00001000
00011000
00010010
00000000
00011000
00101000
00000000
00011000
,
00010100
00000000
00000000
00000000
00010000
00000000
00001000
00000000
00000100
00000000
00000000
00000010
00000000
00000000
00001000
00000000
,
00000002
00000000
00000000
00000000
00001003
00000001
00000010
00000000
00000100
00000000
00010000
00001000
00010000
00000000
00000010
00000000
,
00010000
00000000
00001000
00000000
00000010
00000000
00000001
00000000
00000010
00000000
00001000
00000010
00000200
00000000
00000000
00000000
,
00002300
00000000
00000000
00000000
00003001
00000000
00000100
00000000
00001000
00000000
00010000
00000000
01000000
00000000
10000000
00010000
,
00100000
00000000
00001000
00010000
00001000
00100000
00010000
00000000
10000000
00000000
00010000
00000000
01000000
00100000
01000000
00100000
,
10000000
00100000
01000000
00100000
00010000
00001000
00000100
00000010
,
00000100
00000001
00001000
00000001
00000010
00000100
00010000
00001000
,
00000100
00000010
00001000
00000001
00000010
00001000
00010000
00001000
,
00010000
00000010
00001000
00000010
00010000
00001000
00100000
00010000
00100000
00001000
00010000
00000100
00001000
00000100
00010000
00001000
,
01000000
00000000
00001000
00000000
00010000
00000000
00001000
00000000
00000200
00000000
00000000
00000000
00000000
00000000
00000310
00001000
,
00000001
00000000
00000000
00000010
00000000
00000000
00000100
00000000
00000000
00010000
00000000
00000000
00002000
00000000
00000000
00000000
00000000
00000000
00000000
00000000
00000000
00013000
00001000
00010000
,
00002000
00000000
00000000
00003000
,
02200000
00000000
00000000
00000000
,
00000000
00000000
00000000
00000000
00000000
03300000
00000000
00000000
;
