#TITLE:Enter The Fire;
#ARTIST:Yooh;
#BANNER:Enter The Fire.png;
#BACKGROUND:Enter The Fire-bg.png;
#CDTITLE:./CDTitles/SDVX EXCEED GEAR.png;
#MUSIC:Enter The Fire.ogg;
#SAMPLESTART:51.429;
#SAMPLELENGTH:15;
#BPMS:0=140;
#BGSTAGE:15;

//--------------- dance-single - Fred-104 ----------------
#NOTES:
     dance-single:
     Fred-104:
     Beginner:
     3:
     :
0000
0000
0000
0000
,
0000
0000
0000
0000
,
0000
0000
0000
0000
,
0000
0000
0000
0000
,
0000
0000
0000
0000
,
0000
0000
0000
0000
,
1000
0000
0000
0000
,
0000
0000
0000
0000
,
0001
0000
0000
0000
,
0000
0000
0000
0000
,
1000
0000
0000
0000
,
0010
0000
0010
0000
,
0001
0000
0000
0000
,
0100
0000
0100
0000
,
1000
0000
0000
0000
,
0001
0000
0000
0000
,
1000
0000
1000
0000
,
0002
0000
0000
0003
,
1001
0000
0000
0000
,
0000
0000
0000
0000
,
0000
0000
0000
0000
,
0000
0000
0000
0000
,
1000
0000
1000
0000
,
0100
0000
0001
0000
,
0001
0000
0100
0000
,
1000
0000
1000
0000
,
0001
0000
0100
0000
,
1000
0000
0100
0000
,
0001
0000
0001
0000
,
2000
3000
0002
0003
,
1000
0000
0100
0000
,
0010
0000
0010
0000
,
0001
0000
0001
0000
,
1000
0000
0010
0000
,
1000
0000
1000
0000
,
0001
0000
0010
0000
,
0100
0000
1000
0000
,
0001
0000
2002
3003
,
1000
0000
0010
0000
,
0001
0000
0001
0000
,
0001
0000
0010
0000
,
0100
0000
0010
0000
,
1000
0000
1000
0000
,
0001
0000
0001
0000
,
0100
0000
0010
0000
,
0100
0100
0200
0300
,
0002
0000
0000
0000
,
2003
0000
0000
0000
,
3002
0000
0000
0000
,
2003
0000
3002
0000
,
1003
0000
1000
0000
,
0001
0000
0001
0000
,
2000
3000
0002
0003
,
2000
0000
3000
0000
,
0001
0000
0100
0000
,
1000
0000
1000
0000
,
0100
0000
0001
0000
,
1000
0000
0001
0000
,
1000
0000
0100
0000
,
0001
0000
0001
0000
,
0100
0000
1000
0000
,
0002
0000
0000
0003
,
0001
0000
0010
0000
,
1000
0000
1000
0000
,
0010
0000
0001
0000
,
1000
0000
0001
0000
,
1000
0000
1000
0000
,
0001
0000
0001
0000
,
1000
0000
0001
0000
,
1000
1000
1000
1000
,
1001
0000
0000
0000
;

//--------------- dance-single - Fred-104 ----------------
#NOTES:
     dance-single:
     Fred-104:
     Easy:
     6:
     :
0000
0000
0000
0000
,
0000
0000
0000
0000
,
0000
0000
0000
0000
,
0000
0000
0000
0000
,
0000
0000
0000
0000
,
0000
0000
0000
0000
,
0001
1000
0001
0100
,
1000
0100
0001
0000
,
1000
0001
1000
0100
,
0001
0100
1000
1000
,
0001
0010
0001
0010
,
1000
0010
0001
0000
,
1000
0010
1000
0010
,
0001
0010
1000
0000
,
0001
0010
0100
1000
,
0010
0100
0001
0000
,
1000
1000
0001
0001
,
1000
0001
1001
0000
,
1000
0000
0010
0000
,
0001
0000
0100
0000
,
1000
0000
0001
0000
,
1000
0000
0010
0000
,
0100
0100
0100
0000
,
0001
0001
0001
0000
,
1000
1000
1000
1000
,
0001
1000
1001
0000
,
1001
0000
0110
0000
,
1001
0000
0110
0000
,
0001
0001
1000
1000
,
0001
1000
0001
1001
,
1000
0100
0020
0030
,
1000
0010
0002
0003
,
1000
0001
0100
0001
,
1000
0001
0010
0010
,
0001
1000
0020
0030
,
0001
0010
0200
0300
,
0001
1000
0100
0010
,
0100
0100
0110
0000
,
1000
0001
0020
0030
,
1000
0010
0200
0300
,
1000
0001
0100
0010
,
1000
0100
0010
0010
,
0001
0100
2000
3000
,
0100
0001
0020
0030
,
0100
1000
0001
0100
,
1001
0110
1001
0000
,
2000
0000
0000
0000
,
3002
0000
0000
0000
,
2003
0000
0000
0000
,
3002
0000
2003
3001
,
1000
0100
1000
0100
,
0001
0100
0001
0100
,
1000
0100
0001
0100
,
1000
0002
2000
3003
,
1000
0100
0010
0010
,
0001
0100
0010
0010
,
1000
1100
0000
0011
,
0000
1010
0000
0011
,
1000
0001
0010
0100
,
0100
1000
0001
1000
,
0001
0011
0000
1010
,
0001
0001
1000
1000
,
0001
0001
1000
0010
,
1000
0100
0010
0001
,
1000
0001
0100
0001
,
1000
0000
0001
0000
1000
0001
1000
0000
,
0001
0100
1000
0000
,
1000
0100
0001
0000
,
1000
0100
0010
0001
,
1000
0001
2002
3003
,
1001
0000
0000
0000
;

//--------------- dance-single - Fred-104 ----------------
#NOTES:
     dance-single:
     Fred-104:
     Medium:
     10:
     :
0000
0000
0000
0000
,
0000
0000
0000
0000
,
0000
0000
0000
0000
,
0000
0000
0000
0000
,
0000
0000
0000
0000
,
0000
0000
0000
0000
,
0001
0000
1001
0000
1000
0100
0010
0000
,
0001
0000
1000
0000
0010
0000
0000
1000
0000
0000
1000
0000
0001
0000
0000
0000
,
0010
0000
0110
0000
0100
1000
0001
0000
,
0100
0010
0100
0010
0100
0001
1001
0000
,
1000
0100
1000
0000
0100
0001
0100
0000
,
1000
0000
0001
0000
1000
0000
0001
0010
0000
0010
0100
0000
1000
0000
0000
0000
,
0001
0010
0001
0000
0010
1000
0010
0000
,
0001
1000
0010
1000
0001
0010
0100
0000
,
1000
0010
0100
0000
0010
1000
0001
0000
,
0010
0010
0100
0100
1000
0001
1000
0000
,
0100
0000
0100
0010
0000
0000
0001
0000
1000
0000
1000
0010
0000
0000
1000
0000
,
0001
1000
2002
3003
,
1000
0000
0100
0000
,
0001
0000
0010
0000
,
0100
0000
0010
0000
,
1000
0000
0002
0003
,
1000
0000
0000
1000
0000
0000
0100
0000
0010
0000
0000
0000
0001
0000
0000
0000
,
1000
0000
0000
0010
0000
0000
1000
0000
0001
0000
0000
0000
0010
0000
0000
0000
,
0100
0000
0000
0010
0000
0000
0001
0000
0100
0000
0000
0010
0000
0000
1000
0000
,
1010
0000
0000
0101
0000
0000
1100
0000
0011
0000
0000
0000
1001
0000
0000
0000
,
1000
1100
0001
0101
,
1000
0000
0110
0000
0001
1000
1001
0000
,
1000
0100
1000
0100
0010
0001
0010
0001
,
0100
0010
0100
0001
1000
0000
1001
0000
,
0001
0000
0000
0010
0000
0000
0010
0000
0100
0000
1000
0000
0001
0000
0000
0000
,
0100
0000
0000
0100
0000
0000
0010
0000
1000
0000
0100
0000
0010
0000
0000
0000
,
0001
0000
0000
0100
0000
0000
1000
0000
0100
0000
0000
0001
0000
0000
1000
0000
,
0100
0000
0000
0010
0000
0000
0001
0000
1000
0000
0000
0000
1001
0000
0000
0000
,
0001
0000
0000
1000
0000
0000
0010
0000
1000
0000
0100
0000
0010
0000
0000
0000
,
0001
0000
0000
1000
0000
0000
0001
0000
0100
0000
0001
0000
0010
0000
0000
0000
,
0100
0000
0000
0010
0000
0000
0001
0000
1000
0000
0000
0010
0000
0000
1000
0000
,
0001
0000
0000
0001
0000
0000
0001
0000
0110
0000
0000
0000
1001
0000
0000
0000
,
1000
0000
0000
0010
0000
0000
1000
0000
0100
0000
0010
0000
0100
0000
1000
0000
,
0001
0000
0000
0100
0000
0000
0010
0000
0100
0000
0001
0000
1000
0000
0100
0000
,
1000
0000
0000
0010
0000
0000
1000
0000
0001
0000
0000
0010
0000
0000
0001
0000
,
0010
0000
0000
0100
0000
0000
1000
0000
1001
0000
0000
0000
0110
0000
0000
0000
,
0001
0000
0000
0010
0000
0000
0100
0000
1000
0000
0010
0000
0100
0000
0001
0000
,
1000
0000
0000
0001
0000
0000
0100
0000
0001
0000
0010
0000
0001
0000
1000
0000
,
0001
0000
0000
1000
0000
0000
0010
0000
1000
0000
0000
0001
0000
0000
0010
0000
,
0110
0000
1001
0000
1000
0001
1000
0000
,
1200
0000
0000
0000
,
2300
0000
0000
0000
,
3002
0000
0000
0000
,
0203
0000
0310
0110
,
0001
0100
1000
0000
1000
0100
0001
0000
,
1000
0100
0001
0000
0001
0100
1000
0000
,
0001
0100
1000
0000
0001
0010
1000
0000
,
0001
0010
0100
2000
0002
3000
0003
0000
,
0001
0000
0010
0000
0100
0000
0000
1000
0000
0001
1000
0000
0010
0000
0000
0000
,
1000
0000
0001
0000
1000
0000
0000
0100
0000
0010
0001
0000
1000
0000
0001
0000
,
1000
0100
0000
0000
0110
0000
0000
0000
0001
0100
0000
0000
0110
0000
0000
0000
,
1000
0001
0000
0000
1001
0000
0000
0000
0001
0000
1000
0000
1001
0000
0000
0000
,
0001
0000
0010
0000
0100
0000
0000
1000
0000
0001
0100
0000
0010
0000
0000
0000
,
0100
0000
0001
0000
1000
0000
0010
0000
0000
0100
0001
0000
1000
0000
0001
0000
,
1000
0100
0000
0000
0011
0000
0000
0000
0001
0100
0000
0000
1010
0000
0000
0000
,
0101
1100
0011
1010
,
0001
0000
1000
0000
0010
0000
0000
1000
0000
0001
1000
0000
0100
0000
0000
0000
,
0010
0000
0001
0000
1000
0000
0000
0010
0000
0100
0001
0000
1000
0000
0001
0000
,
1000
0010
0000
0000
0110
0000
0000
0000
0001
0010
0000
0000
0110
0000
0000
0000
,
1000
0001
0000
0000
1001
0000
0000
0000
0001
0000
1000
0000
0001
0000
0000
0000
,
1000
0100
1000
0100
0010
0001
0010
0000
,
0001
0100
0001
0100
0010
1000
0001
0000
,
0010
0000
0010
0100
0000
0000
0100
0000
1000
0000
0001
1000
0000
0000
0000
0000
,
0010
0100
0220
0330
,
1001
0000
0000
0000
;

//--------------- dance-single - Fred-104 ----------------
#NOTES:
     dance-single:
     Fred-104:
     Hard:
     15:
     :
0000
0000
0000
0000
,
0000
0000
0000
0000
,
0000
0000
0000
0000
,
0000
0000
0000
0000
,
0000
0000
0000
0000
,
0000
0000
0000
0000
,
1100
0000
0000
0000
1100
0000
1000
0001
0000
0001
0020
0000
0230
0000
2300
0000
,
3001
0100
0001
0000
1000
0000
0010
0100
0000
0010
1000
0000
0001
0010
0100
0000
,
0110
0000
0000
0000
0110
0000
1000
0001
0000
1000
0020
0000
0230
0000
0302
0000
,
0013
0000
0100
0000
0110
0000
0001
1000
0001
1000
0001
0000
0100
0000
0100
0000
,
0110
0000
0010
0000
1010
0000
1000
0001
0010
0000
0100
0000
1000
0000
1000
0000
,
0100
0010
0001
0000
1000
0000
0010
0100
0001
0100
0001
0000
1000
0000
0100
0000
,
0110
0000
0010
0000
0011
0000
0001
1000
0100
0000
1000
0000
0100
0000
0100
0000
,
0010
0001
1000
0000
0010
0000
0100
0001
1000
0001
1000
0000
0100
0010
0100
0010
,
0100
1000
0010
0100
0001
1000
0010
1000
,
0100
0000
0100
0010
0001
0000
0001
1000
0010
0000
0100
0001
0100
0001
1000
0000
,
0100
0000
0010
0001
0000
0100
0001
0000
1000
0100
1000
0100
0010
0001
1000
0001
,
0100
0000
0100
0000
0100
0000
0100
0010
0001
0000
0010
0000
1010
0000
0000
0000
,
1001
0000
0001
2000
,
3010
0000
0001
0200
,
1300
0001
0100
1000
,
0010
0001
1000
0002
,
1003
0000
0010
0100
0000
0010
1000
0010
0100
0000
0000
0000
0001
1000
0010
1000
,
0001
0000
1000
0100
0000
0010
0100
0010
0001
0000
0000
0000
1000
0001
0010
0100
,
0010
0000
0001
1000
0000
0010
1000
0001
1000
0000
0001
0100
0000
0001
1000
0001
,
0010
0000
0000
1010
0000
0000
1100
0000
0101
0000
0000
0000
0001
1000
0001
1000
,
0001
0000
1000
0010
0100
0000
0001
0010
0100
0000
1000
0010
0100
0000
0001
0010
,
0100
0000
1000
0100
0010
0000
0001
0100
0010
0000
1000
0100
0010
0001
1000
0000
,
0001
0100
0001
0000
1000
0010
1000
0000
0001
0010
0001
0010
0100
1000
0001
0100
,
0010
0001
0010
0100
0101
0000
0110
0000
,
1001
0000
1000
0100
0000
0010
0001
0000
1000
0001
1000
0010
1000
0001
1000
0100
,
0010
0000
0001
1000
0000
0010
1000
0000
0001
1000
0100
1000
0001
1000
0100
1000
,
0001
0000
0100
1000
0000
0100
0001
0000
1000
0000
0100
0001
0000
0100
1000
0000
,
0001
0000
0010
0100
0000
0100
1000
0000
1001
0000
0000
0000
1000
0010
0100
0001
,
1000
0000
0001
0010
0000
0100
0010
0000
0100
1000
0001
0100
0001
1000
0100
0010
,
0001
0000
1000
0010
0000
1000
0001
0000
0010
0100
1000
0001
1000
0010
0100
0001
,
1000
0000
0010
0001
0000
0010
1000
0000
0001
0000
0010
1000
0000
0010
0001
0000
,
1001
0000
0000
1010
0000
0000
0101
0000
1100
0000
0100
0000
0020
0000
0030
0000
,
0011
0000
0001
1000
0000
0010
1000
0000
0001
0100
0010
1000
0001
0010
0100
0010
,
0100
0000
1000
0001
0000
0100
0001
0000
1000
0100
1000
0010
0100
0001
1000
0100
,
1000
0000
0100
0010
0000
0001
1000
0000
0001
0000
0100
0010
0000
1000
0001
0000
,
1000
0000
0001
0010
0000
0100
0010
0000
0011
0000
0001
0000
0100
0001
1000
0001
,
0010
0000
0100
1000
0000
0001
1000
0000
0010
0100
0010
1000
0001
0010
0100
1000
,
0010
0000
1000
0001
0000
0100
0001
0000
1000
0100
1000
0010
0100
0001
0100
0001
,
0010
0000
0000
0011
0000
0000
1010
0000
0101
0000
0000
1100
0000
0000
0110
0000
,
0011
0000
0000
0000
1001
0000
0000
0000
1000
0001
1000
0001
1000
0000
0000
0000
,
0002
0000
0023
0000
,
0130
1000
0001
0100
,
0020
0000
2030
0000
,
3100
0000
0010
0000
0001
1000
1001
0000
,
1000
0100
1000
0100
0010
0001
0010
0001
,
1000
0010
1000
0010
0100
0001
0100
0001
,
1000
0000
0000
0100
0000
0000
0010
0000
0000
0001
0000
0000
1000
0000
0000
0000
0000
0000
1000
0000
0000
0000
0000
0000
0001
0000
0000
0100
0000
0000
0010
0000
0000
1000
0000
0000
0100
0000
0000
0000
0010
0000
0000
0000
0001
0000
0000
0000
,
1000
0001
1000
0001
0100
0010
1000
0002
0020
0000
0003
0000
0030
0000
0000
0000
,
0001
0010
0100
0000
0100
1000
0100
1000
0001
1000
0010
0000
0220
0000
0330
0000
,
0001
1000
0100
0000
0100
1000
0100
1000
0001
0100
0010
0000
1000
0000
0002
0000
,
1003
0010
0000
0100
0010
0000
0002
0000
0013
0100
0000
0010
1000
0000
0002
0000
,
1003
0100
0000
0001
0100
0000
2000
0000
3001
0000
0100
0000
0110
0000
0010
1000
,
0001
0010
0001
0000
0010
0100
1000
0100
1000
0001
0100
0000
0220
0000
0330
0000
,
0001
1000
0010
0000
1000
0001
0010
0001
0010
0100
1000
0000
0001
0000
2000
0000
,
3001
0101
1000
1100
0001
1000
1001
0000
,
1100
0100
0110
0010
0011
0001
2002
3003
,
0001
0100
0010
0000
1000
0001
1000
0100
0000
0010
0100
0000
1000
0000
0002
0000
,
0103
0001
1000
0000
0001
0010
0100
0010
0000
0001
1000
0000
0010
1000
0002
0000
,
1003
0100
0000
0010
0100
0000
0002
0000
0103
0010
0000
0100
1000
0000
0002
0000
,
1003
0010
0000
0001
0010
0000
1000
0001
1000
0000
0100
0000
0120
0000
0031
1000
,
0001
0000
0100
0000
1000
0000
0100
0000
0001
1000
0100
0000
0100
0010
0001
0000
,
1000
0000
0100
0000
0001
0000
0100
0000
1000
0001
0100
0000
0100
0010
1000
0000
,
1001
0000
1000
0100
0000
0000
0100
0010
0001
0000
1000
0010
0100
0001
1000
0001
,
0010
0000
0010
0000
0010
0000
0100
0010
1000
0000
0010
0000
0022
0000
0033
0000
,
1001
0000
0000
0000
;

//--------------- dance-double - Fred-104 ----------------
#NOTES:
     dance-double:
     Fred-104:
     Easy:
     6:
     :
00000000
00000000
00000000
00000000
,
00000000
00000000
00000000
00000000
,
00000000
00000000
00000000
00000000
,
00000000
00000000
00000000
00000000
,
00000000
00000000
00000000
00000000
,
00000000
00000000
00000000
00000000
,
00010000
00001000
00010000
00000100
,
00010000
00001000
00010000
00000000
,
00001000
00010000
00001000
01000000
,
00001000
00010000
01000000
10000000
,
00010000
10000000
00010000
10000000
,
00100000
00010000
00001000
00000000
,
00010000
00001000
00010000
00001000
,
00000010
00000100
00000010
00000000
,
00000001
00001000
00000001
00000100
,
00001000
00010000
00001000
00000000
,
00010000
00010000
00001000
00001000
,
00010000
00001000
00011000
00000000
,
00010000
00000000
00001000
00000000
,
00000100
00000000
00000001
00000000
,
00000010
00000000
00001000
00000000
,
00010000
00000000
00001000
00000000
,
01000000
01000000
01000000
00000000
,
00100000
00100000
00100000
00000000
,
10000000
10000000
10000000
10000000
,
01000000
00100000
00011000
00000000
,
00000110
00000000
00001001
00000000
,
00000110
00000000
00011000
00000000
,
00010000
00010000
00001000
00001000
,
00010000
00001000
00010000
00011000
,
00001000
00010000
00200000
00300000
,
01000000
00010000
20000000
30000000
,
01000000
00100000
00010000
00100000
,
00001000
00010000
00001000
00010000
,
00000010
00001000
00000020
00000030
,
00000100
00000001
00000020
00000030
,
00000100
00001000
00000001
00000100
,
00000001
00000100
00000110
00000000
,
00000001
00000100
00002000
00003000
,
00010000
00100000
20000000
30000000
,
00010000
00100000
01000000
10000000
,
00010000
01000000
00100000
10000000
,
01000000
00010000
00002000
00003000
,
00010000
00001000
00000020
00000030
,
00000001
00001000
00000010
00010000
,
00001000
00100000
10010000
00000000
,
20000000
00000000
00000000
00000000
,
32000000
00000000
00000000
00000000
,
03200000
00000000
00000000
00000000
,
00302000
00000000
00023000
00031000
,
00010000
00001000
00000010
00000000
,
00000010
00001000
00010000
00000000
,
00010000
00001000
00000100
00001000
,
00010000
00002000
00020000
00033000
,
00001000
00010000
00001000
00001000
,
01000000
00010000
10000000
10000000
,
01000000
01100000
00000000
00011000
,
00000000
00000110
00000000
00001001
,
00000001
00000100
00000001
00000001
,
00000010
00000100
00010000
00010000
,
00001000
00011000
00000000
00011000
,
00001000
00001000
00010000
00010000
,
00001000
00010000
00001000
00100000
,
00010000
00100000
01000000
10000000
,
00010000
01000000
10000000
01000000
,
00010000
00000000
10000000
00000000
00010000
10000000
00010000
00000000
,
10000000
00100000
00010000
00000000
,
00001000
00000010
00000001
00000000
,
00000001
00000100
00001000
00010000
,
01000000
10000000
20020000
30030000
,
10010000
00000000
00000000
00000000
;

//--------------- dance-double - Fred-104 ----------------
#NOTES:
     dance-double:
     Fred-104:
     Medium:
     10:
     :
00000000
00000000
00000000
00000000
,
00000000
00000000
00000000
00000000
,
00000000
00000000
00000000
00000000
,
00000000
00000000
00000000
00000000
,
00000000
00000000
00000000
00000000
,
00000000
00000000
00000000
00000000
,
00001000
00000000
00011000
00000000
00001000
01000000
00010000
00000000
,
00100000
00000000
01000000
00000000
10000000
00000000
00000000
10000000
00000000
00000000
10000000
00000000
00100000
00000000
00000000
00000000
,
10000000
00000000
01100000
00000000
00010000
10000000
01000000
00000000
,
00100000
00001000
00010000
00000000
00001000
00000100
00000001
00000000
,
00001000
00000001
00000100
00000000
00001000
00010000
00100000
00000000
,
01000000
00010000
00100000
00000000
01000000
10000000
00100000
00000000
,
00010000
00001000
00010000
00000000
00000100
00001000
00000010
00000000
,
00000100
00000001
00000010
00000100
00010000
00001000
00010000
00000000
,
00001000
01000000
00010000
00000000
00100000
00001000
01000000
00000000
,
00010000
00100000
01000000
00000000
10000000
01000000
00100000
00000000
,
00001000
00000000
00001000
00010000
00000000
00000000
00000100
00000000
00000010
00000000
00000010
00000001
00000000
00000000
00001000
00000000
,
00000001
00000100
00001000
00010000
00001000
00000000
00011000
00000000
,
00001000
00000000
00010000
00000000
,
01000000
00000000
10000000
00000000
,
00100000
00000000
00010000
00000000
,
00001000
00000000
00020000
00030000
,
00001000
00000000
00000000
00010000
00000000
00000000
00000100
00000000
00001000
00000000
00000000
00000000
00000100
00000000
00000000
00000000
,
00000010
00000000
00000000
00000001
00000000
00000000
00001000
00000000
00000010
00000000
00000000
00000000
00010000
00000000
00000000
00000000
,
00100000
00000000
00000000
01000000
00000000
00000000
00010000
00000000
10000000
00000000
00000000
01000000
00000000
00000000
00010000
00000000
,
00011000
00000000
00000000
00011000
00000000
00000000
00010100
00000000
00001100
00000000
00000000
00000000
00001001
00000000
00000000
00000000
,
00000001
00000011
00001000
00001010
,
00000001
00000000
00000110
00000000
00010000
00001000
00011000
00000000
,
00001000
00010000
00100000
00000000
01000000
00010000
00100000
00000000
,
00010000
01000000
00100000
00010000
00001000
00000000
00011000
00000000
,
00001000
00000000
00000000
00010000
00000000
00000000
00100000
00000000
01000000
00000000
00010000
00000000
10000000
00000000
00000000
00000000
,
01000000
00000000
00000000
00100000
00000000
00000000
00001000
00000000
00010000
00000000
00001000
00000000
01000000
00000000
00000000
00000000
,
00010000
00000000
00000000
00100000
00000000
00000000
10000000
00000000
00100000
00000000
00000000
00010000
00000000
00000000
01000000
00000000
,
00100000
00000000
00000000
00010000
00000000
00000000
00001000
00000000
00010000
00000000
00000000
00000000
00011000
00000000
00000000
00000000
,
00010000
00000000
00000000
00000100
00000000
00000000
00000010
00000000
00000001
00000000
00001000
00000000
00000010
00000000
00000000
00000000
,
00001000
00000000
00000000
00000100
00000000
00000000
00000010
00000000
00001000
00000000
00010000
00000000
00001000
00000000
00000000
00000000
,
00010000
00000000
00000000
00100000
00000000
00000000
10000000
00000000
00010000
00000000
00000000
00100000
00000000
00000000
10000000
00000000
,
00100000
00000000
00000000
00001000
00000000
00000000
00010000
00000000
00001000
00000000
00000000
00000000
00011000
00000000
00000000
00000000
,
00010000
00000000
00000000
00001000
00000000
00000000
00000100
00000000
00000010
00000000
00001000
00000000
00000010
00000000
00000000
00000000
,
00000100
00000000
00000000
00000001
00000000
00000000
00001000
00000000
00000001
00000000
00000010
00000000
00000100
00000000
00000000
00000000
,
00010000
00000000
00000000
00001000
00000000
00000000
00010000
00000000
01000000
00000000
00000000
00100000
00000000
00000000
00010000
00000000
,
01000000
00000000
00000000
00100000
00000000
00000000
10000000
00000000
01000000
00000000
00000000
00000000
10010000
00000000
00000000
00000000
,
10000000
00000000
00000000
01000000
00000000
00000000
00100000
00000000
00001000
00000000
00010000
00000000
00000100
00000000
00000000
00000000
,
00000010
00000000
00000000
00000001
00000000
00000000
00001000
00000000
00000010
00000000
00000100
00000000
00001000
00000000
00000000
00000000
,
00010000
00000000
00000000
00001000
00000000
00000000
01000000
00000000
00010000
00000000
00000000
00100000
00000000
00000000
00001000
00000000
,
00011000
00000000
00011000
00000000
00010000
00001000
00010000
00000000
,
00012000
00000000
00023000
00000000
,
00230000
00000000
20300000
00000000
,
32000000
00000000
03020000
00000000
,
00032000
00000000
00003100
00000001
,
00001000
00000100
00000001
00000000
00000001
00000100
00001000
00000000
,
00000001
00000100
00001000
00000000
00001000
00000100
00000001
00000000
,
00000010
00000100
00001000
00000100
00010000
00001000
01000000
00010000
,
00100000
01000000
00100000
02000000
00200000
03000000
00300000
00000000
,
00010000
00000000
10000000
00000000
00100000
00000000
10000000
00100000
00000000
00100000
10000000
00000000
00010000
00000000
00000000
00000000
,
10000000
00000000
01000000
00000000
00100000
00000000
00001000
00010000
00000000
00001000
00010000
00000000
00000100
00000000
00001000
00000000
,
00000001
00000110
00001000
00000110
,
00000001
00000100
00001000
00010000
00001000
00000000
00011000
00000000
,
00001000
00000000
00100000
00000000
00010000
00000000
01000000
00010000
00000000
00010000
01000000
00000000
00100000
00000000
00000000
00000000
,
01000000
00000000
00001000
00000000
00010000
00000000
00001000
00000100
00000000
00000100
00000010
00000000
00001000
00000000
00000100
00000000
,
00010000
01001000
00010000
00010100
,
00011000
00110000
10100000
10010000
,
10000000
00000000
01000000
00000000
00100000
00000000
00001000
00010000
00000000
00001000
00010000
00000000
00000010
00000000
00000000
00000000
,
00001000
00000000
00000001
00000000
00000010
00000000
00000100
00001000
00000000
00000100
00001000
00000000
00000010
00000000
00010000
00000000
,
00001000
00110000
00010000
00001010
,
00010000
00000000
00011000
00000000
00001000
00010000
00001000
00000000
,
00010000
00001000
00000100
00000000
00000001
00001000
00000100
00000000
,
00000010
00000001
00000100
00000000
00001000
00010000
00100000
00000000
,
01000000
00000000
01000000
00010000
00000000
00000000
10000000
00000000
01000000
00000000
01000000
00100000
00000000
00000000
00001000
00000000
,
00010000
00001000
00010000
00001000
00010000
00000000
00001000
00000000
,
00011000
00000000
00000000
00000000
;

//--------------- dance-double - Fred-104 ----------------
#NOTES:
     dance-double:
     Fred-104:
     Hard:
     15:
     :
00000000
00000000
00000000
00000000
,
00000000
00000000
00000000
00000000
,
00000000
00000000
00000000
00000000
,
00000000
00000000
00000000
00000000
,
00000000
00000000
00000000
00000000
,
00000000
00000000
00000000
00000000
,
00011000
00000000
00000000
00000000
00011000
00000000
00000000
00010000
00000100
00000000
00000010
00000000
00000001
00000000
00001000
00000000
,
00000010
00000100
00000010
00000000
00001000
00000000
00000001
00000100
00000000
00000001
00001000
00000000
00000100
00010000
00001000
00000000
,
00011000
00000000
00000000
00000000
00011000
00000000
00000000
00001000
00010000
00000000
00100000
00000000
01000000
00000000
00010000
00000000
,
10000000
00000000
01000000
00000000
01100000
00000000
00010000
10000000
00010000
10000000
00010000
00000000
01000000
00000000
01000000
00000000
,
00010000
00000000
10000000
00000000
01000000
00000000
00100000
00001000
00010000
00000000
00001000
00000000
00000100
00000000
00000010
00000000
,
00010000
00001000
00010000
00000000
00001000
00000000
00000100
00000001
00000100
00000001
00001000
00000000
00000100
00000000
00000010
00000000
,
00000001
00000000
00001000
00000000
00000010
00000000
00000100
00000001
00001000
00000000
00000010
00000000
00010000
00000000
00001000
00000000
,
00100000
00001000
00010000
00000000
00100000
00000000
01000000
00100000
01000000
00100000
10000000
00000000
01000000
00100000
01000000
00100000
,
00010000
01000000
00100000
00000000
00001000
00000010
00000100
00000000
,
00001000
00000000
00001000
00000001
00000100
00000000
00000001
00001000
00000100
00000000
00010000
00000000
00001000
00100000
00001000
00000000
,
00010000
00000000
00000100
00001000
00000000
00000100
00000010
00000000
00000001
00001000
00000010
00001000
00000010
00010000
00001000
00000000
,
00010000
00000000
00010000
00000000
00010000
00000000
01000000
00100000
01000000
00000000
10000000
00000000
10010000
00000000
00000000
00000000
,
10000000
00000000
01000000
00010000
,
00001000
00000000
00010000
00000100
,
00000010
00000000
00000001
00000000
,
00000100
00001000
00022000
00033000
,
00010000
00000000
00000100
00001000
00000000
00000001
00001000
00000000
00000100
00000000
00000000
00000000
00000010
00000001
00000010
00000001
,
00000010
00000000
00000001
00001000
00000000
00000010
00000100
00000000
00001000
00000000
00000000
00000000
00010000
00001000
00010000
00001000
,
00010000
00000000
00001000
01000000
00000000
00010000
01000000
00000000
00010000
00000000
10000000
01000000
00000000
00100000
01000000
00000000
,
11000000
00000000
00000000
01010000
00000000
00000000
00011000
00000000
00011000
00000000
00000000
00000000
00010000
00000010
00010000
00000010
,
00010000
00000000
00000000
00010000
00001000
00000000
00000100
00000001
00000100
00000000
00000000
00000100
00000010
00000000
00001000
00000001
,
00001000
00000000
00000000
00001000
00000001
00000000
00000100
00000010
00000100
00000000
00001000
00010000
00001000
00010000
00001000
00000000
,
01000000
00010000
01000000
00000000
00100000
10000000
00100000
00000000
10000000
01000000
10000000
01000000
00100000
00010000
00100000
00001000
,
00010000
00001000
00000100
00000010
00001010
00000000
00001001
00000000
,
00000110
00000000
00000100
00000001
00000000
00001000
00000001
00000000
00000010
00000100
00001000
00000000
00000100
00010000
00001000
00000000
,
00010000
00000000
00100000
01000000
00000000
00100000
10000000
00000000
00010000
00100000
01000000
00000000
10000000
01000000
00100000
00000000
,
00001000
00000000
00010000
00001000
00000000
00000010
00001000
00000000
00010000
00000000
00001000
00010000
00000000
00100000
00010000
00000000
,
00001000
00000000
00010000
00000100
00000000
00000010
00000001
00000000
00000011
00000000
00000000
00000000
00001000
00000010
00000100
00000001
,
00001000
00000000
00000010
00010000
00000000
00001000
00100000
00000000
00010000
01000000
00100000
00000000
10000000
01000000
00100000
00000000
,
00001000
00000000
00010000
00001000
00000000
01000000
00001000
00000000
00010000
00000100
00001000
00000000
00000100
00000010
00000001
00000000
,
00001000
00000000
00000100
00000001
00000000
00000100
00001000
00000000
00000001
00000000
00000100
00001000
00000000
00000100
00000001
00000000
,
00000011
00000000
00000000
00001010
00000000
00000000
00011000
00000000
00011000
00000000
00001000
00000000
02000000
00000000
03000000
00000000
,
10010000
00000000
00010000
10000000
00000000
00100000
10000000
00000000
01000000
00100000
01000000
00100000
00001000
00010000
00001000
00010000
,
00001000
00000000
00010000
00000100
00000000
00001000
00000001
00000000
00000010
00000100
00000010
00000100
00001000
00000100
00001000
00000100
,
00010000
00000000
00001000
00010000
00000000
00100000
01000000
00000000
00100000
00000000
00010000
00001000
00000000
00010000
00000100
00000000
,
00010000
00000000
00001000
00000100
00000000
00000001
00000010
00000000
00000110
00000000
00000100
00000000
00001000
00000001
00001000
00000001
,
00001000
00000000
00000001
00000100
00000000
00000010
00000100
00000000
00001000
00010000
00001000
00010000
00001000
01000000
00001000
01000000
,
00001000
00000000
00010000
00100000
00000000
01000000
00010000
00000000
10000000
01000000
10000000
01000000
00100000
00010000
00100000
00010000
,
10000000
00000000
00000000
10100000
00000000
00000000
00110000
00000000
00011000
00000000
00000000
00001100
00000000
00000000
00000101
00000000
,
00000110
00000000
00000000
00000000
00001001
00000000
00000000
00000000
00001000
00000001
00001000
00000001
00001000
00000000
00000000
00000000
,
00000002
00000000
00000203
00000000
,
00001300
00010000
00100000
10000000
,
02000000
00000000
03020000
00000000
,
00031000
00000000
00000010
00000000
00000001
00001000
00001001
00000000
,
00000001
00000100
00000010
00001000
00000100
00010000
00001000
00100000
,
00010000
01000000
00100000
10000000
01000000
00100000
00010000
10000000
,
00100000
00000000
00000000
10000000
00000000
00000000
00100000
00000000
00000000
10000000
00000000
00000000
00100000
00000000
00000000
00000000
00000000
00000000
00100000
00000000
00000000
00000000
00000000
00000000
01000000
00000000
00000000
00010000
00000000
00000000
10000000
00000000
00000000
00010000
00000000
00000000
00100000
00000000
00000000
00000000
01000000
00000000
00000000
00000000
00010000
00000000
00000000
00000000
,
00001000
00010000
00001000
00010000
00001000
00010000
00000010
00020000
00002000
00000000
00030000
00000000
00003000
00000000
00000000
00000000
,
00010000
00000100
00001000
00000000
00001000
00000100
00000010
00000100
00000010
00000001
00001000
00000000
00002002
00000000
00003003
00000000
,
00000001
00000100
00000010
00000000
00000010
00000100
00001000
00010000
00001000
00100000
00010000
00000000
20000000
00000000
30020000
00000000
,
10030000
01000000
00000000
01000000
00010000
00000000
20000000
00000000
30010000
01000000
00000000
01000000
10000000
00000000
00020000
00000000
,
10030000
00100000
00000000
00100000
00010000
00000000
00002000
00000000
00013000
00000000
00000100
00000000
00000110
00000000
00000010
00000001
,
00001000
00000010
00001000
00000000
00000001
00000010
00000100
00001000
00000100
00010000
00001000
00000000
02002000
00000000
03003000
00000000
,
01000000
00010000
10000000
00000000
01000000
00100000
00010000
00100000
01000000
10000000
00010000
00000000
01000000
00000000
00200000
00000000
,
00310000
00011000
00000100
00000101
00001000
00000100
00000110
00000000
,
00000011
00000001
00000101
00000100
00001100
00001000
00022000
00033000
,
00001000
00010000
00100000
00000000
01000000
00010000
01000000
00010000
00000000
00100000
01000000
00000000
10000000
00000000
00200000
00000000
,
00310000
00001000
00010000
00000000
00001000
00010000
00000010
00001000
00000000
00000010
00000100
00000000
00000010
00001000
00000002
00000000
,
00001003
00000010
00000000
00000010
00000001
00000000
00002000
00000000
00003001
00000010
00000000
00000010
00001000
00000000
00000002
00000000
,
00000013
00000100
00000000
00000100
00010000
00000000
00001000
01000000
00010000
00000000
00100000
00000000
02100000
00000000
13000000
00010000
,
10000000
00000000
00100000
00000000
00010000
00000000
00001000
00000000
00010000
00000100
00001000
00000000
00001000
00000100
00010000
00000000
,
00001000
00000000
00000100
00000000
00000001
00000000
00000010
00000000
00000100
00010000
00001000
00000000
00001000
00010000
00000100
00000000
,
00010100
00000000
00010000
00001000
00000000
00000000
00010000
01000000
10000000
00000000
10000000
00010000
01000000
00100000
00010000
00001000
,
00010000
00000000
00010000
00000000
00010000
00000000
00001000
00000100
00000001
00000000
00000010
00000000
00000220
00000000
00000330
00000000
,
00001001
00000000
00000000
00000000
;
