#VERSION:0.83;
#TITLE:Emblem of the Moon;
#ARTIST:dj TAKA;
#BANNER:Emblem of the Moon.png;
#BACKGROUND:Emblem of the Moon-bg.png;
#CDTITLE:./CDTitles/RB Reflesia.png;
#MUSIC:Emblem of the Moon.ogg;
#SAMPLESTART:41.59;
#SAMPLELENGTH:15;
#BPMS:0=150;
#BGSTAGE:3;

//--------------- dance-single - Fred-104 ----------------
#NOTEDATA:;
#STEPSTYPE:dance-single;
#DESCRIPTION:Fred-104;
#DIFFICULTY:Beginner;
#METER:2;
#CREDIT:Fred-104;
#NOTES:
0000
0000
0000
0000
,
0000
0000
0000
0000
,
0000
0000
0000
0000
,
0000
0000
0000
0000
,
0000
0000
0000
0000
,
0000
0000
0000
0000
,
0000
0000
0000
0000
,
0000
0000
0000
0000
,
0000
0000
0000
0000
,
0000
0000
0000
0000
,
1000
0000
0000
0000
,
0002
0003
2000
3000
,
0001
0000
0000
0000
,
0100
0000
0010
0000
,
0100
0000
0000
0000
,
0001
0000
1000
0000
,
0010
0000
0000
0000
,
1000
0000
0001
0000
,
1000
0000
0000
0000
,
0010
0000
0000
0000
,
0100
0000
0000
0000
,
0001
0000
1000
0000
,
0002
0000
0003
0000
,
2000
0000
3000
0000
,
0020
0000
0030
0000
,
0200
0000
0300
0000
,
0001
0000
0100
0000
,
0001
0000
0001
0000
,
0100
0000
0010
0000
,
0100
0000
0100
0000
,
0001
0000
1000
0000
,
0100
0000
0100
0000
,
1000
0000
0001
0000
,
1000
0000
0002
0003
,
1000
0000
0010
0000
,
1000
0000
1000
0000
,
0001
0000
1000
0000
,
0001
0000
0001
0000
,
0100
0000
0010
0000
,
0100
0000
0100
0000
,
0001
0000
1000
0000
,
0001
0000
1000
0000
,
1001
0000
0000
0000
,
0000
0000
0000
0000
,
0000
0000
0000
0000
,
0000
0000
0000
0000
,
0002
0000
0000
0000
,
0003
0000
0000
0000
,
2000
0000
0000
0000
,
3000
0000
0000
0000
,
0001
0000
0100
0000
,
0001
0000
0010
0000
,
0001
0000
1000
0000
,
0001
0000
1000
0000
,
0100
0000
1000
0000
,
0001
0000
1000
0000
,
0001
0000
1000
0000
,
2002
0000
0000
0000
0000
3003
0000
0000
,
1000
0000
0010
0000
,
2000
0000
3000
0000
,
0001
0000
0010
0000
,
0200
0000
0300
0000
,
1000
0000
0001
0000
,
1000
0000
0001
0000
,
0100
0000
0010
0000
,
0100
0000
0010
0000
,
0110
0000
0000
0000
,
1000
0000
0000
0000
,
0001
0000
0000
0000
,
1000
0000
0000
0000
,
0001
0000
0010
0000
,
0001
0000
1000
0000
,
0100
0000
1000
0000
,
0001
0000
1000
2002
,
0000
0000
0000
0000
,
0000
0000
0000
0000
,
3003
0000
0000
0000
;

//--------------- dance-single - Fred-104 ----------------
#NOTEDATA:;
#STEPSTYPE:dance-single;
#DESCRIPTION:Fred-104;
#DIFFICULTY:Easy;
#METER:7;
#CREDIT:Fred-104;
#NOTES:
0000
0000
0000
0000
,
0000
0000
0000
0000
,
0000
0000
0000
0000
,
0000
0000
0000
0000
,
0000
0000
0000
0000
,
0000
0000
0000
0000
,
0000
0000
0000
0000
,
0000
0000
0000
0000
,
0000
0000
0000
0000
,
0000
0000
0000
0000
,
0001
0100
0001
0000
,
2000
3200
0320
0032
,
1003
0010
0100
0010
,
1000
0001
0010
0000
,
0001
0100
1000
0000
,
0001
0010
1000
0000
,
0001
0100
0010
0100
,
0001
1000
2002
3003
,
0001
0100
0001
0000
,
0100
0001
0010
0000
,
0100
1000
0100
0000
,
1000
0010
0100
0000
,
0001
0010
0002
1003
,
0010
0100
0020
0130
,
0001
1000
0100
0010
,
0001
0000
0100
0000
0010
0010
0010
0000
,
1001
0000
0000
0100
0000
0000
1000
0000
,
0010
0000
1000
0000
0001
0100
0001
0000
,
0010
0000
0000
0001
0000
0000
1000
0000
,
0001
0000
0100
0000
0010
0000
1000
0001
,
1000
0000
0000
0100
0000
0000
0001
0000
,
0010
0000
0001
0000
0010
0000
1000
0001
,
1000
0100
0010
0001
,
1000
0000
0010
0000
0100
0000
0202
0303
,
0001
0010
0001
1000
,
0001
0000
0000
0001
0000
0000
0001
0000
,
0100
0010
0100
0001
,
1000
0100
0001
0100
,
1000
0010
0100
0001
,
1000
0000
0000
0100
0000
0000
0010
0000
,
0001
0001
1000
1000
,
0001
0000
0100
0000
0010
0100
0010
0000
,
2002
0000
0000
3003
,
2000
0000
0000
0000
,
3002
0000
0000
0000
,
0203
0000
0000
0000
,
0310
0000
0000
0010
0000
0000
0010
0000
,
0100
0000
0000
0100
0000
0000
0100
0000
,
0001
0000
0000
0001
0000
0000
1000
0000
,
2002
0000
3003
0000
,
1000
0000
0000
0100
0000
0000
0010
0000
,
0100
0000
0000
0010
0000
0000
0001
0000
,
1000
0000
0000
0001
0000
0000
0100
0000
,
0001
0010
0100
0010
,
0001
0100
1000
0000
,
1000
0100
0001
0000
,
1001
0000
0110
0000
,
1000
0000
0000
0001
0000
0000
1000
0000
2002
0000
0000
0000
3003
0000
0000
0000
,
0001
0000
0000
0010
0000
0000
0001
0000
,
0100
0010
0200
0300
,
0001
0000
0000
1000
0000
0000
0100
0000
,
1000
0001
0020
0030
,
0001
0010
1000
0000
,
1000
0010
0001
0000
,
0001
0100
1000
0000
,
1000
0000
0100
0000
0001
0000
1000
0001
,
1000
0000
0000
0010
0000
0000
0100
0000
,
0010
1000
0002
0003
,
1000
0000
0000
0100
0000
0000
0010
0000
,
0001
1000
0020
0030
,
1000
0100
0001
0100
,
1000
0010
0001
0010
,
1000
0100
1000
0000
0001
0100
0001
0000
,
1000
0000
0000
0010
0000
0000
0100
0000
0001
0000
0000
2002
0000
0000
0000
0000
,
0000
0000
0000
0000
,
0000
0000
0000
0000
,
3003
0000
0000
0000
;

//--------------- dance-single - Fred-104 ----------------
#NOTEDATA:;
#STEPSTYPE:dance-single;
#DESCRIPTION:Fred-104;
#DIFFICULTY:Medium;
#METER:12;
#CREDIT:Fred-104;
#NOTES:
0000
0000
0000
0000
,
0000
0000
0000
0000
,
0000
0000
0000
0000
,
0000
0000
0000
0000
,
0000
0000
0000
0000
,
0000
0000
0000
0000
,
0000
0000
0000
0000
,
0000
0000
0000
0000
,
0000
0000
0000
0000
,
0000
0000
0000
0000
,
1000
0000
0010
0000
0100
0000
0001
1000
0001
0000
0010
0000
0001
0000
0000
0000
,
0100
0000
0001
0000
0010
0000
0100
1000
0100
0000
0010
0000
0100
0000
0000
0000
,
1000
0100
0001
1000
0010
0001
1000
0000
,
0001
0000
0100
0000
1000
0000
0100
0010
0100
0000
0001
0000
1000
0000
0000
0000
,
0001
0000
0010
0000
0100
0000
1000
0001
1000
0000
0010
0000
0100
0000
0000
0000
,
0010
0000
1000
0010
1000
0000
0100
0000
0010
0000
0100
0000
0001
0000
0000
0000
,
0100
0000
0000
1000
0001
0000
0000
0000
0010
0000
0000
0001
1000
0000
0000
0000
,
0010
0000
0100
0000
0001
1000
1001
0000
,
0001
0000
0000
0001
0000
0000
0001
0000
0100
0000
0000
0100
0000
0000
0100
0000
,
0010
0000
0000
0010
0000
0000
0010
0000
1000
0000
0000
1000
0000
0000
1000
0000
,
0100
1000
0010
1000
0100
0010
0100
1000
,
0001
0100
0010
1000
0001
0010
0110
0000
,
0100
0000
0000
1000
0000
0000
0010
0000
0100
0000
0000
0001
0000
0000
1000
0000
,
0100
0000
0000
0010
0000
0000
0001
0000
0100
0000
0000
0010
0000
0000
1000
0000
,
0001
0000
0010
0000
0100
0000
1000
0010
1000
0000
0001
0000
0100
0000
0000
0000
,
2002
0000
0000
3003
0100
0100
0100
0000
,
2001
0000
0000
3020
0000
0000
0230
0000
,
0301
0000
1001
0000
0001
0010
1000
0010
,
0002
0000
0000
0203
0000
0000
0320
0000
,
1030
0010
0000
0000
0010
1000
0000
0000
1000
0000
0001
0000
0100
0000
0010
0100
,
0020
0000
0000
0230
0000
0000
0302
0000
,
1003
0010
0100
0010
0002
0000
0013
1000
,
0001
0000
0010
0100
1000
0001
0100
0010
,
1000
0000
0100
0010
0001
1000
2002
3003
,
1010
0000
0000
0010
0100
0000
0000
0100
0001
0000
0000
0001
1000
0000
0000
1000
,
0100
0000
0010
0000
0001
0000
0100
0000
0010
0000
1000
0000
0001
0000
0100
0001
,
0100
0001
0010
0100
0010
0001
1000
0010
,
0100
0100
0100
0001
1000
0001
1001
0000
,
0001
0010
1000
0010
0001
0010
0100
0000
,
1000
0001
0100
0001
0010
0100
1100
0000
,
0001
0100
0010
0010
0100
0001
0010
0010
,
0001
0001
1000
1000
0010
0100
0001
1000
,
1020
0000
0000
0000
,
0230
0000
0302
0000
,
2003
0000
0000
3200
0000
0000
0320
0000
,
0031
0000
0100
0010
0000
0000
1000
0000
,
0100
0010
0001
0020
0000
0000
0031
0000
,
0100
0010
0100
0020
0000
0000
1030
0000
,
0001
0100
0001
0020
0000
0000
0130
1000
,
0002
0000
0000
0000
1003
0001
0100
0000
,
0200
0001
0010
0301
,
2000
0010
0100
3010
,
0002
0100
1000
0103
,
0020
1000
0001
1030
,
0200
0001
0010
1300
,
0020
0100
0032
1000
,
0203
0010
0302
1003
,
1001
0000
0000
1001
0000
0000
2002
0000
0000
0000
0000
0000
3003
0000
0000
0000
,
0001
0010
0001
1000
0010
0100
0001
1000
,
0100
0010
0002
0000
0103
0010
0001
0010
,
1000
0001
0010
0001
0100
0010
1000
0100
,
1000
0100
0020
0000
0031
0100
1000
0100
,
0110
0000
1001
0001
1000
0001
0100
0010
,
0100
0001
1000
0100
0010
0001
1000
0001
,
0010
0100
0010
0001
0100
0010
1000
0001
,
1000
0000
0001
0100
0001
0000
0010
0000
0100
1000
0100
0000
0010
0000
0001
0000
,
1002
0000
0103
0002
0000
0023
0000
0032
,
0000
2003
3020
0000
0130
0001
1000
0100
,
0020
0000
0031
2000
0000
3020
0000
0230
,
0000
0302
2003
0000
3001
0100
0010
0100
,
0001
0010
0001
0000
0100
0000
0010
0000
1000
0010
1000
0000
0100
0000
0010
0000
,
0100
1000
0100
0000
0010
0001
0010
0000
0100
1000
0100
0000
0010
0001
0010
0000
,
0001
0000
0100
0001
0100
0000
0010
1000
0010
0000
0100
0001
0100
0000
0010
0000
,
1010
0000
0000
0101
0000
0000
1100
0000
1000
0001
1000
0002
0000
0000
0000
0000
,
0000
0000
0000
0000
,
0000
0000
0000
0000
,
0003
0000
0000
0000
;

//--------------- dance-single - Fred-104 ----------------
#NOTEDATA:;
#STEPSTYPE:dance-single;
#DESCRIPTION:Fred-104;
#DIFFICULTY:Hard;
#METER:16;
#CREDIT:Fred-104;
#NOTES:
0000
0000
0000
0000
,
0000
0000
0000
0000
,
0000
0000
0000
0000
,
0000
0000
0000
0000
,
0000
0000
0000
0000
,
0000
0000
0000
0000
,
0000
0000
0000
0000
,
0000
0000
0000
0000
,
0000
0000
0000
0000
,
0000
0000
0000
0000
,
1000
0000
0100
0000
1000
0010
1000
0010
0100
0000
0001
0000
1000
0000
0000
0000
,
0001
0000
0010
0000
0100
0000
1000
0010
1000
0000
0001
0000
0010
0100
0010
0000
,
0100
1000
0100
0000
1000
0010
0100
0001
1000
0000
0001
0010
0100
1000
0100
0000
,
2000
0000
0000
0000
3001
0000
0100
0000
0001
0010
0100
0010
0002
0000
0000
0000
,
2003
0000
0000
0000
3001
0100
0001
0000
1000
0010
1000
0000
0100
0010
0001
0100
,
0010
1000
0010
0000
0200
0000
0000
0000
0301
0000
0100
0000
1000
0000
0010
0000
,
0001
0000
0100
0010
0200
0000
0000
0000
0301
0000
0001
0010
0100
0000
1000
0000
,
0010
0000
1000
0010
0100
0000
0010
1000
0100
0000
0010
0001
1000
0000
0001
0000
,
1000
0000
0001
0010
0000
0010
0001
0000
0100
0000
0010
1000
0000
1000
0010
0000
,
0100
0000
0001
1000
0000
1000
0001
0000
0010
0000
0100
1000
0000
1000
0100
0000
,
1000
0010
0100
0010
1000
0100
0010
0001
1000
0000
0100
0000
1000
0000
0001
1000
,
0010
0000
1000
0001
0100
0000
0001
0010
0100
0010
0100
1000
0010
1000
0000
0000
,
1001
0000
0001
0100
0000
0100
0001
0000
1000
0010
0100
0010
0000
1000
0010
0000
,
1000
0000
0100
0010
0000
0010
0100
0000
1000
0001
0100
0001
0000
0000
0010
0100
,
0010
0000
0001
1000
0001
0000
0100
0010
0100
0010
1000
0010
1000
0000
0001
0000
,
1000
0100
1000
0100
0010
0001
0010
0001
1000
0010
0100
0001
0010
0001
1000
0010
,
0200
0000
0301
0200
0000
1300
0200
0300
,
0101
0000
0011
0000
1001
0100
0010
0001
,
2000
0000
3010
0002
0000
0013
2000
0000
,
3200
0010
0300
0000
0020
0001
0030
0000
0001
0000
1000
0000
0100
0000
1000
0001
,
2000
3100
0001
2000
3010
0001
2000
0000
,
3001
0010
0100
0000
0020
0000
0001
0000
0032
0000
0000
0000
0103
0000
1000
0100
,
0001
0000
0010
0000
0100
0000
1000
0000
0001
0100
0001
0000
1000
0000
0010
0000
,
0100
0000
0000
0000
0001
0000
0100
0000
0010
1000
0001
0000
2002
0000
3003
0000
,
1000
0001
0000
1000
0100
0000
0010
0000
0001
0000
0100
0001
0010
0000
0100
0000
,
0010
0001
0010
0001
1000
0000
0010
1000
0010
1000
0001
0000
0100
0000
0001
1000
,
0010
1000
0100
1000
0100
0000
1000
0001
0010
0000
0001
0000
0100
0000
0010
0000
,
0100
0010
0100
0010
0100
0000
0001
0000
1000
0001
0100
0001
1000
0001
0010
0001
,
1000
0100
1000
0100
0010
0000
0001
0100
0001
0100
0010
0000
1000
0001
0100
0001
,
2000
0000
0000
0000
3001
0000
0010
1000
0010
0000
0100
0000
1000
0000
0001
1000
,
0001
0100
0001
0010
0100
0010
0001
0000
1000
0100
1000
0010
0100
0000
0010
1000
,
0001
0000
0100
0001
0010
0000
0100
1000
0010
0000
0010
0000
0100
0000
0100
0000
,
1002
0000
0000
0000
,
0203
0000
0320
0000
,
2030
0000
0000
3002
0000
0000
2003
0000
,
3001
0000
0001
0020
0000
0000
0031
0000
,
1000
0100
1000
0200
0000
0000
0310
0000
,
0001
1000
0010
2000
0000
0000
3100
1000
,
0010
0000
0000
1000
0000
0000
0100
0000
0000
0020
0000
0000
0000
0000
0000
0000
0000
0000
0031
0000
0000
0000
1000
0001
,
2000
0000
0000
0000
0000
0000
0000
0000
3001
0000
0100
0010
0100
0000
0001
0000
,
1000
0000
0100
0000
0001
0000
0000
1000
0000
0010
0001
0000
1000
0000
0010
0000
,
0100
0001
0100
0000
0001
0000
0010
0100
0000
0100
1000
0000
0001
0000
1000
0001
,
0010
0000
0001
0000
0100
0000
1000
0001
0000
0010
1000
0000
0001
0000
1000
0000
,
0001
0100
0001
0000
0010
0001
0010
0001
0010
0000
0001
0000
0100
0010
1000
0010
,
0100
0000
0010
1000
0001
0000
0010
0001
1000
0001
1000
0010
1000
0010
0100
0000
,
0001
0010
0001
1000
0001
0010
0001
0000
1000
0100
1000
0001
1000
0010
0100
0000
,
0110
1000
0001
0000
0110
0001
1000
0000
,
0002
0000
0000
0000
0000
0000
0003
0000
0000
2000
0000
0000
0000
0000
0000
3000
0000
0000
2002
0000
0000
0000
0000
0000
0000
0000
0000
3003
0000
0000
0001
0000
1000
0000
0001
0000
1000
0000
0000
0000
0000
0000
0100
0000
0000
0000
0000
0000
,
2000
0000
3001
0100
0002
0000
0023
0000
0130
0010
0002
0000
1003
0001
2000
0000
,
3020
0000
0130
0000
0201
0000
0000
0000
0301
1000
0100
0000
0001
0000
0100
0000
,
0020
0000
0031
1000
0020
0000
2030
0000
3001
0100
2000
0000
3100
0010
2000
0000
,
3002
0000
1003
0000
1002
0000
0000
0000
1003
0100
1000
0001
0010
0001
0100
0010
,
1000
0100
1000
0100
0010
0001
0010
0001
1000
0010
1000
0010
0100
0001
0100
0001
,
1000
0001
0010
0100
1000
0100
0010
0001
0100
0010
1000
0010
0100
0001
1000
0001
,
0010
0000
0100
1000
0010
0000
0100
0001
0010
0000
0100
1000
0001
1000
0100
0010
,
0100
0000
1000
0001
1000
0000
1020
0000
0130
0001
1000
0010
0100
0001
1000
0100
,
2000
0000
3020
0230
0000
2300
0000
3200
,
0302
0000
2003
0000
3200
0000
0000
0000
0310
0001
2000
0000
3001
0010
0200
0000
,
0302
0000
0203
0320
0000
0032
0000
2003
,
3020
0000
0032
0000
0023
0000
0000
0000
0130
0001
1000
0001
1000
0100
0010
0001
,
1000
0010
0100
0001
1000
0010
0100
0001
0010
0100
0010
0001
0010
0100
0010
0001
,
1000
0000
0001
1000
0010
1000
0001
0010
0100
0010
0001
1000
0100
1000
0010
0100
,
0001
0000
1000
0001
1000
0010
0100
0001
0100
0001
0010
0100
1000
0010
0100
0001
,
1000
0000
0001
0010
0000
1000
0010
0000
0001
0100
0010
0200
0000
0000
0000
0000
,
0000
0000
0000
0000
,
0000
0000
0000
0000
,
0300
0000
0000
0000
;

//--------------- dance-single - Fred-104 ----------------
#NOTEDATA:;
#STEPSTYPE:dance-single;
#DESCRIPTION:Fred-104;
#DIFFICULTY:Challenge;
#METER:17;
#CREDIT:Fred-104;
#NOTES:
0000
0000
0000
0000
,
0000
0000
0000
0000
,
0000
0000
0000
0000
,
0000
0000
0000
0000
,
0000
0000
0000
0000
,
0000
0000
0000
0000
,
0000
0000
0000
0000
,
0000
0000
0000
0000
,
0000
0000
0000
0000
,
0000
0000
0000
0000
,
0001
0010
0100
1000
0001
0010
0100
1000
0001
0000
1000
0000
0010
0000
0100
0000
,
0001
1000
0100
0010
0001
1000
0100
0010
0001
1000
0010
0100
0001
1000
0010
0100
,
0001
1000
0001
1000
0100
0010
0001
1000
0010
0100
0001
1000
0100
0010
0100
1000
,
0001
0100
0010
1000
0001
1000
0001
0010
0100
0010
0001
1000
0001
0000
1000
0000
,
0010
1000
0001
1000
0100
1000
0001
1000
0100
0010
0001
1000
0010
0100
0001
1000
,
0001
0010
0100
1000
0001
0000
0100
0010
1000
0001
0010
0000
0100
0000
0010
0000
,
0001
1000
0010
1000
0001
1000
0100
0010
0001
1000
0010
0100
0001
0000
1000
0000
,
0100
0010
0001
1000
0010
0100
0001
1000
0100
1000
0001
1000
0010
0000
1000
0000
,
0001
0010
0100
1000
0001
1000
0010
0000
1000
0001
0100
0010
1000
0001
0010
0000
,
0100
1000
0001
0100
0010
1000
0010
0000
0100
0001
1000
0100
0010
0001
1000
0000
,
0001
0100
0010
1000
0010
0100
0001
1000
0100
0010
0001
1000
0010
1000
0001
0010
,
0100
1000
0001
1000
0010
1000
0001
1000
0100
0010
0100
1000
0001
0100
0010
1000
,
0001
1000
0100
0010
0001
1000
0010
0000
1000
0001
0100
0010
1000
0001
0010
0000
,
0100
1000
0001
1000
0010
0100
0001
0000
1000
0100
0010
0001
0010
0100
1000
0000
,
0001
1000
0100
1000
0001
0100
0010
1000
0010
0100
0001
1000
0100
0010
0001
1000
,
0010
0100
0001
1000
0100
0010
0001
1000
0010
1000
0001
0100
0001
1000
0100
0010
,
0001
0000
1000
0100
0001
0000
0100
0000
1000
0000
0001
0100
1000
0000
0100
0000
,
0001
1000
0010
0000
0001
0010
1000
0000
0001
0010
1000
0010
0001
1000
0100
0010
,
0001
0000
1000
0010
0001
0000
0010
0000
1000
0000
0001
0010
1000
0000
0010
0000
,
0001
1000
0100
0000
0001
0100
1000
0000
0001
0100
1000
0100
0001
1000
0010
0100
,
0001
0000
1000
0100
0010
0000
1000
0000
0010
0000
0001
0010
0100
0000
1000
0000
,
0001
0100
1000
0000
1000
0100
0001
0000
1000
0100
0001
0000
0001
0100
1000
0010
,
0100
0000
0001
1000
0100
0000
0010
0000
0001
0000
1000
0010
0100
0000
0001
0000
,
1000
0000
0100
0010
0001
0000
0100
0010
1000
0100
0010
0001
1000
0000
0000
0000
,
0001
1000
0010
0100
0001
1000
0100
1000
0001
0010
0100
1000
0001
1000
0010
1000
,
0001
0010
0100
1000
0010
0100
0010
1000
0100
0010
0001
1000
0010
0100
0001
1000
,
0100
0010
0001
1000
0010
0100
0010
1000
0001
0010
0100
1000
0100
0010
0100
1000
,
0001
0100
0010
1000
0010
0100
0001
1000
0100
0010
0001
0100
0010
1000
0001
0010
,
0001
0100
0010
1000
0100
1000
0001
1000
0001
0010
0100
1000
0010
1000
0001
1000
,
0001
0000
0100
0010
0100
0000
1000
0000
0001
0000
0010
0100
0010
0000
1000
0000
,
0001
1000
0100
0010
0100
1000
0001
0100
0010
1000
0010
0100
0001
1000
0100
0010
,
0001
1000
0010
0100
0010
1000
0100
0010
0100
1000
0001
0100
0001
0010
0100
1000
,
0001
0000
0000
0000
,
0000
0000
0000
0000
,
0000
0000
0000
0000
,
0000
0000
0000
0000
,
0001
0100
1000
0100
0000
0000
0001
0000
,
1000
0100
0001
0100
0000
0000
1000
0000
,
0001
0000
0000
0010
0000
0000
0100
0000
0000
1000
0000
0000
0000
0000
0000
0000
0000
0000
0001
0000
0000
0100
0010
0100
,
0010
0000
0000
0000
0000
0000
0000
0000
1000
0100
0010
0001
1000
0000
0001
0000
,
1000
0000
0001
0000
0100
0000
1000
0001
0000
0010
0100
0000
0001
0010
0100
0000
,
1000
0010
0100
1000
0100
0000
0010
0100
0000
0001
1000
0000
0100
0010
0001
1000
,
0010
0000
1000
0001
0010
0000
1000
0001
0000
0100
0010
0000
0001
0000
1000
0000
,
0010
0000
0100
0000
0001
0000
1000
0000
0100
0010
0001
1000
0010
0100
0010
0100
,
0010
1000
0100
0010
0001
1000
0010
1000
0001
0100
0010
1000
0001
0010
0100
0010
,
0001
0100
0010
1000
0100
0010
0001
1000
0010
0100
0010
1000
0010
0100
0001
1000
,
0001
0000
0100
1000
0100
0000
0001
1000
0010
0000
0001
0010
1000
0000
0001
1000
,
0001
0000
0000
0000
0000
0000
0000
0000
0000
0001
0000
0000
0000
0000
0000
0000
0000
0000
0001
0000
0000
0000
0000
0000
0000
0000
0000
0000
0000
0000
0001
0000
1000
0000
0001
0000
1000
0000
0000
0000
0000
0000
0000
0000
0000
0000
0000
0000
,
0001
0000
1000
0100
0010
0000
0001
1000
0010
0000
0100
0001
1000
0000
0001
0000
,
0010
0100
1000
0001
0100
0000
0001
0000
1000
0100
0010
0001
0010
0100
1000
0001
,
0100
0000
0001
1000
0100
0000
0010
0100
1000
0000
0001
0100
0010
0000
1000
0000
,
0001
0010
0100
1000
0001
0000
1000
0000
0100
0010
0001
1000
0010
1000
0001
1000
,
0001
0010
0100
0010
0001
0010
0100
1000
0010
1000
0100
1000
0010
1000
0100
0010
,
0001
1000
0010
1000
0001
0010
0001
1000
0100
1000
0001
0100
0001
1000
0100
0010
,
0001
1000
0010
0100
0001
1000
0010
0100
0001
1000
0100
1000
0001
0010
0100
1000
,
0001
0000
1000
0010
0000
0001
0010
0000
0100
0010
1000
0001
0010
0100
1000
0001
,
1000
0000
0000
0000
,
0000
0000
0000
0000
,
0000
0000
0000
0000
,
0000
0000
0000
0000
0000
0000
0000
0000
0001
0010
0100
1000
0001
0010
0100
1000
,
0001
0100
0010
1000
0001
1000
0100
0010
0001
1000
0001
0100
0001
1000
0100
1000
,
0001
0100
0010
1000
0001
0010
0100
0010
0001
1000
0010
0100
0001
1000
0100
0010
,
0001
1000
0010
1000
0001
0010
0100
1000
0100
0010
0001
1000
0010
0100
0010
1000
,
0001
0000
0100
0010
0000
1000
0100
0000
0010
0001
1000
0001
0000
0000
0000
0000
;

//--------------- dance-double - Fred-104 ----------------
#NOTEDATA:;
#STEPSTYPE:dance-double;
#DESCRIPTION:Fred-104;
#DIFFICULTY:Easy;
#METER:7;
#CREDIT:Fred-104;
#NOTES:
00000000
00000000
00000000
00000000
,
00000000
00000000
00000000
00000000
,
00000000
00000000
00000000
00000000
,
00000000
00000000
00000000
00000000
,
00000000
00000000
00000000
00000000
,
00000000
00000000
00000000
00000000
,
00000000
00000000
00000000
00000000
,
00000000
00000000
00000000
00000000
,
00000000
00000000
00000000
00000000
,
00000000
00000000
00000000
00000000
,
00010000
00001000
00010000
00000000
,
00002000
00023000
02030000
03200000
,
00310000
10000000
00100000
00000000
,
00010000
00001000
00000100
00000000
,
00000010
00001000
00000001
00000000
,
00000010
00000100
00010000
00000000
,
00001000
00010000
01000000
00000000
,
00010000
00001000
00022000
00033000
,
00010000
00000000
00001000
00000000
,
00000010
00001000
00010000
00000000
,
00001000
00000000
00010000
00000000
,
01000000
00010000
00001000
00000000
,
00010000
00001000
00000200
00000301
,
00001000
00000001
00000200
00000310
,
00000100
00000001
00000010
00001000
,
00010000
00000000
00001000
00000000
00000100
00000100
00000100
00000000
,
00001001
00000000
00000000
00000001
00000000
00000000
00000010
00000000
,
00001000
00000000
00010000
00000000
00001000
01000000
00001000
00000000
,
00010000
00000000
00000000
00100000
00000000
00000000
10000000
00000000
,
01000000
00000000
00100000
00000000
00001000
00000000
00010000
00001000
,
00010000
00000000
00000000
00000010
00000000
00000000
00010000
00000000
,
00001000
00000000
00010000
00000000
01000000
00000000
00100000
01000000
,
00100000
00010000
10000000
00100000
,
00010000
00000000
00001000
00000000
00000100
00000000
00002002
00003003
,
00000001
00000100
00001000
00000100
,
00000001
00000000
00000000
00000010
00000000
00000000
00001000
00000000
,
00010000
00001000
00100000
00010000
,
00100000
00001000
00010000
00100000
,
10000000
00010000
00100000
01000000
,
10000000
00000000
00000000
00100000
00000000
00000000
00010000
00000000
,
00001000
00000010
00000100
00001000
,
00000010
00000100
00001000
00010000
,
00022000
00000000
00000000
00033000
,
00000020
00000000
00000000
00000000
,
00020030
00000000
00000000
00000000
,
00032000
00000000
00000000
00000000
,
00013000
00000000
00000000
00000100
00000000
00000000
00010000
00000000
,
00001000
00000000
00000000
00000100
00000000
00000000
00001000
00000000
,
00010000
00000000
00000000
00100000
00000000
00000000
00010000
00000000
,
00022000
00000000
00033000
00000000
,
00010000
00000000
00000000
00001000
00000000
00000000
00000100
00000000
,
00000010
00000000
00000000
00001000
00000000
00000000
00000001
00000000
,
00000010
00000000
00000000
00000100
00000000
00000000
00001000
00000000
,
00000100
00010000
00001000
00010000
,
00100000
10000000
00010000
00000000
,
10000000
01000000
00100000
00000000
,
00110000
00000000
00011000
00000000
,
00001000
00000000
00000000
00010000
00000000
00000000
00022000
00000000
00000000
00000000
00000000
00000000
00033000
00000000
00000000
00000000
,
00001000
00000000
00000000
00010000
00000000
00000000
00001000
00000000
,
00000100
00000010
00002000
00003000
,
00000001
00000000
00000000
00000010
00000000
00000000
00001000
00000000
,
00010000
00001000
00020000
00030000
,
00001000
00010000
00100000
00000000
,
10000000
01000000
00010000
00000000
,
00001000
00000100
00000001
00000000
,
00000010
00000000
00001000
00000000
00010000
00000000
00001000
00100000
,
00001000
00000000
00000000
00010000
00000000
00000000
00000010
00000000
,
00010000
00001000
00000020
00000030
,
00000100
00000000
00000000
00001000
00000000
00000000
00000001
00000000
,
00000100
00001000
00020000
00030000
,
00001000
00010000
01000000
10000000
,
00100000
00010000
00001000
00010000
,
00000010
00001000
00000010
00000000
00010000
00001000
00010000
00000000
,
00000100
00000000
00000000
00010000
00000000
00000000
00001000
00000000
00010000
00000000
00000000
00022000
00000000
00000000
00000000
00000000
,
00000000
00000000
00000000
00000000
,
00000000
00000000
00000000
00000000
,
00033000
00000000
00000000
00000000
;

//--------------- dance-double - Fred-104 ----------------
#NOTEDATA:;
#STEPSTYPE:dance-double;
#DESCRIPTION:Fred-104;
#DIFFICULTY:Medium;
#METER:12;
#CREDIT:Fred-104;
#NOTES:
00000000
00000000
00000000
00000000
,
00000000
00000000
00000000
00000000
,
00000000
00000000
00000000
00000000
,
00000000
00000000
00000000
00000000
,
00000000
00000000
00000000
00000000
,
00000000
00000000
00000000
00000000
,
00000000
00000000
00000000
00000000
,
00000000
00000000
00000000
00000000
,
00000000
00000000
00000000
00000000
,
00000000
00000000
00000000
00000000
,
00001000
00010000
00100000
00010000
00001000
00010000
01000000
00000000
,
00010000
00001000
00010000
00100000
00010000
00001000
00000010
00000000
,
00001000
00010000
00001000
00000100
00001000
00010000
01000000
00000000
,
00010000
00001000
00010000
00100000
01000000
00100000
00010000
00000000
,
00001000
00010000
00100000
00010000
00001000
00000100
00000010
00000000
,
00000100
00001000
00010000
00100000
01000000
00001000
00010000
00000000
,
00001000
00000000
00000000
00001000
00010000
00000000
00000000
00000000
00100000
00000000
00000000
00100000
01000000
00000000
00000000
00000000
,
00010000
00000000
10000000
00000000
00010000
10000000
10010000
00000000
,
00010000
00000000
00000000
10000000
00000000
00000000
01000000
00000000
00010000
00000000
00000000
01000000
00000000
00000000
00100000
00000000
,
00001000
00000000
00000000
00010000
00000000
00000000
00000010
00000000
00001000
00000000
00000000
00000001
00000000
00000000
00000010
00000000
,
00001000
00010000
00001000
00000010
00001000
00010000
01000000
00000000
,
00100000
00010000
00001000
00010000
01000000
00001000
00011000
00000000
,
00001000
00000000
00000000
00010000
00000000
00000000
01000000
00000000
00100000
00000000
00000000
00001000
00000000
00000000
00000010
00000000
,
00000001
00000000
00000000
00000100
00000000
00000000
00001000
00000000
01000000
00000000
00000000
00010000
00000000
00000000
00100000
00000000
,
00010000
10000000
00100000
00010000
00000100
00010000
00001000
00000000
,
00022000
00000000
00000000
00033000
00001000
00001000
00001000
00000000
,
00012000
00000000
00000000
00023000
00000000
00000000
00230000
00000000
,
10300000
00000000
10010000
00000000
10000000
01000000
00100000
10000000
,
00200000
00000000
00000000
00320000
00000000
00000000
20030000
00000000
,
30100000
00010000
00000000
00000000
00001000
00010000
00000000
00000000
01000000
00000000
00010000
00000000
00001000
00000000
00010000
00001000
,
00020000
00000000
00000000
00030200
00000000
00000000
00020300
00000000
,
00031000
00010000
01000000
00100000
00002000
00000000
00013000
00001000
,
01000000
00000000
00001000
00010000
00100000
01000000
00010000
10000000
,
01000000
00000000
00010000
00001000
00000100
00000001
00002002
00003003
,
00000110
00000000
00000000
00000010
00001000
00000000
00000000
00001000
00000001
00000000
00000000
00000001
00000010
00000000
00000000
00000010
,
00000100
00000000
00001000
00000000
00010000
00000000
00100000
00000000
01000000
00000000
10000000
00000000
00010000
00000000
10000000
00010000
,
10000000
00100000
00010000
10000000
01000000
00010000
10000000
00100000
,
01000000
01000000
01000000
00001000
00010000
00001000
00011000
00000000
,
00001000
00010000
00100000
00010000
00001000
00100000
00001000
00000000
,
00010000
00001000
00000010
00001000
00010000
00001000
00000100
00000000
,
00001000
00010000
00001000
00001000
00010000
01000000
10000000
10000000
,
00100000
00100000
00010000
00010000
00001000
00000010
00000001
00001000
,
00001002
00000000
00000000
00000000
,
00002003
00000000
00003002
00000000
,
00000203
00000000
00000000
00002300
00000000
00000000
00023000
00000000
,
00031000
00000000
00010000
00100000
00000000
00000000
01000000
00000000
,
00010000
10000000
00010000
20000000
00000000
00000000
31000000
00000000
,
00100000
00001000
00100000
00002000
00000000
00000000
00013000
00000000
,
00001000
00010000
00000010
00020000
00000000
00000000
00031000
00010000
,
00200000
00000000
00310000
00001000
,
00200000
00000000
00001000
00000000
00300000
00010000
01010000
00000000
,
00002000
00000000
00100000
00000000
00003000
00010000
00010100
00000000
,
00000020
00000000
00001000
00000000
00000030
00000100
00000101
00000000
,
00002000
00000000
00000100
00000000
00003000
00000001
00000101
00000000
,
00020000
00000000
00000010
00000000
00030000
00001000
01001000
00000000
,
20000000
00000000
01000000
00000000
30000000
00010000
00110000
00000000
,
01001000
00001000
00011000
00001000
,
00101000
00000000
00000000
00010010
00000000
00000000
00020200
00000000
00000000
00000000
00000000
00000000
00030300
00000000
00000000
00000000
,
00001000
00010000
00100000
01000000
00000000
00010000
00001000
00000100
,
00000010
00001000
00020000
00000000
01030000
00100000
00001000
00010000
,
00000100
00000010
00000100
00001000
00000000
00010000
00100000
01000000
,
00100000
00001000
00000020
00000000
00001030
01000000
00001000
00010000
,
00011000
00000000
00101000
00001000
00010000
00001000
00000010
00000001
,
00001000
00000001
00000100
00000010
00000100
00001000
00010000
00000000
,
00001000
00010000
01000000
00100000
01000000
10000000
00010000
01000000
,
00100000
00000000
10000000
00010000
01000000
00000000
00100000
00000000
00010000
00000100
00010000
00000000
00001000
01000000
00001000
00000000
,
00021000
00000000
00031000
00020000
00000000
00030020
00000000
00020030
,
00000000
00031000
00000200
00000000
00000301
00001000
00000001
00000010
,
00000200
00000000
00001300
00000002
00000000
00000203
00000000
00002300
,
00000000
00013000
00200000
00000000
01300000
00010000
10000000
01000000
,
00100000
00010000
00100000
00000000
00001000
00000000
00010000
00000000
00000010
00001000
00000010
00000000
00010000
00000000
00001000
00000000
,
00000100
00000001
00000100
00000000
00000010
00001000
00000010
00000000
00001000
00000100
00001000
00000000
00000001
00000010
00000001
00000000
,
00001000
00000000
00000100
00010000
00000100
00000000
00010000
00001000
00010000
00000000
00001000
01000000
00001000
00000000
00010000
00000000
,
00011000
00000000
00000000
00001000
00000000
00000000
00010000
00000000
01000000
10000000
01000000
20000000
00000000
00000000
00000000
00000000
,
00000000
00000000
00000000
00000000
,
00000000
00000000
00000000
00000000
,
30000000
00000000
00000000
00000000
;

//--------------- dance-double - Fred-104 ----------------
#NOTEDATA:;
#STEPSTYPE:dance-double;
#DESCRIPTION:Fred-104;
#DIFFICULTY:Hard;
#METER:16;
#CREDIT:Fred-104;
#NOTES:
00000000
00000000
00000000
00000000
,
00000000
00000000
00000000
00000000
,
00000000
00000000
00000000
00000000
,
00000000
00000000
00000000
00000000
,
00000000
00000000
00000000
00000000
,
00000000
00000000
00000000
00000000
,
00000000
00000000
00000000
00000000
,
00000000
00000000
00000000
00000000
,
00000000
00000000
00000000
00000000
,
00000000
00000000
00000000
00000000
,
00001000
00000000
00010000
00000000
00100000
01000000
00100000
01000000
00010000
00000000
10000000
00000000
01000000
00000000
00000000
00000000
,
00010000
00000000
00001000
00000000
00000100
00000000
00000001
00000010
00000001
00000000
00001000
00000000
00000001
00000100
00000001
00000000
,
00001000
00000100
00001000
00000000
00000001
00000010
00000100
00001000
00000100
00000000
00010000
00001000
01000000
00001000
00010000
00000000
,
00002000
00000000
00000000
00000000
00013000
00000000
01000000
00000000
00100000
00010000
00100000
00010000
20000000
00000000
00000000
00000000
,
30020000
00000000
00000000
00000000
10030000
01000000
00100000
00000000
00010000
10000000
00010000
00000000
01000000
00010000
01000000
00001000
,
00010000
00001000
00010000
00000000
00200000
00000000
00000000
00000000
01300000
00000000
00010000
00000000
10000000
00000000
01000000
00000000
,
00010000
00000000
00000000
00000100
00020000
00000000
00000000
00000000
00031000
00000000
00000010
00000001
00000010
00000000
00000100
00000000
,
00001000
00000000
00000001
00000100
00000010
00000000
00010000
00001000
00010000
00000000
00001000
00000100
00000001
00000000
00000010
00000000
,
00000011
00000000
00000001
00000100
00000000
00000001
00001000
00000000
00000100
00000000
00000010
00000001
00000000
00000100
00001000
00000000
,
00010000
00000000
00001000
00010000
00000000
00001000
00100000
00000000
00001000
00000000
00010000
01000000
00000000
00100000
00010000
00000000
,
10000000
00100000
10000000
00100000
01000000
00100000
01000000
00100000
10000000
00000000
00010000
00000000
10000000
00000000
01000000
10000000
,
01000000
00000000
00100000
00010000
00100000
00000000
00001000
00010000
00001000
01000000
00010000
01000000
00001000
00010000
00000000
00000000
,
00011000
00000000
00001000
00010000
00000000
00000010
00001000
00000000
00000100
00000010
00000001
00000010
00000000
00000001
00000100
00000000
,
00001000
00000000
00010000
00001000
00000000
00100000
00001000
00000000
00010000
00001000
01000000
00001000
00000000
00000000
00010000
00001000
,
00010000
00000000
00001000
01000000
00010000
00000000
10000000
00010000
10000000
00010000
10000000
01000000
00100000
00000000
01000000
00000000
,
00010000
00001000
00010000
00000000
00000010
00001000
00000010
00000000
00010000
00000100
00001000
00000001
00000100
00000010
00000100
00000000
,
00002001
00000000
00003001
00000200
00000000
00001300
00020000
00000000
,
00031000
00000000
00011000
00000000
00001000
00010000
01000000
10000000
,
10020000
00000000
10030000
02000000
00000000
03010000
00002000
00000000
,
00013000
00100000
00000000
00000000
00200000
01000000
00300000
00000000
01000000
00000000
00010000
00000000
10000000
00000000
00010000
01000000
,
00002000
00013000
00100000
00020000
00031000
00000010
00002000
00000000
,
00013000
00000100
00001000
00000000
00000200
00000000
00000010
00000000
00000310
00000000
00000000
00000000
00000001
00000000
00000100
00000010
,
00000100
00000000
00000001
00000000
00000100
00000000
00000010
00000000
00000001
00000010
00001000
00000000
00000001
00000000
00000100
00000000
,
00001000
00000000
00000000
00000000
00010000
00000000
00100000
00000000
00010000
00001000
00010000
00000000
00022000
00000000
00033000
00000000
,
00001000
00010000
00000000
00010000
00001000
00000000
00010000
00000000
00100000
00000000
01000000
00010000
10000000
00000000
00010000
00000000
,
10000000
00010000
01000000
00001000
00010000
00000000
00001000
00010000
00000100
00010000
00001000
00000000
00010000
00000000
00001000
00000100
,
00000001
00001000
00000100
00001000
00000001
00000000
00000100
00000010
00000100
00000000
00001000
00000000
00010000
00000000
00001000
00000000
,
00010000
00001000
00010000
00000010
00010000
00000000
00001000
00000000
00100000
00010000
00100000
00001000
00010000
00001000
01000000
00000000
,
00010000
10000000
00010000
10000000
01000000
00000000
00100000
00010000
00100000
00010000
10000000
00000000
00100000
10000000
00100000
10000000
,
00020000
00000000
00000000
00000000
01030000
00000000
00100000
00010000
00001000
00000000
00010000
00000000
00001000
00000000
00100000
00001000
,
00010000
00001000
00010000
00000010
00001000
00000010
00010000
00000000
00001000
00010000
00000100
00010000
00001000
00000000
00010000
00001000
,
00000010
00000000
00000100
00001000
00000001
00000000
00000100
00000010
00000100
00000000
00001000
00000000
00010000
00000000
00001000
00000000
,
00021000
00000000
00000000
00000000
,
00032000
00000000
00023000
00000000
,
00230000
00000000
00000000
20300000
00000000
00000000
32000000
00000000
,
03010000
00000000
00001000
00020000
00000000
00000000
01030000
00000000
,
00010000
00001000
00010000
00200000
00000000
00000000
00310000
00000000
,
00001000
00010000
00001000
00000020
00000000
00000000
00001030
00010000
,
01000000
00000000
00000000
00010000
00000000
00000000
00001000
00000000
00000000
00020000
00000000
00000000
00000000
00000000
00000000
00000000
00000000
00000000
00031000
00000000
00000000
00000000
00010000
00001000
,
00020000
00000000
00000000
00000000
00000000
00000000
00000000
00000000
00031000
00000000
00100000
00010000
10000000
00000000
00100000
00000000
,
01000000
00000000
00100000
00000000
00010000
00000000
00000000
00001000
00000000
00010000
00000100
00000000
00010000
00000000
00001000
00000000
,
00010000
00000010
00001000
00000000
00010000
00000000
00001000
00010000
00000000
00100000
01000000
00000000
00010000
00000000
00100000
01000000
,
00010000
00000000
00001000
00000000
00010000
00000000
00000000
00001000
00000000
00000100
00000010
00000000
00001000
00000000
00000010
00000000
,
00010000
00001000
00010000
00000000
00000100
00001000
00000100
00000010
00000001
00000000
00001000
00000000
00000010
00010000
00001000
00010000
,
00000010
00000000
00010000
00001000
00000010
00000000
00000100
00000010
00000001
00001000
00000001
00000100
00000010
00001000
00000001
00000000
,
00001000
00000001
00001000
00000001
00000010
00000100
00001000
00000100
00010000
00001000
01000000
00001000
00010000
00001000
00010000
00000000
,
00011000
00100000
00001000
00000000
00011000
00000010
00010000
00000000
,
00002000
00000000
00000000
00000000
00000000
00000000
00003000
00000000
00000000
00020000
00000000
00000000
00000000
00000000
00000000
00030000
00000000
00000000
00022000
00000000
00000000
00000000
00000000
00000000
00000000
00000000
00000000
00033000
00000000
00000000
00010000
00000000
00001000
00000000
00010000
00000000
00001000
00000000
00000000
00000000
00000000
00000000
00100000
00000000
00000000
00000000
00000000
00000000
,
00002000
00000000
00013000
00100000
02000000
00000000
03020000
00000000
10030000
00010000
20000000
00000000
31000000
00000000
00020000
00000000
,
00032000
00000000
00003200
00000000
00000302
00000000
00000000
00000000
00000103
00000010
00000100
00000000
00000001
00000000
00001000
00000000
,
00000002
00000000
00000103
00001000
00000200
00000000
00000302
00000000
00000013
00000100
00020000
00000000
00031000
00000000
00020000
00000000
,
00230000
00000000
02300000
00000000
03020000
00000000
00000000
00000000
10030000
01000000
10000000
00010000
01000000
00100000
10000000
00010000
,
10000000
01000000
10000000
00010000
01000000
00001000
00010000
00001000
00010000
00000100
00001000
00000100
00000010
00000001
00001000
00000000
,
00000001
00001000
00000001
00001000
00000100
00010000
00000100
00010000
00001000
00010000
00000100
00001000
00000001
00000100
00000010
00000000
,
00000100
00000000
00001000
00010000
00001000
00000000
01000000
00010000
01000000
00000000
00001000
00010000
00001000
00100000
00010000
00100000
,
00001000
00000000
00010000
01000000
10000000
00000000
10020000
00000000
10030000
00100000
01000000
00100000
10000000
00010000
00100000
00001000
,
00020000
00000000
00032000
00023000
00000000
02030000
00000000
03020000
,
00032000
00000000
00023000
00000000
00230000
00000000
00000000
00000000
00310000
00000000
00001000
00000000
00010000
00001000
00000010
00000000
,
00000002
00000000
00000203
00002300
00000000
00023000
00000000
00032000
,
00003200
00000000
00002300
00000000
00023000
00000000
00000000
00000000
01030000
00000000
10000000
00000000
01000000
00100000
00010000
00000000
,
00100000
00001000
00010000
00000100
00001000
00000001
00000100
00000010
00001000
00000001
00000010
00000100
00000010
00000001
00001000
00000000
,
00000010
00010000
00001000
00100000
00010000
10000000
00010000
01000000
00100000
10000000
00010000
00100000
01000000
10000000
00010000
00000000
,
10000000
00000000
00100000
00010000
00001000
00000000
00010000
00001000
00000100
00000000
00000001
00001000
00000100
00000010
00000001
00001000
,
00000001
00000000
00000010
00001000
00000000
00010000
00001000
00000000
00000100
00000010
00001000
00000020
00000000
00000000
00000000
00000000
,
00000000
00000000
00000000
00000000
,
00000000
00000000
00000000
00000000
,
00000030
00000000
00000000
00000000
;

//--------------- dance-double - Fred-104 ----------------
#NOTEDATA:;
#STEPSTYPE:dance-double;
#DESCRIPTION:Fred-104;
#DIFFICULTY:Challenge;
#METER:17;
#CREDIT:Fred-104;
#NOTES:
00000000
00000000
00000000
00000000
,
00000000
00000000
00000000
00000000
,
00000000
00000000
00000000
00000000
,
00000000
00000000
00000000
00000000
,
00000000
00000000
00000000
00000000
,
00000000
00000000
00000000
00000000
,
00000000
00000000
00000000
00000000
,
00000000
00000000
00000000
00000000
,
00000000
00000000
00000000
00000000
,
00000000
00000000
00000000
00000000
,
00010000
00001000
00010000
00001000
00010000
00000100
00010000
00000100
00001000
00000000
00000001
00000000
00001000
00000000
00000100
00000000
,
00000010
00000001
00000010
00000001
00001000
00000010
00001000
00000010
00010000
00001000
00010000
00001000
00100000
00010000
00100000
00010000
,
10000000
00100000
01000000
00010000
10000000
00010000
00100000
01000000
10000000
00010000
10000000
00100000
01000000
00010000
10000000
01000000
,
00100000
00010000
00100000
00001000
00010000
00001000
00010000
00000100
00001000
00000100
00000010
00000001
00000010
00000000
00000001
00000000
,
00001000
00000010
00001000
00000010
00001000
00000001
00001000
00000001
00001000
00000100
00001000
00000100
00001000
00000001
00001000
00000001
,
00000010
00000100
00001000
00000100
00010000
00000000
00001000
00100000
00010000
00100000
01000000
00000000
10000000
00000000
00010000
00000000
,
10000000
00100000
10000000
00010000
10000000
00100000
10000000
00010000
10000000
01000000
00100000
00010000
00100000
00000000
00001000
00000000
,
00010000
00001000
00010000
00000100
00001000
00000100
00010000
00001000
00010000
00000010
00001000
00000010
00000100
00000000
00000001
00000000
,
00001000
00000100
00000010
00000001
00000010
00000100
00001000
00000000
00000001
00000100
00000010
00001000
00000010
00000100
00000001
00000000
,
00001000
00000100
00010000
00001000
00100000
00001000
00010000
00000000
00001000
01000000
00010000
10000000
00010000
00100000
01000000
00000000
,
10000000
00010000
01000000
00100000
10000000
01000000
00100000
00010000
00100000
00001000
00010000
00001000
01000000
00010000
01000000
00001000
,
00010000
00000010
00001000
00000001
00001000
00000010
00000100
00000001
00000010
00000100
00000010
00000001
00000010
00000100
00001000
00000001
,
00001000
00000001
00000010
00000100
00001000
00000100
00010000
00000000
00001000
00100000
00010000
00100000
01000000
10000000
00010000
00000000
,
01000000
00100000
10000000
00100000
01000000
00010000
10000000
00000000
01000000
00100000
00010000
00100000
00001000
00010000
00000010
00000000
,
00001000
00000001
00000100
00000010
00001000
00000010
00010000
00001000
00100000
00010000
01000000
00100000
10000000
00010000
00100000
01000000
,
10000000
00010000
01000000
00001000
00010000
00000100
00001000
00000010
00000100
00000010
00001000
00000001
00000010
00000100
00010000
00001000
,
00010000
00000000
00001000
00000010
00001000
00000000
00010000
00000000
00001000
00000000
00010000
00100000
00010000
00000000
00001000
00000000
,
00010000
00001000
00000100
00000000
00000010
00000100
00001000
00000000
00010000
00001000
01000000
00010000
00100000
00001000
00010000
00001000
,
00010000
00000000
00001000
00000100
00001000
00000000
00010000
00000000
00001000
00000000
00010000
01000000
00010000
00000000
00001000
00000000
,
00010000
00001000
00000010
00000000
00000100
00000010
00001000
00000000
00010000
00001000
00100000
00010000
01000000
00001000
00010000
00001000
,
00010000
00000000
00001000
00010000
00100000
00000000
01000000
00000000
00010000
00000000
10000000
01000000
00100000
00000000
00001000
00000000
,
00010000
00001000
00000010
00000000
00000010
00001000
00010000
00000000
00010000
00001000
00000100
00000000
00000100
00001000
00010000
00001000
,
00010000
00000000
00001000
01000000
00010000
00000000
00100000
00000000
01000000
00000000
10000000
00100000
01000000
00000000
00100000
00000000
,
00010000
00000000
00001000
00010000
00001000
00000000
00010000
00000100
00001000
00000001
00001000
00000001
00001000
00000000
00000000
00000000
,
00000001
00000010
00000100
00001000
00000001
00000100
00000001
00000100
00000001
00001000
00000100
00000010
00000001
00001000
00000001
00001000
,
00000001
00001000
00000010
00010000
00001000
00100000
00001000
00010000
00001000
01000000
00010000
10000000
00010000
00100000
01000000
10000000
,
00010000
10000000
00100000
10000000
00010000
00100000
01000000
10000000
01000000
00100000
00010000
00100000
00001000
00010000
00000010
00010000
,
00001000
00100000
00010000
00100000
01000000
00100000
00010000
00100000
00001000
00010000
00000010
00001000
00000010
00010000
00001000
00010000
,
00000100
00001000
00000001
00001000
00000100
00000010
00000001
00001000
00000010
00010000
00001000
00100000
00010000
10000000
00100000
01000000
,
00010000
00000000
10000000
01000000
00010000
00000000
01000000
00000000
10000000
00000000
00010000
01000000
10000000
00000000
01000000
00000000
,
00010000
10000000
01000000
00100000
01000000
10000000
00010000
01000000
00001000
00010000
00001000
00010000
00000100
00001000
00000001
00000100
,
00000010
00001000
00000010
00000100
00000001
00001000
00000100
00010000
00001000
01000000
00010000
10000000
01000000
00100000
00010000
00100000
,
00001000
00000000
00000000
00000000
,
00000000
00000000
00000000
00000000
,
00000000
00000000
00000000
00000000
,
00000000
00000000
00000000
00000000
,
00010000
00001000
00000100
00000001
00000000
00000000
00000010
00000000
,
00001000
00010000
01000000
10000000
00000000
00000000
00100000
00000000
,
00010000
00000000
00000000
00001000
00000000
00000000
00010000
00000000
00000000
00001000
00000000
00000000
00000000
00000000
00000000
00000000
00000000
00000000
00000100
00000000
00000000
00000001
00001000
00000001
,
00001000
00000000
00000000
00000000
00000000
00000000
00000000
00000000
00000001
00000010
00000100
00001000
00000100
00000000
00010000
00000000
,
00001000
00000000
00010000
00000000
00100000
00000000
01000000
00010000
00000000
00010000
00100000
00000000
01000000
00100000
00010000
00000000
,
00100000
00001000
00010000
00001000
00010000
00000000
00001000
00000100
00000000
00000010
00001000
00000000
00000100
00000010
00000100
00001000
,
00000010
00000000
00000100
00001000
00010000
00000000
00001000
00010000
00000000
01000000
00100000
00000000
00010000
00000000
01000000
00000000
,
00100000
00000000
00010000
00000000
00001000
00000000
00010000
00000000
00000010
00001000
00000010
00010000
00001000
00100000
00010000
00100000
,
00001000
00010000
00001000
00010000
00000100
00001000
00000100
00001000
00000001
00000100
00000001
00000100
00001000
00010000
00001000
00010000
,
00100000
10000000
00100000
10000000
01000000
00100000
01000000
00100000
00001000
00010000
00000010
00001000
00000010
00000100
00000010
00001000
,
00000001
00000000
00000100
00001000
00010000
00000000
00001000
00010000
01000000
00000000
00010000
01000000
10000000
00000000
00010000
01000000
,
00001000
00000000
00000000
00000000
00000000
00000000
00000000
00000000
00000000
00001000
00000000
00000000
00000000
00000000
00000000
00000000
00000000
00000000
00001000
00000000
00000000
00000000
00000000
00000000
00000000
00000000
00000000
00000000
00000000
00000000
00010000
00000000
00001000
00000000
00010000
00000000
00001000
00000000
00000000
00000000
00000000
00000000
00000000
00000000
00000000
00000000
00000000
00000000
,
00010000
00000000
00001000
00010000
00001000
00000000
00100000
00010000
00100000
00000000
00001000
00010000
00001000
00000000
01000000
00000000
,
00010000
10000000
01000000
00100000
00010000
00000000
00100000
00000000
00001000
00010000
00000010
00001000
00000010
00010000
00001000
00010000
,
00000100
00000000
00001000
00000001
00001000
00000000
00000001
00000100
00000001
00000000
00001000
00000100
00001000
00000000
00000010
00000000
,
00000100
00001000
00010000
00001000
00010000
00000000
00100000
00000000
01000000
00010000
01000000
00010000
10000000
00010000
10000000
00010000
,
10000000
01000000
10000000
01000000
00100000
00010000
00100000
00010000
00001000
00000100
00001000
00000100
00000010
00000001
00000010
00000001
,
00001000
00000010
00001000
00000010
00010000
00001000
00010000
00001000
00100000
00010000
00100000
00010000
10000000
00010000
10000000
00010000
,
01000000
00100000
10000000
00010000
00100000
00010000
10000000
00010000
01000000
00001000
00010000
00000100
00001000
00000001
00000100
00000010
,
00001000
00000000
00000001
00000100
00000000
00000010
00000100
00000000
00001000
01000000
00010000
10000000
01000000
00100000
00010000
00100000
,
00001000
00000000
00000000
00000000
,
00000000
00000000
00000000
00000000
,
00000000
00000000
00000000
00000000
,
00000000
00000000
00000000
00000000
00000000
00000000
00000000
00000000
00010000
00000010
00010000
00000010
00001000
00000010
00001000
00000001
,
00001000
00000001
00000010
00000100
00001000
00000100
00010000
00001000
00010000
00001000
00100000
00010000
00100000
01000000
10000000
00010000
,
10000000
00100000
10000000
00010000
00100000
00001000
00010000
00001000
00010000
00000010
00001000
00000001
00001000
00000100
00001000
00000100
,
00000010
00000001
00001000
00000010
00000100
00000001
00000010
00000100
00001000
00000100
00010000
00001000
00100000
00010000
10000000
00100000
,
01000000
00000000
00010000
00100000
00000000
01000000
00010000
00000000
00001000
00000010
00000100
00001000
00000000
00000000
00000000
00000000
;
