#TITLE:Elysium(Fred-Special);
#ARTIST:nc ft. NRG Factory;
#BANNER:Elysium(Fred-Special).png;
#BACKGROUND:Elysium(Fred-Special)-bg.png;
#CDTITLE:./CDTitles/DDR (2014).png;
#MUSIC:Elysium(Fred-Special).ogg;
#SAMPLESTART:54.621;
#SAMPLELENGTH:15;
#DISPLAYBPM:145;
#BPMS:0=145,128=290,130=145,130.125=127.119,130.25=100,130.375=90,130.5=75,130.625=60,130.75=45,131=145;
#STOPS:128=0.155,128.75=0.155,129.5=0.104;
#TIMESIGNATURES:0=4=4,128=3=4,131=4=4;
#STAGE:16;

//--------------- dance-single - Fred-104 ----------------
#NOTES:
     dance-single:
     Fred-104:
     Challenge:
     15:
     :
0000
0000
0000
0000
,
0000
0000
0000
0000
,
0000
0000
0000
0000
,
0000
0000
0000
0000
,
0000
0000
0000
0000
,
1000
0100
0000
0100
0010
0000
0010
0001
0000
0001
0100
0000
0100
0010
0000
1000
,
0010
0100
0000
0100
0001
0000
0001
0010
0000
0010
0100
0000
1000
0100
0000
0001
,
0100
1000
0000
1000
0010
0000
0010
0100
0000
0100
0001
0000
0001
0010
0000
0100
,
0010
0100
0000
1000
0100
0000
0010
0100
0000
0001
0100
0010
1000
0100
0010
0001
,
2000
0000
0000
0000
,
3002
0000
0000
0000
,
2003
0000
0000
3020
0000
0000
0032
0000
,
0000
0203
0000
0000
2300
0000
3002
0000
,
0203
0010
0010
1000
,
1000
0001
1000
1000
,
0320
0100
0100
1000
,
2030
0100
3002
0010
,
1003
0000
0000
1000
0000
0000
1000
0000
0100
0000
0000
0100
0000
0000
0100
0000
,
0010
0000
0000
0010
0000
0000
0010
0000
0001
0000
0000
0001
0000
0000
0001
0000
,
0100
0000
0000
0100
0000
0000
0100
0000
0010
0000
0000
0010
0000
0000
0010
0000
,
1000
0000
0000
1000
0000
0000
1000
0000
0001
0000
0000
0001
0000
0000
0001
0000
,
1000
0000
0000
0100
0000
0000
0010
0000
1000
0000
0000
0100
0000
0000
0010
0000
,
1000
0000
0000
0100
0000
0000
0001
0000
1000
0000
0000
0100
0000
0000
0001
0000
,
1000
0000
0000
0010
0000
0000
0001
0000
1000
0000
0000
0010
0000
0000
0001
0000
,
0100
0000
0000
1000
0000
0000
0001
0000
0100
0000
0000
1000
0000
0000
0001
0000
,
0100
0000
0001
0010
0000
0010
0001
0000
0100
0000
0010
1000
0000
1000
0010
0000
,
1000
0000
0001
0100
0000
0100
0001
0000
1000
0000
0001
0010
0000
0010
0001
0000
,
1000
0000
0001
0100
0000
0010
1000
0000
0100
0000
0010
0001
0000
1000
0001
0000
,
1000
0000
0100
0010
0000
0010
0001
0000
1000
0000
0001
0100
0000
0100
0010
0000
,
1000
0000
0100
1000
0000
0100
0010
0001
1000
0000
0001
0100
0000
0010
0100
0001
,
0100
0000
0001
0010
0000
0100
1000
0100
0010
0000
0001
1000
0000
0100
1000
0010
,
1000
0100
1000
0001
0100
0001
1000
0100
1000
0010
1000
0001
0010
0001
1000
0010
,
2000
3000
0000
0000
0000
0000
0000
0000
0000
0000
0000
0000
0000
0000
0000
0000
0000
0000
0000
0000
0000
0000
0000
0000
0000
0000
0000
0000
0000
0000
0000
0000
0000
0000
0000
0000
2200
3300
0000
0000
0000
0000
0000
0000
0000
0000
0000
0000
0000
0000
0000
0000
0000
0000
0000
0000
0000
0000
0000
0000
0000
0000
0000
0000
0000
0000
0000
0000
0000
0000
0000
0000
0022
0033
0000
0000
0000
0000
0000
0000
0000
0000
0000
0000
0000
0000
0000
0000
0000
0000
0000
0000
0000
0000
0000
0000
2002
0000
0000
0000
0000
0000
0000
0000
0000
0000
0000
0000
0000
0000
0000
0000
0000
0000
0000
0000
0000
0000
0000
0000
0000
0000
0000
0000
0000
0000
0000
0000
0000
0000
0000
0000
0000
0000
0000
0000
0000
0000
3003
0000
0000
0000
0000
0000
1000
0000
0000
0000
0000
0000
0000
0000
0000
0000
0000
0000
0000
0000
0000
0000
0000
0000
0000
0000
0000
0000
0000
0000
0001
0000
0000
0000
0000
0000
0000
0000
0000
0000
0000
0000
0100
0000
0000
0000
0000
0000
0000
0000
0000
0000
0000
0000
,
0000
0001
0010
0000
0001
0000
1000
0100
0000
1000
0010
0000
1000
0000
0001
0010
,
0000
0001
0100
0000
0001
0000
1000
0010
0000
1000
0100
0000
1000
0000
0100
0010
,
0000
0001
0100
0000
0001
0000
0100
0010
0000
1000
0100
0000
0010
0000
0001
0100
,
0000
0010
0100
0000
0010
0000
1000
0100
0000
0010
0100
0000
0001
0000
0001
0100
,
0000
0100
1000
0000
1000
0000
1000
0100
0000
0100
0001
0000
0001
0000
0001
0010
,
0000
0010
1000
0000
1000
0000
1000
0010
0000
0010
0001
0000
0001
0000
0001
0100
,
0000
1000
0001
0000
0001
0000
0001
0010
0000
1000
0001
0000
1000
0000
1000
0100
,
0000
0001
1000
0000
1000
0000
1000
0010
0000
0001
1000
0000
0001
0000
0010
0001
,
0000
0100
0001
0000
1000
0000
0001
0100
0000
0010
1000
0010
0100
0000
0001
0100
,
0000
0010
1000
0000
0100
0000
0010
0001
0000
0010
0100
0010
1000
0000
0010
0100
,
0000
0001
0010
0000
0100
0000
0010
1000
0000
0010
0001
0010
0100
0000
1000
0001
,
0000
0100
0001
0000
1000
0000
0001
0100
0000
0010
1000
0010
0100
0000
0001
0010
,
0000
1000
0010
0000
0001
0000
0010
1000
0000
0010
0100
1000
0010
0000
1000
0100
,
0000
0001
0100
0000
1000
0000
0100
0001
0000
0100
0010
0001
0100
0000
0010
1000
,
0000
0010
0001
0000
0010
0000
1000
0010
0000
0001
0010
0100
0010
0000
1000
0100
,
0000
0001
0100
0000
1000
0000
0100
0001
0000
0100
0010
0001
1000
0000
0010
1000
,
0000
0001
1000
0001
0010
0000
0001
0100
0000
0001
0010
0100
1000
0000
0001
0100
,
0000
0010
1000
0010
0100
0000
0001
0010
0000
0100
1000
0001
1000
0000
0010
0100
,
0000
0001
0100
0010
1000
0000
0100
0010
0000
0001
0010
0100
1000
0000
0010
1000
,
0000
0001
0100
1000
0100
0000
0001
0100
0000
0010
0001
0010
1000
0001
0010
0100
,
0000
1000
0001
0000
1000
0100
0010
0001
0000
0100
0010
0000
1000
0100
0001
0100
,
0000
0100
1000
0000
0001
0100
1000
0100
0000
0100
0001
0000
1000
0100
0010
0001
,
0000
0001
1000
0000
0001
0100
0010
1000
0000
1000
0001
0000
1100
0000
0000
0101
,
0000
0000
0000
1010
0000
0000
0001
0000
0000
1000
0001
0100
0001
0000
0000
1000
0000
0000
2002
0000
0000
0000
0000
0000
,
0000
0000
0000
3003
;

//--------------- dance-double - Fred-104 ----------------
#NOTES:
     dance-double:
     Fred-104:
     Challenge:
     15:
     :
00000000
00000000
00000000
00000000
,
00000000
00000000
00000000
00000000
,
00000000
00000000
00000000
00000000
,
00000000
00000000
00000000
00000000
,
00000000
00000000
00000000
00000000
,
00000001
00000100
00000000
00000010
00001000
00000000
00000100
00010000
00000000
00001000
00010000
00000000
00001000
00100000
00000000
00100000
,
00010000
01000000
00000000
00100000
10000000
00000000
00010000
10000000
00000000
01000000
00100000
00000000
00001000
00010000
00000000
00010000
,
00000100
00001000
00000000
00000010
00000100
00000000
00000001
00000010
00000000
00000100
00001000
00000000
00000001
00000100
00000000
00000100
,
00000010
00001000
00000000
00000001
00000010
00000000
00000100
00001000
00000000
00000100
00000010
00000000
00000001
00000100
00000000
00000010
,
00000200
00000000
00000000
00000300
,
00020000
00000000
00000000
00030000
,
00002000
00000000
00000000
00023000
00000000
00000000
00230000
00000000
,
00000000
20300000
00000000
00000000
30020000
00000000
02030000
00000000
,
03200000
10000000
01000000
10000000
,
00320000
01000000
00100000
01000000
,
00032000
00010000
00000100
00013000
,
00002000
00000010
00003002
00000100
,
00001003
00000000
00000000
00001000
00000000
00000000
00001000
00000000
00000010
00000000
00000000
00000010
00000000
00000000
00000010
00000000
,
00000100
00000000
00000000
00000100
00000000
00000000
00000100
00000000
00000001
00000000
00000000
00000001
00000000
00000000
00000001
00000000
,
00000010
00000000
00000000
00000100
00000000
00000000
00001000
00000000
00010000
00000000
00000000
00100000
00000000
00000000
10000000
00000000
,
00010000
00000000
00000000
01000000
00000000
00000000
10000000
00000000
01000000
00000000
00000000
00010000
00000000
00000000
10000000
00000000
,
00010000
00000000
00000000
00100000
00000000
00000000
01000000
00000000
10000000
00000000
00000000
00100000
00000000
00000000
01000000
00000000
,
00100000
00000000
00000000
10000000
00000000
00000000
01000000
00000000
00100000
00000000
00000000
00001000
00000000
00000000
00010000
00000000
,
00100000
00000000
00000000
00001000
00000000
00000000
00000010
00000000
00001000
00000000
00000000
00010000
00000000
00000000
00000100
00000000
,
00010000
00000000
00000000
00001000
00000000
00000000
01000000
00000000
00001000
00000000
00000000
00010000
00000000
00000000
00001000
00000000
,
00000100
00000000
00000010
00000001
00000000
00000010
00000001
00000000
00001000
00000000
00000001
00000100
00000000
00000001
00000100
00000000
,
00000010
00000000
00001000
00000010
00000000
00001000
00000010
00000000
00010000
00000000
00001000
00010000
00000000
00001000
00010000
00000000
,
00001000
00000000
00100000
00010000
00000000
00100000
01000000
00000000
10000000
00000000
00010000
01000000
00000000
00100000
10000000
00000000
,
00010000
00000000
10000000
01000000
00000000
00100000
00010000
00000000
01000000
00000000
00001000
00010000
00000000
00000100
00001000
00000000
,
00000010
00000000
00001000
00000010
00000000
00000100
00000010
00001000
00000010
00000000
00000100
00000001
00000000
00001000
00000001
00000100
,
00000001
00000000
00000010
00000100
00000000
00000100
00001000
00010000
00001000
00000000
00100000
00010000
00000000
10000000
00010000
01000000
,
00010000
01000000
00010000
10000000
01000000
10000000
00100000
01000000
00010000
00100000
00010000
00100000
00001000
00010000
00000100
00001000
,
00000200
00000300
00000000
00000000
00000000
00000000
00000000
00000000
00000000
00000000
00000000
00000000
00000000
00000000
00000000
00000000
00000000
00000000
00000000
00000000
00000000
00000000
00000000
00000000
00000000
00000000
00000000
00000000
00000000
00000000
00000000
00000000
00000000
00000000
00000000
00000000
00000220
00000330
00000000
00000000
00000000
00000000
00000000
00000000
00000000
00000000
00000000
00000000
00000000
00000000
00000000
00000000
00000000
00000000
00000000
00000000
00000000
00000000
00000000
00000000
00000000
00000000
00000000
00000000
00000000
00000000
00000000
00000000
00000000
00000000
00000000
00000000
00000220
00000330
00000000
00000000
00000000
00000000
00000000
00000000
00000000
00000000
00000000
00000000
00000000
00000000
00000000
00000000
00000000
00000000
00000000
00000000
00000000
00000000
00000000
00000000
00002002
00000000
00000000
00000000
00000000
00000000
00000000
00000000
00000000
00000000
00000000
00000000
00000000
00000000
00000000
00000000
00000000
00000000
00000000
00000000
00000000
00000000
00000000
00000000
00000000
00000000
00000000
00000000
00000000
00000000
00000000
00000000
00000000
00000000
00000000
00000000
00000000
00000000
00000000
00000000
00000000
00000000
00003003
00000000
00000000
00000000
00000000
00000000
00000001
00000000
00000000
00000000
00000000
00000000
00000000
00000000
00000000
00000000
00000000
00000000
00000000
00000000
00000000
00000000
00000000
00000000
00000000
00000000
00000000
00000000
00000000
00000000
00000100
00000000
00000000
00000000
00000000
00000000
00000000
00000000
00000000
00000000
00000000
00000000
00000010
00000000
00000000
00000000
00000000
00000000
00000000
00000000
00000000
00000000
00000000
00000000
,
00000000
00000100
00000010
00000000
00001000
00000000
00000001
00000010
00000000
00000010
00000100
00000000
00010000
00000000
00001000
00100000
,
00000000
00010000
00100000
00000000
01000000
00000000
10000000
00100000
00000000
00100000
01000000
00000000
00010000
00000000
01000000
10000000
,
00000000
01000000
00010000
00000000
00010000
00000000
00001000
00000100
00000000
00000100
00000001
00000000
00000001
00000000
00000100
00001000
,
00000000
00000100
00000001
00000000
00000100
00000000
00000100
00001000
00000000
00001000
00010000
00000000
00100000
00000000
10000000
00100000
,
00000000
00100000
00010000
00000000
00001000
00000000
00000010
00001000
00000000
00000010
00000001
00000000
00000010
00000000
00000010
00001000
,
00000000
00001000
00010000
00000000
00100000
00000000
10000000
00100000
00000000
00010000
00100000
00000000
10000000
00000000
01000000
10000000
,
00000000
01000000
00010000
00000000
00001000
00000000
00010000
00001000
00000000
00001000
00000100
00000000
00000001
00000000
00000100
00000001
,
00000000
00000100
00001000
00000000
00010000
00000000
00001000
00010000
00000000
00010000
01000000
00000000
10000000
00000000
00010000
01000000
,
00000000
00100000
10000000
00000000
01000000
00000000
00100000
00010000
00000000
10000000
00010000
01000000
00100000
00000000
01000000
10000000
,
00000000
01000000
00100000
00000000
01000000
00000000
00010000
01000000
00000000
00001000
00010000
00000100
00010000
00000000
00000010
00001000
,
00000000
00000100
00010000
00000000
00000010
00000000
00001000
00000100
00000000
00000001
00000100
00001000
00000010
00000000
00000100
00000010
,
00000000
00001000
00000010
00000000
00000100
00000000
00000001
00000010
00000000
00000010
00000100
00000010
00000001
00000000
00001000
00000010
,
00000000
00000100
00000010
00000000
00001000
00000000
00000001
00000010
00000000
00000100
00001000
00000100
00010000
00000000
00001000
00100000
,
00000000
00010000
01000000
00000000
00010000
00000000
10000000
01000000
00000000
00100000
00010000
00100000
00001000
00000000
00010000
00000100
,
00000000
00010000
00001000
00000000
00010000
00000000
00000010
00001000
00000000
00000100
00010000
00000100
00001000
00000000
00000100
00000010
,
00000000
00000010
00000001
00000000
00001000
00000000
00000001
00000100
00000000
00000010
00001000
00000010
00010000
00000000
00000100
00001000
,
00000000
00000100
00000010
00000100
00000001
00000000
00001000
00000100
00000000
00000010
00000100
00001000
00000001
00000000
00000010
00000001
,
00000000
00001000
00000010
00010000
00001000
00000000
00001000
00100000
00000000
00001000
00010000
00001000
01000000
00000000
00010000
00100000
,
00000000
01000000
10000000
00010000
10000000
00000000
01000000
00100000
00000000
00010000
01000000
10000000
01000000
00000000
00010000
00100000
,
00000000
01000000
10000000
00100000
01000000
00000000
00001000
00010000
00000000
00000100
00001000
00000010
00000100
00000001
00000010
00000100
,
00000000
00000010
00000001
00000000
00001000
00000010
00010000
00001000
00000000
00100000
00010000
00000000
01000000
00100000
10000000
00100000
,
00000000
01000000
00100000
00000000
10000000
01000000
00100000
00010000
00000000
01000000
00100000
00000000
10000000
01000000
00100000
00001000
,
00000000
00010000
00000010
00000000
00001000
00000001
00000100
00000010
00000000
00001000
00000100
00000000
00001100
00000000
00000000
00000101
,
00000000
00000000
00000000
00001100
00000000
00000000
00000001
00000000
00000000
00000100
00000010
00001000
00000100
00000000
00000000
00010000
00000000
00000000
00022000
00000000
00000000
00000000
00000000
00000000
,
00000000
00000000
00000000
00033000
;
