#TITLE:Elisha;
#ARTIST:DJ YOSHITAKA;
#GENRE:TRANCE CORE;
#BANNER:Elisha.png;
#BACKGROUND:Elisha-bg.png;
#CDTITLE:./CDTitles/bm IIDX 17 SIRIUS.png;
#MUSIC:Elisha.ogg;
#SAMPLESTART:79.135;
#SAMPLELENGTH:15;
#BPMS:0=185;
#BGSTAGE:22;

//--------------- dance-single - Fred-104 ----------------
#NOTES:
     dance-single:
     Fred-104:
     Beginner:
     3:
     :
0000
0000
0000
0000
,
0000
0000
0000
0000
,
0000
0000
0000
0000
,
0000
0000
0000
0000
,
0000
0000
0000
0000
,
0000
0000
0000
0000
,
0000
0000
0000
0000
,
0000
0000
0000
0000
,
0000
0000
0000
0000
,
0001
0000
0000
0000
,
1000
0000
1000
1000
,
1000
0000
0001
0000
,
0100
0000
0100
0100
,
0100
0000
0000
0000
,
0001
0000
0000
0000
,
1000
0000
0001
0000
,
1000
0000
0001
0000
,
2000
0000
0000
0000
,
0000
0000
0000
0000
,
3002
0000
0000
0000
,
0000
0000
0000
0000
,
2003
0000
0000
0000
,
0000
0000
0000
0000
,
3002
0000
0000
0000
,
0000
0000
0000
0000
,
0203
0000
0000
0000
,
0000
0000
0000
0000
,
0320
0000
0000
0000
,
0000
0000
0000
0000
,
2030
0000
0000
0000
,
0000
0000
0000
0000
,
3002
0000
0000
0000
,
0000
0000
0003
0000
,
0001
0000
0000
0000
,
1000
0000
0000
0000
,
0001
0000
0000
0000
,
1000
0000
0000
0000
,
0001
0000
0000
0000
,
1000
0000
0000
0000
,
0001
0000
0000
0000
,
1000
0000
0000
0000
,
0100
0000
0000
0000
,
0010
0000
0000
0000
,
0001
0000
0000
0000
,
1000
0000
0000
0000
,
0100
0000
0000
0000
,
0001
0000
0000
0000
,
0010
0000
0000
0000
,
1000
0000
0000
0000
,
2000
0000
0000
0000
,
0000
0000
0000
0000
,
3002
0000
0000
0000
,
0000
0000
0000
0000
,
0023
0000
0000
0000
,
0230
0000
0000
0000
,
2300
0000
0000
0000
,
3002
0000
0000
0003
,
2002
0000
0000
0000
,
0000
0000
0000
0000
,
0000
0000
0000
0000
,
0000
0000
3003
0000
,
0001
0000
0000
0000
,
1000
0000
0000
0000
,
0001
0000
0000
0000
,
1000
0000
0000
0000
,
0001
0000
0000
0000
,
1000
0000
0000
0000
,
0001
0000
0000
0000
,
1000
0000
0000
0000
,
0010
0000
0000
0000
,
1000
0000
0000
0000
,
0100
0000
0000
0000
,
0010
0000
0000
0000
,
0001
0000
0000
0000
,
1000
0000
0000
0000
,
0001
0000
0000
0000
,
1001
0000
0000
0000
,
0002
0000
0003
0000
,
2000
0000
3000
0000
,
0020
0000
0030
0000
,
0200
0000
0300
0000
,
0001
0000
0001
0000
,
1000
0000
1000
0000
,
0001
0000
0001
0000
,
1000
0000
1000
0000
,
2000
0000
0000
0000
,
0000
0000
0000
0000
,
3002
0000
0000
0000
,
0000
0000
0000
0000
,
2003
0000
0000
0000
,
0000
0000
0000
0000
,
3002
0000
0000
0000
,
2003
0000
0000
3000
,
1001
0000
0000
0000
;

//--------------- dance-single - Fred-104 ----------------
#NOTES:
     dance-single:
     Fred-104:
     Easy:
     7:
     :
0000
0000
0000
0000
,
0000
0000
0000
0000
,
0000
0000
0000
0000
,
0000
0000
0000
0000
,
0000
0000
0000
0000
,
0000
0000
0000
0000
,
0000
0000
0000
0000
,
0000
0000
0000
0000
,
0000
0000
0000
0000
,
0001
0000
0100
0000
,
0001
1000
0200
0320
,
0130
0000
1000
0000
,
0002
2003
3002
2003
,
3001
0000
0100
0000
,
0010
1000
0100
0010
,
0001
0000
0000
0001
0000
1000
0000
1000
,
0000
0001
1000
0000
1001
0000
0000
0000
,
0002
0000
0000
0000
,
0000
0000
0000
0000
,
2003
0000
0000
0000
,
0000
0000
0000
0000
,
3020
0000
0000
0000
,
0000
0000
0000
0000
,
0230
0000
0000
0000
,
0302
0000
0000
0000
,
2003
0000
0000
0000
,
0000
0000
0000
0000
,
3200
0000
0000
0000
,
0000
0000
0000
0000
,
0320
0000
0000
0000
,
0000
0000
0000
0000
,
0032
0000
0000
0000
,
2003
0000
0000
0000
,
3001
0010
0001
0100
,
0001
1000
0200
0000
,
0310
0100
1000
0001
,
0100
0010
0200
0000
,
0301
1000
0100
1000
,
0010
0100
0002
0000
,
1003
0100
1000
0010
,
0100
0001
2000
0000
,
3001
0010
0001
0010
,
1000
0010
1000
0010
,
0001
0100
0001
0100
,
1000
0100
1000
0100
,
0001
0010
0001
0010
,
1000
0010
0001
1000
,
0001
0100
0001
0100
,
1000
0100
0001
1000
,
2002
0000
0000
0000
,
0000
0000
0000
0000
,
0000
0000
0000
0000
,
0000
0000
0000
3003
,
1000
1000
0100
0100
,
0001
0001
0010
0010
,
1000
0010
0001
0100
,
1000
1000
0001
0001
,
2002
0000
0000
0000
,
0000
0000
0000
0000
,
0000
0000
0000
0000
,
0000
0000
3003
0000
,
0001
0001
1000
0100
,
1000
0000
0000
1000
0000
0010
0000
0100
,
0010
0010
1000
1000
,
0100
0000
0000
0010
0000
0001
0000
1000
,
0001
0010
0100
0100
,
0010
0000
0000
0001
0000
1000
0000
0010
,
1000
0100
0100
0010
,
0001
0000
0000
1000
0000
0001
0000
1000
,
0001
0010
1000
0100
,
0001
0000
0000
1000
0000
1000
0000
0001
,
0100
0010
0100
0001
,
1000
0000
0000
0100
0000
1000
0000
1000
,
0001
0010
1000
0100
,
0001
0000
0000
1000
0000
0100
0000
1000
,
0001
0000
0100
0000
0001
1000
0100
0000
,
0200
0300
0200
0300
0200
0300
0200
0300
,
1000
0010
1000
0001
,
1000
0100
0010
0001
,
1000
0010
0100
0010
,
1000
0000
0000
1000
0000
0000
0001
0000
0000
0001
0000
0000
1000
0000
0000
0000
,
2001
0000
0001
3000
,
0210
0000
0010
0300
,
1000
0000
0000
1000
0000
0001
0000
0001
,
0000
0100
0100
0000
0100
0000
0001
0000
,
2000
0000
0000
0000
,
0000
0000
0000
0000
,
3002
0000
0000
0000
,
0000
0000
0000
0000
,
0203
0000
0000
0000
,
0000
0000
0000
0000
,
0320
0000
0000
0000
,
2030
0000
0000
0000
,
3001
0000
0000
0000
;

//--------------- dance-single - Fred-104 ----------------
#NOTES:
     dance-single:
     Fred-104:
     Medium:
     11:
     :
0000
0000
0000
0000
,
0000
0000
0000
0000
,
0000
0000
0000
0000
,
0000
0000
0000
0000
,
0000
0000
0000
0000
,
0000
0000
0000
0000
,
0000
0000
0000
0000
,
0000
0000
0000
0000
,
0000
0000
0000
0000
,
1000
0001
0000
0100
0020
0000
0000
1000
,
0000
1000
1030
0000
0002
0000
2003
0000
,
3100
0010
0000
0010
0200
0000
0000
1300
,
0002
0000
2003
0000
3010
1000
0001
0000
,
2000
0100
0000
3100
0020
0000
0000
0001
,
0000
0001
0031
0000
1000
0001
0100
0010
,
0010
0000
0100
0100
0000
0001
0000
1000
,
0000
0100
1000
0000
0001
0001
1001
0000
,
0002
0000
2003
0000
,
3020
0000
0000
0000
0130
0001
1000
0100
,
0020
0000
0230
0000
,
2300
0000
0000
0000
3010
0100
0001
1000
,
0200
0000
0320
0000
,
0032
0000
0000
0000
0103
0010
0001
0010
,
0200
0000
0302
0000
,
2003
0000
3200
0000
,
0320
0000
0032
0000
,
2003
0000
0000
0000
3010
0100
0001
1000
,
0200
0000
0320
0000
,
0230
0000
0000
0000
0310
0100
1000
0001
,
0200
0000
0320
0000
,
2030
0000
0000
0000
3100
0010
0001
1000
,
0002
0000
2003
0000
,
3002
0000
2000
3003
,
0001
0010
0000
0001
1000
0000
1010
0000
,
0002
0000
0010
0010
0000
1000
0000
0013
,
0100
1000
0000
0010
0100
0000
0101
0000
,
0002
0000
0100
0100
0000
1000
0000
0103
,
0001
1000
0000
0100
1000
0000
1010
0000
,
0002
0000
1000
1000
0000
0010
0000
1003
,
0001
0010
0000
0010
0100
0000
1001
0000
,
2000
0000
0001
0001
0000
0100
0000
3001
,
0001
0200
0000
0310
0200
0000
0302
0000
,
2003
0000
3100
0020
0000
0130
0010
0001
,
0100
0002
0000
0013
0002
0000
2003
0000
,
3002
0000
0103
2000
0000
3100
0001
1000
,
0100
0020
0000
0031
2000
0000
3020
0000
,
2030
0000
3001
0020
0000
0130
1000
0001
,
0100
0020
0000
0130
0002
0000
2003
0000
,
3002
0000
0013
0200
0000
0310
0001
1000
,
0020
0000
1000
0000
1000
0000
0000
0000
1000
0000
0000
1000
0000
0000
2030
0000
,
0000
0000
0100
0000
0100
0000
0000
0000
0100
0000
0000
0100
0000
0000
3200
0000
,
0000
0000
1000
0000
1000
0000
0000
0000
1000
0000
0000
1000
0000
0000
2300
0000
,
0000
0000
0001
0000
0001
0000
0000
0000
0001
0000
0000
0001
0000
0000
3001
0000
,
0010
0000
0000
0001
0000
0000
1000
0000
0010
0000
0000
0100
0000
0000
0001
0000
,
1000
0000
0000
0100
0000
0000
0001
0000
0100
0000
0000
1000
0000
0000
0010
0000
,
1000
0100
0001
0000
1000
0010
0001
0000
,
1000
0010
0100
0010
1000
0001
0010
0002
,
2000
0000
0000
0000
,
0000
0000
0000
0000
,
0000
0000
0000
0000
,
0000
0000
3003
0000
,
1000
1000
0000
0001
1000
0000
1100
0000
,
0001
0000
0100
0100
0000
1010
0000
0100
,
0001
1000
0000
0100
0010
0000
0011
0000
,
1000
0000
0001
0100
0000
0110
0000
0010
,
1000
0100
0000
0010
0001
0000
1100
0000
,
0001
0000
0100
0010
0000
1010
0000
1000
,
0100
0001
0000
0100
1000
0000
1001
0000
,
1000
0000
0100
0010
0000
0011
0000
0010
,
0001
1000
0010
1000
0100
0000
0110
0000
,
0011
0000
0002
1000
0000
1000
0000
1003
,
0001
0100
0010
0100
0001
0000
0011
0000
,
1001
0000
2000
0010
0000
0010
0000
3010
,
1000
0100
0010
0001
1000
0000
0110
0000
,
1001
0000
0002
0010
0000
0100
0000
0013
,
0001
1000
0010
1000
0100
0001
0100
1000
,
0020
0000
0030
0000
0020
0000
0030
0000
0020
0030
0020
0030
0200
0000
0300
0000
,
0002
0000
0203
0000
0000
0000
0302
0000
0023
0000
0000
0032
0000
0000
2003
0000
,
3020
0000
0000
0230
0000
0000
0320
0000
2030
0000
0000
3200
0000
0000
0320
0000
,
0032
0000
0000
0203
0000
0000
0320
0000
2030
0000
0000
3002
0000
0000
0203
0000
,
0320
0000
0000
2030
0000
0000
3020
0000
0000
0230
0000
0000
0302
0000
2003
0000
,
3002
0000
0000
1000
0000
0000
1000
0000
0000
1003
0000
0000
0001
0000
0001
0000
,
2000
0000
0000
0100
0000
0000
0100
0000
0000
3100
0000
0000
1000
0000
1000
0000
,
0010
1000
0001
0100
0000
0101
0000
1001
,
0000
0001
0100
0000
0001
1000
0100
0010
,
0002
0000
0000
0000
,
0000
0000
0000
0000
0003
0010
0100
1000
,
0200
0000
0000
0000
,
0000
0000
0000
0000
0300
1000
0001
1000
,
0020
0000
0000
0000
,
0000
0000
0000
0000
0030
1000
0100
0010
,
0002
0000
0000
0000
,
2000
0000
0000
3003
,
1001
0000
0000
0000
;

//--------------- dance-single - Fred-104 ----------------
#NOTES:
     dance-single:
     Fred-104:
     Hard:
     15:
     :
0000
0000
0000
0000
,
0000
0000
0000
0000
,
0000
0000
0000
0000
,
0000
0000
0000
0000
,
0000
0000
0000
0000
,
0000
0000
0000
0000
,
0000
0000
0000
0000
,
0000
0000
0000
0000
,
0000
0000
0000
0000
,
1000
0020
0000
1030
0002
0000
0103
0020
,
0000
0130
0001
0000
0220
0330
2002
3003
,
0001
0020
0000
0031
0200
0000
0310
1000
,
1100
0000
0000
0000
0101
0000
0000
0000
0001
1000
0100
0000
0010
0000
0000
0000
,
0011
0001
0000
0001
0100
0000
0010
1000
,
1010
0010
0100
0000
0001
1000
0001
1000
,
1100
0000
0001
0101
0000
0110
0000
0010
,
1000
0000
0001
0100
0001
0000
1000
0000
0100
0010
0100
0010
0001
0000
0000
0000
,
1002
0000
2003
0000
,
3020
0000
0000
0000
1030
0100
0010
0001
,
0200
0000
0320
0000
,
2030
0000
0000
0000
3100
0010
0001
1000
,
0002
0000
0203
0000
,
2300
0000
0000
0000
3010
0100
1000
0001
,
0200
0000
0320
0000
,
2030
0000
0002
3003
,
0002
0023
0230
0302
,
2003
0000
3020
0000
0130
1000
0001
0100
,
0020
0032
2003
3200
,
0320
0000
2030
0000
3100
0010
0001
1000
,
0002
0203
0320
0032
,
0023
0000
0230
0000
0301
0010
0100
1000
,
0002
2003
3002
0203
,
0020
0330
2002
3003
,
0001
0000
0020
0000
0000
0000
0031
0000
2000
0000
0000
0010
0000
0000
0001
0000
,
3200
0000
0320
1000
0000
1000
0000
1030
,
0010
0000
0200
0000
0000
0000
0301
0000
2000
0000
0000
0100
0000
0000
3001
0000
,
0020
0000
0230
1000
0000
1000
0000
1300
,
0001
0000
0002
0000
0000
0000
0103
0000
0020
0000
0000
1000
0000
0000
0130
0000
,
0002
0000
2003
0001
0000
0100
0000
3010
,
0100
0002
0000
0013
0002
0000
1000
0000
,
0203
0000
0302
0010
0000
1000
0000
0103
,
0010
0000
1000
0000
1001
0000
0000
0000
0002
0000
0000
0203
0000
0000
0320
0000
,
1030
0000
0100
0000
0001
0000
0100
0000
2000
0000
0000
3002
0000
0000
0023
0000
,
0130
0000
1000
0000
1001
0000
0000
0000
0002
0000
0000
0023
0000
0000
2030
0000
,
3001
0100
0010
0001
1000
0100
0110
0000
,
0002
0000
0100
0000
0100
0000
0000
0000
0013
0000
0000
0100
0000
0000
1000
0000
,
0020
0000
1000
0000
1000
0000
0000
0000
0130
0000
0000
0001
0000
0000
0010
0000
,
0200
0000
0010
0000
0010
0000
0000
0000
1300
0000
0000
0010
0000
0000
0100
0000
,
0001
0010
1000
0001
0100
1000
1001
0000
,
0001
0000
0010
0000
0021
0000
0000
0000
0031
0000
1000
0001
0000
1000
0001
0000
,
1000
0000
0100
0000
0120
0000
0000
0000
0031
0000
0010
0001
0000
0100
0001
0000
,
0010
0000
0100
0000
2100
0000
0000
0000
3001
0000
0100
0010
0000
1000
0001
0000
,
0010
0000
0100
0000
2100
0000
0000
0000
3001
0000
0100
0010
0000
0100
0010
0000
,
1000
0000
0001
0010
0000
0100
1000
0000
0001
0000
0100
0010
0000
1000
0001
0000
,
1000
0000
0100
0010
0000
0001
1000
0000
0010
0000
0100
0001
0000
1000
0001
0000
,
1000
0100
1000
0100
0010
0000
0001
0000
0010
0000
0001
0100
0001
1000
0100
1000
,
0001
0100
0010
0000
1000
0000
0001
0010
0100
0000
1000
0100
0010
0001
1000
0002
,
2000
0000
0000
0000
,
0000
0000
0000
0000
,
0000
0000
0000
0000
,
0000
0000
3003
0000
,
0001
0000
1000
0000
0100
0000
1000
0000
1010
0000
0000
0010
0100
0000
0001
0000
,
2000
3002
0023
0032
0000
0203
0000
0310
,
1000
0000
0100
0000
0010
0000
0001
0000
0101
0000
0000
0100
0001
0000
1000
0000
,
0002
0203
2300
3200
0000
0302
0000
1003
,
0100
0000
0010
0000
0001
0000
1000
0000
1010
0000
0000
0010
1000
0000
0001
0000
,
2000
3200
0302
0203
0000
0320
0000
0130
,
0001
0000
0100
0000
1000
0000
0001
0000
1001
0000
0000
0001
0100
0000
0001
0000
,
2000
3200
0320
0230
0000
0302
0000
0203
,
1300
0000
0001
0000
1000
0000
0001
0000
1001
0000
1000
0001
0100
0000
0001
0000
,
2000
3200
0320
0032
0100
2003
0100
3002
,
1003
0000
0100
0000
0010
0000
0100
0000
0110
0000
0010
0001
0010
0000
0001
0000
,
2000
3020
0230
0302
0013
0002
1000
0203
,
0301
0000
1000
0000
0010
0000
0100
0000
0101
0000
0100
0001
1000
0000
0001
0000
,
2000
3200
0320
0032
0010
2003
0100
3002
,
0013
0000
0100
0000
1000
0000
0001
0000
1001
0000
1000
0010
0100
0000
0010
0000
,
0200
0000
0300
0000
0200
0000
0300
0000
0200
0300
0200
0300
0200
0000
0300
0000
,
0002
0000
2003
0000
0000
0000
3002
0000
0203
0000
0000
0302
0000
0000
2003
0000
,
3200
0000
0000
0320
0000
0000
0230
0000
2300
0000
0000
3020
0000
0000
0230
0000
,
0302
0000
0000
0023
0000
0000
2030
0000
3002
0000
0000
0203
0000
0000
2300
3000
,
1001
0000
0000
1010
0000
0000
0011
0000
0000
1100
0000
0000
0101
0000
0110
0000
,
1000
0000
0100
0010
0000
0010
0001
0000
0001
0100
0000
0100
0010
0000
1000
0000
,
0001
0000
1000
0100
0000
0100
0010
0000
0010
0001
0000
0001
1000
0000
0001
0000
,
1000
0000
0100
0010
0001
0000
1000
0010
0100
0001
1000
0000
0001
0100
0001
0100
,
0010
0100
0010
0100
0002
0000
0000
0000
1003
0100
0010
0001
0100
0000
0010
0000
,
2000
0000
0000
0000
,
0000
0000
0000
0000
0000
3100
0001
1000
,
0020
0000
0000
0000
,
0000
0000
0000
0000
0000
0130
1000
0010
,
0200
0000
0000
0000
,
0000
0000
0000
0000
0000
0301
1000
0100
,
0020
0000
0000
0000
,
0002
0000
0000
0033
,
1001
0000
0000
0000
;

//--------------- dance-double - Fred-104 ----------------
#NOTES:
     dance-double:
     Fred-104:
     Easy:
     8:
     :
00000000
00000000
00000000
00000000
,
00000000
00000000
00000000
00000000
,
00000000
00000000
00000000
00000000
,
00000000
00000000
00000000
00000000
,
00000000
00000000
00000000
00000000
,
00000000
00000000
00000000
00000000
,
00000000
00000000
00000000
00000000
,
00000000
00000000
00000000
00000000
,
00000000
00000000
00000000
00000000
,
00002000
00000000
00023000
00000000
,
01030000
00010000
00002000
00023000
,
00030100
00000000
00000010
00000000
,
00000200
00000300
00000200
00000300
00000200
00000300
00000200
00000300
,
00001000
00000000
00000001
00000000
,
00000100
00001000
00010000
00100000
,
10000000
00000000
00000000
00010000
00000000
10000000
00000000
01000000
,
00000000
00100000
00100000
00000000
00011000
00000000
00000000
00000000
,
00002000
00000000
00000000
00000000
,
00000000
00000000
00000000
00000000
,
02003000
00000000
00000000
00000000
,
00000000
00000000
00000000
00000000
,
03002000
00000000
00000000
00000000
,
00000000
00000000
00000000
00000000
,
00023000
00000000
00000000
00000000
,
00030200
00000000
00000000
00000000
,
00000320
00000000
00000000
00000000
,
00000000
00000000
00000000
00000000
,
00000032
00000000
00000000
00000000
,
00000000
00000000
00000000
00000000
,
00000203
00000000
00000000
00000000
,
00000000
00000000
00000000
00000000
,
00002300
00000000
00000000
00000000
,
00020000
00000000
00033000
00000000
,
00001000
00010000
01000000
00100000
,
00010000
00000000
00000000
10000000
00000000
01000000
00000000
00100000
,
00001000
00010000
00000010
00001000
,
00000100
00000000
00000000
00000010
00000000
00001000
00000000
00000010
,
00000001
00000010
00000001
00000100
,
00000001
00000000
00000000
00000010
00000000
00001000
00000000
00010000
,
00001000
00010000
01000000
00100000
,
00010000
00000000
00000000
10000000
00000000
00010000
00000000
10000000
,
00100000
00010000
00001000
00010000
,
00100000
00000000
00000000
01000000
00000000
00010000
00000000
10000000
,
01000000
00010000
01000000
00010000
,
00001000
00000000
00000000
00000100
00000000
00000001
00000000
00000100
,
00000001
00000010
00000100
00000010
,
00000001
00000000
00000000
00000010
00000000
00001000
00000000
00000010
,
00001000
00010000
00100000
01000000
,
00010000
01000000
02200000
03300000
,
20020000
00000000
00000000
00000000
,
00000000
00000000
00000000
00000000
,
00000000
00000000
00000000
00000000
,
00000000
00000000
00000000
30030000
,
10000000
10000000
01000000
01000000
,
00010000
00010000
00001000
00001000
,
00000010
00000010
00000001
00000001
,
00000100
00000010
00000100
00000000
00001000
00010000
00001000
00000000
,
00022000
00000000
00000000
00000000
,
00000000
00000000
00000000
00000000
,
00000000
00000000
00000000
00000000
,
00000000
00000000
00033000
00000000
,
00010000
00001000
00000100
00000001
,
00000010
00000000
00000000
00001000
00000000
00001000
00000000
00001000
,
00010000
00001000
00010000
00100000
,
01000000
00000000
00000000
00010000
00000000
00010000
00000000
00010000
,
10000000
01000000
00010000
00001000
,
00000100
00000000
00000000
00000001
00000000
00000001
00000000
00000001
,
00000010
00000100
00000010
00001000
,
00010000
00001000
00011000
00000000
,
00001000
00010000
01000000
00010000
,
00001000
00000000
00000000
01000000
00000000
00001000
00000000
00001000
,
00010000
00001000
00000100
00001000
,
00010000
00000000
00000000
00001000
00000000
00000100
00000000
00000001
,
00000010
00000001
00000010
00000100
,
00001000
00000000
00000000
00000010
00000000
00010000
00000000
00010000
,
00001000
00010000
00100000
10000000
,
02000000
03000000
02000000
03000000
02000000
03000000
02000000
03000000
,
10000000
00100000
00010000
00011000
,
00001000
00010010
00001000
00101000
,
00000100
00001001
00000010
00001001
,
00000001
00000000
00000000
00000001
00000000
00000000
00001000
00000000
00000000
00001000
00000000
00000000
00000001
00000000
00000000
00000000
,
00000200
00000000
00000300
00020000
00000000
00030000
00002000
00000000
,
00023000
00000000
00030000
00200000
00000000
00300000
02000000
00000000
,
03010000
00000000
00000000
01000000
00000000
01000000
00000000
00100000
,
00000000
10000000
10000000
00000000
00010000
10000000
00010000
00000000
,
20000000
00000000
00000000
00000000
,
00000000
00000000
00000000
30100000
,
00020000
00000000
00000000
00000000
,
00000000
00000000
00000000
00031000
,
00000200
00000000
00000000
00000000
,
00000000
00000000
00000000
00000301
,
00000020
00000000
00000000
00000000
,
00000032
00000000
00000000
00000000
,
00001003
00000000
00000000
00000000
;

//--------------- dance-double - Fred-104 ----------------
#NOTES:
     dance-double:
     Fred-104:
     Medium:
     12:
     :
00000000
00000000
00000000
00000000
,
00000000
00000000
00000000
00000000
,
00000000
00000000
00000000
00000000
,
00000000
00000000
00000000
00000000
,
00000000
00000000
00000000
00000000
,
00000000
00000000
00000000
00000000
,
00000000
00000000
00000000
00000000
,
00000000
00000000
00000000
00000000
,
00000000
00000000
00000000
00000000
,
00010000
00002000
00000000
00003010
00000200
00000000
00000000
00001000
,
00000000
00001300
00000001
00000000
00000110
00000000
00001001
00000000
,
00000001
00000200
00000000
00001300
00020000
00000000
01030000
00100000
,
02000000
00000000
03200000
00000000
00310000
10000000
00010000
00000000
,
00100000
02000000
00000000
03010000
00002000
00000000
00000000
00010000
,
00000000
00013000
00001000
00000000
00000100
00000010
00001000
00000001
,
00000010
00000000
00000100
00000100
00000000
00010000
00000000
01000000
,
00000000
00100000
00010000
00000000
01000000
00010000
10010000
00000000
,
20000000
00000000
32000000
00000000
,
03020000
00000000
00000000
00000000
00031000
00000100
00000001
00000010
,
00000200
00000000
00020300
00000000
,
00032000
00000000
00000000
00000000
00013000
00100000
01000000
00010000
,
20000000
00000000
32000000
00000000
,
03200000
00000000
00000000
00000000
00301000
00010000
00000010
00010000
,
00002000
00000000
00023000
00000000
,
00032000
00000000
00023000
00000000
,
00032000
00000000
00003200
00000000
,
00000302
00000000
00000000
00000000
00000013
00000100
00001000
00000100
,
00020000
00000000
00032000
00000000
,
00023000
00000000
00000000
00000000
00031000
00010000
01000000
00100000
,
00020000
00000000
00230000
00000000
,
02300000
00000000
00000000
00000000
13000000
00100000
00010000
00001000
,
00000200
00000000
00000302
00000000
,
00002003
00000000
00000002
00003003
,
00000001
00000100
00000000
00001000
00010000
00000000
00011000
00000000
,
01200000
00000000
00010000
00010000
00000000
10000000
00000000
00310000
,
10000000
01000000
00000000
00100000
00001000
00000000
00011000
00000000
,
00020010
00000000
00001000
00001000
00000000
01000000
00000000
00031000
,
00010000
00001000
00000000
00000100
00000001
00000000
00001001
00000000
,
00000120
00000000
00001000
00001000
00000000
00000001
00000000
00001030
,
00000100
00000010
00000000
00001000
00010000
00000000
00011000
00000000
,
00020100
00000000
00001000
00001000
00000000
01000000
00000000
00031000
,
00010000
00002000
00000000
00013000
00200000
00000000
02300000
00000000
,
03010000
10000000
01000000
00200000
00000000
00302000
00000000
00003020
,
00000130
00020000
00000000
00031000
00000200
00000000
00000302
00000000
,
00001003
00000010
00010000
00200000
00000000
00320000
00000000
00032000
,
01003000
00002000
00000000
00013000
00001000
00000000
00011000
00000000
,
00010000
00001000
00000100
00000020
00000000
00002030
00000000
00003200
,
00000310
00002000
00000000
00013000
00001000
00000000
00101000
00000000
,
00001000
00010000
00200000
00000000
10300000
01000000
00020000
00000000
,
00031000
00000000
00000010
00000000
00000200
00000000
00000000
00000000
00010000
00000000
00000000
00010000
00000000
00000000
00020300
00000000
,
00000000
00000000
00001000
00000000
00032000
00000000
00000000
00000000
00100000
00000000
00000000
00100000
00000000
00000000
00203000
00000000
,
00000000
00000000
00001000
00000000
00302000
00000000
00000000
00000000
00010000
00000000
00000000
00010000
00000000
00000000
00023000
00000000
,
00000000
00000000
00000100
00000000
00030200
00000000
00000000
00000000
00000010
00000000
00000000
00000010
00000000
00000000
00000310
00000000
,
00000001
00000100
00001000
00000000
00010000
00100000
10000000
00000000
,
10000000
01000000
00010000
00000000
00001000
00000010
00000001
00000000
,
00000001
00000100
00010000
01000000
00100000
00010000
00100000
01000000
,
00010000
10000000
01000000
00100000
00001000
00010000
00000010
00020000
,
00002000
00000000
00000000
00000000
,
00000000
00000000
00000000
00000000
,
00000000
00000000
00000000
00000000
,
00000000
00000000
00033000
00000000
,
00010000
00001000
00000000
00000100
00000001
00000000
00001001
00000000
,
00000001
00000100
00001000
00020000
00000000
00230000
00000000
01300000
,
00010000
10000000
00000000
01000000
00100000
00000000
00011000
00000000
,
00001000
00010000
00100000
00020000
00000000
00032000
00000000
00103000
,
00010000
00001000
00000000
00010000
00100000
00000000
00011000
00000000
,
00010000
00001000
00000100
00000002
00000000
00000023
00000000
00000130
,
00001000
00000001
00000000
00000100
00001000
00000000
00011000
00000000
,
00001000
00010000
01000000
00200000
00000000
00320000
00000000
10030000
,
00010000
01000000
10000000
01000000
00010000
00000000
00011000
00000000
,
00020000
00000000
00001000
00032000
00000000
00003200
00000310
00002000
,
00003100
00000010
00000001
00000010
00001000
00000000
00011000
00000000
,
00002000
00000000
00010000
00023000
00000000
00032000
00103000
02000000
,
13000000
00100000
00010000
00001000
00010000
00000000
00000110
00000000
,
00000002
00000000
00000100
00000203
00000000
00000302
00000013
00000200
,
00010300
00001000
00000100
00000010
00000100
00001000
00010000
00001000
,
02000000
00000000
03000000
00000000
02000000
00000000
03000000
00000000
02000000
03000000
02000000
03000000
00200000
00000000
00300000
00000000
,
20000000
00000000
30020000
00000000
00000000
00000000
20030000
00000000
32000000
00000000
00000000
03200000
00000000
00000000
00302000
00000000
,
00023000
00000000
00000000
00030020
00000000
00000000
00000230
00000000
00000302
00000000
00000000
00000023
00000000
00000000
00002030
00000000
,
00023000
00000000
00000000
00230000
00000000
00000000
20300000
00000000
32000000
00000000
00000000
03020000
00000000
00000000
00032000
00000000
,
00003200
00000000
00000000
00000302
00000000
00000000
00000023
00000000
00000000
00000230
00000000
00000000
00002300
00000000
00003200
00000300
,
00002100
00000000
00000000
00000100
00000000
00000000
00000100
00000000
00000000
00003100
00000000
00000000
00010000
00000000
00001000
00000000
,
01002000
00000000
00000000
01000000
00000000
00000000
01000000
00000000
00000000
01003000
00000000
00000000
00001000
00000000
00010000
00000000
,
00100000
10000000
01000000
00010000
00000000
00011000
00000000
00000110
,
00000000
00000001
00001000
00000000
00000001
00000100
00001000
00000100
,
00000002
00000000
00000000
00000000
,
00000000
00000000
00000000
00000000
00000000
00000013
00001000
00010000
,
02000000
00000000
00000000
00000000
,
00000000
00000000
00000000
00000000
00000000
13000000
00100000
00010000
,
00002000
00000000
00000000
00000000
,
00000000
00000000
00000000
00000000
00000000
00003100
00000001
00000010
,
00000200
00000000
00000000
00000000
,
00020000
00000000
00000000
00030300
,
10010000
00000000
00000000
00000000
;

//--------------- dance-double - Fred-104 ----------------
#NOTES:
     dance-double:
     Fred-104:
     Hard:
     16:
     :
00000000
00000000
00000000
00000000
,
00000000
00000000
00000000
00000000
,
00000000
00000000
00000000
00000000
,
00000000
00000000
00000000
00000000
,
00000000
00000000
00000000
00000000
,
00000000
00000000
00000000
00000000
,
00000000
00000000
00000000
00000000
,
00000000
00000000
00000000
00000000
,
00000000
00000000
00000000
00000000
,
10000000
00200000
00000000
00310000
00002000
00000000
00003100
00000002
,
00000000
00000013
00000100
00000000
00000220
00000330
00002002
00003003
,
00000001
00000200
00000000
00000310
00000200
00000000
00001300
00010000
,
00011000
00000000
00000000
00000000
01100000
00000000
00000000
00000000
00010000
10000000
00010000
00000000
20000000
00000000
00000000
00000000
,
30010000
00100000
01000000
00010000
00002000
00000000
00013000
00000100
,
00001100
00000100
00000010
00000000
00000001
00000100
00000010
00001000
,
00001001
00000000
00000100
00000110
00000000
00011000
00000000
01100000
,
01000000
00000000
00010000
10000000
00100000
00000000
00010000
00000000
00001000
00010000
00001000
00010000
00002000
00000000
00000000
00000000
,
00023000
00032000
00003020
00002030
,
00023000
00000000
00030020
00000000
00001030
00010000
00001000
00000010
,
00020000
00032000
00003200
00002300
,
00023000
00000000
00030200
00000000
00001300
00010000
00001000
00000100
,
00020000
02030000
03200000
00302000
,
02003000
00000000
03002000
00000000
00003100
00000010
00001000
00100000
,
02000000
03020000
00030200
00002300
,
00023000
02030000
03020000
00030200
,
00020300
00030020
00000230
00002300
,
00023000
00000000
02030000
00000000
03010000
00001000
00000100
00001000
,
00020000
00030200
00000320
00002030
,
00023000
00000000
02030000
00000000
03100000
00001000
00000010
00000100
,
00020000
00032000
00003200
00000320
,
00020030
00000000
00032000
00000000
00013000
00100000
01000000
00001000
,
00020000
00032000
00003020
00000230
,
00020300
00000000
00002000
00033000
,
00001000
00000000
00010000
00000000
00001000
00000000
00000010
00000000
00000200
00000000
00000000
00000010
00000000
00000000
00000310
00000000
,
00000001
00000100
00001000
00001100
00000000
00011000
00000000
01100000
,
00010000
00000000
10000000
00000000
00100000
00000000
00010000
00000000
00002000
00000000
00000000
00010000
00000000
00000000
00013000
00000000
,
00001000
00010000
00000010
00010010
00000000
00000101
00000000
00001100
,
00000001
00000000
00000100
00000000
00000010
00000000
00000100
00000000
00002000
00000000
00000000
00010000
00000000
00000000
00013000
00000000
,
01000000
00100000
00010000
00110000
00000000
10100000
00000000
01100000
,
10000000
00000000
01000000
00000000
00001000
00000000
00000100
00000000
00020000
00000000
00000000
00001000
00000000
00000000
00031000
00000000
,
00010000
00000010
00010000
00100000
00010000
00001000
00021000
00000000
,
00031000
00000000
00100000
00000000
01000000
00000000
00010000
00000000
00000200
00000000
00000000
00010000
00000000
00000000
00010300
00000000
,
00001000
00000100
00000001
00000020
00000000
00000230
00000000
00020300
,
00031000
00000000
00000010
00000000
00010000
00000000
00100000
00000000
00002000
00000000
00000000
00010000
00000000
00000000
00013000
00000000
,
00001000
00010000
00100000
02000000
00000000
23000000
00000000
32000000
,
03010000
00000000
00100000
00000000
01000000
00000000
00001000
00000000
00000200
00000000
00000000
00000010
00000000
00000000
00000310
00000000
,
00000100
00000010
00001000
00020000
00000000
00230000
00000000
02300000
,
03010000
00000000
00100000
00000000
01000000
00000000
00010000
00000000
00002000
00000000
00000000
00010000
00000000
00000000
00013000
00000000
,
00000100
00000010
00000001
00000100
00001000
00010000
00011000
00000000
,
00012000
00000000
00010000
00000000
00010000
00000000
00000000
00000000
00100000
00000000
00000000
00100000
00000000
00000000
00100000
00000000
,
00000000
00000000
00100000
00000000
00100000
00000000
00000000
00000000
00010000
00000000
00000000
00010000
00000000
00000000
00010000
00000000
,
00000000
00000000
00000010
00000000
00000010
00000000
00000000
00000000
00000010
00000000
00000000
00000010
00000000
00000000
00000010
00000000
,
00000000
00000000
00010000
00000000
00010000
00000000
00000000
00000000
00010000
00000000
00000000
00010000
00000000
00000000
00013000
00000000
,
00001000
00000000
00010000
00100000
00000000
01000000
00100000
00000000
10000000
00000000
00010000
00100000
00000000
01000000
00010000
00000000
,
00001000
00000000
00000100
00000010
00000000
00010000
00001000
00000000
00000010
00000000
00000001
00000010
00000000
00001000
00010000
00000000
,
00100000
01000000
00100000
01000000
00010000
00000000
10000000
00000000
00010000
00000000
00100000
00001000
00010000
00000100
00001000
00000100
,
00000010
00000100
00001000
00000000
00000001
00000000
00000100
00000010
00000100
00000000
00001000
00010000
00001000
01000000
00001000
00020000
,
00002000
00000000
00000000
00000000
,
00000000
00000000
00000000
00000000
,
00000000
00000000
00000000
00000000
,
00000000
00000000
00033000
00000000
,
00001000
00100000
01000000
10000000
00020000
01000000
20030000
00100000
,
30010000
10000000
00100000
00002000
00000000
00003020
00000000
00020030
,
00031000
00100000
00010000
00001000
00000200
00000001
00000320
00001000
,
00000130
00010000
01000000
00200000
00000000
20300000
00000000
30200000
,
01300000
00010000
00001000
00000010
00000002
00000100
00002003
00000010
,
00003001
00000010
00001000
00020000
00000000
00230000
00000000
02300000
,
03001000
00100000
01000000
10000000
02000000
00100000
23000000
00010000
,
30100000
00001000
00000010
00020000
00000000
00030200
00000000
00000320
,
00000031
00000000
00001000
00000000
00000010
00000000
00000100
00000000
00000101
00000000
00000000
00000001
00000010
00000000
00001000
00000000
,
00010000
00000000
00100000
01000000
00010000
00000000
20000000
00000000
00100000
00000000
30020000
00000000
01000000
00000000
10030000
00000000
,
01000000
00000000
00100000
00000000
00010000
00000000
01000000
00000000
01001000
00000000
00000000
00001000
00010000
00000000
00001000
00000000
,
00000100
00000000
00000010
00001000
00000001
00000000
00000020
00000000
00000001
00000000
00000230
00000000
00001000
00000000
00000310
00000000
,
00000001
00000000
00000100
00000000
00001000
00000000
00010000
00000000
00011000
00000000
00000000
00001000
00010000
00000000
01000000
00000000
,
00100000
00000000
00010000
10000000
00100000
00000000
00020000
00000000
00001000
00000000
00230000
00000000
00010000
00000000
01300000
00000000
,
00010000
00000000
10000000
00000000
01000000
00000000
00010000
00000000
00011000
00000000
00001000
00010000
00000100
00000000
00001000
00000000
,
00000020
00000000
00000030
00000000
00000020
00000000
00000030
00000000
00000020
00000030
00000020
00000030
00000200
00000000
00000000
00000000
,
00000320
00000000
00002030
00000000
00000000
00000000
00003200
00000000
00000320
00000000
00000000
00000230
00000000
00000000
00002300
00000000
,
00023000
00000000
00000000
02030000
00000000
00000000
03002000
00000000
00203000
00000000
00000000
02300000
00000000
00000000
03020000
00000000
,
00032000
00000000
00000000
00003020
00000000
00000000
00020030
00000000
00230000
00000000
00000000
00302000
00000000
00000000
00023000
00030000
,
00011000
00000000
00000000
01001000
00000000
00000000
00010010
00000000
00000000
00101000
00000000
00000000
00010100
00000000
00001100
00000000
,
00000110
00000000
00000010
00000001
00000000
00001000
00000001
00000000
00000100
00000010
00000000
00000100
00001000
00000000
00010000
00000000
,
00011000
00000000
00001000
00010000
00000000
00100000
01000000
00000000
00010000
01000000
00000000
10000000
01000000
00000000
00010000
00000000
,
10000000
00000000
01000000
00100000
00010000
00000000
00100000
00001000
00010000
00000010
00001000
00000000
00000001
00000010
00000001
00000010
,
00001000
00010000
00001000
00010000
00002000
00000000
00000000
00000000
00013000
00001000
00000100
00000010
00001000
00000000
00000001
00000000
,
00000020
00000000
00000000
00000000
,
00000000
00000000
00000000
00000000
00000000
00000130
00001000
00010000
,
02000000
00000000
00000000
00000000
,
00000000
00000000
00000000
00000000
00000000
03100000
10000000
01000000
,
00020000
00000000
00000000
00000000
,
00000000
00000000
00000000
00000000
00000000
00031000
00000010
00000001
,
00000200
00000000
00000000
00000000
,
00002000
00000000
00000000
00003300
,
00011000
00000000
00000000
00000000
;
