#TITLE:Eira;
#ARTIST:DJ TOTTO;
#BANNER:Eira.png;
#BACKGROUND:Eira-bg.png;
#CDTITLE:./CDTitles/RB Reflesia.png;
#MUSIC:Eira.ogg;
#SAMPLESTART:84.506;
#SAMPLELENGTH:15;
#BPMS:0=93,20=186;
#BGSTAGE:30;

//--------------- dance-single - Fred-104 ----------------
#NOTES:
     dance-single:
     Fred-104:
     Beginner:
     4:
     :
0000
0000
0000
0000
,
0000
0000
0000
0000
,
0000
0000
0000
0000
,
1000
0000
0001
0000
,
1000
1000
0001
0001
,
1001
0000
0000
0000
,
0001
0000
0000
0000
,
1000
0000
0000
0000
,
0010
0000
0000
0000
,
1000
0000
1000
0000
,
0001
0001
0001
0001
,
1001
0000
0000
0000
,
1000
0000
0001
0000
,
1000
0000
0000
0100
,
0100
0000
0010
0000
,
0010
0000
0000
0001
,
0001
0000
1000
0000
,
0010
0000
0000
0100
,
0100
0000
0001
0000
,
1000
0000
0001
0000
,
1001
0000
0000
0000
,
0001
0000
0001
0000
,
0100
0000
0010
0010
,
0010
0000
1000
0000
,
0100
0000
1000
1000
,
1000
0000
0001
0000
,
0100
0000
0010
0000
,
1000
1000
1000
1000
,
1001
0000
0000
0000
,
0001
0000
0010
0000
,
0001
0000
0001
0000
,
1000
0000
0001
0000
,
1001
0000
0000
0000
,
1000
0000
0001
0000
,
0010
0010
0010
0000
,
0001
0000
1000
0000
,
0100
0000
1000
1000
,
1000
0000
0010
0000
,
1000
0000
1000
0000
,
0001
0000
1000
0000
,
1001
0000
0000
0000
,
0001
0000
1000
0000
,
0010
0010
0010
0000
,
1000
0000
0001
0000
,
0100
0000
0001
0001
,
0002
0000
0000
0000
,
0000
0000
0000
0000
,
2003
0000
0000
0000
,
0000
0000
0000
0000
,
3002
0000
0000
0000
,
2003
0000
0000
0000
,
3001
0000
1000
0000
,
0001
0001
0001
0001
,
0001
0000
1000
0000
,
0010
0000
1000
0000
,
0001
0000
0000
0001
,
0000
0000
1000
0000
,
0001
0000
0000
0100
,
0000
0000
0001
0000
,
1000
0000
0001
0000
,
1000
1000
1001
0000
,
0001
0000
0001
0000
,
0010
0000
0001
0000
,
1000
0000
0001
0000
,
0100
0000
0001
0000
,
1000
0000
0000
0000
,
0001
0000
0000
0000
,
0100
0100
0100
0100
,
0100
0000
0010
0000
,
0100
0000
0001
0000
,
1000
0000
0010
0000
,
1000
0000
0100
0000
,
1000
0000
1001
0000
,
0001
0000
0010
0000
,
0001
0000
0100
0000
,
0001
0000
1000
0000
,
0001
0000
1000
0000
,
1001
0000
0000
0000
,
0001
0000
0000
0000
,
0100
0000
0000
0000
,
0010
0000
1000
0000
,
0001
0000
1000
0000
,
0001
0000
0100
0100
,
0100
0000
0001
0000
,
1000
0000
0001
1000
,
0001
0000
0000
2002
0000
0000
0000
0000
,
0000
0000
0000
0000
,
0000
0000
0000
0000
,
0000
0000
0000
0000
,
3003
0000
0000
0000
;

//--------------- dance-single - Fred-104 ----------------
#NOTES:
     dance-single:
     Fred-104:
     Easy:
     10:
     :
0000
0000
0000
0000
,
0000
0000
0000
0000
,
0000
0000
0000
0000
,
0001
0010
0100
1000
,
0001
0000
0000
0001
1000
0000
0000
1000
0010
0000
0100
0000
0001
1000
0001
1000
,
0001
0000
0010
0000
0001
0000
0100
0010
,
0000
0100
0010
0000
1000
0000
0100
0000
,
1000
0000
0000
0001
0000
0000
0100
0000
,
0000
0010
0000
0000
1000
0000
0100
0000
,
1000
1000
0001
0001
,
0100
0010
0100
0000
0001
1000
0001
0000
,
1001
0000
0001
0000
,
1000
0100
1000
0000
0001
1001
0000
0000
,
1000
0000
0000
0010
0000
0000
1000
0000
,
0100
0000
0010
0001
0000
0010
0001
0000
,
0100
0000
0000
0001
0000
0000
0010
0000
,
0001
0000
0100
0000
0010
0100
0010
0000
,
1000
0000
0000
0010
0000
0000
0100
0000
,
0001
0000
0010
0001
0000
1000
0001
0000
,
0100
0010
0000
0100
0010
0000
1000
0100
,
0000
1000
0001
0000
0100
0010
0100
0000
,
0001
0000
0000
0010
0000
0000
0100
0000
,
1000
0000
0001
0100
0000
0010
0100
0000
,
0001
0000
0000
1000
0000
0000
0100
0000
,
0010
0000
0001
0000
1000
0001
1000
0000
,
1001
0000
0000
0001
0000
0000
0100
0000
,
0010
0000
0100
0000
0010
1000
0001
0000
,
0100
0001
0100
0000
0001
0010
0001
0000
,
1001
0000
0000
0110
0000
0000
1001
0000
,
1100
0000
1100
0000
1000
0000
0000
0110
,
0000
0100
0001
0000
0010
0001
0000
0100
,
0001
0000
0010
0000
0001
0000
0100
0010
,
0100
0000
0001
0000
1001
0000
0001
1000
,
0002
0203
2300
3200
,
0302
0000
0023
0000
0031
1000
0002
0000
,
1003
0100
1000
0100
,
0010
0001
0010
0000
,
0101
0000
0101
0000
0001
0000
0000
0110
,
0000
0100
1000
0000
0010
1000
0000
0100
,
1000
0000
0010
0000
1000
0000
0100
0010
,
0100
0000
1000
0000
1001
0000
1000
0001
,
2000
3200
0302
0203
,
2300
0000
3020
0000
1030
0001
2000
0000
,
3001
0100
0001
0100
,
0010
0000
1000
0000
0010
1000
0010
0000
,
2000
0000
0000
0000
,
3002
0000
0000
0000
,
2003
0000
0000
0000
,
3020
0000
0000
0000
,
2030
0000
0000
0000
,
3200
0000
0000
0000
,
0310
0000
0000
0010
0001
0000
0000
0001
,
1000
0000
0001
0000
0100
0010
0100
0010
,
0100
0000
0001
0000
0010
0000
0001
0100
,
0000
0010
0100
0000
0001
0000
1000
0000
,
0001
0000
0000
0010
0000
0000
0100
0000
,
0000
1000
0000
0000
0010
0000
0100
0000
,
0001
0010
0000
0001
1000
0000
0001
0100
,
0000
0010
1000
0000
0100
0010
0001
0000
,
1001
0000
0001
0000
,
0100
0100
0110
0000
,
0001
0000
0000
0010
0000
0000
0001
0000
,
0100
0000
0010
0000
1000
0100
1000
0000
,
0010
0100
0001
0010
,
0001
1000
1001
0000
,
1000
0000
0000
0100
0000
0000
0010
0000
,
1000
0000
0000
0010
0000
0000
0001
0000
,
1000
0100
1000
0000
0001
0100
0001
0000
,
0110
0000
1001
0000
,
0001
0000
0000
0010
0000
0000
0001
0000
,
0100
0000
0010
0000
0100
0010
1000
0000
,
0001
0010
0110
0000
,
1000
0001
1001
0000
,
0001
0000
0000
0010
0000
0000
1000
0000
,
0001
0000
0000
0100
0000
0000
1000
0000
,
0001
0010
0001
0000
1000
0100
1000
0000
,
1001
0000
0110
0000
,
1001
0001
0100
0000
,
0010
1000
0100
0000
,
1000
0100
0010
0001
,
0100
0000
0010
0000
0100
0001
0100
0000
,
0001
0000
0100
0000
0000
0000
0001
0000
0100
0000
0000
0010
0000
1000
0000
0010
,
0000
0000
1000
0000
0100
0000
0000
1000
0000
0000
0001
0000
0000
0100
0000
0000
,
0010
0000
0100
0000
0000
0000
0010
0000
1000
0000
0000
0100
0000
1000
0000
0001
,
0000
0000
0100
0000
0010
0000
0000
1000
0000
0000
0100
0000
1000
0000
0001
0000
,
0100
0010
1000
2002
0000
0000
0000
0000
,
0000
0000
0000
0000
,
0000
0000
0000
0000
,
0000
0000
0000
0000
,
3003
0000
0000
0000
;

//--------------- dance-single - Fred-104 ----------------
#NOTES:
     dance-single:
     Fred-104:
     Medium:
     15:
     :
0000
0000
0000
0000
,
0000
0000
0000
0000
,
0000
0000
0000
0000
,
0001
0010
0001
0100
,
0010
0000
0000
0000
0000
0000
1000
0000
0100
0000
0000
0000
0000
0000
0010
0000
0001
0000
0100
0000
0010
0000
0100
0000
0010
0000
1000
0000
0100
1000
0100
1000
,
0100
1000
0010
0000
0100
0000
0001
0010
,
0000
0001
0100
0000
0001
0010
0100
1000
,
0001
0010
0000
0010
1000
0000
1000
0100
,
0000
0100
0001
0000
1000
0010
0100
0001
,
1000
0100
0000
0001
0100
0000
1000
0010
,
0000
0001
0010
0000
1000
0100
0010
0001
,
0100
0010
0100
0001
0010
0001
1000
0010
,
0100
0001
1000
0100
1000
1001
0000
0000
,
0001
0100
0001
0000
0010
0000
0001
0100
0001
0000
0010
0000
0001
0100
0001
0000
,
0010
0100
1000
0010
0100
0001
1001
0000
,
0001
1000
0001
0000
0100
0000
0001
1000
0001
0000
0100
0000
0001
1000
0001
0000
,
0100
0001
0010
0001
1000
0100
0010
0001
,
0100
0010
0100
0000
0001
0000
0100
0010
0100
0000
0001
0000
0100
0010
0100
0000
,
0001
0010
1000
0001
0100
1000
1001
0000
,
0001
0010
0100
0001
0100
1000
0100
0010
,
0001
1000
0010
0001
0010
0100
0101
0000
,
1000
0100
1000
0000
0001
0000
1000
0010
1000
0000
0001
0000
1000
0100
1000
0000
,
0100
0010
0001
0100
0010
0100
0101
0000
,
0001
0010
0001
0000
1000
0000
0001
0100
0001
0000
1000
0000
0001
0010
0001
0000
,
0010
0000
0100
0000
1000
0000
0010
0000
0100
0000
0001
1000
0001
0000
0010
0000
,
0001
0000
0100
0001
0010
0000
0100
1000
,
0010
0000
0100
0000
0001
0000
0100
0010
0000
0100
0010
0000
1000
0000
0010
0000
,
1000
0100
0010
0001
0100
0010
1000
0100
,
0110
0000
0000
0011
0000
1001
1000
0010
,
0100
0001
0011
0000
0001
0100
0010
1010
,
0000
1000
0100
0010
0100
1100
0000
1000
,
0010
0100
0001
0010
0011
0000
0001
0100
,
0010
0000
1000
0000
0100
0000
0010
0000
1001
0000
0000
0000
0001
1000
0001
1000
,
0001
0010
0200
0000
0301
0100
1000
0002
,
0000
0103
0010
1000
0100
0010
0001
1000
,
0001
0100
0010
1000
0001
1000
0100
0010
,
0000
0000
1001
0000
0000
0000
0001
0010
0100
0000
1000
0000
0001
0000
1000
0000
,
0100
1000
1010
0000
1000
0100
0010
0011
,
0000
0001
0100
0010
0100
0101
0000
0001
,
0010
0100
1000
0010
1010
0000
1000
0100
,
0010
0000
0001
0000
0100
0000
0010
0000
1001
0000
0000
0000
1000
0001
1000
0001
,
1000
0010
0200
0000
1300
0100
0001
2000
,
0000
3100
0010
0001
0100
0010
1000
0001
,
1000
0100
0010
0001
1000
0001
0100
0010
,
0000
0000
1001
0000
0000
0000
1000
0010
0100
0000
0001
0000
1000
0001
1000
0001
,
2000
0000
0000
3020
,
0000
0000
0230
0000
,
0302
0000
0000
0000
,
2003
0000
3020
0000
,
0032
0000
0203
0000
,
2300
0000
3002
0000
,
1003
0000
0000
0010
0100
0000
0000
0001
,
0010
0000
0001
0000
0100
0000
0010
0000
1000
0000
0001
0000
0010
0001
0010
0001
,
0010
0100
1000
0010
0100
0000
0001
0010
,
0000
1000
0010
0000
0001
0100
0010
1000
,
0010
0100
0000
1000
0100
0000
0001
0100
,
0000
0010
1000
0000
0100
0010
0001
1000
,
0001
0010
0000
1000
0010
0000
0001
0100
,
0000
1000
0100
0000
0001
0010
0100
1000
,
0001
0000
0100
0010
0100
0000
0001
0010
0001
0000
0100
0000
0010
0000
1000
0000
,
0001
1000
0001
0000
0100
0010
0100
0000
0002
0000
0023
0000
0230
0000
2300
0000
,
3001
0010
0001
0000
1000
0000
0001
0100
0001
0000
0010
0000
0100
1000
0100
0000
,
0010
0000
0001
0000
1000
0000
0010
0100
0000
0010
0100
0000
0010
0000
1000
0000
,
0100
0010
0100
0000
0010
0000
0001
0100
0001
0000
0010
0000
0001
0000
1000
0000
,
0100
0010
0100
0000
0010
0000
0001
0000
1001
0000
0000
0000
0001
0000
0100
0000
,
0001
0010
1000
0020
0000
0031
0100
0001
,
1000
0100
0001
0200
0000
1300
0010
1000
,
0001
0010
0001
0000
1000
0100
1000
0000
0001
0000
0100
0000
0010
0000
1000
0000
,
1001
0000
0000
0000
0000
0000
0001
0100
0001
0000
0010
0000
0100
0000
1000
0000
,
0010
0100
0010
0000
1000
0000
0100
0010
0100
0000
1000
0000
0001
0010
0001
0000
,
1000
0000
0001
0000
0100
0000
0001
0010
0000
0001
0010
0000
0100
0000
0010
0000
,
0001
0000
0100
0010
0100
0000
0001
0000
0010
0000
0100
0000
1000
0000
0010
0000
,
1010
0000
0000
0101
0000
0000
1100
0000
1000
0000
0100
0000
0010
0000
0001
0000
,
1000
0100
0001
0200
0000
1300
0100
0010
,
0001
0100
1000
0200
0000
0301
0100
0010
,
1000
0100
1000
0000
0001
0100
0001
0000
0100
0010
0100
0000
0001
1000
0001
0000
,
1001
0000
0000
0000
0000
0000
0100
0010
0100
0000
0000
0000
0001
0000
1000
0000
,
0100
0000
0000
1000
0000
0000
0001
0000
0011
0000
0000
0000
0001
0000
1000
0000
,
0010
0000
0000
0100
0000
0000
0010
0000
1010
0000
0000
1000
0000
0000
0100
0000
,
0010
0000
0000
0001
0000
0000
0100
0000
0110
0000
0000
0010
0000
0000
1000
0000
,
0001
0000
0000
0010
0000
0000
0100
0000
1000
0010
1000
0000
0100
0000
1000
0001
,
1000
0000
0001
0010
0000
0001
0100
0000
0010
0000
1000
0100
0000
1000
0000
0001
,
0000
0000
0010
0000
0001
0100
0000
0010
0000
1000
0000
0100
0000
0010
0001
0000
,
0100
0000
0010
0100
0000
0010
1000
0000
0100
0000
0010
0001
0000
1000
0000
0001
,
0000
0000
0100
0000
0001
0010
0000
0001
0000
0100
0010
0000
1000
0100
1000
0000
,
0001
1000
0001
0000
0100
0000
0220
0000
0000
0000
0000
0000
0000
0000
0000
0000
,
0000
0000
0000
0000
,
0000
0000
0000
0000
,
0000
0000
0000
0000
,
0330
0000
0000
0000
;

//--------------- dance-single - Fred-104 ----------------
#NOTES:
     dance-single:
     Fred-104:
     Hard:
     17:
     :
0000
0000
0000
0000
,
0000
0000
0000
0000
,
0000
0000
0000
0000
,
2000
3020
0230
0302
,
1003
0000
0000
0000
0000
0000
1000
0000
0001
0000
0000
0000
0000
0000
0001
0000
0100
0000
0010
0000
1000
0000
0100
0000
0010
0000
0001
0000
1000
0001
1000
0001
,
1000
0001
0010
0001
0100
0000
0010
0100
,
0000
0001
0010
0000
0001
0100
0010
1000
,
0001
0100
0000
1000
0100
0000
0001
0010
,
0000
1000
0010
0000
0001
0010
0100
1000
,
0001
0000
0000
0000
0000
0000
0000
0000
0020
0030
0000
0000
0000
0000
0000
0000
0020
0030
0000
0000
0000
0000
0000
0000
1000
0000
0000
0000
0000
0000
0000
0000
0200
0300
0000
0000
0000
0000
0000
0000
0200
0300
0000
0000
0000
0000
0000
0000
0001
0000
0000
0000
0000
0000
0000
0000
0100
0000
0000
0000
0000
0000
0000
0000
,
0001
0010
0001
0000
1000
0010
1000
0000
0001
0100
0010
1000
0100
0010
0001
1000
,
0010
0000
0100
0010
1000
0001
0010
0001
0100
0010
0100
0010
0100
0000
0001
0000
,
1000
0100
0010
0001
1000
0100
0010
0001
1000
0000
1001
0000
0000
0000
0000
0000
,
1000
0100
1000
0100
1000
0000
0001
0100
0001
0100
0001
0000
1000
0100
1000
0100
,
0010
0000
0001
1000
0010
0000
0200
0000
0000
0000
0301
0000
0011
0000
0000
0000
,
0001
0010
0001
0010
0001
0000
1000
0010
1000
0010
1000
0000
0001
0010
0001
0010
,
0100
0000
1000
0000
0001
0000
0010
0001
0100
0000
0010
1000
0010
0000
0100
0000
,
0001
0100
0001
0100
0001
0000
1000
0100
1000
0100
1000
0000
0001
0100
0001
0100
,
0010
0000
1000
0001
0010
0000
0200
0000
0000
0000
1300
0000
1100
0000
0000
0000
,
1000
0100
0010
0000
0001
0000
1000
0100
0010
0000
0001
0000
1000
0100
0010
0000
,
0001
0000
1001
0000
1000
0000
0010
0100
0001
0000
0100
0010
0100
0010
0100
0000
,
0001
0010
0001
0010
0100
0000
1000
0010
1000
0010
0100
0000
0001
1000
0100
1000
,
0001
0000
0010
0100
1000
0000
0010
0000
1000
0000
0100
0000
0110
0000
0000
0000
,
1000
0100
1000
0100
0010
0000
0001
0100
0001
0100
0010
0000
1000
0001
0010
0001
,
0100
0000
0010
0000
1000
0000
0001
0010
0000
0100
0010
0000
0001
0000
0100
0010
,
0100
0000
0010
0000
0100
0000
0010
0000
1000
0000
0010
0000
0100
0000
0001
0010
,
0001
0000
1000
0000
0001
0000
0010
0100
0000
0100
1000
0000
0001
0000
0100
0000
,
0001
0010
0001
0000
1000
0100
1000
0000
0001
0100
0010
1000
0001
0100
0010
1000
,
0100
0000
0000
1001
0000
1010
1000
0001
,
0011
0001
0101
0000
1010
1000
0100
1100
,
0000
0110
0010
0001
0100
0101
0000
0011
,
0101
0001
0100
0010
1010
0000
0001
1000
,
1100
0000
0100
0000
0010
0000
0001
0000
1001
0000
0000
0000
0001
1000
0001
1000
,
0001
0010
0200
0000
2300
3200
0302
0203
,
0000
0000
1300
0000
0010
0000
0100
0000
0001
0010
0100
1000
0001
0100
0001
0100
,
0001
0000
1000
0100
1000
0000
1100
0000
0000
0000
0110
0000
0010
0000
0011
0000
,
0000
0000
0110
0000
0000
0000
0010
0100
0010
0000
0001
0000
1000
0000
1001
0000
,
1010
1000
1100
0000
0011
0001
0100
0101
,
0000
0110
0010
1000
0100
1100
0000
1010
,
1100
1000
0100
0010
0011
0000
1000
0001
,
0101
0000
0100
0000
0010
0000
1000
0000
1001
0000
0000
0000
1000
0001
1000
0001
,
1000
0010
0200
0000
0302
0203
2300
3200
,
0000
0000
0301
0000
0100
0000
0001
0000
0010
0100
1000
0010
0100
0001
1000
0000
,
1100
0000
0001
0100
0001
1000
0100
0000
0010
0000
0001
0000
1000
0000
1010
0000
,
0000
0000
0011
0000
0000
0000
1000
0010
0100
0000
0010
0000
1000
0100
0010
0001
,
2000
0000
0000
3020
,
0000
0000
0230
0000
,
0302
0000
0000
0000
,
2003
0000
3020
0000
,
2030
0000
3200
0000
,
0000
0000
0320
0000
,
0031
0000
0000
1000
0001
0000
0000
1000
,
0001
0000
0010
0000
0100
0000
1000
0000
0001
0000
0010
0000
0100
1000
0100
1000
,
0100
1000
0010
0100
0001
0000
1000
0100
,
0000
0010
1000
0000
0010
0001
0010
0100
,
1000
0100
0000
0001
0100
0000
1000
0010
,
0000
0001
0010
0000
1000
0100
0010
0001
,
1000
0000
0000
0000
0000
0000
0000
0000
0020
0030
0000
0000
0000
0000
0000
0000
0020
0030
0000
0000
0000
0000
0000
0000
0001
0000
0000
0000
0000
0000
0000
0000
0200
0300
0000
0000
0000
0000
0000
0000
0200
0300
0000
0000
0000
0000
0000
0000
1000
0000
0000
0000
0000
0000
0000
0000
0001
0000
0000
0000
0000
0000
0000
0000
,
1000
0100
1000
0000
0001
0100
0001
0000
0100
0010
0100
0001
0010
0001
1000
0010
,
0100
0000
0001
0010
0100
0010
0100
1000
0001
1000
0001
1000
0010
0000
0100
0000
,
0001
0010
0100
1000
0001
0010
0100
1000
0002
0000
0203
0000
0320
0000
2030
0000
,
3001
0010
0001
1000
0001
0000
0100
0010
1000
0010
0100
0000
0001
1000
0001
0000
,
1000
0010
0100
0000
0001
0000
1000
0100
0000
0010
0001
0000
1000
0001
0100
0000
,
0001
0010
0001
0000
1000
0000
0001
0010
0100
1000
0000
0010
0100
0000
0001
0000
,
1000
0010
1000
0100
1000
0000
0100
0000
0110
0000
0010
0000
0001
0000
1000
0000
,
0001
0100
1000
0002
0000
0013
1000
0001
,
1000
0100
0001
2000
0000
3010
0001
1000
,
0001
0010
0100
1000
0100
0010
0001
1000
0010
0000
0010
0000
0100
0000
0100
0000
,
2002
0000
0000
0000
3003
0000
0001
1000
0001
0010
0100
0000
1000
0000
0100
0010
,
0001
1000
0010
1000
0001
0000
1000
0100
0010
0001
0100
0000
0010
1000
0100
0000
,
1000
0001
0010
0001
0100
0000
0001
0010
0000
0100
0010
0000
0001
0100
0010
0000
,
1000
0001
0100
0001
1000
0000
0001
0100
0010
1000
0000
0001
1000
0000
0100
0000
,
1100
0000
0000
0101
0000
0000
1001
0000
0001
1000
0001
0100
0001
1000
0001
0010
,
0001
0100
0010
0002
0000
0013
1000
0001
,
1000
0100
0010
2000
0000
3010
0001
1000
,
0010
1000
0010
1000
0001
0100
0001
0100
0001
0010
0001
0010
0100
1000
0001
0010
,
0200
0000
0000
0000
0000
0000
1300
0001
2000
0000
0000
0000
0000
0000
3001
0000
,
0101
0000
0000
0001
0000
0000
1000
0000
0100
0000
0000
0000
0010
0100
0010
0000
,
0001
0000
0000
1000
0000
0000
0100
0000
1100
0000
0000
1000
0000
0000
0001
0000
,
0010
0000
0000
0001
0000
0000
0100
0000
0110
0000
0000
0010
0000
0000
1000
0100
,
0010
0000
0000
0001
0000
0000
1000
0000
0001
1000
0100
1000
0001
0010
0100
1000
,
0001
0010
0001
0010
0000
0100
0010
0100
0010
0000
0001
0010
0000
0001
0000
1001
,
0000
0000
0001
0000
1000
0010
0100
0001
0000
0010
0001
0010
0000
0001
1000
0100
,
1000
0010
1000
0010
0000
0100
0010
0100
0010
0000
1000
0010
0000
0100
0000
0101
,
0000
0000
0001
0000
0010
0100
0010
0100
0000
1000
0010
1000
0100
0010
0001
1000
,
0010
0100
0001
0010
1000
0010
0002
0000
0000
0000
0000
0000
0000
0000
0000
0000
,
0000
0000
0000
0000
,
0000
0000
0000
0000
,
0000
0000
0000
0000
,
0003
0000
0000
0000
;

//--------------- dance-double - Fred-104 ----------------
#NOTES:
     dance-double:
     Fred-104:
     Easy:
     10:
     :
00000000
00000000
00000000
00000000
,
00000000
00000000
00000000
00000000
,
00000000
00000000
00000000
00000000
,
10000000
01000000
00010000
00001000
,
00000100
00000000
00000000
00000100
00000001
00000000
00000000
00000001
00001000
00000000
00000010
00000000
00000100
00000001
00000100
00000001
,
00000100
00000000
00000001
00000000
00000010
00000000
00000100
00000010
,
00000000
00000001
00000100
00000000
00001000
00000000
00010000
00000000
,
00100000
01000000
00000000
00010000
10000000
00000000
01000000
00100000
,
00000000
00010000
01000000
00000000
00001000
00000000
00010000
00000000
,
00000100
00001000
00000000
00000010
00000100
00000000
00000010
00001000
,
00000000
00000100
00010000
00000000
00001000
00000000
00010000
00000000
,
00011000
00000000
00001000
00000000
,
00100000
00000000
00010000
00000000
01000000
01100000
00000000
00000000
,
10000000
00000000
00000000
00100000
00000000
00000000
01000000
00000000
,
00010000
00000000
00100000
01000000
00000000
00100000
00010000
00000000
,
01000000
00000000
00000000
00001000
00000000
00000000
00010000
00000000
,
00001000
00000000
00000100
00000010
00000000
00001000
00000100
00000000
,
00000010
00000000
00000000
00000001
00000000
00000000
00001000
00000000
,
00000001
00000000
00000010
00000100
00000000
00000010
00001000
00000000
,
00010000
00100000
00000000
01000000
00010000
00000000
01000000
00100000
,
00000000
10000000
01000000
00000000
00100000
00001000
00100000
00000000
,
00001000
00000000
00000000
00010000
00000000
00000000
00001000
00000000
,
00000100
00000000
00000010
00001000
00000000
00000001
00000010
00000000
,
00000001
00000000
00000000
00000100
00000000
00000000
00001000
00000000
,
00010000
00000000
01000000
00000000
10000000
00100000
10000000
00000000
,
00010000
00000000
01000000
00000000
00100000
00000000
01000000
00010000
,
10000000
00000000
01000000
00000000
00100000
00001000
00010000
00000000
,
00000100
00001000
00000001
00000000
00000100
00000010
00000100
00000000
,
00001001
00000000
00000000
00000110
00000000
00000000
00001001
00000000
,
00000001
00000100
00000001
00000000
00000100
00000000
00000010
00001000
,
00000000
00000100
00010000
00000000
00001000
00010000
00000000
00010000
,
00001000
00000000
00100000
00000000
00010000
00000000
10000000
00010000
,
01000000
00100000
10010000
00000000
,
20000000
32000000
03200000
00320000
,
00032000
00003200
00000320
00000032
,
00001003
00000010
00001000
00000010
,
00000100
00000001
00000010
00000000
,
00000001
00000010
00000001
00000000
00000010
00000000
00000100
00001000
,
00000000
00000010
00010000
00000000
00001000
00010000
00000000
00010000
,
00001000
00000000
01000000
00000000
00010000
00000000
10000000
00010000
,
00100000
01000000
10010000
00000000
,
20000000
30200000
02300000
03020000
,
00032000
00003020
00000230
00000302
,
00001003
00000100
00001000
00000100
,
00000010
00000000
00000001
00000000
00000100
00000010
00000100
00000000
,
00000002
00000000
00000000
00000000
,
00002003
00000000
00000000
00000000
,
00003020
00000000
00000000
00000000
,
00020030
00000000
00000000
00000000
,
00032000
00000000
00000000
00000000
,
00203000
00000000
00000000
00000000
,
00310000
00000000
00000000
00010000
10000000
00000000
00000000
10000000
,
01000000
00000000
00100000
00000000
00001000
00010000
00001000
00010000
,
00001000
00000000
00010000
00000000
00000010
00000000
00001000
00000100
,
00000000
00010000
00000100
00000000
00001000
00000000
00000001
00000000
,
00000100
00000010
00000000
00001000
00000010
00000000
00000100
00000010
,
00000000
00001000
00000100
00000000
00010000
00000000
00001000
00000000
,
00100000
00010000
00000000
10000000
00010000
00000000
01000000
00100000
,
00000000
10000000
00100000
00000000
10000000
00000000
01000000
00000000
,
01100000
00000000
00001000
00010000
,
00001000
00010000
00001000
00010000
00001000
00000000
00000000
00000000
,
00010000
00001000
00000010
00000001
,
00001000
00000000
00000100
00000000
00000010
00000001
00001000
00000000
,
00000001
00000000
00000100
00000000
00001000
00010000
00100000
00000000
,
01000000
00010000
10000000
00000000
10010000
00000000
00000000
00000000
,
00010000
00000000
00000000
01000000
00000000
00000000
10000000
00000000
,
01000000
00000000
00000000
00100000
00000000
00000000
10000000
00000000
,
01000000
00000000
00100000
00000000
00001000
00010000
00001000
00000000
,
00011000
00000000
00000000
00000000
00001000
00010000
00000100
00000000
,
00001000
00000100
00000010
00001000
,
00000010
00000000
00000001
00000000
00000100
00001000
00000100
00000000
,
00000001
00000000
00000010
00000000
00000100
00001000
00010000
00000000
,
00100000
01000000
11000000
00000000
,
10100000
00000000
00000000
00100000
00000000
00000000
01000000
00000000
,
00001000
00000000
00000000
00010000
00000000
00000000
00000100
00000000
,
00001000
00000010
00001000
00000000
00000001
00000100
00000001
00000000
,
00001001
00000000
00000110
00000000
,
00000001
00000100
00001000
00000000
,
00010000
00100000
10000000
00000000
,
10000000
01000000
00010000
00000000
,
00001000
00000010
00000001
00001000
,
00000001
00000000
00000100
00000000
00000000
00000000
00000010
00000000
00010000
00000000
00000000
00000100
00000000
00001000
00000000
00000100
,
00000000
00000000
00010000
00000000
00001000
00000000
00000000
00100000
00000000
00000000
00010000
00000000
00000000
01000000
00000000
00000000
,
00010000
00000000
00100000
00000000
00000000
00000000
01000000
00000000
00100000
00000000
00000000
00010000
00000000
10000000
00000000
01000000
,
00000000
00000000
00100000
00000000
00001000
00000000
00000000
00010000
00000000
00000000
00000100
00000000
00000010
00000000
00000001
00000000
,
00001000
00000010
00000100
00000220
00000000
00000000
00000000
00000000
,
00000000
00000000
00000000
00000000
,
00000000
00000000
00000000
00000000
,
00000000
00000000
00000000
00000000
,
00000330
00000000
00000000
00000000
;

//--------------- dance-double - Fred-104 ----------------
#NOTES:
     dance-double:
     Fred-104:
     Medium:
     15:
     :
00000000
00000000
00000000
00000000
,
00000000
00000000
00000000
00000000
,
00000000
00000000
00000000
00000000
,
00000001
00000010
00010000
00100000
,
10000000
00000000
00000000
00000000
00000000
00000000
01000000
00000000
00100000
00000000
00000000
00000000
00000000
00000000
00001000
00000000
00010000
00000000
00000100
00000000
00000010
00000000
00000001
00000000
00001000
00000000
00000010
00000000
00001000
00000001
00001000
00000001
,
00001000
00000001
00000100
00000000
00000010
00000000
00001000
00000100
,
00000000
00000010
00000001
00000000
00001000
00000001
00000100
00000000
,
00000010
00000100
00000000
00001000
00010000
00000000
00100000
01000000
,
00000000
00010000
00100000
00000000
01000000
10000000
00010000
00000000
,
10000000
01000000
00010000
00001000
00000010
00000001
00001000
00000100
,
00000010
00000001
00000100
00001000
00010000
00100000
10000000
00010000
,
01000000
00100000
10000000
01000000
00100000
00001000
00010000
00100000
,
10000000
01000000
00010000
00001000
00000100
00000110
00000000
00000000
,
00000001
00000010
00000001
00000000
00001000
00000000
00000001
00000010
00000001
00000000
00001000
00000000
00000001
00000010
00000001
00000000
,
00000100
00001000
00010000
00100000
10000000
00010000
10000000
00000000
,
01000000
00100000
01000000
00000000
10000000
00000000
01000000
00100000
01000000
00000000
10000000
00000000
01000000
00100000
01000000
00000000
,
10000000
00100000
00010000
00001000
00010000
01000000
10000000
01000000
,
00100000
00010000
00100000
00000000
00001000
00000000
00100000
00010000
00100000
00000000
00001000
00000000
00100000
00010000
00100000
00000000
,
00001000
00010000
00000010
00001000
00000100
00010000
00001000
00000000
,
00010000
01000000
00100000
00010000
01000000
00000000
00100000
00010000
,
00001000
00000100
00000010
00010000
00001000
00100000
00001000
00010000
,
00001000
00010000
00001000
00000000
00010000
00000000
00000010
00001000
00000010
00000000
00010000
00000000
00000100
00001000
00000100
00000000
,
00000010
00000000
00000001
00001000
00000001
00000000
00000010
00000000
00000100
00000000
00000010
00000000
00000001
00000000
00000000
00000000
,
00001000
00000010
00001000
00000000
00000100
00000000
00010000
00001000
00010000
00000000
00001000
00000000
00100000
00010000
00100000
00000000
,
01000000
10000000
00010000
00100000
01000000
00010000
01000000
10000000
,
00010000
10000000
00100000
00010000
00100000
01000000
00100000
10000000
,
01000000
00000000
00100000
00000000
00001000
00000000
00010000
00001000
00000000
00010000
00000010
00000000
00001000
00000000
00000100
00000000
,
00001000
00000010
00000100
00000010
00001000
00000100
00000010
00000001
,
00000101
00000000
00000000
00001100
00000000
00000100
00010000
00001000
,
01000000
00100000
01100000
00000000
00010000
01000000
00100000
10100000
,
00000000
10000000
01000000
00100000
00001000
00011000
00000000
00010000
,
00000100
00001000
00000010
00000100
00000101
00000000
00000001
00000010
,
00001000
00000010
00000001
00000100
00000110
00000000
00000001
00001000
,
00000001
00000010
00000200
00000000
00010300
00001000
00100000
02000000
,
00000000
13000000
01000000
00100000
00001000
00010000
00001000
01000000
,
00001000
00010000
00100000
10000000
00100000
00010000
10000000
01000000
,
00000000
00000000
01010000
00000000
00000000
00000000
00010000
00100000
00010000
00000000
01000000
00000000
00001000
00000000
00010000
00000000
,
00000010
00000100
00000110
00000000
00001000
00000100
00000010
00000011
,
00000000
00000001
00000100
00000010
00010000
00011000
00000000
00001000
,
01000000
00010000
00100000
01000000
11000000
00000000
10000000
00100000
,
00010000
00100000
10000000
01000000
01100000
00000000
10000000
00010000
,
10000000
00100000
02000000
00000000
03001000
00010000
00000010
00000200
,
00000000
00000301
00000100
00000010
00010000
00001000
00010000
00000100
,
00010000
00001000
00000010
00000001
00000010
00001000
00000001
00000100
,
00000000
00000000
00001100
00000000
00000000
00000000
00001000
00000010
00001000
00000000
00000100
00000000
00010000
00000000
00001000
00000000
,
00020000
00000000
00000000
00032000
,
00000000
00000000
00003020
00000000
,
00000032
00000000
00000000
00000000
,
00000203
00000000
00002300
00000000
,
00023000
00000000
00230000
00000000
,
20300000
00000000
30020000
00000000
,
01030000
00000000
00000000
00010000
00100000
00000000
00000000
00001000
,
00010000
00000000
00001000
00000000
00000100
00000000
00000001
00000000
00001000
00000000
00000100
00000000
00000010
00000001
00000010
00000001
,
00000010
00000001
00001000
00000010
00000100
00000000
00000001
00000010
,
00000000
00001000
00010000
00000000
00100000
01000000
00010000
10000000
,
00010000
01000000
00000000
10000000
01000000
00000000
00010000
00100000
,
00000000
10000000
00100000
00000000
00001000
00010000
00000100
00010000
,
00001000
00100000
00010000
01000000
00001000
00010000
00000100
00001000
,
00000010
00000100
00000001
00000010
00000100
00001000
00010000
00100000
,
01000000
10000000
00100000
01000000
00010000
10000000
01000000
00100000
,
00001000
00010000
00001000
00000000
00010000
00000100
00010000
00000000
00000200
00000000
00002300
00000000
00003002
00000000
00002003
00000000
,
00003100
00000010
00000100
00000000
00000010
00000000
00000001
00000100
00000001
00000000
00000100
00000000
00000010
00001000
00000010
00000000
,
00010000
00000000
00001000
00000000
01000000
00000000
00010000
00100000
00000000
00010000
01000000
00000000
00100000
00000000
01000000
00000000
,
00010000
00100000
00010000
00000000
00100000
00000000
00001000
00000000
00010000
00000100
00000000
00000100
00001000
00000000
00000010
00000000
,
00000100
00000001
00000100
00000000
00000010
00000000
00001000
00000000
00001100
00000000
00000000
00000000
00000001
00000000
00001000
00000000
,
00000001
00000010
00001000
00020000
00000000
01030000
10000000
00010000
,
10000000
00100000
00010000
00002000
00000000
00003100
00000001
00001000
,
00000100
00000010
00000100
00000000
00000010
00000001
00000010
00000000
00000001
00000000
00000100
00000000
00001000
00000000
00010000
00000000
,
00011000
00000000
00000000
00000000
00000000
00000000
00001000
00100000
00001000
00000000
00010000
00000000
01000000
00000000
10000000
00000000
,
00010000
00100000
00010000
00000000
00100000
00000000
01000000
10000000
01000000
00000000
00100000
00000000
00010000
01000000
00010000
00000000
,
00100000
00000000
00001000
00000000
00010000
00000000
00001000
00000010
00000000
00000100
00001000
00000000
00000001
00000000
00000100
00000000
,
00000010
00001000
00000010
00000000
00000100
00000000
00000001
00000000
00000010
00000100
00000000
00000100
00010000
00000000
00001000
00000000
,
00011000
00000000
00000000
01001000
00000000
00000000
00011000
00000000
00001000
00000000
00010000
00000000
01000000
00000000
10000000
00000000
,
00010000
10000000
00100000
00020000
00000000
00031000
00000100
00000001
,
00001000
00000001
00000010
00002000
00000000
00013000
01000000
10000000
,
00100000
01000000
00100000
00000000
10000000
01000000
10000000
00000000
01000000
00100000
01000000
00000000
00100000
00001000
00100000
00000000
,
00011000
00000000
00000000
00000000
00000000
00000000
00010000
00001000
00010000
00000000
00000000
00000000
00001000
00000000
00100000
00000000
,
00010000
00000000
00000000
10000000
00000000
00000000
01000000
00000000
01100000
00000000
00000000
00000000
00100000
00000000
00010000
00000000
,
10000000
00000000
00000000
01000000
00000000
00000000
00100000
00000000
00001000
00000000
00000000
00010000
00000000
00000000
00100000
00000000
,
10000000
00000000
00000000
01000000
00000000
00000000
00010000
00000000
00001000
00000000
00000000
00000010
00000000
00000000
00000001
00000000
,
00001000
00000000
00000000
00000001
00000000
00000000
00000100
00000000
00000010
00001000
00000010
00000000
00001000
00000000
00000100
00010000
,
00000100
00000000
00010000
00001000
00000000
00100000
00010000
00000000
01000000
00000000
00100000
10000000
00000000
01000000
00000000
00100000
,
00000000
00000000
00001000
00000000
00010000
00000100
00000000
00001000
00000000
00000010
00000000
00000100
00000000
00000001
00000010
00000000
,
00000001
00000000
00000100
00000010
00000000
00000100
00001000
00000000
00010000
00000000
00100000
01000000
00000000
00010000
00000000
10000000
,
00000000
00000000
00010000
00000000
00100000
01000000
00000000
10000000
00000000
00100000
01000000
00000000
00100000
00000000
00010000
00000000
,
00001000
00000100
00000010
00000000
00001000
00000000
00002002
00000000
00000000
00000000
00000000
00000000
00000000
00000000
00000000
00000000
,
00000000
00000000
00000000
00000000
,
00000000
00000000
00000000
00000000
,
00000000
00000000
00000000
00000000
,
00003003
00000000
00000000
00000000
;

//--------------- dance-double - Fred-104 ----------------
#NOTES:
     dance-double:
     Fred-104:
     Hard:
     17:
     :
00000000
00000000
00000000
00000000
,
00000000
00000000
00000000
00000000
,
00000000
00000000
00000000
00000000
,
00020000
00032000
00003020
00000032
,
00001003
00000000
00000000
00000000
00000000
00000000
00000100
00000000
00000010
00000000
00000000
00000000
00000000
00000000
00000001
00000000
00000100
00000000
00001000
00000000
00010000
00000000
01000000
00000000
00100000
00000000
00010000
00000000
01000000
00100000
01000000
00100000
,
01000000
00010000
10000000
01000000
00100000
00000000
01000000
00010000
,
00000000
00001000
00000010
00000000
00000100
00001000
00000010
00001000
,
00000001
00000100
00001000
00010000
00100000
10000000
01000000
00010000
,
00001000
00000010
00000001
00001000
00000001
00000100
00000010
00001000
,
00000100
00000000
00000000
00000000
00000000
00000000
00000000
00000000
00020000
00030000
00000000
00000000
00000000
00000000
00000000
00000000
00020000
00030000
00000000
00000000
00000000
00000000
00000000
00000000
01000000
00000000
00000000
00000000
00000000
00000000
00000000
00000000
00002000
00003000
00000000
00000000
00000000
00000000
00000000
00000000
00002000
00003000
00000000
00000000
00000000
00000000
00000000
00000000
00000100
00000000
00000000
00000000
00000000
00000000
00000000
00000000
00010000
00000000
00000000
00000000
00000000
00000000
00000000
00000000
,
00001000
00010000
00001000
00000000
00100000
00010000
10000000
00000000
00010000
01000000
00010000
01000000
00100000
10000000
00100000
10000000
,
00010000
00000000
00100000
00010000
00100000
00000000
00010000
10000000
00100000
01000000
00100000
01000000
00010000
00000000
00100000
00000000
,
00001000
00010000
00000100
00000000
00001000
00000001
00000100
00000000
00000001
00000000
00001001
00000000
00000000
00000000
00000000
00000000
,
00000001
00000100
00000001
00000100
00000001
00000000
00001000
00000100
00001000
00000100
00001000
00000000
00000001
00000100
00000001
00000100
,
00000010
00000000
00001000
00000001
00000010
00000000
00000200
00000000
00000000
00000000
00010300
00000000
00011000
00000000
00000000
00000000
,
00001000
00100000
00001000
00100000
00001000
00000000
00010000
00000010
00010000
00000010
00010000
00000000
00001000
00010000
00001000
00010000
,
00001000
00000000
00100000
00000000
00010000
00000000
01000000
00100000
01000000
00000000
00010000
00100000
00010000
00000000
10000000
00000000
,
00010000
01000000
00010000
01000000
00010000
00000000
00100000
00001000
00100000
00001000
00100000
00000000
00001000
00010000
00001000
00010000
,
00001000
00000000
00010000
00000100
00001000
00000000
00000200
00000000
00000000
00000000
00000310
00000000
00000011
00000000
00000000
00000000
,
00000001
00000100
00000010
00000000
00001000
00000000
00000001
00000100
00000010
00000000
00001000
00000000
00000001
00000100
00000010
00000000
,
00001000
00000000
00001100
00000000
00000100
00000000
00010000
00001000
00010000
00000000
00000010
00000000
00010000
00001000
00010000
00000000
,
00001000
00100000
00001000
00100000
00010000
00000000
01000000
00010000
01000000
00010000
00100000
00000000
01000000
10000000
00010000
10000000
,
00100000
00000000
10000000
00100000
01000000
00000000
00100000
00000000
00010000
00000000
00001000
00000000
00000100
00000000
00000010
00000000
,
00001000
00000001
00000010
00000001
00000010
00000000
00000001
00001000
00000100
00001000
00000100
00000000
00000010
00000001
00001000
00000010
,
00001000
00000000
00000001
00000000
00000010
00000000
00000100
00001000
00000000
00000100
00010000
00000000
00001000
00000000
01000000
00000000
,
00010000
00000000
00000100
00000000
00001000
00000000
00010000
00000000
00000100
00000000
00001000
00000000
00000010
00000000
00001000
00000001
,
00000100
00000000
00000001
00000000
00000010
00000000
00000100
00000010
00000000
00000010
00000001
00000000
00001000
00000000
00000010
00000000
,
00001000
00000010
00001000
00000000
00000100
00010000
00000100
00000000
00010000
00001000
00100000
00010000
01000000
00001000
00010000
00001000
,
00100000
00000000
00000000
00101000
00000000
00011000
00010000
00000100
,
00001100
00001000
00000001
00000000
00000101
00000001
00000010
00000011
,
00000000
00000101
00000100
00000010
00010000
00011000
00000000
00101000
,
00001000
00010000
00001000
01000000
01001000
00000000
00110000
00010000
,
10000000
00000000
01000000
00000000
00100000
00000000
01000000
00000000
11000000
00000000
00000000
00000000
10000000
00010000
10000000
00010000
,
10000000
01000000
00020000
00000000
00032000
00003020
00000230
00002300
,
00000000
00000000
00003001
00000000
00000010
00000000
00000100
00000000
00001000
00000100
00001000
00000010
00000100
00000001
00000100
00000001
,
00000010
00000000
00000001
00000100
00001000
00000000
00011000
00000000
00000000
00000000
01010000
00000000
00000000
00000000
01100000
00000000
,
00000000
00000000
10100000
00000000
00000000
00000000
10000000
01000000
00100000
00000000
00010000
00000000
10000000
00000000
00010000
00000000
,
01010000
00010000
10000000
00000000
11000000
10000000
00100000
10100000
,
00000000
11000000
01000000
00100000
00001000
00011000
00000000
00010010
,
00010000
00001000
00010000
00000100
00010100
00000000
00001010
00001000
,
00000001
00000000
00000100
00000000
00000010
00000000
00000100
00000000
00000101
00000000
00000000
00000000
00000001
00001000
00000001
00001000
,
00000001
00000100
00002000
00000000
00023000
00230000
02300000
03020000
,
00000000
00000000
10030000
00000000
00100000
00000000
01000000
00000000
00010000
01000000
00010000
00100000
01000000
10000000
01000000
10000000
,
00100000
00000000
10000000
01000000
00010000
00000000
00001000
00000000
00000100
00000000
00000010
00000000
00001000
00000000
00001001
00000000
,
00000000
00000000
00000011
00000000
00000000
00000000
00000001
00000100
00000010
00000000
00001000
00000000
00000001
00000010
00000100
00010000
,
00002000
00000000
00000000
00203000
,
00000000
00000000
00320000
00000000
,
20030000
00000000
00000000
00000000
,
32000000
00000000
03200000
00000000
,
00302000
00000000
00023000
00000000
,
00030020
00000000
00002030
00000000
,
00003100
00000000
00000000
00000010
00000100
00000000
00000000
00001000
,
00000001
00000000
00000010
00000000
00000100
00000000
00010000
00000000
00001000
00000000
00100000
00000000
01000000
10000000
01000000
10000000
,
00010000
00100000
01000000
00100000
10000000
00100000
00010000
10000000
,
00100000
00010000
00001000
00000100
00000010
00001000
00000100
00000010
,
00000001
00000100
00001000
00010000
00100000
10000000
01000000
00010000
,
00001000
00000010
00000001
00000100
00001000
00010000
00000100
00001000
,
00000010
00000000
00000000
00000000
00000000
00000000
00000000
00000000
00020000
00030000
00000000
00000000
00000000
00000000
00000000
00000000
00020000
00030000
00000000
00000000
00000000
00000000
00000000
00000000
00100000
00000000
00000000
00000000
00000000
00000000
00000000
00000000
00002000
00003000
00000000
00000000
00000000
00000000
00000000
00000000
00002000
00003000
00000000
00000000
00000000
00000000
00000000
00000000
00000010
00000000
00000000
00000000
00000000
00000000
00000000
00000000
00010000
00000000
00000000
00000000
00000000
00000000
00000000
00000000
,
00001000
00100000
00001000
00000000
00100000
00010000
01000000
00000000
00100000
10000000
01000000
00100000
00010000
00100000
00001000
00010000
,
00001000
00000000
00010000
00000100
00001000
00000000
00000010
00000100
00000001
00000100
00000001
00000100
00000010
00000000
00001000
00000000
,
00000001
00000010
00000100
00001000
00000001
00000010
00000100
00001000
00000020
00000000
00020030
00000000
00032000
00000000
00023000
00000000
,
00031000
00100000
00010000
00000000
01000000
00000000
00100000
10000000
00010000
00000000
10000000
00000000
00010000
00100000
01000000
00000000
,
00100000
00010000
10000000
00000000
00100000
00000000
01000000
00100000
00000000
10000000
00100000
00000000
01000000
00000000
00100000
00000000
,
00010000
00001000
00000100
00000010
00001000
00000000
00000100
00000010
00000001
00001000
00000000
00000100
00000010
00000000
00000001
00000000
,
00001000
00000001
00000100
00000001
00000100
00000000
00001000
00000000
00011000
00000000
00010000
00000000
01000000
00000000
10000000
00000000
,
00010000
10000000
00100000
00020000
00000000
00031000
00010000
00100000
,
10000000
01000000
00010000
00002000
00000000
00013000
01000000
10000000
,
00010000
10000000
00010000
10000000
01000000
00100000
01000000
00100000
00001000
00000000
00010000
00000000
00000100
00000000
00001000
00000000
,
00002200
00000000
00000000
00000000
00003300
00000000
00000100
00010000
00001000
00010000
01000000
00000000
00100000
00000000
00010000
10000000
,
01000000
10000000
00100000
10000000
01000000
00000000
00100000
00010000
01000000
00001000
00010000
00000000
00001000
00000010
00000100
00000000
,
00001000
00000000
00000010
00000100
00000001
00000000
00001000
00000100
00000000
00000010
00000100
00000000
00001000
00000000
00000010
00000000
,
00010000
00001000
01000000
00010000
00100000
00000000
00001000
00010000
00000100
00001000
00000000
00000100
00000010
00000000
00000001
00000000
,
00000011
00000000
00000000
00001010
00000000
00000000
00011000
00000000
00001000
00100000
00010000
01000000
00001000
00010000
00000100
00001000
,
00000010
00000100
00001000
00020000
00000000
00030100
00010000
00001000
,
01000000
00100000
00010000
00002000
00000000
00103000
00010000
01000000
,
00010000
00100000
00010000
00100000
01000000
10000000
01000000
10000000
00010000
00100000
01000000
10000000
01000000
00100000
00010000
01000000
,
00002000
00000000
00000000
00000000
00000000
00000000
00013000
00001000
00020000
00000000
00000000
00000000
00000000
00000000
00030100
00000000
,
00001100
00000000
00000000
00001000
00000000
00000000
00000001
00000000
00001000
00000000
00000000
00000000
00000010
00010000
00000010
00000000
,
00010000
00000000
00000000
00001000
00000000
00000000
00100000
00000000
00110000
00000000
00000000
00010000
00000000
00000000
01000000
00000000
,
00100000
00000000
00000000
10000000
00000000
00000000
01000000
00010000
00001000
00000000
00000000
00010000
00000000
00000000
01000000
10000000
,
00010000
00000000
00000000
10000000
00000000
00000000
01000000
00000000
00100000
00001000
00100000
00001000
00010000
00000000
00001000
00000010
,
00000001
00001000
00000001
00000100
00000000
00000010
00001000
00000010
00001000
00000000
00000100
00010000
00000000
00001000
00000000
00011000
,
00000000
00000000
00001000
00000000
00100000
00010000
10000000
00010000
00000000
01000000
00100000
01000000
00000000
00010000
10000000
01000000
,
00100000
01000000
00100000
00010000
00000000
00100000
00001000
00010000
00001000
00000000
00010000
00000100
00000000
00001000
00000000
00001001
,
00000000
00000000
00001000
00000000
00000001
00000100
00000001
00000100
00000000
00000010
00001000
00000010
00001000
00000100
00010000
00001000
,
00100000
00010000
10000000
00100000
01000000
00010000
00200000
00000000
00000000
00000000
00000000
00000000
00000000
00000000
00000000
00000000
,
00000000
00000000
00000000
00000000
,
00000000
00000000
00000000
00000000
,
00000000
00000000
00000000
00000000
,
00300000
00000000
00000000
00000000
;
