#TITLE:Eclipse Zero;
#ARTIST:tūmahaB;
#ARTISTTRANSLIT:tumahaB;
#BANNER:Eclipse Zero.png;
#BACKGROUND:Eclipse Zero-bg.png;
#CDTITLE:./CDTitles/RB groovin'!! Upper.png;
#MUSIC:Eclipse Zero.ogg;
#SAMPLESTART:88.641;
#SAMPLELENGTH:15;
#BPMS:0=199,72=99.5,73=199,74=398,80=796,85=398,85.5=199,86=99.5,101.5=199,134=398,146=796,151=398,151.5=199,183=398,183.5=199,183.75=99.5,184=199,215=398,215.5=199,215.75=99.5,216=199,230.75=99.5,230.875=49.75,231=199,246=398,246.5=199,246.75=99.5,247=199,280=398,298=796,299=398,299.5=199,331=398,331.5=199,331.75=99.5,332=199,363=398,363.5=199,363.75=99.5,364=199;
#STOPS:101.5=0.151,223=0.15,279=0.905,296=0.603;
#TIMESIGNATURES:0=4=4,80=6=4,86=4=4,146=6=4,152=4=4,220=3=4,223=4=4,279=1=4,280=4=4;
#BGSTAGE:27;

//--------------- dance-single - 401-derF ----------------
#NOTES:
     dance-single:
     401-derF:
     Beginner:
     9:
     :
0000
0000
0000
0000
,
0000
0000
0000
0000
,
0000
0000
0000
0000
,
0000
0000
0000
0000
,
0000
0000
0000
0000
,
0000
0000
0000
0000
,
1000
0000
0000
1000
0000
0000
0001
0000
,
0000
0001
0000
0000
1000
0000
0001
0000
,
0100
0000
0000
0100
0000
0000
0010
0000
,
0000
0010
0000
0000
0100
0000
0001
0000
,
1001
0000
0100
0000
,
0001
0000
0010
0000
,
1000
0000
0100
0000
,
0001
0000
0010
0000
,
1001
0000
0000
0100
0000
0000
1000
0000
,
1001
0000
0000
0001
0000
0000
0100
0000
,
0001
0000
0000
0010
0000
0000
0100
0000
,
0000
1000
0000
0000
0001
0000
1000
0000
,
2002
0000
0000
0000
,
0000
0000
0000
0000
,
0000
0000
0000
0000
,
3003
0000
2000
0000
,
0000
0000
3200
0000
,
0000
0000
0320
0000
,
0000
0000
0032
0000
,
0000
0000
0000
0003
1000
0000
1000
0000
,
1000
0000
0001
0100
0001
0000
0001
0000
,
0001
0000
0010
0100
0010
0000
0010
0000
,
0010
0000
0100
1000
0100
0000
0100
0000
,
1001
0000
0001
0001
,
0010
0010
0100
0100
,
1000
0000
1000
0000
0001
0100
0001
0000
,
1000
0010
1000
0000
0001
0000
0000
1000
,
0000
0001
2002
0000
,
0000
0000
0000
0000
,
0000
0000
0000
0000
,
0000
0000
0000
0000
,
0000
0000
3003
0000
,
1000
0000
0010
0000
,
1000
0100
0100
0010
,
0100
0000
0000
1000
0000
0000
0001
0000
,
0000
0100
0000
0000
0001
0000
0001
0000
,
0010
0000
0001
0000
,
1000
0001
0001
0010
,
0100
0000
0010
0000
0001
0000
0000
1000
,
0000
0001
0000
1001
,
1000
0000
0100
0000
,
1000
0100
0001
0000
,
0001
0000
0000
0100
0000
0000
1000
0000
,
0000
0010
0000
0000
1000
0000
0001
0000
,
1000
0000
0010
0000
,
1000
0010
0001
0000
,
0001
0000
0000
0010
0000
0000
1000
0000
,
0000
0001
0000
0000
1000
0000
1001
0000
,
1000
0000
0000
1010
0000
0000
0001
0000
,
0000
0101
0000
0000
1000
0000
0001
0001
,
0000
0000
0011
0000
0000
1000
0000
0000
,
1100
0000
0000
0001
0000
0002
1003
0000
,
1000
0010
0010
0100
,
0100
0000
0001
0000
0001
0000
1000
0100
,
1000
0000
0001
0010
0001
0000
2002
0000
,
0000
0000
3003
1000
,
1000
0000
1000
0000
0010
0100
0010
0000
,
0010
0000
0010
0000
0100
0001
0100
0000
,
0100
0000
0100
0000
0001
1000
0001
0000
,
0001
0000
1000
0010
1000
0000
0001
0000
,
0001
0010
0010
0100
,
0100
0000
1000
0000
1000
0000
0001
0100
,
0001
0000
1000
0010
1000
0000
0001
0000
,
0000
1000
0000
0000
0001
0000
1001
0000
,
2002
0000
0000
0000
,
0000
0000
0000
0000
,
0000
0000
0000
0000
,
0000
0000
0000
0000
,
3003
0000
0000
0000
,
1000
0000
0010
0000
,
1000
0100
0001
0100
,
1000
0000
0001
0000
,
0100
0001
0010
0001
,
0100
0000
0001
0000
,
1000
0010
0001
0010
,
1000
0000
0000
0000
0001
0000
1000
1000
,
0000
0001
0001
0000
0000
0000
1001
0000
,
1000
0000
0000
0010
0000
0000
1000
0000
,
0000
0100
0000
0000
1000
0000
0010
0000
,
0100
0000
0000
0001
0000
0000
0010
0000
,
0000
0001
0000
0000
0100
0000
0010
0000
,
0100
0100
0001
0001
,
0010
0001
1000
0010
,
1000
0000
1000
0000
0001
0000
0100
0100
,
0000
0010
0010
0000
0100
0000
0110
0000
,
1001
0000
0000
0000
,
0000
0000
0000
1001
,
0001
0001
0100
0001
,
0010
0000
0100
0000
0100
1000
0100
0000
,
1000
0010
1000
0100
,
0010
0001
0100
0001
,
1000
0100
1000
0000
0001
0010
0001
0000
,
1000
0000
0001
0000
0100
0010
1000
0000
,
2002
0000
0000
0000
,
3003
0000
0000
0000
;

//--------------- dance-single - 401-derF ----------------
#NOTES:
     dance-single:
     401-derF:
     Easy:
     13:
     :
0000
0000
0000
0000
,
0000
0000
0000
0000
,
0000
0000
0000
0000
,
0000
0000
0000
0000
,
0000
0000
0000
0000
,
0000
0000
0000
0000
,
0001
0000
0000
0010
0000
0000
0001
0000
,
0100
0100
0010
0100
,
0001
0000
0000
0010
0000
0000
0100
0000
,
1000
0001
0100
0010
,
0110
0100
0001
0001
,
1000
1000
0010
0010
,
1000
1000
0001
0001
,
0100
0100
0010
0010
,
1001
0000
0000
0100
0000
0000
1000
0000
,
0001
0000
0000
0010
0000
0000
0001
0000
,
0100
0100
0000
0010
0010
0000
0100
0100
,
0001
0010
0001
0000
1000
0100
1000
0000
,
2002
0000
0000
0000
,
0000
0000
0000
0000
,
0000
0000
0000
0000
,
3003
0000
0000
0000
0000
0000
0000
0000
1000
0000
0000
0010
0000
0000
0001
0000
,
0000
0100
0000
0000
1000
0000
0001
0000
1000
0000
0000
0100
0000
0000
0001
0000
,
0000
0010
0000
0000
1000
0000
0001
0000
1000
0000
0000
0010
0000
0000
0100
0000
,
0010
1000
0010
0000
0100
0000
0001
0000
0010
0000
0000
0001
0000
0000
1000
0000
,
0000
0001
0000
0000
0100
0000
0110
0000
1000
0000
0000
0000
1000
0000
0000
0000
,
1001
0000
0001
0100
0010
0000
0010
0000
,
0110
0000
0010
1000
0100
0000
0100
0000
,
1100
0000
1000
0100
0010
0000
0011
0000
,
0001
1000
0001
0000
1001
0000
1000
0000
,
0100
0001
0010
0001
,
0100
0000
1000
0000
0001
0100
0001
0000
,
1000
0100
1000
0000
0001
0010
0000
0010
,
0100
0000
2000
3000
2002
0000
0000
0000
,
0000
0000
0000
0000
,
0000
0000
0000
0000
,
0000
0000
0000
0000
,
0000
0000
3003
0000
,
1000
0001
1000
0100
,
1000
0010
0100
0000
0010
1000
0001
0000
,
0010
0000
0000
0011
0000
0000
0100
0000
,
0000
1100
0000
0000
1000
0000
0001
0000
,
0100
0001
0010
0001
,
0100
0010
0100
0000
0001
1000
0001
0000
,
0100
0000
0100
0000
0010
0000
1000
1000
,
0000
0001
0001
0000
0000
0000
1001
0000
,
0001
0010
0100
1000
,
0001
0100
0010
1000
,
0001
0000
0001
0010
0000
0010
0100
0000
,
0100
1000
0100
0000
1000
0010
0100
0000
,
0001
0000
0010
0001
0000
1000
0001
0000
,
0100
0010
0100
0000
0001
0000
0010
0000
,
0001
0000
1000
0000
0001
0000
0100
0100
,
0000
0010
0010
0000
0000
0000
1001
0000
,
1100
0000
0000
1001
0000
0000
0101
0000
,
0000
0000
1001
0000
0000
0000
0000
0000
1010
0000
0000
0000
2002
3003
0011
0000
,
0000
0000
1001
0000
0000
1010
0000
0000
,
1001
0000
0000
0000
0000
0000
0101
0000
0000
0000
2002
3003
1000
0000
0010
0000
,
0000
1000
0100
0000
0010
0001
0000
1000
,
0001
0000
0100
0010
0100
0000
0001
0010
,
0001
0000
1000
0010
1000
0000
0001
0000
,
0100
0000
0010
0000
0100
0000
0000
0000
2002
0000
0000
3003
0001
0000
0000
0000
,
0001
0000
1001
0000
1000
0100
0010
0000
,
0010
0000
0110
0000
0010
0001
0100
0000
,
0100
0000
0101
0000
0001
0100
0010
0000
,
1010
0000
1000
0001
1000
0000
0001
0000
,
0100
1000
0010
1000
,
0100
0000
0001
0000
0010
0000
0001
0100
,
0001
0000
1000
0100
1000
0000
0001
0010
,
0001
1000
0010
1000
0002
0003
1001
0000
,
2002
0000
0000
0000
,
0000
0000
0000
0000
,
0000
0000
0000
0000
,
0000
0000
0000
0000
,
3003
0000
0000
0000
,
0001
1000
0001
0100
,
0001
0010
0100
0000
0010
0001
1000
0000
,
0010
0000
0000
1010
0000
0000
0100
0000
,
0000
0101
0000
0000
0001
0000
1000
0000
,
0100
1000
0010
1000
,
0100
0010
0100
0000
1000
0001
1000
0000
,
0100
0000
0100
0000
0010
0000
0001
0001
,
0000
1000
1000
0000
0001
0000
1001
0000
,
1000
0010
0100
0001
,
1000
0100
0010
0001
,
1000
0000
1000
0010
0000
0010
0100
0000
,
0100
0001
0100
0000
0001
0010
0100
0000
,
1000
0000
0010
1000
0000
0001
1000
0000
,
0100
0010
0100
0000
1000
1000
0010
0000
,
1000
0000
0001
0000
1000
0000
0100
0100
,
0000
0000
0010
0000
0010
0000
0000
0000
0001
0000
0100
0000
0220
0000
0000
0330
,
1001
0000
0000
0000
,
0000
0000
0000
0110
,
0001
0010
0000
0001
0100
0000
0010
1000
,
0000
0001
1000
0000
0100
0010
0001
0000
,
1000
0010
1000
0010
1000
0010
0100
0000
,
0001
0010
0001
1000
0100
1000
0001
0000
,
0100
0001
0010
0001
1000
0001
0100
0000
,
0001
1000
0001
1000
0100
0010
0100
0000
,
2002
0000
0000
0000
,
3003
0000
0000
0000
;

//--------------- dance-single - 401-derF ----------------
#NOTES:
     dance-single:
     401-derF:
     Medium:
     15:
     :
0000
0000
0000
0000
,
0000
0000
0000
0000
,
0000
0000
0000
0000
,
0000
0000
0000
0000
,
0000
0000
0000
0000
,
0000
0000
0000
0000
,
1000
0000
0010
0100
0000
0010
1000
0000
,
0100
0010
0001
0000
0010
0001
1000
0000
,
0001
0000
0010
0100
0000
0010
0001
0000
,
1000
0100
0010
0001
0010
0100
1000
0000
,
0101
0100
0001
0100
0010
1000
0010
1000
,
0100
0010
0100
0010
0001
1000
0001
0000
,
1000
0100
1000
0100
0010
0001
0010
0001
,
0100
0010
0100
0010
0100
0001
1000
0000
,
0011
0010
0100
1000
0010
0100
0001
0000
,
1000
0010
0100
0001
0010
0100
1000
0000
,
0001
0000
0000
0000
0000
0000
0000
0000
0200
0300
0000
0000
0000
0000
0000
0000
0200
0300
0000
0000
0000
0000
0000
0000
1000
0000
0000
0000
0000
0000
0000
0000
0200
0300
0000
0000
0000
0000
0000
0000
0200
0300
0000
0000
0000
0000
0000
0000
0001
0000
0000
0000
0000
0000
0000
0000
0010
0000
0000
0000
0000
0000
0000
0000
,
0001
0000
0000
0000
0000
0000
0000
0000
0020
0030
0000
0000
0000
0000
0000
0000
0020
0030
0000
0000
0000
0000
0000
0000
1000
0000
0000
0000
0000
0000
0000
0000
0020
0030
0000
0000
0000
0000
0000
0000
0020
0030
0000
0000
0000
0000
0000
0000
0001
0000
0000
0000
0000
0000
0000
0000
1000
0000
0000
0000
0000
0000
0000
0000
,
2002
0000
0000
0000
,
0000
0000
0000
0000
,
0000
0000
0000
0000
,
3003
0000
0000
0000
0000
0000
0000
0000
1000
0100
0010
0000
0100
0010
0001
0000
,
0010
0001
1000
0000
0001
1000
0010
0000
0100
0001
0010
0001
0100
0001
0010
0001
,
0100
0010
1000
0010
0100
0010
1000
0000
0001
0010
0100
0000
0010
0001
0100
0000
,
0010
1000
0100
0000
1000
0010
0100
0000
0010
1000
0100
0010
0001
0100
0010
1000
,
0100
0010
0001
0000
1000
0001
1001
0000
1100
0000
0000
0000
1100
0000
0000
0000
,
1100
0000
0100
0010
0001
0000
0011
0000
,
0011
0000
0000
0001
0100
0000
0010
0000
0100
0000
0000
0000
0110
0000
0000
0000
,
0110
0000
0010
1000
0001
0000
1001
0000
,
1000
0001
0100
0001
0010
0100
1000
0010
,
0100
0001
0010
0001
1000
0001
0100
0010
,
1000
0010
0100
0001
1000
1000
0100
0100
,
0010
0000
0010
0000
0001
0000
0001
0000
1000
0010
1000
0000
0001
0000
0100
0010
,
0100
0000
0001
0000
1000
0001
1000
0001
2000
0000
0000
0000
0000
0000
0000
0000
,
0000
0000
0000
0000
,
0000
0000
0000
0000
,
0000
0000
0000
0000
,
0000
0000
3000
0000
,
0001
0000
0000
0011
0000
0000
1000
0000
0000
1100
0000
0000
0001
0000
0100
0000
,
0010
1000
0000
0010
0100
0000
0001
0000
1000
0000
0000
0100
0000
0000
0010
0000
,
0001
0000
0000
0000
0000
0000
0000
0000
0020
0030
0000
0000
0000
0000
0000
0000
0020
0030
0000
0000
0000
0000
0000
0000
1000
0000
0000
0000
0000
0000
0000
0000
0200
0300
0000
0000
0000
0000
0000
0000
0200
0300
0000
0000
0000
0000
0000
0000
0001
0000
0000
0000
0000
0000
0000
0000
1000
0000
0000
0000
0000
0000
0000
0000
,
0100
0000
0010
0100
0010
0000
0100
0000
1000
0000
0010
0000
0200
0000
0000
0000
,
0301
0000
0000
0101
0000
0000
1000
0000
0000
1010
0000
0000
0001
0000
0100
0000
,
0001
0010
0000
0100
0010
0000
0001
0000
1000
0000
0010
0000
0100
0000
0001
0000
,
1000
0000
0000
0000
0000
0000
0000
0000
0020
0030
0000
0000
0000
0000
0000
0000
0020
0030
0000
0000
0000
0000
0000
0000
0001
0000
0000
0000
0000
0000
0000
0000
0200
0300
0000
0000
0000
0000
0000
0000
0200
0300
0000
0000
0000
0000
0000
0000
1000
0000
0000
0000
0000
0000
0000
0000
1001
0000
0000
0000
0000
0000
0000
0000
,
0000
0001
0101
0000
1000
0100
0020
0000
,
0031
0010
0001
1000
0001
0100
0001
0010
,
0100
1000
0010
0100
0001
0100
0020
0000
,
1030
0100
0001
1000
0010
0001
1000
0100
,
0001
1000
0010
0001
1000
0100
0020
0000
,
0031
0100
0001
0010
0000
0100
1000
0001
,
0100
0010
1000
0000
0100
0010
0001
0000
,
1000
0000
0000
0000
0000
0000
0000
0000
0200
0300
0000
0000
0000
0000
0000
0000
0200
0300
0000
0000
0000
0000
0000
0000
0001
0000
0000
0000
0000
0000
0000
0000
0020
0030
0000
0000
0000
0000
0000
0000
0020
0030
0000
0000
0000
0000
0000
0000
1000
0000
0000
0000
0000
0000
0000
0000
0001
0000
0000
0000
0000
0000
0000
0000
,
0000
0000
0010
0000
0110
0000
0000
0000
1000
0000
0001
1000
0002
0000
0000
0003
,
1001
0000
1000
1100
0000
0001
0011
0000
,
1000
0000
0000
0000
0000
0000
0000
0000
1010
0000
0000
0000
0000
0000
0000
0000
0000
0000
0000
0000
0000
0000
0000
0000
0001
0000
0000
0000
0000
0000
0000
0000
0101
0000
0000
0000
0000
0000
0000
0000
0000
0000
0000
0000
0000
0000
0000
0000
2002
3003
0000
0000
0000
0000
0000
0000
1000
0000
0000
0000
0000
0000
0000
0000
,
0000
0001
0101
0000
1000
1100
0000
0001
,
0011
0000
1000
0010
0100
0002
1003
0100
,
0010
0001
0100
0010
0100
0001
0010
0001
,
1000
0001
0100
0010
1000
0100
1000
1000
,
0001
0001
0100
0100
0010
0010
1000
0000
,
0100
1000
0100
1000
0100
0000
0010
0000
0002
0000
0000
0003
0101
0000
0000
0000
,
0101
0000
0101
0000
0100
0010
1000
0000
,
1010
0000
0000
0000
1010
0000
0000
1000
0100
0000
0010
0000
0100
0000
0000
0000
,
0110
0000
0110
0000
0010
0001
1000
0000
,
1001
0000
0001
1000
0100
1000
0010
0100
,
0001
0010
0100
1000
0010
1000
0001
1000
,
0100
0010
0001
0010
0100
1000
0001
0001
,
0100
0000
0100
0000
0010
0000
0010
0000
1000
0000
1000
0000
0001
0010
0001
0000
,
1000
0000
0100
0010
0100
0000
1000
0000
0001
1000
0001
1000
0001
0000
0000
0000
,
2002
0000
0000
0000
,
0000
0000
0000
0000
,
0000
0000
0000
0000
,
0000
0000
0000
0000
,
3003
0000
0000
0000
,
1000
0000
0000
1010
0000
0000
0001
0000
0000
0101
0000
0000
1000
0000
0100
0000
,
0010
0001
0000
0010
0100
0000
1000
0000
0001
0000
0000
0100
0000
0000
0010
0000
,
1000
0000
0000
0000
0000
0000
0000
0000
0020
0030
0000
0000
0000
0000
0000
0000
0020
0030
0000
0000
0000
0000
0000
0000
0001
0000
0000
0000
0000
0000
0000
0000
0200
0300
0000
0000
0000
0000
0000
0000
0200
0300
0000
0000
0000
0000
0000
0000
1000
0000
0000
0000
0000
0000
0000
0000
0001
0000
0000
0000
0000
0000
0000
0000
,
0100
0000
0010
0100
0010
0000
0100
0000
0001
0000
0010
0000
0100
0000
0000
0000
,
1000
0000
0000
1100
0000
0000
0001
0000
0000
0011
0000
0000
1000
0000
0100
0000
,
1000
0010
0000
0100
0010
0000
1000
0000
0001
0000
0010
0000
0100
0000
1000
0000
,
0001
0000
0000
0000
0000
0000
0000
0000
0020
0030
0000
0000
0000
0000
0000
0000
0020
0030
0000
0000
0000
0000
0000
0000
1000
0000
0000
0000
0000
0000
0000
0000
0200
0300
0000
0000
0000
0000
0000
0000
0200
0300
0000
0000
0000
0000
0000
0000
0001
0000
0000
0000
0000
0000
0000
0000
1001
0000
0000
0000
0000
0000
0000
0000
,
0000
1000
1100
0000
0001
0100
0020
0000
,
1030
0001
0010
0100
0001
0100
1000
0001
,
1000
0010
0001
0010
0100
0010
1000
0000
,
0001
0010
1000
0001
0100
1000
0001
0010
,
1000
0001
0100
1000
0001
0010
0100
1000
,
0010
0100
1000
0100
0010
0001
0010
0100
,
0001
0010
0100
1000
0001
0100
0010
1000
,
0100
0000
0010
0000
0001
0000
1000
0000
0001
0100
0001
0000
0010
0000
0110
0000
,
0000
0000
1000
0000
1100
0000
0000
0000
0101
0000
0000
0000
0220
0000
0000
0330
,
1001
0000
0000
0000
,
0000
0000
0000
0000
0000
0000
0000
0000
0000
0000
0100
0010
0100
0000
0000
0000
,
0001
0000
0000
0000
0000
0000
0000
0000
0020
0030
0000
0000
0000
0000
0000
0000
0020
0030
0000
0000
0000
0000
0000
0000
1000
0000
0000
0000
0000
0000
0000
0000
0020
0030
0000
0000
0000
0000
0000
0000
0020
0030
0000
0000
0000
0000
0000
0000
0001
0000
0000
0000
0000
0000
0000
0000
0200
0300
0000
0000
0000
0000
0000
0000
,
0200
0300
0000
0000
0000
0000
0000
0000
1000
0000
0000
0000
0000
0000
0000
0000
0200
0300
0000
0000
0000
0000
0000
0000
0200
0300
0000
0000
0000
0000
0000
0000
0001
0000
0000
0000
0000
0000
0000
0000
0010
0000
0000
0000
0000
0000
0000
0000
0100
0000
0000
0000
0000
0000
0000
0000
0000
0000
0000
0000
0000
0000
0000
0000
,
1000
0000
0001
0000
0010
0000
1000
0000
0010
0000
0100
0000
1000
0001
1000
0001
,
1000
0000
0100
0000
0001
0000
0100
0000
0010
0000
0001
0000
0010
0001
0010
0001
,
1000
0000
0010
0000
0100
0000
0001
0000
0010
0000
0100
1000
0100
0000
1000
0000
,
0001
0100
0001
0100
0010
0000
1000
0000
0100
0000
0010
0000
0110
0000
0000
0000
,
2002
0000
0000
0000
,
3003
0000
0000
0000
;

//--------------- dance-single - 401-derF ----------------
#NOTES:
     dance-single:
     401-derF:
     Hard:
     18:
     :
0000
0000
0000
0000
,
0000
0000
0000
0000
,
0000
0000
0000
0000
,
0000
0000
0000
0000
,
0000
0000
0000
0000
,
0000
0000
0000
0000
,
1000
0000
0010
0000
0100
0000
0001
1000
0100
1000
0010
0000
1000
0000
0001
0000
,
0010
0000
0001
0000
0100
0000
0010
0000
0100
0001
0100
0000
0001
0000
0010
0000
,
0001
0000
0010
0000
0100
0000
1000
0001
0010
0001
0100
0000
0001
0000
1000
0000
,
0100
0000
1000
0000
0010
0100
0001
0000
1000
0000
0001
0000
1001
0000
0000
0000
,
1010
1000
0100
0100
0010
0010
0001
0001
,
0100
0100
0010
0010
1000
0001
1000
0001
,
0010
0010
0100
0100
1000
1000
0010
0010
,
0100
0100
0001
0001
1000
0001
1000
0001
,
1001
1000
0100
0010
0001
0100
0010
1000
,
0001
0010
1000
0010
0001
1000
0001
0100
,
0001
0100
0001
0100
0010
0000
1000
0100
1000
0100
0010
0000
0001
1000
0010
1000
,
0001
0010
0100
1000
0010
1000
0100
1000
0010
0100
0001
0010
0100
0010
0001
2000
,
0002
0000
0000
0000
,
0000
0000
0000
0000
,
3003
0000
0001
1000
,
0002
0000
0000
0000
0000
0000
0000
0000
1003
0100
1000
0001
0010
0100
0010
0001
,
1000
0010
0100
0001
1000
0100
0020
0000
0031
0100
1000
0001
0010
1000
0001
0010
,
1000
0001
0100
1000
0001
0010
0100
1000
0001
0010
0100
0001
0100
0010
0001
1000
,
0100
0001
0100
0000
1000
0100
0010
0001
0100
0010
0001
0010
0100
1000
0100
0010
,
1000
0001
1000
0000
0001
1000
1001
0000
1010
0000
0000
0000
1100
0000
0000
0000
,
1010
0000
0000
0000
1000
0100
0000
0100
0001
0000
0000
0000
0011
0000
0000
0000
,
1001
0000
0000
0001
0010
0100
1000
0001
0100
0000
0000
0000
0110
0000
0000
0000
,
1001
0000
0000
0000
0001
0010
0000
0010
1000
0000
0000
0000
1001
0000
0000
0000
,
0001
0100
0000
0010
1000
0000
0001
0100
0001
0000
1000
0000
0001
0000
0100
0000
,
0010
0100
0001
0010
0001
0100
0010
1000
,
0010
0000
0100
0000
0001
0000
1000
0000
0001
0100
0001
0100
0010
1000
0010
1000
,
0100
0010
0100
0010
0001
0100
0010
1000
0001
0010
0100
1000
0001
0000
0100
0010
,
1000
0001
0010
0000
0001
1000
0100
1000
0002
0000
0000
0000
0000
0000
0000
0000
,
0000
0000
0000
0000
,
0000
0000
0000
0000
,
0000
0000
0003
0000
,
1000
0001
2000
0000
,
3001
0000
0010
0001
0000
1000
0001
0000
0100
0010
0000
1000
0010
0000
0100
0000
,
0001
0010
0000
0100
0010
0000
0001
0000
1000
0000
0001
0100
0000
0010
1000
0000
,
0001
0000
0000
0000
0000
0000
0000
0000
0200
0300
0000
0000
0000
0000
0000
0000
0200
0300
0000
0000
0000
0000
0000
0000
1000
0000
0000
0000
0000
0000
0000
0000
0200
0300
0000
0000
0000
0000
0000
0000
0200
0300
0000
0000
0000
0000
0000
0000
0001
0000
0000
0000
0000
0000
0000
0000
0020
0030
0000
0000
0000
0000
0000
0000
,
0020
0030
0000
0000
0000
0000
0000
0000
1000
0000
0000
0000
0001
0000
0000
0000
0010
0000
0000
0000
0000
0000
0000
0000
0100
0000
0000
0000
0000
0000
0000
0000
1000
0000
0000
0000
0000
0000
0000
0000
0001
0000
0000
0000
0000
0000
0000
0000
0100
0000
0000
0000
0000
0000
0000
0000
0010
0000
0000
0000
0000
0000
0000
0000
,
1000
0000
0010
0100
0000
0010
1000
0000
0001
1000
0000
0100
0010
0000
0001
0000
,
1000
0001
0000
0010
0001
0000
0100
0000
0001
0000
0010
0000
1000
0000
0010
0000
,
0011
0000
0001
0000
0100
0000
0010
0000
1000
0001
0010
0000
0110
0000
1100
0000
,
1000
0000
1010
0000
1001
0000
0000
0000
0001
0000
0100
0010
0200
0000
0000
0000
,
0301
0100
0010
0001
0010
1000
0001
0100
,
1000
0100
0010
1000
0100
0010
0001
0000
,
1100
0100
0010
0101
0100
0010
1100
0100
,
0010
0001
0011
0001
0101
0001
1001
0000
,
1000
0100
0001
0100
1000
0001
0100
1000
,
0100
0000
0001
0000
1000
0000
0001
0000
0010
0000
0100
0000
1000
0100
1000
0100
,
1000
0010
0001
1000
0100
0001
1000
0010
,
1000
0100
1000
0001
0100
0000
0010
0000
1000
0000
0001
0010
0200
0000
0000
0300
,
1010
0100
0001
1100
0010
0001
1010
0100
,
0001
1100
0010
0001
1001
0000
0110
1100
,
0100
0010
0101
0100
0010
1010
0010
0100
,
0011
0000
0010
0000
0100
0000
1000
0001
0100
0001
2000
0000
3001
0000
0100
0000
,
0001
0010
0001
1000
0001
0100
0010
1000
,
0100
0000
0010
0000
0001
0000
1000
0000
0001
0000
0100
0000
0010
1000
0010
1000
,
0100
0010
0100
0010
0001
0100
0001
0100
0001
0100
0010
1000
0001
0000
0000
0000
,
1000
0100
0010
0001
0100
0000
0001
1000
0001
0000
0000
0000
1100
0000
0000
0000
,
0101
0000
0000
0000
1100
0000
0000
0000
1000
0010
0000
0010
0001
0000
0000
0000
,
0101
0000
0000
0000
0011
0000
0000
0001
0010
0100
1000
0001
1000
0000
0000
0000
,
1100
0000
0000
0000
1001
0000
0000
0000
1000
0010
0000
0010
0001
0000
0000
0000
,
0110
0000
0000
0000
1000
0010
0000
0100
0001
0000
1000
0001
0010
0000
0001
0000
,
0100
0000
0010
0000
1000
0000
0001
0000
0010
0100
0010
0100
0010
0000
0001
0000
,
0100
0000
0010
0000
1000
0000
0001
0000
1000
0100
1000
0100
1000
0010
1000
0100
,
0010
0001
0100
0010
1000
0010
0100
0001
0010
0001
1000
0001
0010
0100
1000
0010
,
0100
0000
0000
0000
0000
0000
0000
0000
0001
0000
0000
0000
0100
0000
0000
0000
0010
0000
0000
0000
1000
0000
0000
0000
0001
0000
0000
0000
0000
0000
0000
0000
1000
0000
0000
0000
0100
0000
0000
0000
0010
0000
0000
0000
0001
0000
0000
0000
2000
3000
0000
0000
0000
0000
0000
0000
0000
0000
0000
0000
0000
0000
0000
0000
,
0001
1000
0001
1000
0001
1000
0001
1000
,
0001
1000
0001
1000
0001
1000
0001
1000
,
0001
1000
0001
1000
0001
1000
0001
1000
,
0001
1000
0001
1000
0001
1000
0001
1000
,
0001
0000
1000
0001
2000
0000
0000
3000
,
1000
0000
0001
0100
0000
0010
0100
0000
0001
0010
0000
0100
0010
0000
0001
0000
,
1000
0001
0000
0100
0010
0000
1000
0000
0100
0000
0010
0001
0000
1000
0001
0000
,
1000
0000
0000
0000
0000
0000
0000
0000
0020
0030
0000
0000
0000
0000
0000
0000
0020
0030
0000
0000
0000
0000
0000
0000
0001
0000
0000
0000
0000
0000
0000
0000
0020
0030
0000
0000
0000
0000
0000
0000
0020
0030
0000
0000
0000
0000
0000
0000
1000
0000
0000
0000
0000
0000
0000
0000
0200
0300
0000
0000
0000
0000
0000
0000
,
0200
0300
0000
0000
0000
0000
0000
0000
0001
0000
0000
0000
1000
0000
0000
0000
0010
0000
0000
0000
0000
0000
0000
0000
0100
0000
0000
0000
0000
0000
0000
0000
0001
0000
0000
0000
0000
0000
0000
0000
0010
0000
0000
0000
0000
0000
0000
0000
0100
0000
0000
0000
0000
0000
0000
0000
0010
0000
0000
0000
0000
0000
0000
0000
,
0001
0000
1000
0010
0000
0100
0001
0000
0010
0100
0000
0010
0001
0000
1000
0000
,
0001
0010
0000
0100
1000
0000
0010
0000
0100
0000
0001
0000
0100
0000
0010
0000
,
2010
0000
3010
0000
0100
0000
0001
0000
0010
0001
1000
0000
1100
0000
0110
0000
,
0000
0000
0101
0000
1001
0000
0000
0000
0001
0000
1000
0001
0020
0000
0000
0000
,
0031
0010
0100
0001
0100
1000
0001
0010
,
1000
0010
0100
1000
0001
0100
0010
0000
,
2001
3100
0010
1002
0103
0010
2001
3100
,
0010
0000
0001
1000
0001
0000
0100
0000
0110
0000
0010
0000
1010
0000
1000
0000
,
0001
0100
0001
0010
0100
0010
0001
1000
,
0010
0000
0100
0000
0001
0000
1000
0000
0100
0000
0010
0000
0001
1000
0100
1000
,
0001
0100
0010
0100
0001
0010
0100
1000
,
0001
0100
0001
0100
0010
1000
0001
1000
0100
0010
0001
1000
0002
0000
0000
0003
,
1001
0000
0000
0000
,
0000
0000
0000
0000
0000
0000
0000
0000
0000
0000
0100
0010
0100
0000
0000
0000
,
0011
0001
0100
1010
1000
0100
0110
0010
,
0001
1001
1000
0010
0110
0100
0101
0000
,
0001
0000
0100
0000
0010
0000
1000
0000
0100
0000
0010
0000
0100
1000
0001
1000
,
0010
0000
0100
0000
0001
0000
0010
0000
0100
0000
1000
0000
0010
0100
0001
1000
,
0100
0010
0100
0010
0001
0100
0001
0100
0010
1000
0010
1000
0001
0100
0010
1000
,
0001
0010
0100
1000
0001
0000
0100
0010
0100
0000
0010
0000
0110
0000
0000
0000
,
2002
0000
0000
0000
,
3003
0000
0000
0000
;

//--------------- dance-double - 401-derF ----------------
#NOTES:
     dance-double:
     401-derF:
     Easy:
     13:
     :
00000000
00000000
00000000
00000000
,
00000000
00000000
00000000
00000000
,
00000000
00000000
00000000
00000000
,
00000000
00000000
00000000
00000000
,
00000000
00000000
00000000
00000000
,
00000000
00000000
00000000
00000000
,
00001000
00000000
00000000
00000001
00000000
00000000
00000100
00000000
,
00000010
00000010
00000100
00000010
,
00001000
00000000
00000000
00000001
00000000
00000000
00000100
00000000
,
00000010
00001000
00010000
00001000
,
00011000
00001000
00010000
00010000
,
01000000
01000000
10000000
10000000
,
00010000
00010000
01000000
01000000
,
00100000
00100000
10000000
10000000
,
10010000
00000000
00000000
01000000
00000000
00000000
00100000
00000000
,
00001000
00000000
00000000
00010000
00000000
00000000
00001000
00000000
,
00010000
00010000
00000000
00000010
00000010
00000000
00010000
00010000
,
00001000
00010000
00001000
00000000
00010000
00001000
00010000
00000000
,
00022000
00000000
00000000
00000000
,
00000000
00000000
00000000
00000000
,
00000000
00000000
00000000
00000000
,
00033000
00000000
00000000
00000000
00000000
00000000
00000000
00000000
00001000
00000000
00000000
00010000
00000000
00000000
00100000
00000000
,
00000000
01000000
00000000
00000000
00010000
00000000
10000000
00000000
00010000
00000000
00000000
10000000
00000000
00000000
01000000
00000000
,
00000000
00100000
00000000
00000000
00001000
00000000
00010000
00000000
00001000
00000000
00000000
00000010
00000000
00000000
00000100
00000000
,
00001000
00000001
00001000
00000000
00000001
00000000
00000100
00000000
00000010
00000000
00000000
00000100
00000000
00000000
00000001
00000000
,
00000000
00000100
00000000
00000000
00001000
00000000
00011000
00000000
00010000
00000000
00000000
00000000
00010000
00000000
00000000
00000000
,
00011000
00000000
00001000
00100000
00010000
00000000
00010000
00000000
,
10010000
00000000
10000000
01000000
00100000
00000000
00010000
00000000
,
00110000
00000000
00100000
00001000
00010000
00000000
00011000
00000000
,
00000010
00001000
00000100
00000000
00001001
00000000
00000001
00000000
,
00000100
00000010
00000100
00000001
,
00000010
00000000
00000100
00000000
00000010
00000001
00000100
00000000
,
00001000
00010000
01000000
00000000
00100000
00010000
00000000
10000000
,
01000000
00000000
00200000
00300000
00022000
00000000
00000000
00000000
,
00000000
00000000
00000000
00000000
,
00000000
00000000
00000000
00000000
,
00000000
00000000
00000000
00000000
,
00000000
00000000
00033000
00000000
,
00010000
00001000
00010000
00000010
,
00001000
00000100
00001000
00000000
00000010
00010000
00001000
00000000
,
00010000
00000000
00000000
00101000
00000000
00000000
00010000
00000000
,
00010000
00010010
00001000
01000000
,
00010000
00100000
00010000
10000000
,
01000000
00100000
01000000
00000000
10000000
00100000
10000000
00000000
,
01000000
00000000
00010000
00000000
00001000
00000000
00010000
00010000
,
00000000
00001000
00001000
00000000
00000000
00000000
00001001
00000000
,
00000001
00000010
00000100
00010000
,
00001000
00000010
00000001
00001000
,
00000001
00000000
00000100
00000010
00000000
00001000
00000010
00000000
,
00000100
00000010
00000100
00000000
00010000
00001000
00010000
00000000
,
01000000
00000000
00100000
00010000
00000000
10000000
00100000
00000000
,
01000000
00010000
01000000
00000000
00010000
00000000
00100000
00000000
,
00001000
00000000
00010000
00000000
00000010
00000000
00010000
00010000
,
00000000
00001000
00001000
00000000
00000000
00000000
00011000
00000000
,
00011000
00000000
00000000
00101000
00000000
00000000
00011000
00000000
,
00000000
00000000
00010010
00000000
00000000
00000000
00000000
00000000
01001000
00000000
00000000
00000000
00022000
00033000
00010100
00000000
,
00000000
00000000
00011000
00000000
00000000
01001000
00000000
00000000
,
00011000
00000000
00000000
00000000
00000000
00000000
00010010
00000000
00000000
00000000
00022000
00033000
00010000
00000000
00001000
00000000
,
00000000
00010000
00000010
00000000
00001000
00000100
00000000
00010000
,
00001000
00000000
00100000
00010000
01000000
00000000
00001000
00010000
,
00100000
00000000
00010000
00001000
00010000
00000000
00001000
00000000
,
00010000
00000000
00001000
00000000
00010000
00000000
00000000
00000000
00022000
00000000
00000000
00033000
00001000
00000000
00000000
00000000
,
00001000
00000000
00011000
00000000
00010000
00000010
00001000
00000000
,
00001000
00000000
00001001
00000000
00000001
00000100
00000010
00000000
,
00001000
00000000
00001010
00000000
00000010
00010000
00001000
00000000
,
00011000
00000000
00100000
00010000
01000000
00000000
00010000
00000000
,
10000000
01000000
00100000
01000000
,
10000000
00000000
00100000
00000000
01000000
00000000
00100000
10000000
,
01000000
00000000
00010000
00001000
00000100
00000000
00000010
00001000
,
00000001
00000100
00000010
00001000
00000002
00000003
00000110
00000000
,
00002002
00000000
00000000
00000000
,
00000000
00000000
00000000
00000000
,
00000000
00000000
00000000
00000000
,
00000000
00000000
00000000
00000000
,
00003003
00000000
00000000
00000000
,
00001000
00010000
00001000
00100000
,
00010000
01000000
00010000
00000000
00100000
00001000
00010000
00000000
,
00001000
00000000
00000000
00010010
00000000
00000000
00001000
00000000
,
00100000
00101000
00010000
00000100
,
00001000
00000010
00001000
00000001
,
00000100
00000010
00000100
00000000
00000001
00000010
00000001
00000000
,
00000100
00000000
00001000
00000000
00010000
00000000
00001000
00001000
,
00000000
00010000
00010000
00000000
00000000
00000000
10010000
00000000
,
10000000
00100000
01000000
00001000
,
00010000
00100000
10000000
00010000
,
10000000
00000000
01000000
00100000
00000000
00010000
00100000
00000000
,
01000000
00100000
01000000
00000000
00001000
00010000
00001000
00000000
,
00000100
00000000
00000010
00001000
00000000
00000001
00000010
00000000
,
00000100
00001000
00000100
00000000
00001000
00000000
00000010
00000000
,
00010000
00000000
00001000
00000000
00100000
00000000
00001000
00001000
,
00000000
00000000
00010000
00000000
00010000
00000000
00000000
00000000
00001000
00000000
00010000
00000000
00022000
00000000
00000000
00033000
,
10010000
00000000
00000000
00000000
,
00000000
00000000
00000000
01100000
,
10000000
01000000
00000000
00010000
00001000
00000000
00010000
00100000
,
00000000
10000000
00010000
00000000
10000000
00100000
01000000
00000000
,
00010000
00100000
01000000
00100000
00010000
00100000
01000000
00000000
,
00100000
00001000
00010000
00001000
00100000
00001000
00010000
00000000
,
00001000
00010000
00000010
00001000
00000010
00000100
00000001
00000000
,
00001000
00000100
00010000
00001000
01000000
00001000
00010000
00000000
,
00022000
00000000
00000000
00000000
,
00033000
00000000
00000000
00000000
;

//--------------- dance-double - 401-derF ----------------
#NOTES:
     dance-double:
     401-derF:
     Medium:
     15:
     :
00000000
00000000
00000000
00000000
,
00000000
00000000
00000000
00000000
,
00000000
00000000
00000000
00000000
,
00000000
00000000
00000000
00000000
,
00000000
00000000
00000000
00000000
,
00000000
00000000
00000000
00000000
,
10000000
00000000
00100000
01000000
00000000
00100000
10000000
00000000
,
00010000
10000000
00100000
00000000
01000000
00010000
00100000
00000000
,
00001000
00000000
00010000
00001000
00000000
00000010
00000100
00000000
,
00001000
00000001
00000010
00000001
00000100
00000010
00001000
00000000
,
00000001
00000000
00000001
00000100
00000001
00000100
00001000
00010000
,
00001000
00010000
01000000
00010000
01000000
10000000
00010000
00000000
,
10000000
00000000
10000000
00100000
10000000
00100000
00010000
00001000
,
00010000
00001000
00000010
00000001
00000010
00000001
00001000
00000000
,
00000001
00000000
00000000
00000000
00000000
00000000
00000000
00000000
00000020
00000030
00000000
00000000
00000000
00000000
00000000
00000000
00000020
00000030
00000000
00000000
00000000
00000000
00000000
00000000
00001000
00000000
00000000
00000000
00000000
00000000
00000000
00000000
00000020
00000030
00000000
00000000
00000000
00000000
00000000
00000000
00000020
00000030
00000000
00000000
00000000
00000000
00000000
00000000
00000001
00000000
00000000
00000000
00000000
00000000
00000000
00000000
00000200
00000300
00000000
00000000
00000000
00000000
00000000
00000000
,
00000200
00000300
00000000
00000000
00000000
00000000
00000000
00000000
00001000
00000000
00000000
00000000
00000000
00000000
00000000
00000000
00000200
00000300
00000000
00000000
00000000
00000000
00000000
00000000
00000200
00000300
00000000
00000000
00000000
00000000
00000000
00000000
00000001
00000000
00000000
00000000
00000000
00000000
00000000
00000000
00000010
00000000
00000000
00000000
00000000
00000000
00000000
00000000
00000100
00000000
00000000
00000000
00000000
00000000
00000000
00000000
00001000
00000000
00000000
00000000
00000000
00000000
00000000
00000000
,
00000100
00000000
00000000
00000000
00000000
00000000
00000000
00000000
00020000
00030000
00000000
00000000
00000000
00000000
00000000
00000000
00020000
00030000
00000000
00000000
00000000
00000000
00000000
00000000
01000000
00000000
00000000
00000000
00000000
00000000
00000000
00000000
00002000
00003000
00000000
00000000
00000000
00000000
00000000
00000000
00002000
00003000
00000000
00000000
00000000
00000000
00000000
00000000
00100000
00000000
00000000
00000000
00000000
00000000
00000000
00000000
00020000
00030000
00000000
00000000
00000000
00000000
00000000
00000000
,
00020000
00030000
00000000
00000000
00000000
00000000
00000000
00000000
00000010
00000000
00000000
00000000
00000000
00000000
00000000
00000000
00002000
00003000
00000000
00000000
00000000
00000000
00000000
00000000
00002000
00003000
00000000
00000000
00000000
00000000
00000000
00000000
00010000
00000000
00000000
00000000
00000000
00000000
00000000
00000000
00001000
00000000
00000000
00000000
00000000
00000000
00000000
00000000
00010000
00000000
00000000
00000000
00000000
00000000
00000000
00000000
00000000
00000000
00000000
00000000
00000000
00000000
00000000
00000000
,
00022000
00000000
00000000
00000000
,
00000000
00000000
00000000
00000000
,
00000000
00000000
00000000
00000000
,
00033000
00000000
00000000
00000000
00000000
00000000
00000000
00000000
00000000
00000000
00000000
00000000
00000000
00000000
00000000
00000000
00000000
00000000
00000000
00000000
00000000
00000000
00000000
00000000
00000000
00000000
00000000
00000000
00000000
00000000
00000000
00000000
00000010
00000000
00000000
00000000
00002000
00003000
00000000
00000000
00002000
00003000
00000000
00000000
00100000
00000000
00000000
00000000
00020000
00030000
00000000
00000000
00020000
00030000
00000000
00000000
00000100
00000000
00000000
00000000
00002000
00003000
00000000
00000000
,
00002000
00003000
00000000
00000000
01000000
00000000
00000000
00000000
00020000
00030000
00000000
00000000
00020000
00030000
00000000
00000000
00001000
00000000
00000000
00000000
00010000
00000000
00000000
00000000
00001000
00000000
00000000
00000000
00000000
00000000
00000000
00000000
00100000
00000000
00000000
00000000
00002000
00003000
00000000
00000000
00002000
00003000
00000000
00000000
00000010
00000000
00000000
00000000
00020000
00030000
00000000
00000000
00020000
00030000
00000000
00000000
01000000
00000000
00000000
00000000
00002000
00003000
00000000
00000000
,
00002000
00003000
00000000
00000000
00000100
00000000
00000000
00000000
00020000
00030000
00000000
00000000
00020000
00030000
00000000
00000000
00001000
00000000
00000000
00000000
00010000
00000000
00000000
00000000
00001000
00000000
00000000
00000000
00000000
00000000
00000000
00000000
00010000
00000000
00000000
00000000
00001000
00000000
00000000
00000000
00010000
00000000
00000000
00000000
00000010
00000000
00000000
00000000
00000000
00000000
00000000
00000000
00001000
00000000
00000000
00000000
00000010
00000000
00000000
00000000
00000100
00000000
00000000
00000000
,
00000001
00000010
00000100
00000000
00000010
00000001
00000100
00000000
00001000
00010000
01000000
00100000
00010000
10000000
00010000
01000000
,
00100000
00000000
00000000
00000000
10000000
00000000
00000000
00000000
01000000
00000000
00000000
00000000
00000000
00000000
00000000
00000000
00100000
00000000
00000000
00000000
00000000
00000000
00000000
00000000
00022000
00033000
00000000
00000000
00000000
00000000
00000000
00000000
00011000
00000000
00000000
00000000
00000000
00000000
00000000
00000000
00000000
00000000
00000000
00000000
00000000
00000000
00000000
00000000
00010010
00000000
00000000
00000000
00000000
00000000
00000000
00000000
00000000
00000000
00000000
00000000
00000000
00000000
00000000
00000000
,
00011000
00000000
00001000
00100000
00010000
00000000
10010000
00000000
,
10100000
00000000
10000000
01000000
00100000
00000000
00101000
00000000
,
00010010
00000000
00000010
00001000
00000100
00000000
00000110
00000000
,
00000010
00000001
00001000
00000000
00000001
00000100
00000001
00000100
,
00001000
00010000
00001000
00010000
01000000
00100000
00010000
10000000
,
00010000
01000000
00100000
10000000
01000000
01000000
00100000
00100000
,
00001000
00000000
00001000
00000000
00010000
00000000
00010000
00000000
00000100
00001000
00000100
00000000
00000010
00000000
00000001
00000100
,
00000001
00000000
00000100
00000000
00000001
00001000
00000001
00000000
00002002
00000000
00000000
00000000
00000000
00000000
00000000
00000000
,
00000000
00000000
00000000
00000000
,
00000000
00000000
00000000
00000000
,
00000000
00000000
00000000
00000000
,
00000000
00000000
00003003
00000000
,
00000001
00000000
00000000
00000100
00000000
00000000
00000001
00000000
00000000
00000010
00000000
00000000
00000100
00000000
00000010
00000000
,
00000001
00000100
00000000
00000001
00001000
00000000
00000010
00000000
00000100
00000000
00000000
00000001
00000000
00000000
00001000
00000000
,
00000001
00000010
00001000
00010000
00100000
01000000
00010000
10000000
,
00010000
00000000
00100000
01000000
00100000
00000000
00010000
00000000
10000000
00000000
01000000
00000000
00100000
00000000
00000000
00000000
,
01000000
00000000
00000000
10000000
00000000
00000000
00010000
00000000
00000000
01000000
00000000
00000000
00100000
00000000
01000000
00000000
,
00010000
10000000
00000000
00010000
01000000
00000000
00100000
00000000
01000000
00000000
00001000
00000000
00010000
00000000
00001000
00000000
,
00000010
00000100
00001000
00000001
00000100
00000010
00001000
00001100
,
00000000
00000010
00000011
00000000
00000001
00000100
00000110
00000000
,
00001000
00000010
00001000
00000100
00001000
00000001
00000010
00000100
,
00000010
00000001
00000100
00001000
00010000
00001000
00010000
00000000
,
01000000
00100000
00010000
10000000
00010000
00100000
00001000
01000000
,
00010000
00100000
00001000
00010000
00000010
00001000
00000100
00000000
,
00010000
00000100
00001000
00000100
00000000
00000010
00000001
00001000
,
00000001
00000010
00000100
00000000
00000010
00000001
00000100
00000000
,
00001000
00010000
01000000
10000000
00100000
00010000
00001000
00010000
,
00000000
00001000
00010000
00000000
00000010
00001000
00001100
00000000
,
00001010
00000000
00000000
00000101
00000000
00000000
00001100
00000000
,
00000000
00000000
00000000
00000000
00000000
00000000
00000000
00000000
00011000
00000000
00000000
00000000
00000000
00000000
00000000
00000000
00000000
00000000
00000000
00000000
00000000
00000000
00000000
00000000
00000000
00000000
00000000
00000000
00000000
00000000
00000000
00000000
00110000
00000000
00000000
00000000
00000000
00000000
00000000
00000000
00000000
00000000
00000000
00000000
00000000
00000000
00000000
00000000
20200000
30300000
00000000
00000000
00000000
00000000
00000000
00000000
11000000
00000000
00000000
00000000
00000000
00000000
00000000
00000000
,
00000000
00000000
01010000
00000000
00000000
00011000
00000000
00000000
,
00001010
00000000
00000000
00000010
00000001
00002000
00003001
00000010
,
00000001
00001000
00000010
00000100
00000010
00001000
00000100
00010000
,
00001000
01000000
00001000
00010000
00000100
00001000
00000010
00001000
,
00000100
00010000
00001000
00100000
00010000
10000000
01000000
00000000
,
00100000
00010000
00100000
00010000
00100000
00000000
00001000
00000000
00020000
00000000
00000000
00030000
00011000
00000000
00000000
00000000
,
01001000
00000000
00011000
00000000
00010000
00000100
00001000
00000000
,
00001001
00000000
00000101
00000000
00000001
00000010
00000100
00000000
,
00010100
00000000
01001000
00000000
01000000
00010000
00100000
00000000
,
01100000
00000000
01000000
10000000
00010000
00010000
10000000
00100000
,
10000000
00100000
00010000
00001000
00010000
00001000
00000010
00000100
,
00001000
00000001
00001000
00000010
00000100
00000001
00000010
00000010
,
00000100
00000000
00000100
00000000
00010000
00000000
00010000
00000000
00001000
00000000
00001000
00000000
00100000
00010000
00100000
00000000
,
01000000
00000000
00000000
00000000
00000000
00000000
00000000
00000000
10000000
00000000
00000000
00000000
00100000
00000000
00000000
00000000
10000000
00000000
00000000
00000000
00000000
00000000
00000000
00000000
00100000
00000000
00000000
00000000
00000000
00000000
00000000
00000000
10000000
00000000
00000000
00000000
00010000
00000000
00000000
00000000
10000000
00000000
00000000
00000000
00010000
00000000
00000000
00000000
20000000
30000000
00000000
00000000
00000000
00000000
00000000
00000000
00000000
00000000
00000000
00000000
00000000
00000000
00000000
00000000
,
20020000
00000000
00000000
00000000
,
00000000
00000000
00000000
00000000
,
00000000
00000000
00000000
00000000
,
00000000
00000000
00000000
00000000
,
30030000
00000000
00000000
00000000
,
10000000
00000000
00000000
01000000
00000000
00000000
10000000
00000000
00000000
00100000
00000000
00000000
01000000
00000000
00100000
00000000
,
10000000
01000000
00000000
10000000
00010000
00000000
00100000
00000000
01000000
00000000
00000000
10000000
00000000
00000000
00010000
00000000
,
10000000
00100000
00010000
00001000
00000010
00000100
00001000
00000001
,
00001000
00000000
00000010
00000100
00000010
00000000
00001000
00000000
00000001
00000000
00000100
00000000
00000010
00000000
00000000
00000000
,
00000100
00000000
00000000
00000001
00000000
00000000
00001000
00000000
00000000
00000100
00000000
00000000
00000010
00000000
00000100
00000000
,
00001000
00000001
00000000
00001000
00000100
00000000
00000010
00000000
00000100
00000000
00010000
00000000
00001000
00000000
00010000
00000000
,
00100000
01000000
00010000
10000000
01000000
00100000
00010000
01010000
,
00000000
00100000
10100000
00000000
10000000
01000000
01100000
00000000
,
00010000
00100000
00010000
01000000
00010000
10000000
00100000
01000000
,
00100000
10000000
01000000
00010000
00001000
00010000
00001000
00000000
,
00000100
00000010
00001000
00000001
00001000
00000010
00010000
00000100
,
00001000
00000010
00010000
00001000
00100000
00010000
01000000
00000000
,
00001000
01000000
00010000
01000000
00000000
00100000
10000000
00010000
,
10000000
00100000
01000000
00000000
00100000
10000000
01000000
00000000
,
00010000
00001000
00000100
00000001
00000010
00001000
00010000
00001000
,
00000000
00000000
00000100
00000000
00000001
00000000
00001000
00000000
00000001
00000000
00000100
00000000
00000220
00000000
00000000
00000330
,
00001001
00000000
00000000
00000000
,
00000000
00000000
00000000
00000000
00000000
00000000
00000000
00000000
00000000
00000000
00001000
00010000
00001000
00000000
00000000
00000000
,
00100000
00000000
00000000
00000000
00000000
00000000
00000000
00000000
00002000
00003000
00000000
00000000
00000000
00000000
00000000
00000000
00002000
00003000
00000000
00000000
00000000
00000000
00000000
00000000
00000010
00000000
00000000
00000000
00000000
00000000
00000000
00000000
00020000
00030000
00000000
00000000
00000000
00000000
00000000
00000000
00020000
00030000
00000000
00000000
00000000
00000000
00000000
00000000
01000000
00000000
00000000
00000000
00000000
00000000
00000000
00000000
00002000
00003000
00000000
00000000
00000000
00000000
00000000
00000000
,
00002000
00003000
00000000
00000000
00000000
00000000
00000000
00000000
00000100
00000000
00000000
00000000
00000000
00000000
00000000
00000000
00020000
00030000
00000000
00000000
00000000
00000000
00000000
00000000
00020000
00030000
00000000
00000000
00000000
00000000
00000000
00000000
00001000
00000000
00000000
00000000
00000000
00000000
00000000
00000000
00010000
00000000
00000000
00000000
00000000
00000000
00000000
00000000
00001000
00000000
00000000
00000000
00000000
00000000
00000000
00000000
00010000
00000000
00000000
00000000
00000000
00000000
00000000
00000000
,
00001000
00010000
00001000
00000010
00000100
00010000
00001000
00100000
,
01000000
10000000
00010000
01000000
00010000
00100000
00001000
00010000
,
00001000
00000010
00000001
00001000
00000001
00000100
00000010
00001000
,
00000001
00000010
00001000
00010000
00100000
01000000
00010000
00000000
,
22000000
00000000
00000000
00000000
,
33000000
00000000
00000000
00000000
;

//--------------- dance-double - 401-derF ----------------
#NOTES:
     dance-double:
     401-derF:
     Hard:
     18:
     :
00000000
00000000
00000000
00000000
,
00000000
00000000
00000000
00000000
,
00000000
00000000
00000000
00000000
,
00000000
00000000
00000000
00000000
,
00000000
00000000
00000000
00000000
,
00000000
00000000
00000000
00000000
,
00010000
00000000
00001000
00000000
00000010
00000000
00000100
00010000
00001000
00000000
00010000
00000000
00001000
00000000
00100000
00000000
,
00010000
01000000
10000000
01000000
00001000
00010000
00001000
00000010
,
00010000
00000000
00100000
00000000
00001000
00000000
00010000
00001000
00010000
00000000
00000100
00000000
00001000
00000000
01000000
00000000
,
00010000
00001000
00000010
00000100
00001000
00000001
00000101
00000000
,
00001001
00000001
00000010
00000010
00000100
00000100
00010000
00010000
,
00001000
00001000
00100000
00100000
01000000
01000000
10000000
10000000
,
00010000
00010000
10000000
10000000
01000000
01000000
00010000
00010000
,
00001000
00001000
00000100
00000100
00000010
00000010
00001000
00001000
,
00000001
00000010
00000100
00000010
00000001
00000100
00001000
00010000
,
01000000
00100000
00010000
10000000
00010000
00100000
01000000
10000000
,
00100000
10000000
00010000
10000000
01000000
00000000
00100000
00010000
01000000
00001000
00010000
00000000
00000100
00001000
00000001
00000000
,
00001000
00000100
00000010
00000000
00000001
00000010
00000100
00000000
00010000
00001000
00000100
00000000
00000001
00001000
00000001
00000000
,
00002002
00000000
00000000
00000000
,
00000000
00000000
00000000
00000000
,
00003003
00000000
00001000
00000001
,
00002000
00000000
00000000
00000000
00000000
00000000
00000000
00000000
00003001
00000010
00000001
00000010
00001000
00000010
00001000
00010000
,
00001000
00010000
00100000
00010000
00100000
01000000
00010000
00000000
10000000
01000000
10000000
01000000
00010000
01000000
00010000
00001000
,
00010000
00001000
00000100
00000010
00001000
00000001
00001000
00000000
00000001
00000010
00000001
00000010
00001000
00000010
00001000
00010000
,
00001000
00010000
00100000
01000000
00010000
10000000
00010000
00000000
10000000
01000000
10000000
01000000
00010000
01000000
00010000
00001000
,
00010000
00001000
00000100
00001000
00000100
00000010
00001000
00000000
00001001
00000000
00000000
00000000
00011000
00000000
00000000
00000000
,
10010000
00000000
00000000
00000000
10000000
01000000
00000000
01000000
00100000
00000000
00000000
00000000
10010000
00000000
00000000
00000000
,
00110000
00000000
00000000
00001000
00010000
00000010
00001000
00000100
00000010
00000000
00000000
00000000
00000110
00000000
00000000
00000000
,
00001001
00000000
00000000
00000000
00000001
00000100
00000000
00000100
00001000
00000000
00000000
00000000
00011000
00000000
00000000
00000000
,
00010000
01000000
00000000
01000000
00100000
00000000
00010000
10000000
00010000
00000000
10000000
00000000
01000000
00000000
00100000
00000000
,
00010000
00100000
01000000
10000000
00100000
01000000
00010000
00100000
,
00001000
00000000
00010000
00000000
00000010
00000000
00001000
00000000
00000010
00000100
00000001
00000100
00000010
00001000
00000001
00001000
,
00000100
00000010
00000001
00001000
00000001
00000100
00000010
00001000
00000001
00000100
00000010
00001000
00000100
00000000
00010000
00001000
,
00100000
00010000
10000000
00000000
00100000
01000000
00100000
10000000
00020000
00000000
00000000
00000000
00000000
00000000
00000000
00000000
,
00000000
00000000
00000000
00000000
,
00000000
00000000
00000000
00000000
,
00000000
00000000
00030000
00000000
,
10000000
00010000
20000000
00000000
,
31000000
00000000
00100000
00010000
00000000
10000000
00010000
00000000
01000000
00100000
00000000
10000000
00010000
00000000
00100000
00000000
,
01000000
00010000
00000000
01000000
10000000
00000000
00100000
00000000
00010000
00000000
00001000
00000100
00000000
00000010
00001000
00000000
,
00000001
00000010
00000100
00010000
00001000
00000100
00000001
00001000
,
00000100
00000000
00000010
00000001
00001000
00000000
00000001
00000000
00000100
00000000
00001000
00000000
00010000
00000000
01000000
00000000
,
00100000
00000000
00010000
00100000
00000000
01000000
10000000
00000000
00010000
01000000
00000000
00001000
00010000
00000000
00000100
00000000
,
00001000
00000010
00000000
00000100
00000010
00000000
00010000
00000000
00001000
00000000
00100000
00000000
00010000
00000000
01000000
00000000
,
01010000
00000000
00010000
00000000
00100000
00000000
00001000
00000000
00010000
00001000
00010000
00000000
00011000
00000000
00000010
00000000
,
00001000
00000000
00001010
00000000
00001100
00000000
00000000
00000000
00010000
00000000
00001000
00010000
00002000
00000000
00000000
00000000
,
00013000
00001000
00010000
01000000
10000000
00100000
01000000
00010000
,
00001000
00000010
00000100
00000001
00000010
00000001
00001000
00000000
,
00000001
00000010
00001000
00010000
00100000
01000000
00010000
10000000
,
01000000
00010000
01000000
00100000
00010000
10000000
10100000
00000000
,
01000000
00001000
00010000
00001000
00000010
00000100
00001000
00000001
,
00000100
00000000
00001000
00000000
00010000
00000000
01000000
00000000
00100000
00000000
00010000
00000000
10000000
00010000
10000000
00010000
,
10000000
01000000
00010000
00001000
00000100
00000010
00001000
00000001
,
00000010
00000100
00000010
00000100
00000010
00000000
00000001
00000000
00000100
00000000
00000010
00001000
00000001
00000000
00000000
00000000
,
00001001
00000001
00000100
00000110
00000010
00010000
00011000
00001000
,
00100000
00110000
00010000
10000000
11000000
00000000
10010000
11000000
,
01000000
00100000
00101000
00001000
00010000
00010010
00000010
00001000
,
00001100
00000000
00000100
00000000
00000010
00000000
00000001
00000010
00000100
00001000
00000002
00000000
00001003
00000000
00000001
00000000
,
00000010
00000001
00000100
00000010
00000100
00000001
00000010
00001000
,
00010000
00000000
01000000
00000000
10000000
00000000
00010000
00000000
00100000
00000000
00010000
00000000
01000000
00010000
00100000
00001000
,
00010000
00000010
00001000
00000100
00010000
00001000
00100000
00010000
01000000
00001000
00010000
00000100
00001000
00000000
00000000
00000000
,
00000010
00001000
00000100
00010000
00001000
00000000
00100000
00010000
10000000
00000000
00000000
00000000
10010000
00000000
00000000
00000000
,
00011000
00000000
00000000
00000000
00001001
00000000
00000000
00000000
00000001
00000100
00000000
00000100
00000010
00000000
00000000
00000000
,
00001001
00000000
00000000
00000000
00001010
00000000
00000000
00010000
00001000
01000000
00010000
01000000
00100000
00000000
00000000
00000000
,
01100000
00000000
00000000
00000000
10010000
00000000
00000000
00000000
10000000
01000000
00000000
00100000
00010000
00000000
00000000
00000000
,
00011000
00000000
00000000
00000000
00010000
00000010
00000000
00001000
00000010
00000000
00001000
00000001
00001000
00000000
00000001
00000000
,
00000100
00000000
00000010
00000000
00001000
00000000
00000010
00000000
00000100
00000001
00000100
00000001
00000010
00000000
00000100
00000000
,
00001000
00000000
00000010
00000000
00010000
00000000
00001000
00000000
00100000
00010000
10000000
00010000
00100000
00010000
10000000
00100000
,
01000000
00010000
10000000
01000000
00100000
00010000
00100000
00001000
00010000
00000100
00001000
00000100
00000010
00000001
00001000
00000001
,
00000100
00000000
00000000
00000000
00000000
00000000
00000000
00000000
00000001
00000000
00000000
00000000
00000010
00000000
00000000
00000000
00000100
00000000
00000000
00000000
00000010
00000000
00000000
00000000
00000001
00000000
00000000
00000000
00000000
00000000
00000000
00000000
00001000
00000000
00000000
00000000
00000010
00000000
00000000
00000000
00010000
00000000
00000000
00000000
00001000
00000000
00000000
00000000
00020000
00030000
00000000
00000000
00000000
00000000
00000000
00000000
00000000
00000000
00000000
00000000
00000000
00000000
00000000
00000000
,
00001000
00010000
00001000
00010000
00001000
00010000
00001000
00010000
,
00001000
00010000
00001000
00010000
00001000
00010000
00001000
00010000
,
00001000
00010000
00001000
00010000
00001000
00010000
00001000
00010000
,
00001000
00010000
00001000
00010000
00001000
00010000
00001000
00010000
,
00001000
00000000
00010000
00001000
00020000
00000000
00000000
00030000
,
00010000
00000000
00001000
00100000
00000000
00010000
10000000
00000000
00010000
00100000
00000000
01000000
00100000
00000000
00010000
00000000
,
10000000
01000000
00000000
00010000
00001000
00000000
00010000
00000000
00001000
00000000
00000100
00000010
00000000
00001000
00000001
00000000
,
00001000
00000001
00000010
00000100
00010000
00001000
00000100
00000001
,
00001000
00000000
00000010
00000100
00000010
00000000
00001000
00000000
00000010
00000000
00000100
00000000
00001000
00000000
00010000
00000000
,
00100000
00000000
01000000
00010000
00000000
10000000
00010000
00000000
00100000
01000000
00000000
10000000
00010000
00000000
00100000
00000000
,
00001000
01000000
00000000
00010000
00100000
00000000
00001000
00000000
00010000
00000000
00000010
00000000
00010000
00000000
00001000
00000000
,
00011000
00000000
00010000
00000000
00000100
00000000
00010000
00000000
00001000
00100000
00010000
00000000
01010000
00000000
01001000
00000000
,
00001000
00000000
00011000
00000000
00010100
00000000
00000000
00000000
00000010
00000000
00001000
00000001
00002000
00000000
00000000
00000000
,
00003001
00000010
00001000
00000010
00000001
00000100
00000010
00000100
,
00001000
00010000
00100000
01000000
00010000
00100000
01100000
00000000
,
10000000
00100000
01000000
10000000
00010000
00100000
10000000
00010000
,
00100000
00000000
01000000
00100000
00010000
00000000
10000000
00000000
01000000
00000000
00010000
00000000
00001000
00000000
00010000
00000000
,
00100000
01000000
00010000
10000000
01000000
00010000
00001000
00000010
,
00000100
00000000
00001000
00000000
00000001
00000000
00000100
00000000
00001000
00000000
00010000
00000000
00100000
01000000
00010000
01000000
,
10000000
01000000
00100000
10000000
00010000
00100000
00001000
00010000
,
00001000
00100000
00010000
10000000
00010000
01000000
00100000
10000000
00100000
00000000
01000000
00000000
01100000
00000000
00000000
00000000
,
00011000
00000000
00000000
00000000
,
00000000
00000000
00000000
00000000
00000000
00000000
00000000
00000000
00000000
00000000
00001000
00000001
00001000
00000000
00000000
00000000
,
00001010
00000010
00000100
00000101
00000001
00001000
00001100
00000100
,
00010000
00011000
00001000
00100000
00110000
00010000
10010000
00000000
,
00010000
00000000
01000000
00000000
10000000
00000000
01000000
00000000
00001000
00000000
00010000
00000000
00001000
00000010
00000100
00001000
,
00000001
00000000
00000010
00000000
00000100
00000000
00010000
00000000
00001000
00000000
00000100
00000000
00000001
00001000
00000001
00001000
,
00000001
00000010
00000100
00001000
00000100
00010000
00001000
00100000
00010000
00100000
01000000
10000000
00010000
01000000
00100000
10000000
,
00010000
00100000
00001000
00100000
00010000
00000000
01000000
00001000
00010000
00000000
00001000
00000000
00011000
00000000
00000000
00000000
,
00020020
00000000
00000000
00000000
,
00030030
00000000
00000000
00000000
;
