#VERSION:0.83;
#TITLE:EXOTICA;
#ARTIST:Sota Fujimori 3rd Season;
#BANNER:EXOTICA.png;
#BACKGROUND:EXOTICA-bg.png;
#CDTITLE:./CDTitles/RB VOLZZA 2.png;
#MUSIC:EXOTICA.ogg;
#SAMPLESTART:78.667;
#SAMPLELENGTH:15;
#BPMS:0=180;
#BGSTAGE:15;

//--------------- dance-single - Fred-104 ----------------
#NOTEDATA:;
#STEPSTYPE:dance-single;
#DESCRIPTION:Fred-104;
#DIFFICULTY:Beginner;
#METER:4;
#CREDIT:Fred-104;
#NOTES:
0000
0000
0000
0000
,
0000
0000
0000
0000
,
0000
0000
0000
0000
,
0000
0000
0000
0000
,
0000
0000
0000
0000
,
1000
0000
0000
0000
,
0001
0000
0010
0000
,
0010
0000
0000
0000
,
0100
0000
1000
0000
,
1000
0000
0000
0000
,
0001
0000
1000
0000
,
1000
0000
0000
0000
,
1001
0000
0000
0000
,
0001
0000
0001
0000
,
0010
0000
0010
0000
,
0100
0000
0100
0000
,
1000
0000
1000
0000
,
0001
0000
0002
0000
,
0000
0000
0000
0003
,
1000
0000
0001
0000
,
1001
0000
0000
0000
,
2000
0000
3000
0000
,
0001
0000
0010
0000
,
0200
0000
0300
0000
,
1000
0000
0001
0000
,
2000
0000
3000
0000
,
0001
0000
1000
0000
,
0020
0000
0030
0000
,
1000
0000
1000
0000
,
0001
0000
0001
0000
,
0020
0000
0030
0000
,
0100
0000
0100
0000
,
0020
0000
0030
0000
,
0001
0000
1000
0000
,
0020
0000
0030
0000
,
1000
0000
1000
0000
,
0001
0000
0001
0000
,
2000
0000
0000
3000
,
0002
0000
0000
0003
,
2000
0000
0000
3000
,
0002
0000
0000
0003
,
1000
0000
0001
0000
,
0010
0000
0010
0000
,
0100
0000
0100
0000
,
0100
0000
1000
0000
,
0001
0000
0000
0000
,
0001
0001
0001
0000
,
1000
1000
1000
1000
,
1001
0000
0000
0000
,
0002
0000
0000
0000
,
0003
0000
0000
0000
,
2000
0000
0000
0000
,
3000
0000
0000
0000
,
0002
0000
0000
0000
,
0003
0000
0000
0000
,
2000
0000
0000
0000
,
3000
0000
0000
0000
,
0002
0000
0000
0000
,
0003
0000
0000
0000
,
1000
0000
1000
0000
,
0010
0000
0000
0000
,
1000
0000
0001
0000
,
0010
0000
0010
0000
,
0100
0000
0100
0000
,
1000
0000
0001
0000
,
1000
0000
0100
0000
,
0001
0000
0010
0000
,
1000
0000
1000
0000
,
0001
0000
0010
0000
,
0110
0000
0100
0000
,
1000
0000
0001
0000
,
1000
0000
0020
0000
,
0000
0000
0000
0030
,
1000
0000
0001
0000
,
1000
0000
0001
0000
,
2000
0000
0000
0000
,
0000
0000
3000
0000
,
0001
0000
0001
0000
,
1000
0000
1000
0000
,
0010
0000
0020
0000
,
0000
0000
0000
0030
,
0100
0000
0100
0000
,
0001
0000
0001
0000
,
1000
0000
1000
0000
,
0002
0000
0000
0003
,
2000
0000
0000
3000
,
0002
0000
0000
0003
,
2002
0000
0000
0000
,
3003
0000
0000
0000
;

//--------------- dance-single - Fred-104 ----------------
#NOTEDATA:;
#STEPSTYPE:dance-single;
#DESCRIPTION:Fred-104;
#DIFFICULTY:Easy;
#METER:8;
#CREDIT:Fred-104;
#NOTES:
0000
0000
0000
0000
,
0000
0000
0000
0000
,
0000
0000
0000
0000
,
0000
0000
0000
0000
,
0000
0000
0000
0000
,
1000
0100
1000
1000
,
0001
0100
1000
0000
,
0001
0010
1000
0000
,
0001
0010
0100
0000
,
1000
0100
0010
0000
,
0001
0100
1000
0000
,
0001
0010
1000
0000
,
0001
0000
0000
1000
0000
0000
0001
0000
,
1001
0000
1000
0001
,
0100
0100
0010
0100
,
0001
0010
0100
0100
,
1000
0100
1000
0000
0001
0000
0100
0000
,
0010
0100
0010
0000
1000
0000
1000
1000
,
0000
0110
0000
2002
0000
0000
3003
0000
,
0001
1000
0100
1000
,
0001
0100
0001
0000
1000
0100
1000
0000
,
0110
0000
0001
1000
,
0100
0010
0100
1000
,
0010
0100
0010
1000
,
0100
0010
0001
1000
,
0001
0000
0001
0000
0010
0100
0010
0000
,
0100
1000
0001
0100
,
0010
1000
0010
0100
,
0010
1000
2002
3003
,
0001
0000
0001
0000
0100
0010
0100
0000
,
0001
1000
0100
0010
,
0002
0000
1003
0001
,
0100
0010
0100
0000
0010
0000
0110
0000
,
0001
1000
0010
0100
,
0001
0000
0001
0000
1000
0001
1000
0000
,
0010
1000
0100
0010
,
0001
1000
0001
0000
0100
0010
0100
0000
,
0002
0000
1003
0000
,
2000
0000
3001
0000
,
0020
0000
0130
0000
,
0200
0000
0320
0030
,
0001
1000
0010
1000
,
0001
0010
0100
0000
,
0010
0010
0110
0000
,
0001
1000
0001
0001
,
0100
0001
1001
0000
,
1000
1000
0001
0001
,
0100
0010
0100
0100
,
0220
0000
0000
0330
,
0002
0000
0000
0000
,
2003
0000
0000
0000
,
3020
0000
0000
0000
,
0230
0000
0000
0000
,
0302
0000
0000
0000
,
2003
0000
0000
0000
,
3200
0000
0000
0000
,
0320
0000
0000
0030
,
2002
0000
0000
0000
,
0000
0000
0000
3003
,
1000
0100
1000
1000
,
0001
0000
0100
0000
0010
0000
0000
0010
,
0000
0010
0100
0001
,
1000
0000
0000
0000
0001
1000
0001
1000
,
0001
0100
0010
0100
,
0001
0001
1000
1000
,
0100
0010
0001
0001
,
1000
0010
0100
0110
,
0001
0000
0010
0000
,
0100
1000
0001
0100
,
0220
0330
0001
1000
,
0001
0001
1000
0100
,
1000
0000
0010
0000
1000
0000
0000
0100
,
0000
0110
0000
2002
0000
3003
0000
0000
,
0001
0001
0010
0000
0100
0100
1000
0000
,
0001
0100
0010
0100
,
2002
0000
0000
0000
,
0000
0000
3000
0003
,
1000
0100
1000
0000
1000
0000
0001
0000
,
0100
0010
0100
0000
0100
0000
0001
0000
,
0010
0100
0010
0000
0100
0000
0000
0100
,
0000
0110
0000
1001
0000
0000
0000
0000
,
0001
0010
1000
0000
,
0001
0100
1000
0000
,
0001
0100
0010
1000
,
0001
0010
0001
0000
0001
0000
0000
0000
,
1000
0010
1000
0000
1000
0000
0000
0000
,
0001
0100
0001
0000
1000
0100
1000
0000
,
0001
0010
0001
0000
1000
0000
2002
0000
,
3003
0000
0000
0000
;

//--------------- dance-single - Fred-104 2nd Season ----------------
#NOTEDATA:;
#STEPSTYPE:dance-single;
#DESCRIPTION:Fred-104 2nd Season;
#DIFFICULTY:Medium;
#METER:11;
#CREDIT:Fred-104 2nd Season;
#NOTES:
0000
0000
0000
0000
,
0000
0000
0000
0000
,
0000
0000
0000
0000
,
0000
0000
0000
0000
,
0000
0000
0000
0000
,
1000
0000
0001
0000
0100
0010
0100
0000
,
0001
1000
0001
1000
0001
0000
1000
0000
,
0100
0010
0100
0010
0100
0000
0010
0000
,
0001
1000
0001
1000
0010
0000
0100
0000
,
0001
1000
0010
1000
0001
0000
0010
0000
,
0100
1000
0001
1000
0010
0000
0100
0000
,
0001
1000
0100
1000
0001
0000
0010
0000
,
0100
0100
0000
1000
1000
0000
1001
0000
,
0001
0000
0000
1000
0000
0000
0001
0000
0010
0000
0000
0100
0000
0000
1000
0000
,
0001
0100
0010
1000
0001
0000
0010
0000
,
0100
1000
0001
0100
0010
0000
0100
0000
,
0001
1000
0100
1000
0010
0000
1000
0000
,
0001
0010
0100
0000
1000
0001
1000
0001
,
0000
0110
0000
2002
0000
0000
3003
0000
,
1000
0100
0001
0000
1000
0010
0001
0000
,
1000
0100
0010
0001
1000
0001
1000
0000
,
0110
0000
1001
0000
0001
0010
0100
0000
,
1000
0010
0100
0000
0010
1000
0001
0000
,
2000
0100
0100
3100
,
0002
0100
0100
0103
,
1000
0001
0100
0000
0010
1000
0001
0000
,
0010
0100
1000
0000
0001
1000
0010
0000
,
2000
0001
0001
3001
,
0010
0100
1000
0000
0001
1000
1001
0000
,
0001
0000
0000
0010
0000
0000
0010
0000
0100
0000
1000
0000
0001
0000
0100
0000
,
0010
0100
0010
1000
0001
0000
0010
0000
,
0200
1000
0001
1300
,
0001
0100
0010
1000
0001
0000
1001
0000
,
0001
0010
0100
0000
1000
0010
0100
0000
,
0010
1000
0001
1000
0100
1000
0001
0000
,
0100
0001
0100
0000
0010
1000
0001
0000
,
0010
0100
1000
0001
1000
0001
1000
0000
,
0200
0310
0002
0003
,
0200
0310
2000
3000
,
0020
0130
0002
0003
,
0020
0130
2000
3001
,
1000
0010
0001
0000
1000
0100
0001
0000
,
0010
0100
1000
0000
0001
0100
0010
0000
,
0110
0000
0110
0000
0001
1000
0000
1000
,
0001
0010
0100
1000
0001
1000
1001
0000
,
1000
0000
0010
0000
0100
0000
0000
0000
0001
0000
0000
1001
0000
0000
1000
0000
,
0010
0100
0110
1001
,
1010
0000
0001
1000
0010
1000
0100
0010
,
0200
0000
0000
0300
,
2000
0000
0000
0000
,
3002
0000
0000
0000
,
0203
0000
0000
0000
,
0320
0000
0000
0000
,
0230
0000
0302
0000
,
2003
0000
3200
0000
,
0320
0000
0032
0000
,
2003
0000
3002
1003
,
2002
0000
0000
0000
,
0000
0000
0000
3003
,
0001
0100
0001
0100
0001
0010
0001
0000
,
0010
0100
0010
0100
1000
0100
1000
0001
,
0000
0100
0001
0000
1000
0001
0010
0000
,
0100
1000
0001
0000
0100
0010
0100
0010
,
0100
0001
1000
0000
0100
0010
0100
0000
,
0010
0001
1000
0000
0010
1000
0001
0000
,
0010
0100
1000
0000
0010
0100
0001
0000
,
1000
1000
0001
0001
1000
0001
1001
0000
,
1000
0100
0000
0001
0000
0100
1000
0001
,
0000
0100
0010
1000
0001
0000
1001
0000
,
0220
0330
0000
0000
1001
0000
0000
0000
0001
0000
0010
0000
0100
0000
0000
0000
,
1000
0001
0100
0001
1000
0100
0010
0000
,
0001
1000
0010
1000
0001
0010
0100
1000
,
0000
0110
0000
1001
0000
2000
3002
2003
,
3010
0100
0001
0000
1000
0100
0010
0000
,
0001
1000
0010
0100
0001
0010
0100
0000
,
2002
0000
0000
0000
,
0000
0000
0003
3000
,
0001
0010
0100
1000
0100
0010
0001
0000
,
1000
0100
1000
0001
0100
0010
1000
0000
,
0001
0010
0100
0000
1000
0001
1000
0010
,
0000
0110
0000
1001
0000
0001
1000
0000
,
0001
0010
1000
0000
1000
0010
0001
0000
,
1000
0010
0001
0000
0001
0010
1000
0000
,
0001
0010
0100
0000
1000
0010
0100
0000
,
0001
0100
0010
0100
0001
1000
0010
0000
,
1000
0100
0010
0100
1000
0001
0010
0000
,
0001
0010
1000
0000
0001
0100
1000
0000
,
0001
0010
0100
0000
1000
0001
2002
0000
,
3003
0000
0000
0000
;

//--------------- dance-single - Fred-104 2nd Season ----------------
#NOTEDATA:;
#STEPSTYPE:dance-single;
#DESCRIPTION:Fred-104 2nd Season;
#DIFFICULTY:Hard;
#METER:15;
#CREDIT:Fred-104 2nd Season;
#NOTES:
0000
0000
0000
0000
,
0000
0000
0000
0000
,
0000
0000
0000
0000
,
0000
0000
0000
0000
,
0000
0000
0000
0000
,
0001
0000
0010
0000
0100
0000
1000
0000
0001
0000
0100
0010
0100
0000
0001
0000
,
1000
0100
0001
0100
1000
0000
1000
0001
,
0100
1000
0100
0001
0010
0000
0010
0100
,
1000
0000
0001
0000
0100
0000
0010
0000
1000
0000
0001
0000
0010
0100
0000
0100
,
1000
0010
0100
1000
0100
0000
0100
0001
,
1000
0100
0001
0100
0010
0000
0010
0001
,
1000
0010
0100
0001
1000
0000
0001
0000
,
1100
1100
0000
0101
0101
0000
1000
0001
,
1000
0000
0001
0010
0000
0100
1000
0000
0001
0000
0000
1000
0000
0000
0010
0000
,
0100
0001
0100
0001
0100
0000
0001
0000
0010
0000
0000
0000
0010
0000
0100
0000
,
1000
0000
0010
0100
0010
0000
1000
0000
0001
0000
0010
0000
0001
0000
0000
0000
,
1000
0100
0010
0001
0100
0000
0100
1000
,
0100
0000
0001
0000
1000
0000
0000
0000
0001
0100
0001
0100
0001
0000
1001
0000
,
0000
0110
0000
2002
0000
0000
3003
0000
,
0001
0000
0010
0100
0010
0000
0100
0000
1000
0000
0001
0100
0001
0000
1000
0000
,
0001
0010
1000
0010
0001
1000
1001
0000
,
0110
0000
1000
0001
0100
0000
0110
0000
,
1000
0100
0001
0100
0010
0100
1000
0000
,
0001
0200
0010
0000
1000
0000
0301
0000
,
1000
0200
0010
0000
0001
0000
1300
0000
,
0001
0100
1000
0100
0010
1000
0001
0000
,
1000
0000
0100
0000
0001
0000
0100
0000
0010
0000
0001
0000
1000
0001
0000
0001
,
0100
0020
0001
0000
0100
0000
1030
0000
,
0001
0000
0010
0000
0100
0000
1000
0000
0001
0000
1000
0010
0100
0001
0000
0000
,
1000
0000
0001
0100
0000
0010
1000
0000
0001
0000
0010
0100
0010
0000
0100
0000
,
1000
0000
0001
0100
0001
0000
1000
0000
0100
0000
0010
0000
0001
0000
0000
0000
,
1000
0020
0100
0000
1000
0000
0130
0001
,
1000
0000
0100
0000
0010
0000
0001
0000
1000
0000
1000
0001
1000
0000
0000
0000
,
0001
0000
1000
0001
0100
0000
0010
0000
0100
0000
0001
0000
1000
0000
0100
0000
,
0010
1000
0001
0100
0010
0001
1001
0000
,
0001
1000
0001
1000
0100
0000
0010
0000
0001
0000
1000
0010
1000
0000
0001
0000
,
0100
0010
0100
0010
0100
0000
0001
1000
0100
0010
0000
0100
0010
0000
0100
0000
,
1000
0100
0000
0100
2000
0000
3000
0000
0001
0000
0100
0000
1000
0000
0100
0000
,
0001
0010
0000
0010
0002
0000
0003
0000
1000
0000
0010
0000
0001
0000
0010
0000
,
1000
0001
0000
0001
2000
0000
3000
0000
0100
0000
0010
0000
0001
0000
0100
0000
,
0010
0100
0000
0100
0020
0000
0130
0000
0001
0000
1000
0000
1001
0000
0000
0000
,
0001
0100
0010
0100
1000
0001
0010
0100
,
0001
0000
1000
0000
0100
0000
0010
0000
0001
0000
1000
0010
1000
0000
0001
0010
,
0100
0000
0000
0000
1100
0000
0000
0000
0101
0000
1001
0000
0000
0000
0001
1000
,
0001
0000
0100
0000
0010
0000
1000
0000
0010
1000
0010
0000
1010
0000
0000
0000
,
0001
0000
1000
0000
0100
0000
0010
0000
0011
0000
0000
1010
0000
0000
0001
1000
,
0001
0100
0110
1001
,
1100
0000
0000
0000
0001
0000
1000
0000
0100
0010
0001
0000
1000
0000
0010
0100
,
0002
0000
0000
0003
,
2000
0000
0000
0000
,
3200
0000
0320
0000
,
0032
0000
0000
0000
,
2003
0000
3002
0000
,
1003
0000
1000
0000
0100
0010
0001
0000
,
0100
0000
0010
0100
0010
0000
0000
0000
,
0100
0000
0100
0000
0001
0010
0100
0000
,
1000
0000
0010
0000
0100
0001
0100
0000
,
2002
0000
0000
3003
,
1000
0100
1000
0000
0001
0100
0001
0000
1000
0001
1000
0001
1000
0000
0000
0000
,
0001
0000
0010
0100
0010
0000
0100
0000
1000
0001
0100
0000
0001
0000
1000
0000
,
0001
0100
0010
0100
1000
0100
0001
2000
,
0000
3100
0010
0001
0100
0010
0001
1000
,
0100
0010
1000
0001
0010
0010
0010
0010
,
0100
0000
1000
0001
1000
0000
0010
0000
0100
0001
0100
0000
0001
0000
1000
0000
,
0001
0010
1000
0010
0100
0010
0001
1000
,
0010
0100
0101
0000
0010
0100
1100
0000
,
0001
0100
0001
0000
1000
0000
1000
0000
0001
0000
0001
0000
1001
0000
0000
0000
,
0001
0010
0100
0001
1000
0010
0100
1000
,
0010
0100
1000
0100
0001
0000
1001
0000
,
0220
0330
0000
0000
1001
0000
1000
0000
0100
0000
0010
0000
0001
0000
1000
0000
,
0001
0100
1000
0100
0010
0001
0010
1000
,
0001
0000
0010
0100
0010
0000
0100
0000
1000
0000
0001
0100
0001
0000
1001
0000
,
0000
1100
0000
0101
0000
0002
2003
3002
,
0013
0000
0100
1000
0100
0000
0010
0000
0001
0000
1000
0010
1000
0000
0001
0000
,
0010
0100
0010
0000
0001
0000
1000
0010
1000
0000
0001
0000
1000
0000
0001
0000
,
2002
0000
0000
0000
,
0000
0000
3003
0110
,
0001
0000
1000
0100
1000
0000
0001
0000
0100
0000
0010
1000
0010
0000
0100
0000
,
0001
0000
1000
0100
0010
0000
0001
1000
0010
0000
1000
0001
1000
0001
0010
0000
,
0100
0000
1000
0001
1000
0000
0001
0000
0100
0000
0010
1000
0010
0000
1010
0000
,
0000
0101
0000
1100
0000
0011
1001
0000
,
0001
0010
0000
0100
1000
0000
0001
0000
0100
0010
0100
0010
0100
0000
0000
0000
,
0001
1000
0000
0100
1000
0000
0001
0000
0100
0001
0100
0001
0100
0000
0010
0000
,
1000
0000
0001
0010
0001
0000
0010
0000
0100
0000
1000
0001
1000
0000
0001
0000
,
1000
0010
1000
0000
0001
0000
0010
0000
0100
0000
1000
0000
0002
0000
0203
0000
,
0310
1000
0010
0000
0100
0000
0001
0000
1000
0000
0100
0000
0020
0000
0032
0000
,
1003
0010
0100
0000
0001
0000
1000
0000
0001
0010
0100
0000
1000
0000
0001
0000
,
0100
0001
1000
0000
0100
0000
0001
0000
0100
0000
0010
0000
0001
1000
0002
0000
,
0003
0000
0000
0000
;

//--------------- dance-single - Fred-104 3rd Season ----------------
#NOTEDATA:;
#STEPSTYPE:dance-single;
#DESCRIPTION:Fred-104 3rd Season;
#DIFFICULTY:Challenge;
#METER:17;
#CREDIT:Fred-104 3rd Season;
#NOTES:
0000
0000
0000
0000
,
0000
0000
0000
0000
,
0000
0000
0000
0000
,
0000
0000
0000
0000
,
0000
0000
0000
0000
,
0001
0000
1000
0100
0010
0000
0001
0000
1000
0010
1000
0010
1000
0000
0001
0000
,
0010
1000
0010
0100
0010
0000
0010
0001
,
0100
0000
1000
0100
0010
0000
0100
0000
0001
0000
0000
0000
0001
0000
0100
0001
,
1000
0000
0100
0000
0001
0000
0100
0000
0010
0000
0001
0000
1000
0010
1000
0000
,
0001
0010
0001
0000
1000
0000
0100
0000
0001
0000
0100
0000
0010
0000
0100
0000
,
0010
0001
1000
0000
0010
0000
0100
0000
1000
0000
0100
0000
0010
0000
0100
0000
,
0001
0001
0001
0001
1000
0001
0100
0010
,
0110
1010
0000
0101
1100
0000
0011
0011
,
1001
0000
0001
0010
0000
0100
1000
0000
0001
0000
0100
0010
0000
1000
0010
0000
,
0100
1000
0100
1000
0100
0000
0001
0000
0010
0000
MMMM
0000
0010
0000
0100
0000
,
1000
0000
0001
0100
0010
0000
1000
0000
0001
0000
MMMM
0000
0001
0000
0010
0000
,
0001
0000
0010
0100
0010
0000
1000
0000
0010
0000
0001
0000
1000
0010
0100
0000
,
0001
1000
0001
1000
0200
0000
0000
0000
0310
0001
0010
0001
0010
0000
0011
0000
,
0000
0000
0000
0000
1010
0000
0000
0000
0000
0000
0000
0000
0202
0000
0000
0000
0000
0000
0303
0000
0000
0000
0000
MMMM
MMMM
0000
0000
0000
0000
0000
0000
0000
,
1000
0000
0100
0010
0001
0000
1000
0000
0001
0000
0100
0010
1000
0000
0001
0000
,
0010
0100
0010
1000
0010
0001
1001
0000
,
0110
0000
1000
0100
0010
0001
0011
0000
,
0001
0000
0100
0000
1000
0000
0100
0000
0010
0000
0001
0000
0010
1000
0000
0001
,
0010
0100
0001
MMMM
1000
MMMM
0010
MMMM
,
0001
1000
0010
1000
0001
0000
0010
0000
0100
1000
0100
1000
0001
0000
1000
0000
,
0100
0010
0001
1000
0010
1000
1000
1000
,
0010
0000
0100
0000
1000
0000
0100
0000
0010
0000
0001
0010
1000
0000
0001
0000
,
0010
0100
0010
1000
0010
0001
1000
MMMM
,
1000
0000
0010
0000
1000
0000
0001
0010
0100
0000
1000
0001
0100
0001
0000
0000
,
1000
0000
0100
0010
0001
0000
1000
0001
0100
0000
0010
0001
0010
0000
1000
0000
,
0001
0000
1000
0001
0100
0010
1000
0000
0001
0000
0010
0000
0100
1000
0100
0000
,
0010
0000
0001
1000
0010
0100
0001
0000
1000
0000
0100
0010
0001
0000
1000
0000
,
0001
0000
0100
0001
0010
0000
0001
0000
1000
0010
0100
0000
0101
0000
0000
0000
,
1000
0001
0010
0001
1000
0000
0001
0000
0100
0001
1000
0000
0100
0010
0001
0000
,
1000
0000
0010
1000
0001
0000
0010
0000
0100
1000
0001
0000
0100
0001
1000
0001
,
0010
0100
0010
0100
0010
0000
0100
0000
1000
0000
0001
0100
1000
0000
0100
0000
,
0001
1000
0100
0010
0001
0000
1000
0010
1000
0001
0010
0100
1000
0001
0100
0000
,
0010
0100
0000
0100
0020
0000
0030
0000
0100
0001
1000
0100
0010
0000
0001
0000
,
1000
0010
0000
0010
2000
0000
3000
0000
0010
1000
0001
1000
0100
0000
0010
0000
,
0001
1000
0000
1000
0002
0000
0003
0000
1000
0001
0010
0001
1000
0000
0010
0000
,
0100
0001
0000
0001
0200
0000
0301
0000
0010
0000
0110
0000
2200
0000
3300
0000
,
0001
0000
1000
0001
0010
0000
0100
0000
1000
0000
0001
1000
0010
0000
0100
0000
,
0001
0000
1000
0000
0100
0000
0001
0000
0100
0000
0010
0100
1000
0000
0001
1000
,
0010
0000
0000
1000
0000
0000
0001
0000
0000
0010
0000
0000
0011
0000
0000
0011
0000
0000
0000
0000
0000
0001
1000
0001
,
1000
0000
0010
0000
0100
0000
0001
0000
0100
0010
0100
0000
0110
0000
0000
0000
,
0001
0000
1000
0001
0010
0000
0100
0000
1100
0000
0000
0101
0000
0000
1000
0100
,
0010
0000
0000
0000
0011
0000
0000
0000
1001
0000
0000
MMMM
MMMM
0000
0000
0000
,
0110
0000
0000
0000
0000
0000
0000
0000
0000
0000
0000
0000
1000
0000
0000
0000
0000
0000
0001
0000
0000
0000
0000
0000
0100
0000
0000
0010
0000
0000
1000
0000
0000
0000
0000
0000
0001
0000
0000
0000
0000
0000
0010
0000
0100
0000
0010
0000
,
0200
0000
0000
0000
0000
0300
MMMM
0000
,
1000
0100
0001
1000
0010
0001
0010
0000
,
0100
0000
1000
0000
0001
0100
0010
1000
0001
0000
0000
0000
1001
0000
0000
0000
,
0001
0100
1000
0001
0010
1000
0100
0000
,
0010
0000
0001
0000
1000
0010
0100
0001
1000
0000
0000
0000
1001
0000
0000
0000
,
0001
0100
MMMM
0100
1000
0100
0001
0000
,
1000
0000
0100
0000
0010
0001
1000
0010
0100
0000
0010
0000
0100
0000
0000
0000
,
0001
0010
MMMM
1000
0010
MMMM
0001
0000
,
0100
0000
0010
0000
0100
0010
0100
0010
0100
0000
0010
0000
0110
0000
0000
0000
,
MMMM
MMMM
MMMM
MMMM
MMMM
MMMM
MMMM
MMMM
MMMM
MMMM
MMMM
MMMM
MMMM
0000
0000
0000
,
0001
0010
0001
0010
0100
1000
0100
1000
0001
1000
0001
1000
0001
0000
0000
0000
,
1000
0000
0001
1000
0010
0000
0100
0000
0001
1000
0100
0000
0010
0000
0001
0000
,
1000
0010
0100
1000
0001
0010
1000
0001
,
MMMM
0000
0001
0000
0010
0000
0100
0000
1000
0000
0001
0100
1000
0000
0100
0000
,
0001
1000
0100
0010
0011
0011
0011
0011
,
1000
0000
0001
1000
0010
0000
0100
0000
0001
0010
0100
0000
1000
0000
0001
0000
,
0100
0000
1000
0000
0100
0000
0010
0000
0100
0001
1000
0000
0100
0000
0010
0000
,
0001
0100
1000
MMMM
1000
0100
0001
1000
,
0001
0010
0100
0000
0010
0000
0010
0000
0100
0000
0100
0000
0220
0000
0330
0000
,
1000
0001
0100
1000
0001
0010
1000
0100
,
0001
1000
0010
0001
1001
0000
0110
0000
,
MMMM
MMMM
0000
0000
0000
0000
0000
0000
0000
0000
0000
0000
0000
0000
0000
0000
0001
0000
0000
0000
0000
0000
0000
0000
0100
0000
0000
0000
0000
0000
0000
0000
1000
0000
0000
0000
0000
0000
0000
0000
0100
0000
0000
0000
0000
0000
0000
0000
0010
0000
0000
0000
0000
0000
0000
0000
1000
0000
0000
0000
0000
0000
0000
0000
,
0001
1000
0100
0001
0100
0010
1000
0010
,
0001
0000
1000
0000
0001
1000
0100
0010
0001
1000
0010
1000
0001
0000
1001
0000
,
0000
0110
0000
1001
0000
MMMM
MMMM
MMMM
,
0001
0000
0010
0100
1000
0000
0001
0000
1000
0000
0010
0100
0001
0000
1000
0000
,
0001
0010
1000
0000
0010
0000
0100
0010
0001
0000
1000
0000
0010
0000
0010
0000
,
0200
0000
0000
0000
,
0000
0000
0000
0000
0000
0000
0000
0000
0000
0000
0000
0000
0000
0000
0000
0000
0000
0000
0300
0000
0000
0000
0000
0000
MMMM
0000
0000
0000
0000
0000
0000
0000
0000
MMMM
MMMM
MMMM
MMMM
0000
0000
0000
0000
0000
0000
0000
0000
0000
0000
0000
,
0001
0000
1000
0010
0100
0001
1000
0000
0100
0000
0010
0001
1000
0001
0100
0000
,
0001
1000
0001
0010
0100
0000
1000
0000
0001
0000
0100
0010
1000
0010
0100
0000
,
0001
0000
1000
0100
0010
0000
0001
0000
1000
0000
0010
0100
0001
0000
0101
0000
,
MMMM
1100
MMMM
0011
MMMM
1010
1001
0000
,
0001
1000
0010
1000
0001
0000
0010
0000
0100
1000
0001
0100
0010
0000
0000
0000
,
1000
0001
0010
0100
1000
0000
0001
0000
0100
0001
1000
0001
0010
0000
0100
0000
,
1000
0000
0001
0100
0010
0000
0100
0000
1000
0000
0100
0001
1000
0000
1000
0000
,
0001
0010
1000
0000
0010
0000
0100
0000
0001
0000
0100
0000
1000
0001
1000
0000
,
0001
0100
0010
0000
0001
0000
0010
0000
0100
0000
1000
0000
0100
0010
1000
0000
,
0001
0010
1000
0000
0010
0000
0001
0000
1000
0010
0001
0000
0010
0000
1000
0000
,
0001
0010
0100
0000
0001
0000
0100
0000
1000
0000
0001
0000
1000
0010
0200
0000
,
0300
0000
0000
0000
;

//--------------- dance-double - Fred-104 ----------------
#NOTEDATA:;
#STEPSTYPE:dance-double;
#DESCRIPTION:Fred-104;
#DIFFICULTY:Easy;
#METER:8;
#CREDIT:Fred-104;
#NOTES:
00000000
00000000
00000000
00000000
,
00000000
00000000
00000000
00000000
,
00000000
00000000
00000000
00000000
,
00000000
00000000
00000000
00000000
,
00000000
00000000
00000000
00000000
,
00001000
01000000
00001000
00010000
,
00001000
00010000
00100000
00000000
,
00010000
00001000
00010000
00000000
,
00001000
00000010
00001000
00000000
,
00010000
00001000
00000100
00000001
,
00000010
00000100
00010000
00000000
,
00001000
00100000
01000000
00000000
,
10000000
00000000
00000000
00100000
00000000
00000000
00010000
00000000
,
00011000
00000000
00001000
00010000
,
00001000
00000100
00000001
00000100
,
00001000
00010000
00001000
00001000
,
01000000
00010000
01000000
00000000
00010000
00000000
10000000
00000000
,
01000000
00100000
01000000
00000000
00100000
00000000
00001000
00010000
,
00000000
00011000
00000000
00000220
00000000
00000000
00000330
00000000
,
00000001
00000010
00000100
00000010
,
00001000
00010000
00001000
00000000
00100000
00010000
00100000
00000000
,
10010000
00000000
10000000
01000000
,
00010000
01000000
10000000
00010000
,
10000000
00100000
00010000
00001000
,
00000010
00000001
00000100
00000010
,
00001000
00000000
00001000
00000000
00000001
00000010
00000100
00000000
,
00010000
00001000
01000000
00001000
,
00010000
00001000
00100000
00010000
,
00100000
01000000
20020000
30030000
,
10000000
00000000
01000000
00000000
00100000
00010000
00100000
00000000
,
00001000
00010000
00001000
00000100
,
00000002
00000000
00000000
00000000
00000013
00000100
00000010
00000000
,
00000100
00000000
00010000
00001000
00010000
00000000
00011000
00000000
,
00001000
00010000
01000000
00100000
,
00001000
00000000
00010000
00000000
00001000
01000000
00010000
00000000
,
10000000
01000000
00100000
00001000
,
00010000
00001000
00010000
00000000
00000010
00001000
00000010
00000000
,
00020000
00000000
00031000
00000000
,
00002000
00000000
00013000
00000000
,
00000020
00000000
00010030
00000000
,
00002000
00000000
02003000
03000000
,
00010000
10000000
01000000
00100000
,
01000000
00010000
00001000
00000000
,
00010000
00010000
00011000
00000000
,
00010000
00001000
00000010
00000100
,
00000010
00000001
00001001
00000000
,
00000001
00000100
00001000
00010000
,
00001000
00000010
00000001
00000100
,
00000220
00000000
00000000
00000330
,
00000002
00000000
00000000
00000000
,
00000023
00000000
00000000
00000000
,
00000230
00000000
00000000
00000000
,
00020300
00000000
00000000
00000000
,
00032000
00000000
00000000
00000000
,
02003000
00000000
00000000
00000000
,
03002000
00000000
00000000
00000000
,
00023000
00000000
00000000
00030000
,
00022000
00000000
00000000
00000000
,
00000000
00000000
00000000
00033000
,
00001000
00010000
00001000
00001000
,
01000000
00000000
00010000
00000000
00100000
00000000
00000000
00100000
,
00000000
01000000
10000000
00100000
,
00010000
00000000
00000000
00000000
00001000
00010000
00001000
00010000
,
00001000
00010000
00001000
00000100
,
00000010
00000100
00000001
00001000
,
00000100
00000010
00001000
00010000
,
00001000
00010000
00001000
00011000
,
01000000
00000000
00010000
00000000
,
00100000
01000000
00010000
00001000
,
00022000
00033000
00010000
00010000
,
00001000
00000100
00000010
00001000
,
00000001
00000000
00000010
00000000
00000100
00000000
00000000
00010000
,
00000000
00011000
00000000
00022000
00000000
00033000
00000000
00000000
,
00001000
00001000
00010000
00000000
01000000
01000000
10000000
00000000
,
00010000
01000000
00100000
00010000
,
00022000
00000000
00000000
00000000
,
00000000
00000000
00030000
00003000
,
00010000
00001000
00010000
00000000
00001000
00000000
00000100
00000000
,
00000010
00001000
00000010
00000000
00000100
00000000
00000001
00000000
,
00000010
00000100
00000010
00000000
00000100
00000000
00000000
00010000
,
00000000
00011000
00000000
00000110
00000000
00000000
00000000
00000000
,
00000001
00000010
00001000
00000000
,
00010000
01000000
10000000
00000000
,
00010000
10000000
00010000
00000000
,
10000000
01000000
00010000
00001000
,
00000010
00000001
00000100
00001000
,
00010000
00001000
00000010
00001000
,
00010000
00000000
00100000
00000000
10000000
00010000
20020000
00000000
,
30030000
00000000
00000000
00000000
;

//--------------- dance-double - Fred-104 2nd Season ----------------
#NOTEDATA:;
#STEPSTYPE:dance-double;
#DESCRIPTION:Fred-104 2nd Season;
#DIFFICULTY:Medium;
#METER:11;
#CREDIT:Fred-104 2nd Season;
#NOTES:
00000000
00000000
00000000
00000000
,
00000000
00000000
00000000
00000000
,
00000000
00000000
00000000
00000000
,
00000000
00000000
00000000
00000000
,
00000000
00000000
00000000
00000000
,
00010000
00000000
00001000
00000000
00000100
00000010
00001000
00000000
,
00000001
00000010
00000001
00000010
00000100
00000000
00010000
00000000
,
00001000
00010000
00001000
00010000
01000000
00000000
00100000
00000000
,
00010000
10000000
00100000
10000000
00100000
00000000
00010000
00000000
,
00001000
00010000
00000010
00010000
00001000
00000000
00010000
00000000
,
00000100
00001000
00000100
00000010
00000001
00000000
00001000
00000000
,
00000010
00000100
00001000
00010000
00001000
00000000
00010000
00000000
,
01000000
01000000
00000000
10000000
10000000
00000000
10010000
00000000
,
10000000
00000000
00000000
01000000
00000000
00000000
00010000
00000000
00001000
00000000
00000000
00010000
00000000
00000000
01000000
00000000
,
10000000
00100000
00010000
00001000
00010000
00000000
00001000
00000000
,
00010000
00001000
00000100
00001000
00010000
00000000
00000100
00000000
,
00001000
00000100
00000001
00000000
00000100
00000000
00000010
00000001
,
00001000
00000010
00000100
00000000
00001000
00010000
00001000
00010000
,
00000000
01100000
00000000
20020000
00000000
00000000
30030000
00000000
,
10000000
00100000
00010000
00000000
00001000
00000100
00000001
00000000
,
00000010
00000100
00001000
00000000
00000100
00010000
00001000
00000000
,
00011000
00000000
01100000
00000000
00010000
10000000
01000000
00000000
,
00100000
00001000
00010000
00000000
00001000
00000000
00010000
00000000
,
00001000
00000000
00000100
00000000
00000001
00000010
00000100
00000000
,
00010000
00000000
00001000
00000000
00010000
00100000
10000000
00000000
,
01000000
00000000
00100000
00000000
00001000
00010000
00001000
00000000
,
00010000
00000100
00001000
00000000
00000100
00010000
00001000
00000000
,
00020000
00001000
00100000
00031000
,
00010000
00001000
01000000
00000000
00100000
10000000
10010000
00000000
,
10000000
00000000
00000000
10000000
00000000
00000000
10000000
00000000
00100000
00000000
01000000
00000000
00100000
00000000
00010000
00000000
,
00001000
00010000
00000100
00010000
00001000
00000000
00010000
00000000
,
00000200
00001000
00000001
00001300
,
00000001
00000100
00001000
00010000
00001000
00000000
00011000
00000000
,
00001000
00100000
00010000
00000000
01000000
00001000
00010000
00000000
,
00001000
00010000
00100000
00000000
01000000
00010000
10000000
00000000
,
01000000
00100000
00010000
00000000
00100000
00001000
00010000
00000000
,
00001000
00010000
00000010
00001000
00000010
00010000
00001000
00000000
,
00020000
00031000
00000020
00000030
,
00000002
00000103
00002000
00003000
,
00020000
00130000
20000000
30000000
,
02000000
03010000
00002000
00013000
,
00001000
00010000
00100000
00000000
00010000
00001000
00010000
00000000
,
00001000
00000010
00001000
00000000
00010000
00001000
00010000
00000000
,
00011000
00000000
00011000
00000000
00001000
00010000
00000000
00010000
,
00000100
00001000
00000001
00000000
00000100
00000000
00001001
00000000
,
00000001
00000000
00000010
00000000
00000100
00000000
00000000
00000000
00010000
00000000
00000000
00010000
00000000
00000000
00010000
00000000
,
00001000
01000000
00010000
10010000
,
01100000
00000000
10000000
01000000
00010000
00001000
00010000
00100000
,
00020000
00000000
00000000
00030000
,
00012000
00000000
00000000
00000000
,
00023000
00000000
00000000
00000000
,
00030020
00000000
00000000
00000000
,
00020030
00000000
00000000
00000000
,
00032000
00000000
00203000
00000000
,
00302000
00000000
00023000
00000000
,
00030200
00000000
00002300
00000000
,
00003200
00000000
00000320
00000031
,
00002002
00000000
00000000
00000000
,
00000000
00000000
00000000
00003003
,
00001000
00000100
00001000
00000001
00001000
00000100
00010000
00000000
,
00001000
00010000
00001000
00000000
00010000
00100000
01000000
00010000
,
00000000
00100000
01000000
10000000
00100000
00000000
00010000
00000000
,
00001000
00000000
00001000
00000000
00010000
00001000
00010000
00001000
,
00010000
00000000
00000100
00001000
00000010
00000000
00000100
00000001
,
00000010
00000100
00001000
00000000
00000100
00010000
00001000
00000000
,
00010000
00100000
10000000
00000000
00010000
01000000
10000000
00000000
,
00010000
00100000
10000000
00010000
10000000
01000000
01100000
00000000
,
10000000
01000000
00000000
00010000
00000000
00001000
00010000
00000100
,
00000000
00001000
00000001
00000010
00000100
00000000
00011000
00000000
,
00022000
00033000
00000000
00000000
00011000
00000000
00000000
00000000
00001000
00000000
01000000
00000000
00010000
00000000
00000000
00000000
,
10000000
01000000
00100000
00010000
00100000
00001000
00010000
00000000
,
00000010
00001000
00000001
00000010
00000100
00010000
00001000
00010000
,
00000000
00011000
00000000
00000110
00000000
00002000
00003002
00002003
,
00003100
00000010
00000001
00000000
00000100
00001000
00010000
00000000
,
00001000
00010000
01000000
10000000
00010000
10000000
00100000
00000000
,
20020000
00000000
00000000
00000000
,
00000000
00000000
00030000
30000000
,
00010000
10000000
01000000
00000000
00100000
00001000
00010000
00000000
,
00001000
00000100
00000001
00001000
00000100
00000010
00000001
00000000
,
00001000
00000010
00001000
00000010
00000100
00001000
00010000
00001000
,
00000000
00011000
00000000
01100000
00000000
00010000
10000000
00000000
,
10000000
01000000
00010000
00000000
00001000
00000010
00000001
00000000
,
00000001
00000100
00001000
00000000
00010000
00100000
10000000
00000000
,
01000000
00100000
00001000
00010000
00000010
00001000
00000001
00000000
,
00000010
00000100
00010000
00000000
00001000
00000000
00011000
00000000
,
00001000
00010000
00100000
00000000
10000000
00000000
10010000
00000000
,
10000000
01000000
00010000
00000000
00001000
00000010
00000001
00000000
,
00000001
00000100
00001000
00010000
00001000
00010000
00002000
00000000
,
00003000
00000000
00000000
00000000
;

//--------------- dance-double - Fred-104 2nd Season ----------------
#NOTEDATA:;
#STEPSTYPE:dance-double;
#DESCRIPTION:Fred-104 2nd Season;
#DIFFICULTY:Hard;
#METER:15;
#CREDIT:Fred-104 2nd Season;
#NOTES:
00000000
00000000
00000000
00000000
,
00000000
00000000
00000000
00000000
,
00000000
00000000
00000000
00000000
,
00000000
00000000
00000000
00000000
,
00000000
00000000
00000000
00000000
,
00001000
00000000
00010000
00000000
00001000
00000000
01000000
00000000
00010000
00000000
10000000
01000000
00100000
00000000
00001000
00000000
,
00010000
00001000
00000010
00001000
00010000
00000000
00010000
00001000
,
00010000
00001000
00000100
00001000
00010000
00000000
00010000
00001000
,
01000000
00000000
00001000
00000000
00010000
00000000
01000000
00000000
00100000
00000000
00010000
00000000
00100000
01000000
00000000
01000000
,
10000000
00100000
01000000
00100000
00010000
00000000
00010000
00001000
,
00000010
00000100
00000010
00000001
00001000
00000000
00001000
00000010
,
00000100
00001000
00010000
00001000
00010000
00000000
00001000
00000000
,
00010000
00010010
00000000
00001000
01001000
00000000
00011000
00000000
,
00001000
00000000
00010000
00000100
00000000
00001000
00000001
00000000
00000010
00000000
00000100
00001000
00000000
00000001
00000100
00000000
,
00000010
00001000
00000010
00001000
00000001
00000000
00000010
00000000
00000100
00000000
00000000
00000000
00000100
00000000
00010000
00000000
,
00001000
00000000
00010000
00001000
00010000
00000000
00100000
00000000
01000000
00000000
00000000
00000000
01000000
00000000
00010000
00000000
,
10000000
00100000
00010000
00001000
00010000
00000000
00010000
01000000
,
00100000
00000000
00010000
00000000
10000000
00000000
00000000
00000000
01000000
00100000
00010000
00100000
00001000
00000000
00011000
00000000
,
00000000
00010010
00000000
00022000
00000000
00000000
00033000
00000000
,
00010000
00000000
00000010
00001000
00000010
00000000
00010000
00000000
00001000
00000000
00000100
00000010
00000100
00000000
00000001
00000000
,
00001000
00000001
00000010
00001000
00010000
01000000
11000000
00000000
,
00010000
10000000
01000000
10000000
00100000
00010000
00001000
00000000
,
00010000
00001000
00000100
00000010
00000100
00000001
00001000
00000000
,
00000001
00001000
00000100
00000010
00001000
00010000
00001000
00000000
,
00010000
00100000
01000000
00010000
10000000
01000000
00100000
00000000
,
00001000
00010000
00000010
00010000
00001000
00100000
00010000
00000000
,
00001000
00000000
00010000
00000000
00100000
00000000
00001000
00000000
00010000
00000000
00001000
00000000
00010000
00000010
00000000
00010000
,
00001000
00020000
00000100
00000000
01000000
00000000
00031000
00000000
,
00010000
00000000
00001000
00000000
00010000
00000000
00000010
00000000
00001000
00000000
00000001
00000010
00000001
00000010
00000000
00000000
,
00000001
00000000
00001000
00000010
00000000
00010000
00001000
00000000
00010000
00000000
00100000
01000000
00100000
00000000
10000000
00000000
,
00010000
00000000
01000000
00100000
01000000
00000000
00100000
00000000
00010000
00000000
00001000
00000000
00011000
00000000
00000000
00000000
,
00001000
00020000
00000010
00000000
00001000
00000000
00030010
00010000
,
00001000
00000000
00010000
00000000
01000000
00000000
00100000
00000000
10000000
00000000
00100000
00010000
00100000
00000000
00000000
00000000
,
00010000
10000000
00100000
01000000
00100000
00010000
00001000
00000100
,
00000001
00001000
00000100
00000010
00001000
00010000
00011000
00000000
,
00001000
00010000
00001000
00010000
00100000
00000000
01000000
00000000
00010000
00000000
10000000
01000000
10000000
00000000
01000000
00000000
,
00010000
00000000
00001000
00010000
00001000
00000000
00010000
00000010
00001000
00000010
00000000
00010000
00001000
00000000
00010000
00000000
,
00001000
00010000
00000000
00010000
00002000
00000000
00003000
00000000
00010000
00000000
00100000
00000000
10000000
00000000
01000000
00000000
,
00100000
00010000
00000000
00010000
00200000
00000000
00300000
00000000
00001000
00000000
00010000
00000000
00001000
00000000
00000100
00000000
,
00000001
00000010
00000000
00000010
00000200
00000000
00000300
00000000
00010000
00000000
00001000
00000000
00000100
00000000
00000001
00000000
,
00000010
00000100
00000000
00000100
00002000
00000000
00003100
00000000
00010000
00000000
00001000
00000000
00011000
00000000
00000000
00000000
,
00001000
00010000
00100000
01000000
10000000
01000000
00100000
10000000
,
00010000
00000000
00100000
00000000
01000000
00000000
00010000
00000000
00001000
00000000
00000010
00000100
00001000
00000000
00000001
00000100
,
00000010
00000000
00000000
00000000
00000110
00000000
00000000
00000000
00011000
00000000
00011000
00000000
00000000
00000000
01000000
00100000
,
01000000
00010000
00100000
01000000
00010000
00001000
00011000
00000000
,
00001000
00000000
00010000
00000000
00100000
00000000
10000000
00000000
11000000
00000000
00000000
01010000
00000000
00000000
10000000
01000000
,
00100000
00001000
00010010
01001000
,
00011000
00000000
00000000
00000000
00001000
00000000
00010000
00000000
00100000
01000000
00100000
00000000
10000000
00000000
00010000
00000000
,
02020000
00000000
00000000
03030000
,
20000000
00000000
30200000
00000000
,
00320000
00000000
00032000
00000000
,
00003200
00000000
00000302
00000000
,
00000023
00000000
00000230
00000000
,
00010300
00000000
00010000
00000000
00001000
00100000
00001000
00000000
,
00010000
00001000
00000100
00000000
00000001
00001000
00000100
00000000
,
00000010
00000000
00000010
00000000
00000001
00000100
00001000
00000000
,
00010000
01000000
10000000
00010000
,
20020000
00000000
00000000
30030000
,
10000000
01000000
10000000
00000000
00010000
01000000
00010000
00000000
10000000
00010000
10000000
00010000
10000000
00000000
00000000
00000000
,
00010000
00000000
01000000
00100000
10000000
00000000
00100000
00000000
00010000
00001000
00010000
00000000
00001000
00000000
00000010
00000000
,
00000100
00001000
00010000
00100000
01000000
00100000
00001000
00010000
,
00000000
00010000
00001000
00000100
00000010
00000001
00001000
00010000
,
00001000
00010000
00100000
10000000
01000000
01000000
01000000
01000000
,
00100000
00000000
00001000
00010000
00001000
00000000
01000000
00000000
00001000
00010000
00001000
00000000
00000100
00000000
00000001
00000000
,
00001000
00000100
00000001
00000100
00000010
00000001
00001000
00000010
,
00000100
00001000
00010000
00100000
01000000
00010000
10000000
00010000
,
10000000
00100000
10000000
00000000
01000000
00000000
00100000
00000000
00001000
00000000
00010000
00000000
00011000
00000000
00000000
00000000
,
00010000
00001000
00000010
00000100
00000010
00000001
00001000
00000010
,
00000100
00001000
00010000
00001000
00011000
00000000
01100000
00000000
,
20020000
30030000
00000000
00000000
10000000
00000000
01000000
00000000
00100000
00000000
00001000
00000000
00010000
00000000
00000010
00000000
,
00001000
00010000
01000000
00010000
10000000
01000000
00010000
00001000
,
00010000
00000000
00000100
00000010
00000001
00000000
00001000
00000000
00000010
00000000
00000100
00001000
00010000
00000000
00011000
00000000
,
00000000
01100000
00000000
10010000
00000000
20000000
32000000
03200000
,
00301000
00000000
00010000
00000010
00010000
00000000
00001000
00000000
00100000
00000000
00010000
10000000
00010000
00000000
01000000
00000000
,
00100000
00010000
00001000
00000100
00000010
00001000
00000100
00000000
,
00002002
00000000
00000000
00000000
,
00000000
00000000
00003003
00000110
,
00000001
00000000
00001000
00000100
00001000
00000000
00000001
00000000
00000100
00000000
00000010
00001000
00000010
00000000
00010000
00000000
,
00001000
00000000
00100000
00010000
00100000
00000000
00001000
00010000
00001000
00000000
00100000
00001000
00010000
00001000
01000000
00000000
,
00010000
00000000
10000000
01000000
00100000
00000000
01000000
00000000
00100000
00000000
00001000
00010000
00001000
00000000
00011000
00000000
,
00000000
01001000
00000000
01010000
00000000
10100000
00110000
00000000
,
10000000
01000000
00000000
00100000
00001000
00000000
00000000
00000000
00010000
00001000
00100000
00001000
00010000
00000000
00000000
00000000
,
00001000
00010000
00000000
00000100
00001000
00000000
00000000
00000000
00000001
00000100
00000010
00000100
00000001
00000000
00001000
00000000
,
00000100
00000000
00000010
00000001
00001000
00000000
00000010
00000000
00000100
00000000
00001000
00000000
00010000
00000000
00100000
00000000
,
10000000
00010000
00100000
00000000
01000000
00000000
00010000
00000000
00001000
00000000
00000100
00000000
00000020
00000000
00002030
00000000
,
00003001
00001000
00000010
00000000
00000100
00000000
00001000
00000000
00010000
00000000
01000000
00000000
00200000
00000000
00320000
00000000
,
00130000
01000000
10000000
00000000
00100000
00000000
00010000
00000000
00001000
00010000
00001000
00000000
00000010
00000000
00000100
00000000
,
00001000
00000001
00001000
00000000
00000001
00000000
00000100
00000000
00001000
00000000
00010000
00000000
00022000
00000000
00000000
00000000
,
00033000
00000000
00000000
00000000
;

//--------------- dance-double - Fred-104 3rd Season ----------------
#NOTEDATA:;
#STEPSTYPE:dance-double;
#DESCRIPTION:Fred-104 3rd Season;
#DIFFICULTY:Challenge;
#METER:17;
#CREDIT:Fred-104 3rd Season;
#NOTES:
00000000
00000000
00000000
00000000
,
00000000
00000000
00000000
00000000
,
00000000
00000000
00000000
00000000
,
00000000
00000000
00000000
00000000
,
00000000
00000000
00000000
00000000
,
00010000
00000000
00000010
00001000
00000010
00000000
00010000
00000000
00001000
00010000
00001000
00010000
00001000
00000000
00000100
00000000
,
00000001
00000010
00000100
00010000
00001000
MMMM0000
00001000
00010000
,
00100000
00000000
01000000
00010000
00100000
00000000
01000000
00000000
00100000
00000000
0000MMMM
00000000
01000000
00000000
10000000
00000000
,
00010000
00000000
01000000
00000000
00100000
00000000
00010000
00000000
00001000
00000000
00010000
00000000
00000010
00000100
00000000
00000010
,
00001000
00000001
00000010
00000000
00000100
00000000
00000010
00000000
00001000
00000000
MMMM0000
00000000
00001000
00000000
00010000
00000000
,
01000000
00100000
01000000
00000000
10000000
00000000
00100000
00000000
00010000
00000000
0000MMMM
00000000
00010000
00000000
00001000
00000000
,
00000100
00000100
00000100
00000100
00000010
00000000
00001000
00000001
,
00000011
00000011
00000000
00001010
00001010
00000000
00010000
00001000
,
00011000
00000000
00001000
00100000
00000000
00001000
00100000
00000000
00010000
00000000
10000000
00100000
00000000
10000000
00010000
00000000
,
00100000
01000000
00010000
00001000
00010000
0000MMMM
00010000
00001000
,
00000010
00000000
00000001
00000010
00000100
00000000
00000010
00000000
00001000
00000000
MMMM0000
00000000
00001000
00000000
00010000
00000000
,
01000000
00000000
00100000
00010000
10000000
00000000
00100000
00000000
00010000
00000000
00001000
00000000
00010000
00001000
00000000
00010000
,
00001000
00100000
00010000
00100000
00002000
00000000
00000000
00000000
00013000
00001000
00010000
00001000
00010000
00000000
00011000
00000000
,
00000000
01001000
00000000
00010010
00000000
MMMMMMMM
00001001
00000000
,
00000001
00000000
00000100
00000010
00000100
00000000
00001000
00000000
00010000
00000000
00100000
01000000
00100000
00000000
10000000
00000000
,
01000000
00010000
00001000
00000010
00000001
00001000
00001001
00000000
,
00000110
00000000
00000001
00000100
00001000
00010000
00011000
00000000
,
00001000
00000000
00010000
00000000
00100000
00000000
01000000
00000000
10000000
00000000
01000000
00000000
00010000
10000000
00000000
01000000
,
00100000
00001000
00010000
MMMMMMMM
00000010
MMMMMMMM
00010000
MMMMMMMM
,
00010000
00001000
00010000
00000100
00001000
00000000
00000001
00000000
00000100
00000010
00001000
00000001
00000010
00000000
00000100
00000000
,
00010000
00001000
00010000
00100000
01000000
00010000
10000000
01000000
,
00010000
00000000
00001000
00000000
00010000
00000000
00100000
00000000
00010000
00000000
00001000
00010000
00001000
00000000
00010000
00000000
,
00001000
00000010
00000100
00000010
00000001
00000010
00000100
00010000
,
00001000
00000000
00010000
00000000
00001000
00000000
01000000
00010000
01000000
00000000
00001000
00010000
00001000
00010000
00000000
00000000
,
00001000
00000000
01000000
00010000
10000000
00000000
00010000
00100000
01000000
00000000
10000000
00010000
10000000
00000000
00100000
00000000
,
00010000
00000000
00001000
00010000
00000010
00010000
00001000
00000000
00010000
00000000
00001000
00000000
00000100
00000001
00000000
00001000
,
00000100
00000000
00010000
00000100
00001000
00000100
00010000
00000000
00001000
00000000
00000100
00001000
00010000
00000000
00001000
00000000
,
01000000
00000000
00010000
10000000
01000000
00000000
00100000
00000000
00001000
MMMM0000
00001000
00000000
00011000
00000000
00000000
00000000
,
00010000
00001000
00010000
00001000
00000100
00000000
00000001
00000000
00001000
00000100
00000010
00000000
00000001
00000000
00001000
00000000
,
00000010
00000000
00000100
00001000
00010000
00000000
00001000
00000000
01000000
00000000
00001000
00000000
00010000
00000100
00000000
00010000
,
00001000
00000000
00010000
00000000
01000000
00000000
00100000
00000000
10000000
00000000
00100000
00010000
10000000
00000000
00100000
00000000
,
00010000
00001000
00010000
00000100
00001000
00000000
00000100
00000010
00000001
00001000
00000100
00000010
00000001
00001000
00000001
00000000
,
00001000
00000010
00000000
00000010
00002000
00000000
MMMM3000
00000000
00000001
00000010
00000100
00001000
00000100
00000000
00010000
00000000
,
00001000
01000000
00000000
01000000
00002000
00000000
MMMM3000
00000000
00010000
00001000
00100000
00010000
00100000
00000000
01000000
00000000
,
10000000
00010000
00000000
00010000
20000000
00000000
3000MMMM
00000000
01000000
00100000
00001000
00010000
00001000
00000000
00010000
00000000
,
00100000
01000000
00000000
01000000
00020000
00000000
1003MMMM
00000000
11000000
00000000
00110000
00000000
20020000
00000000
30030000
00000000
,
10000000
00000000
00100000
01000000
00100000
00000000
00010000
00000000
00001000
00000000
00010000
00000100
00001000
00000000
00000100
00000000
,
00010000
00000000
00001000
00000000
00010000
00000000
01000000
00000000
00100000
00000000
00010000
01000000
00100000
00000000
00010000
00001000
,
00010000
00000000
00000000
00001000
00000000
00000000
00000010
00000000
00000000
00000001
00000000
00000000
00001000
00000000
00000000
00001001
00000000
00000000
00000000
00000000
00000000
00000001
00000100
00000001
,
00000100
00000000
00000010
00000000
00000100
00000000
00001000
00000000
00010000
00100000
01000000
00000000
01010000
00000000
00000000
00000000
,
10000000
00000000
01000000
00100000
00001000
00000000
00010000
00000000
00010010
00000000
00000000
00001010
00000000
00000000
00000001
00000010
,
00000100
00000000
00000000
00000000
00011000
00000000
00000000
00000000
01100000
00000000
00000000
MMMMMMMM
MMMMMMMM
00000000
00000000
00000000
,
10010000
00000000
00000000
00000000
00000000
00000000
00000000
00000000
00000000
00000000
00000000
00000000
10000000
00000000
00000000
00000000
00000000
00000000
01000000
00000000
00000000
00000000
00000000
00000000
00010000
00000000
00000000
00001000
00000000
00000000
00000010
00000000
00000000
00000000
00000000
00000000
00000100
00000000
00000000
00000000
00000000
00000000
00001000
00000000
00000001
00000000
00001000
00000000
,
00000002
00000000
00000000
00000000
00000000
00000003
MMMMMMMM
00000000
,
00000001
00000010
00001000
00010000
01000000
10000000
00010000
00000000
,
10000000
00000000
00010000
00000000
00100000
01000000
10000000
00010000
01000000
00000000
00000000
00000000
10010000
00000000
00000000
00000000
,
10000000
00100000
00010000
00001000
00000100
00000001
00001000
00000000
,
00000001
00000000
00001000
00000000
00000010
00000100
00000001
00001000
00000100
00000000
00000000
00000000
00001001
00000000
00000000
00000000
,
00000001
00000010
00001000
00010000
00100000
01000000
00010000
00000000
,
10000000
00000000
01000000
00000000
00010000
00001000
00010000
00001000
00010000
00000000
00001000
00000000
00011000
00000000
00000000
00000000
,
00010000
00001000
00000100
00000001
00001000
00000100
00000010
00000000
,
00000001
00000000
00000100
00000000
00001000
00010000
00001000
00010000
00001000
00000000
00000000
00000000
00011000
00000000
00000000
00000000
,
MMMMMMMM
MMMMMMMM
MMMMMMMM
MMMMMMMM
MMMMMMMM
MMMMMMMM
MMMMMMMM
MMMMMMMM
MMMMMMMM
MMMMMMMM
MMMMMMMM
MMMMMMMM
MMMMMMMM
00000000
00000000
00000000
,
00010000
00001000
00010000
00001000
00000010
00000100
00000010
00000001
00001000
00000001
00000100
00001000
00010000
00000000
00000000
00000000
,
00001000
00000000
00010000
00001000
01000000
00000000
00010000
00000000
00100000
00000000
01000000
00010000
00001000
00000000
00010000
00000000
,
00000100
00001000
00000100
00000010
00001000
00010000
00001000
01000000
,
MMMMMMMM
00000000
01000000
00000000
00001000
00000000
00010000
00000000
01000000
00000000
10000000
00010000
01000000
00000000
00100000
00000000
,
00010000
00000000
00000000
00000000
00000000
00000000
00000000
00000000
00001000
00000000
00000000
00000000
00000000
00000000
00000000
00000000
00010000
00000000
00000000
00000000
00000000
00000000
00000000
00000000
00000100
00000000
00000000
00000000
00000000
00000000
00000000
00000000
00000110
MMMM0000
00000000
00000000
00000000
00000000
00000000
00000000
00000110
MMMM0000
00000000
00000000
00000000
00000000
00000000
00000000
00000110
MMMM0000
00000000
00000000
00000000
00000000
00000000
00000000
00000110
MMMM0000
00000000
00000000
00000000
00000000
00000000
00000000
,
00000001
00000000
00001000
00000010
00001000
00000000
00000100
00000000
00000010
00001000
00010000
00000000
00001000
00000000
00010000
00000000
,
00001000
00000000
00100000
00000000
01000000
00000000
10000000
00000000
00010000
01000000
00100000
00000000
00010000
00000000
00001000
00000000
,
00010000
00001000
00000100
0000MMMM
00000100
00001000
00010000
00001000
,
01000000
00010000
00100000
00000000
01000000
00000000
01000000
00000000
00100000
00000000
00100000
00000000
02200000
00000000
03300000
00000000
,
10000000
00100000
00010000
00001000
00000100
00000001
00000010
00001000
,
00010000
01000000
10000000
00100000
01100000
00000000
00011000
00000000
,
MMMMMMMM
MMMMMMMM
00000000
00000000
00000000
00000000
00000000
00000000
00000000
00000000
00000000
00000000
00000000
00000000
00000000
00000000
00010000
00000000
00000000
00000000
00000000
00000000
00000000
00000000
00001000
00000000
00000000
00000000
00000000
00000000
00000000
00000000
00000100
00000000
00000000
00000000
00000000
00000000
00000000
00000000
00000010
00000000
00000000
00000000
00000000
00000000
00000000
00000000
00000001
00000000
00000000
00000000
00000000
00000000
00000000
00000000
00000010
00000000
00000000
00000000
00000000
00000000
00000000
00000000
,
00001000
00001000
00000001
00000001
00000010
00001000
00010000
00001000
,
00010000
00001000
00100000
00001000
00010000
00000000
00100000
00000000
01000000
00100000
10000000
00010000
00100000
00000000
01100000
00000000
,
00000000
00011000
00000000
00000110
00000000
MMMM0000
MMMMMMMM
0000MMMM
,
00000001
00000000
00000100
00001000
00010000
00000000
00100000
00000000
10000000
00000000
00010000
00100000
01000000
00000000
00010000
00000000
,
00001000
00010000
00001000
00000000
00000100
00000000
00000010
00000001
00000010
00000000
00001000
00000000
00000010
00000000
00010000
00000000
,
00002000
00000000
00000000
00000000
,
00000000
00000000
00000000
00000000
00000000
00000000
00000000
00000000
00000000
00000000
00000000
00000000
00000000
00000000
00000000
00000000
00000000
00000000
00003000
00000000
00000000
00000000
00000000
00000000
MMMMMMMM
00000000
00000000
00000000
00000000
00000000
00000000
00000000
00000000
MMMMMMMM
MMMMMMMM
MMMMMMMM
MMMMMMMM
00000000
00000000
00000000
00000000
00000000
00000000
00000000
00000000
00000000
00000000
00000000
,
00001000
00000000
00100000
00001000
00010000
00001000
01000000
00000000
00010000
00000000
10000000
01000000
00100000
00010000
00100000
00000000
,
00001000
00010000
00000100
00001000
00000100
00000000
00000010
00000000
00000001
00000000
00001000
00000010
00010000
00001000
00010000
00000000
,
00001000
00000000
00100000
00010000
10000000
00000000
00010000
00000000
10000000
00000000
00010000
01000000
00100000
00000000
01100000
00000000
,
MMMMMMMM
00011000
MMMMMMMM
00000110
MMMMMMMM
00001001
00001001
00000000
,
00000001
00001000
00000100
00010000
00001000
00000000
00010000
00000000
00100000
01000000
00100000
10000000
00010000
00000000
00000000
00000000
,
10000000
01000000
00100000
00001000
00010000
00000000
00000010
00000000
00000100
00000001
00001000
00000100
00000010
00000000
00000100
00000000
,
00010000
00000000
00001000
00010000
00100000
00000000
00010000
00000000
00001000
00000000
00010000
00001000
00000010
00000000
00000001
00000000
,
00001000
00000010
00000100
00000000
00001000
00000000
00010000
00000000
00001000
00000000
01000000
00000000
00010000
10000000
01000000
00000000
,
10000000
01000000
00100000
00000000
00001000
00000000
00010000
00000000
00000010
00000000
00010000
00000000
00001000
00010000
00000100
00000000
,
00001000
00000001
00000100
00000000
00000010
00000000
00001000
00000000
00000001
00000010
00000100
00000000
00010000
00000000
00001000
00000000
,
00010000
00001000
00010000
00000000
00100000
00000000
01000000
00000000
00010000
00000000
10000000
00000000
01000000
00100000
02000000
00000000
,
0300MMMM
00000000
00000000
00000000
;
