#VERSION:0.83;
#TITLE:EXCELSIOR DIVE;
#ARTIST:TAG;
#BANNER:EXCELSIOR DIVE.png;
#BACKGROUND:EXCELSIOR DIVE-bg.png;
#CDTITLE:./CDTitles/GFDM XG2.png;
#MUSIC:EXCELSIOR DIVE.ogg;
#SAMPLESTART:72.001;
#SAMPLELENGTH:15;
#BPMS:0=170;
#STAGE:15;

//--------------- dance-single - Fred-104 ----------------
#NOTEDATA:;
#STEPSTYPE:dance-single;
#DESCRIPTION:Fred-104;
#DIFFICULTY:Beginner;
#METER:4;
#CREDIT:Fred-104;
#NOTES:
0000
0000
0000
0000
,
0000
0000
0000
0000
,
0000
0000
0000
0000
,
0000
0000
0000
0000
,
0000
0000
0000
0000
,
1000
0000
0000
0000
,
0001
0000
0000
0100
,
0100
0000
0000
0000
,
0001
0000
1000
0000
,
0001
0000
0000
0001
,
0001
0000
0000
1000
,
1000
0000
0000
0001
,
0001
0000
0000
1000
,
1000
0000
0000
0001
,
0001
0000
0000
0100
,
0100
0000
0000
0010
,
0010
0000
0100
0000
,
0001
0000
0000
1000
,
1000
0000
0010
0000
,
0100
0000
0001
0000
,
0001
0000
1000
0000
,
0001
0000
0000
0100
,
0100
0000
0010
0000
,
1000
0000
0001
0000
,
1000
0000
0001
0001
,
0001
0000
1000
0000
,
0001
0000
1000
0000
,
0001
0000
0100
0000
,
0010
0010
0010
0000
,
1000
0000
0001
0000
,
1000
0000
0100
0000
,
1000
0000
0000
0000
,
1000
0000
0001
0000
,
1000
0000
0000
0000
,
0001
0000
0100
0100
,
0100
0000
0000
0000
,
0010
0000
1000
0001
,
1000
0000
0000
0000
,
0001
0000
0100
0010
,
0010
0000
0100
0000
,
0001
0001
0001
0000
,
1000
0000
0001
0000
,
1001
0000
0000
0000
,
1000
0000
0001
0000
,
1000
0000
0010
0000
,
0100
0000
0001
0000
,
1000
0000
0001
0001
,
0001
0000
0000
0000
,
0100
0000
0010
0000
,
0100
0000
0001
0000
,
1000
0000
0001
0001
,
0001
0000
1000
0000
,
0010
0000
0100
0000
,
0001
0000
1000
0000
,
0001
0001
1000
0000
,
0001
0000
1000
0000
,
0000
0000
0001
0000
,
1000
0000
0001
0000
,
1000
0000
0001
0001
,
1000
0000
0010
0000
,
0100
0000
0001
0000
,
1000
1000
1000
1000
,
1001
0000
0000
0000
,
0001
0000
0100
0000
,
0010
0010
0010
0000
,
1000
0000
0010
0000
,
1000
1000
1000
0000
,
0001
0000
0100
0000
,
0010
0100
0100
0000
,
0001
0000
1000
0000
,
0001
0000
1000
0000
,
0001
0000
0000
1001
0000
0000
0000
0000
;

//--------------- dance-single - Fred-104 ----------------
#NOTEDATA:;
#STEPSTYPE:dance-single;
#DESCRIPTION:Fred-104;
#DIFFICULTY:Easy;
#METER:9;
#CREDIT:Fred-104;
#NOTES:
0000
0000
0000
0000
,
0000
0000
0000
0000
,
0000
0000
0000
0000
,
0000
0000
0000
0000
,
0000
0000
0000
0000
,
1000
0000
0000
1000
0000
0000
0001
0000
0000
0001
0000
0000
0000
0000
0000
0000
,
0100
0000
0000
0000
0100
0000
0000
0010
0000
0000
0010
0000
0000
0000
0000
0000
,
1000
0000
0000
1000
0000
0000
0010
0000
0000
0100
0000
0000
0000
0000
0000
0000
,
0001
0100
0001
0000
1000
0100
1000
0000
,
1001
0000
0001
0001
0000
0010
0000
0001
,
0000
1000
0010
1000
0001
0000
0100
0000
,
0110
0000
0010
0010
0000
1000
0000
0001
,
1000
0100
1000
0000
0001
0100
0000
0000
,
0110
0000
0010
1000
0000
1000
0000
0001
,
0000
0100
0010
0100
0001
0000
1000
0000
,
1001
0000
0010
0010
0000
1000
0000
0001
,
0000
0100
0001
0100
0010
0000
0100
0000
,
0001
0000
0000
1000
0000
0000
0010
0100
,
0010
0000
1000
0001
0000
0100
0000
0001
,
0100
0000
0000
0010
0000
0100
0000
0100
,
0000
0001
1000
0001
,
0100
0000
0000
0001
0000
0000
1000
0100
,
0010
0000
0001
0001
0000
0100
0000
0010
,
1000
0000
0001
0100
0000
0001
0000
2000
,
0000
0000
3001
1000
,
1001
0000
0000
0001
0000
0000
0000
0100
,
0000
0000
0010
0000
0000
0100
0000
0000
,
1010
0000
0000
1000
0000
0000
0000
0001
,
0000
0000
0100
0000
0000
0010
0000
0000
,
0110
0000
0000
0100
0000
0000
0000
0001
,
0000
0000
1000
0000
0000
0001
0000
0000
,
0110
0000
0000
0100
0000
0000
0000
0010
,
0000
1000
0002
0203
,
0310
0000
0000
1000
0000
0010
0000
1000
,
0000
0000
0001
0000
0100
0010
0100
0000
,
0001
0000
0000
0100
0000
0100
0000
0010
,
0000
1000
0000
0001
0000
0000
1000
0000
,
0010
0000
0000
0100
0000
0100
0000
0001
,
1000
0000
0000
0010
0000
0000
0100
0000
,
0001
0000
0000
1000
0000
0010
0000
0100
,
0000
0001
2000
3020
,
0130
0000
0010
0010
0000
0000
1000
1001
,
0000
0000
0000
0000
,
1000
0000
0000
1000
0000
0000
1000
0000
0100
0000
0000
0100
0000
0000
0100
0000
,
0010
0000
0000
0010
0000
0000
0010
0000
0001
0000
0000
0001
0000
0000
0001
0000
,
0100
0000
0000
0100
0000
0000
0100
0000
0010
0000
0000
0010
0000
0000
0010
0000
,
1000
0001
2002
3003
,
0001
0000
0100
0100
0000
0010
0000
0100
,
0000
0010
0000
0100
0000
0001
1000
0000
,
0001
0101
1000
1100
,
0001
1000
2002
3003
,
0001
0000
0000
0001
0000
0000
0001
0000
0100
0000
0000
0100
0000
0000
0100
0000
,
0010
0000
0000
0010
0000
0000
0010
0000
1000
0000
0000
1000
0000
0000
1000
0000
,
0100
0000
0000
0100
0000
0000
0100
0000
0010
0000
0000
0010
0000
0000
0010
0000
,
0001
1000
2002
3003
,
1000
0000
0100
0100
0000
0010
0000
0100
,
0000
0010
0000
0100
0000
1000
0001
0000
,
1000
1100
0001
0101
,
1000
0001
2002
3003
,
1000
0010
0100
0100
,
0001
0100
0001
0000
0100
0000
0010
0000
,
1000
0001
1000
0000
0001
0100
0001
0000
,
1000
0000
0000
0001
0000
0000
2002
0000
0000
0000
0000
0000
3003
0000
0000
0000
,
0001
0000
0000
0001
0000
0000
0100
0000
0000
0010
0000
0000
0000
0000
0000
0000
,
1000
0000
0000
0000
0010
0000
0000
1000
0000
0000
0100
0000
0000
0000
0000
0000
,
1000
0000
0000
1000
0000
0000
0001
0000
0000
0100
0000
0000
0000
0000
0000
0000
,
0001
0000
0000
0000
0010
0000
0000
0000
0001
0000
0000
1000
0000
0000
0000
0000
,
0010
0000
0000
0010
0000
0000
0100
0000
0000
0001
0000
0000
0000
0000
0000
0000
,
1000
0000
0000
0000
0100
0000
0000
0010
0000
0000
0001
0000
0000
0000
0000
0000
,
0001
0000
0000
0100
0000
0000
0010
0000
0000
1000
0000
0000
0000
0000
0000
0000
,
0001
0000
0100
0000
0010
1000
0010
0000
,
1000
0001
1000
1001
0000
0000
0000
0000
;

//--------------- dance-single - Fred-104 ----------------
#NOTEDATA:;
#STEPSTYPE:dance-single;
#DESCRIPTION:Fred-104;
#DIFFICULTY:Medium;
#METER:12;
#CREDIT:Fred-104;
#NOTES:
0000
0000
0000
0000
,
0000
0000
0000
0000
,
0000
0000
0000
0000
,
0000
0000
0000
0000
,
0000
0000
0000
0000
,
0001
0000
0000
0010
0000
0000
0001
0000
0000
1000
0000
0000
0000
0000
0010
0000
,
0100
0000
0001
0000
0100
0000
0000
0010
0000
0000
0100
0000
0000
0000
0100
0000
,
0001
0000
0000
1000
0000
0000
0010
0000
0000
0100
0000
0000
0000
0000
0010
0000
,
1000
0010
0100
0001
1000
1000
0001
0001
,
1000
0000
1000
1100
0000
0110
0000
0011
,
0000
0100
0010
0100
0001
0100
0000
0001
,
1001
0000
1000
1010
0000
0110
0000
0101
,
0000
0001
0100
0010
0100
0001
0000
1000
,
1001
0000
0001
0011
0000
0110
0000
1100
,
0000
0010
1000
0001
1000
0100
0000
0010
,
0011
0000
0001
0101
0000
1010
0000
1001
,
0000
0001
0100
0010
1000
0010
0100
0000
,
0001
0100
0010
0100
0000
0001
1000
0100
,
0010
0000
0001
0100
0000
0010
0000
1000
,
0001
0100
1000
0100
0000
0001
0000
0010
,
0000
1000
0010
0001
1000
1000
0000
0001
,
0100
0000
0010
0100
0000
0010
1000
0010
,
0100
0000
0001
0010
0000
1000
0000
0010
,
0001
0000
0100
1000
0000
0100
0000
0001
,
0000
1000
0010
0100
0001
1000
0100
0010
,
0002
0000
0203
0000
0310
0020
0000
2030
,
0000
0001
3001
0000
1000
0100
0010
0001
,
1000
0000
0001
0002
0000
0203
0000
0320
,
0000
1030
0010
0100
0001
0010
0000
0010
,
2000
0000
3001
0100
0010
0100
0000
0001
,
0000
1000
0100
0010
0000
0001
1000
0001
,
0001
0000
0100
0200
0000
0320
0000
2030
,
0000
3001
0100
0000
0020
0000
0230
0000
,
0301
0000
0100
0100
0000
0110
0000
1001
,
0000
1000
0010
0000
0100
0001
1000
0001
,
0100
0000
0001
0010
0000
0011
0000
0110
,
0000
0200
2300
3002
0003
0100
0001
1000
,
0001
0000
0000
1000
0010
0000
0100
0000
0000
0000
0110
0000
0000
0000
0100
0000
,
0010
1000
0001
0020
0000
0000
1030
0010
,
0001
0100
0001
0100
0000
0010
1000
0001
,
0000
0000
1000
0000
0100
0000
0010
0000
0200
0000
0000
2300
0000
0000
3002
0000
,
0103
0000
0010
0100
0000
0001
1000
1001
,
0000
0000
0000
0000
,
1000
0000
0000
0100
0000
0000
1000
0000
0001
0000
0000
0100
0000
0000
0001
0000
,
1000
0000
0000
0010
0000
0000
1000
0000
0001
0000
0000
0010
0000
0000
0001
0000
,
1000
0000
0000
0100
0000
0000
0010
0000
0001
0000
0000
0100
0000
0000
0010
0000
,
1000
0000
0000
0100
0000
0000
0010
0000
0001
0000
0000
0000
1001
0000
0000
0000
,
0100
0010
0100
0001
0000
1000
0001
0100
,
0000
0001
1000
0100
0000
0010
0001
1000
,
0001
0000
0000
0101
0000
0000
0010
0000
1000
0000
0000
1100
0000
0000
0010
0000
,
0001
0000
0000
1000
0000
0000
0010
0000
0110
0000
0000
0000
1001
0000
0000
0000
,
0001
0000
0000
0100
0000
0000
0101
0000
1000
0000
0000
0100
0000
0000
1100
0000
,
0001
0000
0000
0010
0000
0000
0011
0000
1000
0000
0000
0010
0000
0000
1010
0000
,
0001
0000
0000
0100
0000
0000
0110
0000
1000
0000
0000
0100
0000
0000
0110
0000
,
0001
0000
0000
0100
0000
0000
0010
0000
0110
0000
0000
0000
1001
0000
0000
0000
,
1000
0010
1000
1000
0000
0001
1000
0100
,
0000
1000
0001
0100
0000
0010
1000
0001
,
1000
0000
0000
1100
0000
0000
0010
0000
0001
0000
0000
0101
0000
0000
0010
0000
,
1000
0000
0000
0001
0000
0000
0010
0000
0110
0000
0000
0000
1001
0000
0000
0000
,
1000
0001
0010
0100
0010
0001
0100
0010
,
1000
0001
1000
0001
0010
0100
1000
0001
,
0100
1000
0100
0001
0010
0100
1000
0010
,
0100
0000
0000
0010
0000
0000
0110
0000
0000
0000
0000
0000
1001
0000
0000
0000
,
1000
0000
0000
0010
0000
0000
1000
0000
0000
0001
0000
0000
0000
0000
0010
0000
,
0100
0000
1000
0000
0100
0000
0000
0010
0000
0000
0100
0000
0000
0000
0100
0000
,
1000
0000
0000
0001
0000
0000
0010
0000
0000
0100
0000
0000
0000
0000
0010
0000
,
0001
0000
0100
0000
0010
0000
0000
1000
0000
0000
0001
0000
0000
0000
1000
0000
,
0001
0000
0000
0100
0000
0000
0001
0000
0000
1000
0000
0000
0000
0000
0100
0000
,
0010
0000
0001
0000
0010
0000
0000
0100
0000
0000
0010
0000
0000
0000
0010
0000
,
0001
0000
0000
1000
0000
0000
0100
0000
0000
0010
0000
0000
0000
0000
0100
0000
,
1000
0010
0100
0001
1000
0100
0010
0001
,
1000
0000
0001
1000
0001
0000
1001
0000
0000
0000
0000
0000
0000
0000
0000
0000
;

//--------------- dance-single - Fred-104 ----------------
#NOTEDATA:;
#STEPSTYPE:dance-single;
#DESCRIPTION:Fred-104;
#DIFFICULTY:Hard;
#METER:16;
#CREDIT:Fred-104;
#NOTES:
0000
0000
0000
0000
,
0000
0000
0000
0000
,
0000
0000
0000
0000
,
0000
0000
0000
0000
,
0000
0000
0000
0000
,
1000
0100
0000
1000
0100
0000
0010
0001
0000
0010
0001
0000
0000
0000
1000
0001
,
0100
0010
0100
0000
0001
0100
0000
0010
0100
0000
0110
0000
0000
0000
0110
0000
,
1000
0010
0000
0100
0001
0000
1000
0100
0000
0010
0001
0000
1001
0000
1000
0000
,
0001
0100
0001
0000
1000
0100
1000
0000
0001
0100
0010
0100
0001
0010
0100
1000
,
0001
0000
1000
1010
0000
0101
0000
1100
,
0100
0000
0010
0000
0001
0100
0001
0000
0100
0000
0110
0000
0000
0000
1000
0000
,
1010
0000
0001
0011
0000
1010
0000
0011
,
0001
0000
0100
0000
0010
0100
0010
0000
1000
0000
0100
1000
0001
0010
0001
1000
,
0001
0000
0101
0110
0000
1100
0000
0110
,
0010
0000
0001
0000
1000
0010
0100
0000
0001
0000
0101
0000
0000
0000
1100
0000
,
1001
0000
0011
1001
0000
1010
0000
0110
,
0100
0000
0001
0000
1000
0010
0100
0001
1000
0000
0001
0010
0100
1000
0010
0100
,
0001
0000
0000
0000
0000
0000
0000
0000
0200
0300
0000
0000
0000
0000
0000
0000
0200
0300
0000
0000
0000
0000
0000
0000
1000
0000
0000
0000
0000
0000
0000
0000
0001
0000
0000
0000
0000
0000
0000
0000
1000
0000
0000
0000
0000
0000
0000
0000
0020
0030
0000
0000
0000
0000
0000
0000
0020
0030
0000
0000
0000
0000
0000
0000
,
0001
0000
1000
0000
0010
0100
0001
0000
1000
0000
1100
0000
0000
0000
1001
0000
,
0001
0100
0100
0110
0000
1010
0000
0101
,
0001
0000
1000
0000
0100
0010
0100
0010
0001
0000
0100
0010
1000
0010
0100
0001
,
1000
0100
1000
1010
0000
0011
0001
0100
,
0010
0000
1000
0000
0001
0010
0100
0000
1000
0000
1001
0000
0000
0000
0110
0000
,
0100
0001
1000
1100
0000
0101
0000
1100
,
1000
0000
0001
0000
1000
0100
0010
0001
1000
0000
0001
0010
0100
0010
0100
0010
,
0001
0000
1000
0010
0100
0000
0001
0000
0020
0000
0100
0000
0000
0000
1000
0000
,
0030
0001
1001
0000
1000
0010
0010
0010
,
0100
0001
0200
0010
0000
1000
0000
0010
,
0000
0000
0001
0000
0300
0000
1000
0100
0010
0000
0001
1000
0100
1000
0001
0100
,
0001
0000
0100
0010
1000
1010
0000
0011
,
0000
1010
0010
0200
0000
0301
0100
0010
,
1000
0000
0010
1000
0200
0001
0300
1000
,
0001
0000
0100
0000
0001
0100
0010
1000
0002
0000
0000
0000
2003
0000
0000
0000
,
3002
0100
0103
0110
0000
1010
0000
1001
,
0000
0001
1000
0100
0020
0230
2300
3002
,
0203
0010
0310
1010
0000
0101
0000
1001
,
0000
0000
0002
0000
0203
0000
2300
0000
3100
0000
0001
0000
1000
0001
0100
0001
,
1000
0000
0000
0010
0100
0000
0110
0000
0000
0000
0110
0000
0000
0000
1001
0000
,
0002
0000
0203
0000
2300
0000
3200
0000
0000
0000
0301
0000
1000
0001
0100
0001
,
1000
0100
0010
0011
0000
1010
0010
0100
,
0000
0000
1000
0000
0100
0000
0020
0000
2030
0000
0000
3020
0000
0000
0031
1000
,
0001
0100
0010
1010
0000
0001
1001
1001
,
0000
0000
0000
0000
,
1100
0000
0000
0110
0000
0000
0011
0000
0101
0000
0000
0110
0000
0000
1010
0000
,
1100
0000
0000
0101
0000
0000
1100
0000
0011
0000
0000
1010
0000
0000
0011
0000
,
1010
0000
0000
0101
0000
0000
1100
0000
0011
0000
0000
1010
0000
0000
0101
0000
,
1100
0000
0000
0101
0000
0000
1100
0000
0110
0000
0000
0000
1001
0000
0000
0000
,
1000
0010
0100
0110
0000
0001
0100
0110
,
0000
0000
1000
0000
0100
0000
0110
0000
0000
0000
0011
0000
0001
0100
0010
1000
,
0001
0000
0000
1010
0000
0000
0101
0000
1100
0000
0000
0011
0000
0000
1010
0000
,
0101
0000
0000
1100
0000
0000
0110
0000
1001
0000
0001
0100
0010
1000
0001
0010
,
0100
0000
1000
0100
0000
0100
0010
0000
0001
0000
0100
0010
0000
0010
1000
0000
,
0001
0000
0010
0100
0000
0100
1000
0000
0001
0000
0100
0010
0000
0010
1000
0000
,
0001
0000
0010
0100
0000
0100
1000
0000
0001
0000
0100
0010
0000
0010
1000
0000
,
0001
0000
0100
1000
0000
0100
0001
0000
0201
0000
0000
0000
0320
0000
0000
0000
,
1030
0010
0100
0101
0000
0011
0010
0100
,
0000
0000
1010
0000
0010
0000
0100
0000
0001
0000
1000
0001
0100
0010
1000
0010
,
0200
0000
0000
0001
0000
0000
0310
0000
0200
0000
0000
1000
0000
0000
0310
0000
,
0200
0000
0000
0001
0000
0000
1300
0000
0002
0000
0000
0000
2003
0000
0000
0000
,
3001
0100
0000
0010
1000
0000
0001
0010
0000
0100
1000
0000
0001
0100
0000
0010
,
0100
0000
1000
0100
0000
0010
0100
0000
0001
0100
0010
1000
0001
0000
0100
0000
,
0001
0100
0001
0100
0001
0100
0001
0100
0010
1000
0010
1000
0010
1000
0010
1000
,
0001
0000
0000
0011
0000
0000
1001
0000
0000
0000
0100
0010
1001
0000
0000
0000
,
1000
0000
0000
0000
0100
0000
0000
0000
0000
0000
0000
0000
0010
0000
0000
0000
0100
0000
0000
0000
0000
0000
0000
0000
1000
0000
0000
0000
0010
0000
0000
0000
0000
0000
0000
0000
0100
0000
0000
0000
0001
0000
0000
0000
0000
0000
0000
0000
0200
0300
0000
0000
0000
0000
0000
0000
0200
0300
0000
0000
1000
0000
0000
0000
,
0001
0100
0001
0000
1000
0010
0000
0100
0001
0000
0101
0000
0000
0000
0101
0000
,
0001
0000
0000
0000
0010
0000
0000
0000
0000
0000
0000
0000
0100
0000
0000
0000
1000
0000
0000
0000
0000
0000
0000
0000
0001
0000
0000
0000
0100
0000
0000
0000
0000
0000
0000
0000
0010
0000
0000
0000
1000
0000
0000
0000
0000
0000
0000
0000
0200
0300
0000
0000
0000
0000
0000
0000
0200
0300
0000
0000
0001
0000
0000
0000
,
1000
0100
0010
0000
0001
0100
0000
0010
0100
0000
0110
0000
0000
0000
0110
0000
,
0010
0000
0000
0000
1000
0000
0000
0000
0000
0000
0000
0000
0010
0000
0000
0000
0100
0000
0000
0000
0000
0000
0000
0000
0010
0000
0000
0000
1000
0000
0000
0000
0000
0000
0000
0000
0001
0000
0000
0000
1000
0000
0000
0000
0000
0000
0000
0000
0200
0300
0000
0000
0000
0000
0000
0000
0200
0300
0000
0000
0001
0000
0000
0000
,
0100
0010
0100
0000
0001
0010
0000
0100
0010
0000
0011
0000
0000
0000
0011
0000
,
0001
0000
0000
0000
0100
0000
0000
0000
0000
0000
0000
0000
0010
0000
0000
0000
1000
0000
0000
0000
0000
0000
0000
0000
0001
0000
0000
0000
0010
0000
0000
0000
0000
0000
0000
0000
0100
0000
0000
0000
1000
0000
0000
0000
0000
0000
0000
0000
0020
0030
0000
0000
0000
0000
0000
0000
0020
0030
0000
0000
0001
0000
0000
0000
,
1000
0010
0100
0000
0001
0010
0000
0100
1000
0000
0001
0100
0010
1000
0010
0100
,
0001
0100
0010
1000
0100
0010
1001
0000
0000
0000
0000
0000
0000
0000
0000
0000
;

//--------------- dance-double - Fred-104 ----------------
#NOTEDATA:;
#STEPSTYPE:dance-double;
#DESCRIPTION:Fred-104;
#DIFFICULTY:Easy;
#METER:8;
#CREDIT:Fred-104;
#NOTES:
00000000
00000000
00000000
00000000
,
00000000
00000000
00000000
00000000
,
00000000
00000000
00000000
00000000
,
00000000
00000000
00000000
00000000
,
00000000
00000000
00000000
00000000
,
00010000
00000000
00000000
10000000
00000000
00000000
00010000
00000000
,
01000000
00000000
00100000
00000000
00000000
01000000
00000000
00000000
,
00100000
00000000
00000000
10000000
00000000
00000000
01000000
00000000
,
00010000
00001000
00000100
00000001
,
00001001
00000000
00001000
00001000
00000000
00000001
00000000
00000100
,
00000000
00000010
00010000
00000000
00001000
00000000
00000000
00000000
,
00011000
00000000
00001000
00001000
00000000
00100000
00000000
00010000
,
00000000
00100000
01000000
00000000
10000000
00000000
00000000
00000000
,
10010000
00000000
00010000
00010000
00000000
01000000
00000000
00100000
,
00000000
01000000
01000000
00000000
00001000
00000000
00000000
00000000
,
00011000
00000000
00010000
00010000
00000000
00000100
00000000
00001000
,
00000000
00000001
00000100
00000000
00000010
00000000
00000000
00000000
,
00000110
00000000
00000000
00000100
00000000
00000000
00000010
00000000
,
00001000
00000100
00010000
00010000
,
00001000
00000000
00000000
00100000
00000000
00000000
00010000
00000000
,
10000000
00000000
00100000
00000000
01000000
00100000
01000000
00000000
,
00010000
00000000
00000000
10000000
00000000
00000000
01000000
00000000
,
00100000
00100000
00001000
00010000
,
00001000
00000000
00000000
00010000
00000000
00000000
00000100
00000000
,
00001000
00000000
00000001
00000000
00000100
00000010
00000100
00000000
,
00000001
00000010
00001000
00000000
,
00010000
00100000
10000000
00010000
,
01000000
00100000
10000000
00000000
,
01000000
00010000
00001000
00010000
,
10000000
00000000
00100000
00000000
,
01000000
00100000
00010000
00001000
,
00000010
00000000
00000100
00000000
,
00010000
00001000
02000000
03200000
,
01300000
00000000
00000000
00100000
00000000
10000000
00000000
00010000
,
00000000
00000000
00000000
00000000
01000000
00010000
01000000
00000000
,
00001000
00000000
00000000
00010000
00000000
00000100
00000000
00001000
,
00000000
00000000
00000000
00000010
00000000
00000000
00000100
00000000
,
00000001
00000000
00000000
00001000
00000000
00000001
00000000
00000000
,
00000100
00000000
00000000
00000010
00000000
00000000
00000100
00000000
,
00000001
00000000
00000000
00000100
00000000
00000000
00000000
00001000
,
00000000
00010000
00002000
00023000
,
00130000
00000000
00000000
01000000
00000000
00000000
10000000
10010000
,
00000000
00000000
00000000
00000000
,
00100000
10000000
00100000
01000000
,
00100000
10000000
01000000
00100000
,
00001000
00010000
00000100
00001000
,
00000001
00000000
00000100
00000000
00000001
00001000
00000001
00000000
,
00000100
00000000
00000000
00000010
00000000
00001000
00000000
00000001
,
00000000
00000000
00000000
00000100
00000000
00001000
00000000
00000000
,
00010000
01000000
10000000
01000000
,
00010000
00001000
00022000
00033000
,
00000010
00000001
00000010
00000100
,
00000010
00000001
00000100
00000010
,
00010000
00001000
01000000
00010000
,
10000000
00000000
01000000
00000000
10000000
00010000
10000000
00000000
,
01000000
00000000
00000000
00100000
00000000
00010000
00000000
10000000
,
00000000
00000000
00000000
01000000
00000000
00010000
00000000
00000000
,
00001000
00000100
00000001
00000100
,
00001000
00010000
00022000
00033000
,
00001000
00100000
00100000
00010000
,
01000000
00100000
10000000
00010000
,
01000000
00100000
10000000
01000000
,
00010000
00000000
00000000
00001000
00000000
00000000
00022000
00000000
00000000
00000000
00000000
00000000
00033000
00000000
00000000
00000000
,
00010000
00000000
00000000
00001000
00000000
00000000
00010000
00000000
,
00000100
00000000
00001000
00000000
00000000
00000010
00000000
00000010
,
00000100
00000000
00000000
00000001
00000000
00000000
00000100
00000000
,
00000010
00000000
00001000
00000000
00000000
00010000
00000000
00010000
,
00100000
00000000
00000000
10000000
00000000
00000000
00010000
00000000
,
01000000
00000000
00100000
00000000
00000000
00001000
00000000
00010000
,
00000010
00000000
00000000
00000100
00000000
00000000
00000001
00000000
,
00000100
00000000
00001000
00000000
00010000
01000000
10000000
00000000
,
00010000
00000000
00000000
10010000
00000000
00000000
00000000
00000000
;

//--------------- dance-double - Fred-104 ----------------
#NOTEDATA:;
#STEPSTYPE:dance-double;
#DESCRIPTION:Fred-104;
#DIFFICULTY:Medium;
#METER:12;
#CREDIT:Fred-104;
#NOTES:
00000000
00000000
00000000
00000000
,
00000000
00000000
00000000
00000000
,
00000000
00000000
00000000
00000000
,
00000000
00000000
00000000
00000000
,
00000000
00000000
00000000
00000000
,
00001000
00000000
00000000
00001000
00000000
00000000
00010000
00000000
00000000
00010000
00000000
00000000
00000000
00000000
00100000
00000000
,
10000000
00000000
00010000
00000000
01000000
00000000
00000000
00100000
00000000
00000000
01000000
00000000
00000000
00000000
01000000
00000000
,
00010000
00000000
00000000
10000000
00000000
00000000
01000000
00000000
00000000
00100000
00000000
00000000
00000000
00000000
00001000
00000000
,
00010000
00000100
00010000
00001000
00010000
00010000
00001000
00001000
,
00010000
00000000
00001000
00011000
00000000
00001010
00000000
00001001
,
00000000
00000001
00000100
00000010
00000100
00000001
00000000
00001000
,
00001100
00000000
00000100
00010100
00000000
00011000
00000000
01001000
,
00000000
01000000
00010000
10000000
01000000
00100000
00000000
00010000
,
10000000
00100000
01000000
01100000
00000000
10010000
00000000
01100000
,
00000000
10000000
00100000
00010000
00001000
00000010
00000000
00000001
,
00001000
00000010
00000100
00000001
00000000
00000101
00000000
00001001
,
00000000
00000001
00000100
00000010
00001000
00000100
00000010
00000000
,
00000001
00000010
00000100
00010000
00000000
00001000
00100000
01000000
,
10000000
00000000
00010000
01000000
00000000
00100000
00000000
10000000
,
01000000
00100000
00010000
01000000
00000000
00100000
00000000
01000000
,
00010000
00100000
00010000
00001000
00000100
00010000
00001000
00000000
,
00010000
00001000
00000010
00000001
00000000
00001000
00000001
00000100
,
00000010
00000000
00001000
00000100
00000000
00000001
00000000
00000100
,
00001000
00000000
00010000
01000000
00000000
10000000
00000000
01000000
,
00000000
00010000
10000000
01000000
00100000
00001000
00010000
00000000
,
00000020
00000000
00000230
00000000
00000301
00000002
00000000
00002003
,
00000000
00000100
00003100
00000000
00001000
00000001
00000100
00000010
,
00001000
00000000
00000001
00000002
00000000
00000203
00000000
00000320
,
00000000
00001030
00000010
00010000
00001000
00100000
00000000
00100000
,
02000000
00000000
03010000
00001000
00000100
00000010
00000000
00001000
,
00000000
00010000
00100000
01000000
00000000
00001000
00100000
00010000
,
01000000
00000000
00010000
00020000
00000000
20030000
00000000
32000000
,
00000000
03010000
00001000
00000000
00000200
00000000
00000301
00000000
,
00001001
00000000
00000001
00000100
00000000
00000110
00000000
00011000
,
00000000
00000010
00001000
00000000
00000010
00001000
00000100
00010000
,
00001000
00000000
00100000
00010000
00000000
01001000
00000000
00010100
,
00000000
00020000
00032000
00023000
00000000
00031000
00010000
00100000
,
01000000
00000000
00000000
00001000
00010000
00000000
00001000
00000000
00000000
00000000
00011000
00000000
00000000
00000000
00010000
00000000
,
00001000
00000100
00000010
00020000
00000000
00000000
00031000
00100000
,
00010000
10000000
00100000
01000000
00000000
00010000
10000000
01000000
,
00000000
00000000
00010000
00000000
00001000
00000000
00000100
00000000
00000002
00000000
00000000
00002003
00000000
00000000
00003020
00000000
,
00000130
00000000
00000001
00001000
00000000
00000100
00000010
00000110
,
00000000
00000000
00000000
00000000
,
00000001
00000000
00000000
00000001
00000000
00000000
00000100
00000000
00001000
00000000
00000000
00001000
00000000
00000000
00010000
00000000
,
01000000
00000000
00000000
01000000
00000000
00000000
10000000
00000000
00100000
00000000
00000000
00100000
00000000
00000000
00010000
00000000
,
00001000
00000000
00000000
00001000
00000000
00000000
00000010
00000000
00000001
00000000
00000000
00000001
00000000
00000000
00000100
00000000
,
00001000
00000000
00000000
00010000
00000000
00000000
01000000
00000000
10000000
00000000
00000000
00000000
10010000
00000000
00000000
00000000
,
00010000
00010000
10000000
01000000
00000000
00100000
00010000
00001000
,
00000000
00000010
00000001
00001000
00000000
00000001
00000100
00000010
,
00001000
00000000
00000000
00000100
00000000
00000000
00000010
00000000
00000001
00000000
00000000
00000100
00000000
00000000
00000010
00000000
,
00001000
00000000
00000000
00010000
00000000
00000000
00100000
00000000
10000000
00000000
00000000
00000000
10010000
00000000
00000000
00000000
,
10000000
00000000
00000000
10000000
00000000
00000000
01000000
00000000
00010000
00000000
00000000
00010000
00000000
00000000
00001000
00000000
,
00000100
00000000
00000000
00000100
00000000
00000000
00000001
00000000
00000010
00000000
00000000
00000010
00000000
00000000
00001000
00000000
,
00010000
00000000
00000000
00010000
00000000
00000000
00100000
00000000
10000000
00000000
00000000
10000000
00000000
00000000
01000000
00000000
,
00010000
00000000
00000000
00001000
00000000
00000000
00000100
00000000
00000001
00000000
00000000
00000000
00001001
00000000
00000000
00000000
,
00001000
00001000
00000001
00000100
00000000
00000010
00001000
00010000
,
00000000
00100000
10000000
00010000
00000000
10000000
01000000
00100000
,
00010000
00000000
00000000
01000000
00000000
00000000
00100000
00000000
10000000
00000000
00000000
01000000
00000000
00000000
00100000
00000000
,
00010000
00000000
00000000
00001000
00000000
00000000
00000010
00000000
00000001
00000000
00000000
00000000
00001001
00000000
00000000
00000000
,
00000001
00000100
00000010
00001000
00000100
00010000
00001000
00100000
,
00010000
00100000
01000000
10000000
00010000
01000000
00100000
10000000
,
01000000
00010000
01000000
10000000
00010000
00100000
00001000
00010000
,
00001000
00000000
00000000
00010000
00000000
00000000
00011000
00000000
00000000
00000000
00000000
00000000
00001001
00000000
00000000
00000000
,
00000001
00000000
00000000
00000010
00000000
00000000
00000100
00000000
00000000
00001000
00000000
00000000
00000010
00000000
00010000
00000000
,
00001000
00000000
00100000
00000000
00010000
00000000
00000000
10000000
00000000
00000000
00010000
00000000
00000000
00000000
10000000
00000000
,
01000000
00000000
00000000
00100000
00000000
00000000
00001000
00000000
00000000
00010000
00000000
00000000
00000010
00000000
00000100
00000000
,
00000001
00000000
00001000
00000000
00000100
00000000
00000000
00000001
00000000
00000000
00000100
00000000
00000000
00000000
00001000
00000000
,
00000001
00000000
00000000
00000010
00000000
00000000
00001000
00000000
00000000
00010000
00000000
00000000
00100000
00000000
10000000
00000000
,
00010000
00000000
01000000
00000000
00100000
00000000
00000000
10000000
00000000
00000000
01000000
00000000
00000000
00000000
00010000
00000000
,
01000000
00000000
00000000
10000000
00000000
00000000
00100000
00000000
00000000
01000000
00000000
00000000
00010000
00000000
00001000
00000000
,
00000100
00000000
00000010
00000000
00000001
00000000
00000000
00001000
00000000
00000000
00000010
00000000
00000100
00000000
00000001
00000000
,
00001000
00000000
00000000
00001001
00000000
00000000
00000000
00000000
;

//--------------- dance-double - Fred-104 ----------------
#NOTEDATA:;
#STEPSTYPE:dance-double;
#DESCRIPTION:Fred-104;
#DIFFICULTY:Hard;
#METER:16;
#CREDIT:Fred-104;
#NOTES:
00000000
00000000
00000000
00000000
,
00000000
00000000
00000000
00000000
,
00000000
00000000
00000000
00000000
,
00000000
00000000
00000000
00000000
,
00000000
00000000
00000000
00000000
,
00000001
00000100
00000000
00000001
00000100
00000000
00000010
00000100
00000000
00000010
00000100
00000000
00000001
00000000
00001000
00000100
,
00001000
00000100
00001000
00000000
00000010
00000100
00000000
00000010
00000100
00000000
00000101
00000000
00000000
00000000
00001100
00000000
,
00001000
00010000
00000000
00010000
01000000
00000000
01000000
10000000
00000000
10000000
00010000
00000000
01010000
00000000
01000000
00000000
,
00100000
10000000
00100000
00000000
01000000
00010000
01000000
00000000
00010000
10000000
01000000
00100000
00010000
00100000
01000000
00000000
,
10000000
00000000
00100000
01100000
00000000
01010000
00000000
11000000
,
01000000
00000000
00100000
00000000
00001000
00010000
00001000
00000000
00010000
00000000
00011000
00000000
00000000
00000000
00010000
00000000
,
00011000
00000000
00000010
00001010
00000000
00000101
00000000
00000110
,
00000100
00000000
00001000
00000000
00000010
00000100
00000010
00000000
00000100
00000000
00000001
00000010
00000001
00001000
00000100
00000000
,
00000010
00000000
00000011
00000011
00000000
00001010
00000000
00000011
,
00000001
00000000
00000100
00000000
00000010
00001000
00000100
00000000
00010000
00000000
00011000
00000000
00000000
00000000
01001000
00000000
,
00011000
00000000
00010100
00011000
00000000
00101000
00000000
00010010
,
00010000
00000000
00001000
00000000
00100000
00010000
00100000
00010000
00100000
00000000
00001000
00100000
00010000
10000000
00100000
01000000
,
00010000
01000000
10000000
00010000
00100000
10000000
00010000
01000000
,
00100000
00000000
10000000
00000000
01000000
00100000
01000000
00000000
00100000
00000000
00101000
00000000
00000000
00000000
00001000
00000000
,
00010000
00000100
00000100
00001100
00000000
00000110
00000000
00000101
,
00000001
00000000
00001000
00000000
00000001
00000100
00000001
00000100
00000010
00000000
00001000
00000100
00000010
00000001
00001000
00000000
,
00000001
00000100
00000010
00001010
00000000
00011000
00010000
00001000
,
00100000
00000000
00010000
00000000
10000000
00100000
01000000
00000000
00010000
00000000
10010000
00000000
00000000
00000000
11000000
00000000
,
01000000
00100000
00001000
00011000
00000000
00001100
00000000
00000101
,
00000100
00000000
00001000
00000000
00000001
00000010
00000100
00000010
00000001
00000000
00001000
00000010
00000100
00000001
00001000
00000000
,
00000001
00000000
00000100
00000010
00000100
00000000
00000001
00000000
00001000
00000000
00000010
00000000
00010000
00000000
00001000
00000000
,
00000000
00010000
00011000
00000000
00001000
00100000
00100000
00100000
,
01000000
00010000
10000000
01000000
00100000
00010000
01000000
00100000
,
00000000
00000000
00001000
00000000
00010000
00000000
00000010
00001000
00000010
00000000
00010000
00001000
00010000
00000010
00001000
00000010
,
00010000
00000000
00001000
00010000
00000100
00001100
00000000
00000110
,
00000000
00000011
00000001
00002000
00000000
00003001
00000010
00001000
,
00010000
00000000
01000000
10000000
00100000
01000000
00000000
00010000
,
00000000
00000000
10000000
00000000
01000000
00100000
00001000
00010000
00002000
00000000
00000000
00000000
00023000
00000000
00000000
00000000
,
00030200
00001000
00001300
00001100
00000000
00000101
00000000
00001100
,
00000000
00000001
00000100
00000010
00002000
00003200
00020300
00032000
,
00203000
01000000
01300000
01100000
00000000
00011000
00000000
00000110
,
00000000
00000000
00000002
00000000
00000203
00000000
00002300
00000000
00023000
00000000
02030000
00000000
13000000
00010000
10000000
00010000
,
10000000
00000000
00000000
00010000
00100000
00000000
00110000
00000000
00000000
00000000
10100000
00000000
00000000
00000000
00110000
00000000
,
00020000
00000000
02030000
00000000
03200000
00000000
20300000
00000000
00000000
00000000
30010000
00000000
10000000
01000000
00100000
00001000
,
00010000
00000100
00010000
00011000
00000000
00001010
00000010
00000100
,
00000000
00000000
00000001
00000000
00000010
00000000
00000200
00000000
00002300
00000000
00000000
00003002
00000000
00000000
00000203
00000000
,
00000301
00000100
00000010
00001010
00000000
00010000
00001000
00011000
,
00000000
00000000
00000000
00000000
,
00110000
00000000
00000000
10100000
00000000
00000000
00110000
00000000
10100000
00000000
00000000
01010000
00000000
00000000
11000000
00000000
,
01100000
00000000
00000000
00110000
00000000
00000000
01100000
00000000
11000000
00000000
00000000
01010000
00000000
00000000
00011000
00000000
,
00001100
00000000
00000000
00000101
00000000
00000000
00001001
00000000
00000011
00000000
00000000
00001001
00000000
00000000
00001010
00000000
,
00011000
00000000
00000000
00110000
00000000
00000000
10100000
00000000
10010000
00000000
00000000
00000000
01100000
00000000
00000000
00000000
,
00010000
10000000
01000000
01100000
00000000
00001000
00010000
00011000
,
00000000
00000000
00000100
00000000
00000010
00000000
00000110
00000000
00000000
00000000
00000011
00000000
00000001
00001000
00000001
00001000
,
00000001
00000000
00000000
00000101
00000000
00000000
00001100
00000000
00011000
00000000
00000000
01010000
00000000
00000000
11000000
00000000
,
10010000
00000000
00000000
10100000
00000000
00000000
00110000
00000000
00011000
00000000
00010000
00001000
00010000
00001000
00010000
00000000
,
00000010
00000000
00001000
00000100
00000000
00000100
00000010
00000000
00000001
00000000
00000100
00000010
00000000
00000010
00001000
00000000
,
00000001
00000000
00000100
00001000
00000000
00001000
00010000
00000000
00001000
00000000
00010000
01000000
00000000
01000000
10000000
00000000
,
00010000
00000000
10000000
00100000
00000000
00100000
01000000
00000000
00001000
00000000
00100000
00001000
00000000
00001000
00010000
00000000
,
00000100
00000000
00001000
00000001
00000000
00000001
00000010
00000000
00000210
00000000
00000000
00000000
00000320
00000000
00000000
00000000
,
00001030
00000010
00000100
00000110
00000000
00000011
00000001
00001000
,
00000000
00000000
00001010
00000000
00001000
00000000
00000001
00000000
00000100
00000000
00000010
00001000
00000100
00010000
00001000
01000000
,
00020000
00000000
00000000
00100000
00000000
00000000
01030000
00000000
20000000
00000000
00000000
00100000
00000000
00000000
31000000
00000000
,
00020000
00000000
00000000
00001000
00000000
00000000
00030100
00000000
00000020
00000000
00000000
00000000
00020030
00000000
00000000
00000000
,
00031000
00000010
00000000
00010000
00001000
00000000
00100000
00010000
00000000
01000000
00001000
00000000
00010000
00000100
00000000
00010000
,
00001000
00000000
00100000
00001000
00000000
00010000
00000100
00000000
00010000
00001000
00100000
00001000
00010000
00000000
00010000
00000000
,
00000010
00000100
00000010
00000100
00010000
00001000
00010000
00001000
01000000
00100000
01000000
00100000
10000000
01000000
00100000
00010000
,
10000000
00000000
00000000
10100000
00000000
00000000
01010000
00000000
00000000
00000000
00001000
00010000
00011000
00000000
00000000
00000000
,
00010000
00001000
00000000
00010000
00000010
00000000
00010000
00001000
00000000
00010000
00000010
00000000
00001000
00000000
00000001
00000100
,
00000010
00000100
00000001
00000000
00001000
00000100
00000000
00000010
00000001
00000000
00000101
00000000
00000000
00000000
00000101
00000000
,
00000001
00000010
00000000
00000001
00000100
00000000
00000010
00001000
00000000
00000010
00000100
00000000
00000010
00000000
00001000
00000100
,
00010000
00001000
00010000
00000000
00001000
00100000
00000000
00010000
10000000
00000000
10100000
00000000
00000000
00000000
01010000
00000000
,
01000000
00100000
00000000
10000000
00100000
00000000
01000000
00010000
00000000
10000000
01000000
00000000
00100000
00000000
00001000
00010000
,
00001000
00100000
00001000
00000000
00010000
00000100
00000000
00001000
00000100
00000000
00000110
00000000
00000000
00000000
00001001
00000000
,
00000001
00000010
00000000
00000100
00000010
00000000
00000001
00000100
00000000
00000010
00001000
00000000
00000001
00000000
00000010
00000100
,
00001000
00000100
00010000
00000000
00001000
00100000
00000000
00010000
00100000
00000000
01000000
10000000
00010000
01000000
00100000
10000000
,
00010000
10000000
01000000
00100000
00001000
00000000
00011000
00000000
00000000
00000000
00000000
00000000
00000000
00000000
00000000
00000000
;
