#VERSION:0.83;
#TITLE:EX-MASSIVE FIGHTER;
#ARTIST:BEMANI Sound Team "L.E.D.-G";
#ARTISTTRANSLIT:L.E.D.-G;
#GENRE:HYBRID HARDSTYLE;
#BANNER:EX-MASSIVE FIGHTER.png;
#BACKGROUND:EX-MASSIVE FIGHTER-bg.png;
#CDTITLE:./CDTitles/jubeat beyond the Ave.png;
#MUSIC:EX-MASSIVE FIGHTER.ogg;
#SAMPLESTART:16;
#SAMPLELENGTH:15;
#BPMS:0=165;
#BGSTAGE:31;

//--------------- dance-single - Fred-104 ----------------
#NOTEDATA:;
#STEPSTYPE:dance-single;
#DESCRIPTION:Fred-104;
#DIFFICULTY:Beginner;
#METER:4;
#CREDIT:Fred-104;
#NOTES:
0000
0000
0000
0000
,
0000
0000
0000
0000
,
0000
0000
0000
0000
,
0000
0000
0000
0000
,
0000
0000
0000
0000
,
0000
0000
0000
0000
,
0000
0000
0000
0000
,
0010
0000
0000
0000
,
0010
0000
0000
0000
,
0010
0000
0010
0000
,
1001
0000
0000
0000
,
1000
0000
1000
0000
,
1000
0000
0100
0000
,
0010
0000
0010
0000
,
0001
0000
0001
0000
,
1000
0000
0010
0000
,
0001
0000
0100
0000
,
1000
0000
1000
0000
,
0001
0000
0001
0000
,
1001
0000
0000
0000
,
0000
0000
0000
0000
,
2000
0000
0000
3000
,
0002
0000
0003
0000
,
0001
0000
0001
0000
,
0100
0000
0100
0000
,
1000
0000
1000
0000
,
0100
0000
0100
0000
,
0001
0000
0001
0000
,
1000
0000
1000
0000
,
0001
0000
1000
0000
,
1001
0000
0000
0000
,
0001
0000
0001
0000
,
0010
0000
0010
0000
,
1000
0000
1000
0000
,
0010
0000
0100
0000
,
0010
0000
0010
0000
,
0001
0000
0001
0000
,
1000
0000
0001
0000
,
1001
0000
0000
0000
,
1000
0000
0000
0000
,
0100
0000
0100
0000
,
0001
0000
0000
0000
,
0001
0000
0001
0000
,
0100
0000
0000
0000
,
0010
0000
0010
0000
,
0100
0000
0000
0000
,
2000
0000
3000
0000
,
0001
0000
0001
0000
,
0100
0000
0100
0000
,
1000
0000
0010
0000
,
0010
0000
0002
0003
,
1000
0000
1000
0000
,
0001
0000
0001
0000
,
1000
0000
1000
0000
,
0002
0000
0003
0000
,
2000
0000
0000
3000
,
0002
0000
0000
0003
,
0020
0000
0000
0030
,
0200
0000
0000
0300
,
1000
0000
1000
0000
,
0001
0000
0001
0000
,
0100
0000
0100
0000
,
0200
0000
0000
0000
,
0300
0000
0000
0000
,
0000
0000
0000
0000
,
0001
0000
0000
0000
,
1000
0000
1000
0000
,
1000
0000
0001
0000
,
0010
0000
0010
0000
,
0100
0000
0100
0000
,
0010
0000
0010
0000
,
0001
0000
1000
0000
,
0001
0000
0001
0000
,
1001
0000
0000
0000
,
1000
0000
0000
0000
,
0010
0000
0000
0000
,
0100
0000
0000
0000
,
0001
0000
0000
0000
,
1000
0000
1000
0000
,
0001
0000
0001
0000
,
1000
0000
1000
0000
,
0002
0000
0000
0003
,
1001
0000
0000
0000
;

//--------------- dance-single - Fred-104 ----------------
#NOTEDATA:;
#STEPSTYPE:dance-single;
#DESCRIPTION:Fred-104;
#DIFFICULTY:Easy;
#METER:8;
#CREDIT:Fred-104;
#NOTES:
0000
0000
0000
0000
,
0000
0000
0000
0000
,
0000
0000
0000
0000
,
0000
0000
0000
0000
,
0000
0000
0000
0000
,
0000
0000
0000
0000
,
0000
0000
0000
0000
,
1000
1000
1000
0010
,
0100
0000
0100
0000
0001
1000
0001
0000
,
0010
0010
0100
0100
,
1001
0000
0000
0000
,
0001
0100
0100
0010
,
0100
0001
0010
0001
,
0001
0100
0010
1000
,
0001
1000
0100
1000
,
1100
0000
0101
0000
,
0011
0000
1010
0000
,
1000
1000
0001
0001
,
0100
0000
0010
0000
,
0110
0000
0000
0000
,
0000
0000
0000
0000
,
0001
0000
0000
0010
0000
0000
0100
0000
,
1000
0000
0000
2002
0000
0000
3003
0000
,
1000
0100
1000
1000
,
0010
0000
0100
0000
0010
0010
0010
0000
,
0100
0000
0001
0000
1000
1000
1000
0000
,
0001
0000
0010
0000
0100
0100
0100
0000
,
0010
0000
0001
0000
1000
0000
0001
0001
,
0001
0000
0100
0000
0010
0010
0010
0000
,
0100
0000
0100
0000
0001
1000
0001
0000
,
0220
0330
2002
3003
,
1000
0010
1000
0010
,
0001
0100
0001
0100
,
1000
0001
1000
0001
,
0100
0010
2002
3003
,
0001
0001
0001
0000
0100
0000
0010
0000
,
1000
1000
1000
0000
0001
0000
0010
0000
,
0110
0000
0110
0000
1000
0001
1000
0000
,
0002
0000
2000
3003
,
0001
0000
0101
0000
,
1000
0100
0010
0001
,
1000
0000
1010
0000
,
0001
0100
0010
0000
0100
0000
0020
0000
,
0130
0000
0101
0001
,
0010
0100
1000
0001
,
0100
0100
0100
0000
0001
0000
1000
0000
,
0100
0010
0100
0010
0200
0000
0300
0000
,
1000
0000
1001
0000
,
0001
0100
0001
0010
,
0100
0100
0100
0000
1000
0000
0001
0000
,
1000
0001
1000
0001
2000
0000
3000
0000
,
0001
0010
0100
0100
,
1000
0001
1000
1000
,
0010
0100
0100
0001
,
1000
0001
2002
3003
,
1000
0000
0100
0100
,
0001
0000
0100
0100
,
1000
0000
0010
0010
,
0001
0000
0010
0010
,
1000
0000
0100
0010
,
0001
0000
0100
0010
,
1000
0100
1000
0000
0001
0010
0001
0000
,
2000
0000
0000
0000
,
0002
0000
0000
0000
,
3003
0000
0000
0000
,
0001
0000
1000
0000
0001
1000
0001
0000
,
1000
0100
1000
0001
,
0100
0000
0010
0000
0100
0001
0100
0000
,
0010
0100
0001
1000
,
0100
0010
0220
0330
,
0001
0100
0001
1000
,
0001
0010
0100
0100
,
1000
1000
1000
0000
0001
0000
0100
0000
,
0010
0000
2002
3003
,
1000
0000
0000
0100
0000
0100
0000
0000
,
0010
0000
0000
0001
0000
0001
0000
0000
,
1000
0000
0000
0001
0000
0001
0000
0000
,
0110
0000
0000
0000
,
1000
0000
0010
0000
,
0001
0000
0100
0000
,
1000
1000
0001
0001
,
1000
0010
1000
0000
0001
0100
0001
0000
,
1001
0000
0000
0000
;

//--------------- dance-single - Fred-104 ----------------
#NOTEDATA:;
#STEPSTYPE:dance-single;
#DESCRIPTION:Fred-104;
#DIFFICULTY:Medium;
#METER:13;
#DISPLAYBPM:82.5:330;
#BPMS:0=165,80=247.5,80.375=206.25,80.688=123.75,80.875=82.5,80.979=165,110.5=82.5,111=165,125=82.5,126=165,142=82.5,149.5=165,150=82.5,157=41.25,157.25=82.5,157.5=165,158=82.5,166=165,181=82.5,181.25=165,181.5=330,182=165,210=82.5,216=165;
#STOPS:40=1.091,72.979=2.545,80.979=0.372,109=0.182,109.5=0.182,110=0.181,149.5=0.182;
#TIMESIGNATURES:0=4=4,36=5=4,41=4=4,69=5=4,74=4=4,78=3=4,81=4=4,109=2=4,111=4=4,123=3=4,126=4=4,214=6=4,220=4=4;
#CREDIT:Fred-104;
#NOTES:
0000
0000
0000
0000
,
0000
0000
0000
0000
,
0000
0000
0000
0000
,
0000
0000
0000
0000
,
0000
0000
0000
0000
,
0000
0000
0000
0000
,
0000
0000
0000
0000
,
0011
0000
0010
0000
0010
0000
0100
0100
,
1000
0000
0001
0000
1000
1000
1000
0000
,
0001
1000
0001
1000
0010
0100
0001
1000
,
0002
0003
0000
0000
0000
0000
0000
0000
0000
0000
0000
0000
0000
0000
0000
0000
1000
0000
0000
0000
0000
0000
0000
0000
0100
0000
0000
0000
0000
0000
0000
0000
1000
0000
0000
0000
0000
0000
0000
0000
0100
0000
0000
0000
0000
0000
0000
0000
0010
0000
0000
0000
0000
0000
0000
0000
0001
0000
0000
0000
0000
0000
0000
0000
,
0010
0001
1000
0010
1000
0010
0100
0001
,
1000
0001
0010
0100
0010
0100
1000
0001
,
0100
0010
1000
0001
1000
0100
0010
0100
,
1000
0000
0001
0000
1000
0000
0000
1010
0000
0000
0100
0000
0001
0000
0000
0011
,
0000
0000
0100
0000
1000
0000
0000
0110
0000
0000
0001
0000
0100
0000
0100
0000
,
0010
0010
1000
0001
0010
0100
1000
0001
,
1000
0000
0001
0000
1000
0000
0000
0100
0000
0000
0010
0000
0001
0000
0000
0100
,
0000
0000
0010
1000
0000
0000
0000
0000
2000
0000
0000
0100
0000
0000
0100
0000
,
0000
0100
0000
0000
3100
0000
0010
0000
0001
0000
0000
1000
0000
0000
2002
0000
,
0000
0000
0000
0000
0000
0000
0000
3003
1000
0000
0000
0000
0100
0000
0000
0000
0001
0000
0000
0000
0100
0000
0000
0000
1000
0000
0000
0000
0010
0000
0000
0000
,
0100
0100
0001
0010
0100
0010
1000
0010
,
0001
1000
0010
0100
0001
1000
0100
0010
,
0001
1000
0001
0100
0010
1000
0100
0100
,
0100
0010
0100
0000
1000
0000
0010
0000
0100
0000
0100
0000
0100
0000
0001
0000
,
1000
0100
0010
0001
0100
0010
1000
1000
,
0001
0010
0100
0000
1000
0000
1000
0000
0100
0000
0100
0000
1100
0000
0000
0000
,
0101
0000
0000
0000
0000
0000
0000
0000
0000
0000
0000
0000
0000
0000
0000
0000
0000
0000
0000
0000
0000
0000
0000
0000
0000
0000
0000
0000
0000
0000
0000
0000
0000
0000
0000
0000
0000
0000
0000
0000
0000
0000
0000
0000
0000
0000
0000
0000
0022
0000
0000
0033
0000
0000
0000
0000
0000
0000
0000
0000
0000
0000
0000
0000
0000
0000
0000
0000
0000
0000
0000
0000
2020
0000
0000
3030
0000
0000
0000
0000
0000
0000
0000
0000
0000
0000
0000
0000
0000
0000
0000
0000
0000
0000
0000
0000
2002
0000
0000
0000
0000
0000
0000
0000
0000
0000
0000
0000
0000
0000
0000
0000
0000
0000
0000
0000
0000
0000
0000
0000
3003
0000
0000
0000
0000
0000
0000
0000
0000
0000
0000
0000
0000
0000
0000
0000
0000
0000
0000
0000
0000
0000
0000
0000
2000
0000
0000
3000
0000
0000
0000
0000
0000
0000
0000
0000
0000
0000
0000
0000
0000
0000
0000
0000
0000
0000
0000
0000
0000
0000
0000
0000
0000
0000
0000
0000
1000
0000
0000
0000
0000
0000
0000
0000
0000
0000
0000
0000
0000
0000
0000
0000
,
0010
0000
0010
0100
0000
0100
0001
0100
0001
0100
0000
0100
,
0010
0000
0010
1000
0000
0100
1000
0000
0010
1000
0000
1000
,
0100
0000
0100
0010
0000
0010
0001
1000
0001
0100
0000
0100
,
0010
0000
0000
0000
0000
0000
0000
0000
0000
0000
0000
0000
0000
0000
0000
0000
0000
0000
0000
0000
0000
0000
0000
0000
0000
0000
0000
0000
0000
0000
0000
0000
0010
0000
0000
0000
0000
0000
0000
0000
0000
0000
0000
0000
0000
0000
0000
0000
2000
0000
0000
0000
0000
0000
0000
0000
0000
0000
0000
0000
0000
0000
0000
0000
0000
0000
0000
0000
0000
0000
0000
0000
3002
0000
0000
0000
0000
0000
0000
0000
0000
0000
0000
0000
0000
0000
0000
0000
0000
0000
0000
0000
0000
0000
0000
0000
2003
0000
0000
3000
0000
0000
0000
0000
0000
0000
0000
0000
0000
0000
0000
0000
0000
0000
0000
0000
0000
0000
0000
0000
1000
0000
0000
0000
0000
0000
0000
0000
0000
0000
0000
0000
0000
0000
0000
0000
0000
0000
0000
0000
0000
0000
0000
0000
0100
0000
0000
0000
0000
0000
0000
0000
0000
0000
0000
0000
0000
0000
0000
0000
0000
0000
0000
0000
0000
0000
0000
0000
0010
0000
0000
0000
0000
0000
0000
0000
0000
0000
0000
0000
0000
0000
0000
0000
0000
0000
0000
0000
0000
0000
0000
0000
,
0001
0000
1000
0000
0001
0100
0000
0100
0001
0000
0001
0000
0010
0000
0100
0000
,
1000
0000
0001
0000
0100
0010
0000
0010
0100
0000
0100
0000
0010
0000
0010
0000
,
0100
0001
1000
0100
0020
0000
0000
0000
,
0200
0000
0000
0000
0000
0000
0000
0000
0000
0000
0000
0000
0000
0000
0000
0000
0330
0000
0000
0000
0000
0000
0000
0000
0000
0000
0000
0000
0000
0000
0000
0000
2002
3003
0000
0000
0000
0000
0000
0000
0100
0000
0000
0000
0000
0000
0000
0000
1001
0000
0000
0000
0000
0000
0000
0000
1000
0000
0000
0000
0000
0000
0000
0000
,
0001
0010
0100
1000
0001
0010
0100
1000
0001
0000
0100
0000
0110
0000
0010
0000
,
1000
0000
0000
0000
0001
0000
0000
0000
0010
0000
0000
0000
0100
0000
0000
0000
1000
0000
0000
0000
0001
0000
0000
0000
2000
3000
0000
0000
0000
0000
0000
0000
0002
0003
0000
0000
0000
0000
0000
0000
0100
0000
0000
0000
0000
0000
0000
0000
0110
0000
0000
0000
0000
0000
0000
0000
0010
0000
0000
0000
0000
0000
0000
0000
,
1000
0100
0010
0001
1000
0100
0010
0001
0010
0000
0100
0000
0110
0000
0010
0001
,
1000
0000
0000
0000
0010
0000
0000
0000
0100
0000
0000
0000
0001
0000
0000
0000
2000
0000
0000
0000
0000
0000
0000
0000
0000
0000
0000
0000
0000
0000
0000
0000
3002
0003
0000
0000
0000
0000
0000
0000
0100
0000
0000
0000
0100
0000
0000
0000
0110
0000
0000
0000
0010
0000
0000
0000
1000
0000
0000
0000
0001
0000
0000
0000
,
0010
0100
1000
0001
1000
0100
0010
0001
1000
1000
0001
0100
0010
0100
1000
0100
,
0010
0000
0000
0000
1000
0000
0000
0000
0100
0000
0000
0000
0010
0000
0000
0000
0002
0000
0000
0000
0000
0000
0000
0000
0000
0000
0000
0000
0003
0000
0000
0000
2000
3000
0000
0000
0000
0000
0000
0000
0000
0000
0000
0000
1000
0000
0000
0000
0001
0000
0000
0000
0000
0000
0000
0000
0100
0000
0000
0000
0000
0000
0000
0000
,
0010
0100
0110
0000
1000
0010
0001
1000
,
0100
0001
1000
0000
0001
0010
0100
0100
,
1000
0000
0001
0000
0100
0000
0010
0000
0110
0000
0000
0101
0000
0000
1010
0000
,
2002
0000
0000
0000
0000
0000
0000
0000
3000
0000
0000
0000
0000
0000
0000
0000
0003
0000
0000
0000
0000
0000
0000
0000
0000
0000
0000
0000
0000
0000
0000
0000
2000
3000
0000
0000
0000
0000
0000
0000
0000
0000
0000
0000
0000
0000
0000
0000
0100
0000
0000
0000
0000
0000
0000
0000
0100
0000
0000
0000
0000
0000
0000
0000
,
0010
0010
0001
1000
0010
0100
0001
1000
,
0100
0010
0001
1000
0001
0000
0100
0100
,
0010
0010
0100
0001
1000
0100
0010
0100
,
0001
0100
0010
0100
1000
0000
0001
0001
,
0100
0100
0010
0010
0100
0001
0010
0100
,
1000
0001
0100
0010
0100
0010
0100
0010
,
0100
0100
0010
0010
2000
0000
0000
0000
,
0002
0000
3003
0000
,
0002
0000
0000
0000
1003
0000
0001
0000
1000
0000
0100
0000
2000
3000
0002
0003
,
1000
0000
1100
0000
0011
0000
0001
0100
,
0010
0000
1010
0000
0001
1000
0010
0100
,
0001
0000
0011
0000
1100
0000
0001
1000
,
0010
0000
0000
0110
0000
0000
0101
0000
0001
0000
1000
0000
0200
0000
0320
0000
,
0130
0000
0000
0000
0100
0000
1000
0000
0001
0000
0100
0000
0010
0000
1000
0001
,
1000
1000
0100
0010
0001
0000
0110
0000
,
1000
1000
0001
0001
0100
0010
1000
0001
,
1000
0000
0000
0110
0000
0000
0001
0000
1000
0000
0010
0000
0100
0000
0001
0000
,
1000
0000
0000
0100
0000
0000
0110
0000
0000
0000
0011
0000
0000
0000
0001
0000
,
0100
0000
0000
0110
0000
0000
1010
0000
0000
0000
1001
0000
0000
0000
0001
0000
,
0010
0000
0000
0110
0000
0000
1100
0000
0000
0000
1001
0000
0000
0000
0001
0000
,
2002
0000
0000
3003
,
1000
0000
0000
0100
0000
0000
0001
0000
0001
0000
0000
0100
0000
0000
1000
0000
,
1000
0000
0000
0010
0000
0000
0001
0000
0001
0000
0000
0010
0000
0000
1000
0000
,
1000
0100
0010
0001
0100
0010
1000
0001
,
0010
0010
0100
1000
0010
0010
0100
0001
,
1001
0000
0000
0000
;

//--------------- dance-single - Fred-104 ----------------
#NOTEDATA:;
#STEPSTYPE:dance-single;
#DESCRIPTION:Fred-104;
#DIFFICULTY:Hard;
#METER:16;
#DISPLAYBPM:82.5:330;
#BPMS:0=165,80=247.5,80.375=206.25,80.688=123.75,80.875=82.5,80.979=165,110.5=82.5,111=165,125=82.5,126=165,142=82.5,149.5=165,150=82.5,157=41.25,157.25=82.5,157.5=165,158=82.5,166=165,181=82.5,181.25=165,181.5=330,182=165,210=82.5,216=165;
#STOPS:40=1.091,72.979=2.545,80.979=0.372,109=0.182,109.5=0.182,110=0.181,149.5=0.182;
#TIMESIGNATURES:0=4=4,36=5=4,41=4=4,69=5=4,74=4=4,78=3=4,81=4=4,109=2=4,111=4=4,123=3=4,126=4=4,214=6=4,220=4=4;
#CREDIT:Fred-104;
#NOTES:
0000
0000
0000
0000
,
0000
0000
0000
0000
,
0000
0000
0000
0000
,
0000
0000
0000
0000
,
0000
0000
0000
0000
,
0000
0000
0000
0000
,
0000
0000
0000
0000
,
1001
0000
1000
0000
1000
0000
0001
0001
,
0101
0000
0000
0000
0100
0000
0000
0000
0100
0000
0100
0010
0100
0000
0100
0000
,
0001
0000
0001
0000
1000
0000
1000
0000
0001
1000
0001
1000
0001
1000
0001
1000
,
0002
0003
0000
0000
0000
0000
0000
0000
0000
0000
0000
0000
0000
0000
0000
0000
1000
0000
0000
0000
0000
0000
0000
0000
0100
0000
0000
0000
0000
0000
0000
0000
1000
0000
0000
0000
0000
0000
0000
0000
0001
0000
0000
0000
0000
0000
0000
0000
1000
0000
0000
0000
0000
0000
0000
0000
0010
0000
0000
0000
0100
0000
0000
0000
,
0010
0000
1000
0000
0001
0000
0010
0000
0001
0000
1000
0000
0001
0000
0100
0010
,
1000
0010
0100
0010
1000
0000
0001
0000
1000
0000
0100
0000
0010
0000
0001
1000
,
0001
0000
0100
0000
0010
0000
1000
0000
0001
0000
1000
0000
0100
0010
0100
0010
,
0001
0010
0001
0010
0100
0000
0000
1100
0000
0000
1000
0001
0100
0000
0000
0110
,
0000
0000
0010
1000
0001
0000
0000
0011
0000
0000
0010
1000
0010
0000
0001
1000
,
0001
0000
0100
0010
1000
0000
1000
0000
0001
0000
0001
0000
1000
0001
1000
0001
,
1000
0001
1000
0001
1000
0000
0000
1100
0000
0000
0110
0000
0011
0000
0000
1001
,
0000
0000
1000
0001
0000
0000
0000
0000
0002
0000
0000
0023
0000
0000
0230
0000
,
0000
2300
0000
0000
3002
0000
0203
0000
0320
0000
0000
2030
0000
3000
2002
0000
,
0000
0000
0000
0000
0000
0000
0000
3003
1000
0000
0000
0000
0100
0000
0010
0000
0001
0000
0000
0000
1000
0000
0000
0000
0001
0000
0000
0000
0100
0000
0010
0000
,
1000
0000
1000
0000
0001
0000
0010
0100
1000
0000
0001
1000
0010
0000
0010
0000
,
0100
0001
1000
0000
0100
0000
0100
0000
0010
0001
1000
0000
0001
0000
0100
0000
,
0010
0000
0000
0000
0000
0000
1000
0000
0001
0000
1000
0000
0001
0000
0000
0000
0000
0000
0010
0000
0000
0001
0000
0000
0100
0000
0000
0000
0000
0000
0010
0000
0000
1000
0000
0000
0100
0000
0000
0000
0000
0000
0100
0000
0000
0000
0000
0000
,
1000
0001
1000
0000
1001
0000
0001
0000
0100
0010
0100
0010
0100
0000
0001
1000
,
0100
0000
0010
0000
0001
0000
1000
0001
0100
0000
0010
1000
0100
0000
0100
0000
,
0010
0100
1000
0000
0001
0000
0101
0000
1000
0000
1010
0000
0001
0000
1000
0100
,
0010
0000
0000
0000
0000
0000
0000
0000
0000
0000
0000
0000
0000
0000
0000
0000
0000
0000
0000
0000
0000
0000
0000
0000
0001
0000
0000
0000
0000
0000
0000
0000
0010
0000
0000
0000
0000
0000
0000
0000
0001
0000
0000
0000
0000
0000
0000
0000
0020
0000
0000
0030
0000
0000
0000
0000
0000
0000
0000
0000
0000
0000
0000
0000
0000
0000
0000
0000
0000
0000
0000
0000
0220
0000
0000
0330
0000
0000
0000
0000
0000
0000
0000
0000
1000
0000
0000
0000
0000
0000
0000
0000
0000
0000
0000
0000
0002
0000
0000
0003
0000
0000
0000
0000
0000
0000
0000
0000
0000
0000
0000
0000
0000
0000
0000
0000
0000
0000
0000
0000
2002
0000
0000
0000
0000
0000
0000
0000
0000
0000
0000
0000
3003
0000
0000
0000
0000
0000
0000
0000
0000
0000
0000
0000
0002
0000
0000
0003
0000
0000
0000
0000
0000
0000
0000
0000
0000
0000
0000
0000
0010
0000
0000
0000
0000
0000
0000
0000
0000
0000
0000
0000
0000
0000
0000
0000
0001
0000
0000
0000
0000
0000
0000
0000
0000
0000
0000
0000
0000
0000
0000
0000
,
0100
0010
1000
0100
1000
0001
0100
0100
0100
0010
1000
0001
,
0010
0100
1000
0001
0000
0001
1000
0000
1000
0001
0010
0100
,
0010
0001
0100
0010
1000
0001
0010
0010
0010
0100
1000
0001
,
0100
0000
0000
0000
0000
0000
0000
0000
0000
0000
0000
0000
0000
0000
0000
0000
0010
0000
0000
0000
0000
0000
0000
0000
0000
0000
0000
0000
0000
0000
0000
0000
1000
0000
0000
0000
0000
0000
0000
0000
0000
0000
0000
0000
0000
0000
0000
0000
0200
0000
0000
0000
0000
0000
0000
0000
0000
0000
0000
0000
0000
0000
0000
0000
0310
0000
0000
0000
0000
0000
0000
0000
0100
0000
0000
0000
0000
0000
0000
0000
0010
0000
0000
0000
0000
0000
0000
0000
0100
0000
0000
0000
0000
0000
0000
0000
0020
0000
0000
0030
0000
0000
0000
0000
0000
0000
0000
0000
0001
0000
0000
0000
0000
0000
0000
0000
0000
0000
0000
0000
0010
0000
0000
0000
0000
0000
0000
0000
0000
0000
0000
0000
0001
0000
0000
0000
0000
0000
0000
0000
0000
0000
0000
0000
0010
0000
0000
0000
0000
0000
0000
0000
0000
0000
0000
0000
0000
0000
0000
0000
0000
0000
0000
0000
0000
0000
0000
0000
0010
0000
0000
0000
0000
0000
0000
0000
0000
0000
0000
0000
0000
0000
0000
0000
0000
0000
0000
0000
0000
0000
0000
0000
,
0001
0000
0001
0000
1000
0010
0000
0010
1000
0100
1000
0100
1000
0000
1000
0000
,
0100
0000
0100
1000
0001
1000
0001
1000
0010
0000
0010
0000
0100
0000
0100
0000
,
0110
0000
0000
0000
0000
0000
1000
0000
0000
0001
0000
0000
1000
0000
0000
0000
0000
0000
0001
0000
0010
0000
0100
0000
2000
0000
0000
0000
0000
0000
0000
0000
0000
0000
0000
0000
0000
0000
0000
0000
0000
0000
0000
0000
0000
0000
0000
0000
,
0002
0000
0000
0000
0000
0000
0000
0000
0000
0000
0000
0000
0000
0000
0000
0000
3003
0000
0000
0000
0000
0000
0000
0000
0000
0000
0000
0000
0000
0000
0000
0000
0002
0003
0000
0000
1000
0000
0000
0000
0001
0000
0000
0000
1000
0000
0000
0000
1100
0000
0000
0000
0100
0000
0000
0000
0010
0000
0001
0000
0010
0000
0001
0000
,
2000
0000
3020
0000
0032
0000
2003
0000
3200
0000
0320
0000
0230
0000
0302
0000
1003
0000
1000
0100
1000
0000
0001
0000
1001
0000
1000
0000
0010
1000
0010
1000
,
0002
0000
0000
0000
0023
0000
0000
0000
2030
0000
0000
0000
3002
0000
0000
0000
0203
0000
0000
0000
2300
0000
3000
0000
2002
3003
0000
0000
0000
0000
0000
0000
0002
0003
0000
0000
0000
0000
0000
0000
0100
0000
0000
0000
0000
0000
0000
0000
0110
0000
0000
0000
0010
0000
0000
0000
1000
0000
0001
0000
1000
0000
0001
0000
,
0020
0000
0230
0000
0302
0000
2003
0000
3020
0000
0230
0000
2300
0000
3002
0000
0103
0000
0100
0010
0100
0000
0001
0000
1001
0000
1000
0001
1000
0000
0001
0000
,
0100
0000
0010
0000
1000
0000
0000
0000
0100
0000
0000
0000
0010
0000
0002
0000
0200
0000
0000
0000
0003
0000
0000
0000
0300
0000
0000
0000
0000
0000
0000
0000
2002
3003
0000
0000
0001
0000
0000
0000
0100
0000
0000
0000
0001
0000
0000
0000
1001
0000
0000
0000
1000
0000
0000
0000
0100
0000
1000
0000
0100
0000
1000
0000
,
0002
0000
0203
0000
2300
0000
3200
0000
0320
0000
0032
0000
2003
0000
3200
0000
0301
0000
0001
0100
0001
0000
0100
0000
0110
0000
0010
0000
1000
0001
1000
0001
,
0020
0000
0000
0000
0230
0000
0000
0000
2300
0000
0000
0000
3002
0000
0000
0000
2003
0000
0000
0000
0000
0000
0000
0000
0000
0000
0000
0000
3000
0000
0000
0000
0002
0003
0000
0000
0000
0000
0000
0000
0000
0000
0000
0000
0001
0000
0000
0000
0100
0000
0000
0000
0000
0000
0000
0000
0010
0000
0000
0000
0000
0000
0000
0000
,
1000
0000
1001
0000
0001
1000
0001
1000
0002
0000
0103
0000
1000
0000
0002
0000
,
0013
0100
0010
0100
0010
0000
0010
0000
1000
0001
1000
0001
0100
0000
0020
0000
,
1030
0001
1000
0001
0010
0100
0010
0100
0010
0001
0000
0011
0000
0000
1010
0000
,
0202
0000
0000
0000
0000
0000
0000
0000
0003
0000
0000
0000
0000
0000
0000
0000
0300
0000
0000
0000
0000
0000
0000
0000
0000
0000
0000
0000
0000
0000
0000
0000
0002
0003
0000
0000
0000
0000
0000
0000
1000
0000
0000
0000
0000
0000
0000
0000
0001
0000
0000
0000
0000
0000
0000
0000
0010
0000
0000
0000
0001
0000
0000
0000
,
0010
0000
0100
1000
0100
0000
1000
0000
0001
0000
0100
0000
0010
0100
0010
0100
,
0001
0000
1000
0001
1000
0000
0100
0000
1000
0000
0001
0000
0100
0000
0010
1000
,
0010
0000
1000
0001
1000
0000
0100
0000
1000
0000
0001
0000
0010
0100
1000
0000
,
0001
0100
0001
1000
0001
0010
0001
1000
0010
0000
0100
0000
0001
0000
1000
0100
,
1000
0000
0001
0010
0001
0000
1000
0000
0010
0000
0100
0000
0001
1000
0001
1000
,
0100
0000
0010
0100
1000
0000
0001
0000
0100
0000
0100
0000
0010
0000
0010
0000
,
0100
0000
0000
0000
0010
0000
0000
0000
0100
0000
0000
0000
0010
0000
0000
0000
0100
0000
0000
0000
0010
0000
0000
0000
0100
0000
0000
0000
0020
0000
0000
0000
0200
0300
0000
0000
0100
0000
0000
0000
0100
0000
0000
0000
0100
0000
0000
0000
0100
0000
0000
0000
0100
0000
0000
0000
0100
0000
0000
0000
0200
0000
0000
0000
,
0000
0000
0000
0000
0000
0000
0000
0000
0000
0000
0000
0000
0000
0000
0000
0000
0000
0000
0000
0000
0000
0000
0000
0000
0000
0000
0000
0000
0000
0000
0000
0000
0000
0000
0000
0000
0000
0000
0000
0000
0000
0000
0000
0000
0000
0000
0000
0000
0330
0000
0000
0000
0000
0000
0000
0000
0000
0000
0000
0000
0000
0000
0000
0000
0000
0000
0000
0000
0000
0000
0000
0000
0000
0000
0000
0000
0000
0000
0000
0000
0000
0000
0000
0000
0001
0000
0000
0000
0000
0000
0000
0000
0000
0000
0000
0000
1000
0000
0000
0000
0000
0000
0000
0000
0000
0000
0000
0000
1000
0000
0000
0000
0000
0000
0000
0000
0000
0000
0000
0000
0002
0000
0000
0003
0000
0000
2000
0000
0000
3000
0000
0000
0002
0000
0000
0003
0000
0000
2000
0000
0000
3000
0000
0000
0002
0000
0000
0000
0000
0000
0000
0000
0000
0000
0000
0000
0000
0000
0000
0000
0003
0000
0000
0000
0000
0000
0000
0000
0000
0000
0000
0000
0000
0000
0000
0000
0000
0000
0000
0000
0000
0000
0000
0000
0000
0000
0000
0000
0000
0000
0000
0000
,
2000
3000
0000
0000
0000
0000
0000
0000
1000
0000
0000
0000
0000
0000
0000
0000
0100
0000
0000
0000
0010
0000
0000
0000
0100
0000
0000
0000
0010
0000
0000
0000
0200
0000
0000
0000
0000
0000
0000
0000
0320
0000
0000
0000
0000
0000
0000
0000
0032
0000
0003
0000
2000
0000
3000
0000
0002
0000
0003
0000
2000
0000
3000
0000
,
0001
0000
0100
0000
0010
0000
0100
0000
0001
0000
0100
0000
0010
1000
0010
1000
,
0001
0000
0010
0000
0100
1000
0001
0000
0100
0001
1000
0000
0100
0010
0001
1000
,
0001
0000
1000
0001
0100
0000
0010
1000
0010
0000
1000
0001
0010
0000
0200
0300
,
1100
0000
0000
0000
0000
0000
0000
0000
0000
0101
0000
0000
0000
0000
0000
0000
0000
0000
1010
0000
0000
0000
0000
0000
1001
0000
0000
0000
0000
0000
0001
0000
0100
0000
0010
0000
2000
0000
0000
0000
0000
0000
3002
0000
0000
0000
0000
0000
,
1003
0000
0000
0000
0000
0000
0100
0000
0000
0000
0000
0000
0010
0000
0000
0000
0000
0000
0001
0000
0000
1000
0000
0000
0010
0000
0000
0000
0000
0000
0100
0000
0000
0000
0000
0000
0110
0000
0000
0000
0000
0000
0001
0000
1000
0000
0001
0000
,
1000
0000
1000
0000
0100
0010
0001
0100
0010
0000
0000
0000
0110
0000
0000
0100
,
0001
0000
0001
0010
0100
0000
0100
0000
1000
0000
1000
0000
0001
0100
0010
1000
,
0001
0000
0000
0000
0000
0000
0000
0000
0000
0101
0000
0000
0000
0000
0000
0000
0000
0000
1100
0000
0000
0000
0000
0000
0012
0000
0000
0000
0000
0000
1003
0000
0000
0001
0000
0000
0200
0000
0000
0000
0000
0000
0310
0000
1000
0000
0001
0000
,
1000
0000
0000
1100
0000
0000
0100
0010
0000
0000
1010
0000
0000
0000
0011
0000
,
1001
0000
0000
0101
0000
0000
0100
0010
0000
0000
0011
0000
0000
0000
1010
0000
,
1001
0000
0000
1010
0000
0000
0010
0100
0000
0000
1100
0000
0000
0000
0101
0000
,
0001
0000
0000
0000
0000
0000
0000
0000
0000
0000
0000
0000
0000
0000
0000
0000
0000
0000
0000
0000
0000
0000
0000
0000
0000
0000
0000
0000
1000
0000
0000
0000
0000
0000
0000
0000
0000
0000
0000
0000
0000
0000
0000
0000
0000
0000
0000
0000
0000
0000
0000
0000
0000
0000
0000
0000
0000
0000
0000
0001
0000
0000
0000
0000
0000
0000
0000
0000
0000
0000
0000
0000
0000
0000
0000
0000
0000
0000
0000
0000
1000
0000
0000
0000
0000
0000
0000
0000
0000
0000
0000
0000
0000
0000
0000
0000
0000
0000
0000
0000
0000
0000
0000
0000
0001
0000
0000
0000
0000
0000
0000
0000
0000
0000
0000
0000
0000
0000
0000
0000
0000
0000
0000
0000
0000
0000
0000
0000
0000
0000
1000
0000
0000
0000
0000
0000
0000
0000
0000
0000
0000
0000
0000
0000
0000
0000
0000
0000
0000
0000
0000
0000
0000
0000
0001
0000
0000
0000
0000
0000
0000
0000
0000
0000
0000
0000
0000
0000
1000
0000
0000
0000
0000
0000
0000
0000
0001
0000
0000
0000
0000
0000
0000
0000
1000
0000
0000
0000
0000
0000
0000
0000
,
0001
0000
0000
0011
0000
0000
0010
0100
1000
0000
0000
1010
0000
0000
0010
0100
,
0001
0000
0000
1001
0000
0000
1000
0001
0010
0000
0100
0010
0000
0001
1000
0000
,
1100
0000
0001
0000
0101
0000
1000
0010
0100
0000
0001
0010
0100
0000
1000
0001
,
1000
0100
0010
0001
0010
0100
1000
0000
0001
0100
0010
1000
0010
0100
0001
0000
,
1001
0000
0000
0000
;

//--------------- dance-double - Fred-104 ----------------
#NOTEDATA:;
#STEPSTYPE:dance-double;
#DESCRIPTION:Fred-104;
#DIFFICULTY:Easy;
#METER:8;
#CREDIT:Fred-104;
#NOTES:
00000000
00000000
00000000
00000000
,
00000000
00000000
00000000
00000000
,
00000000
00000000
00000000
00000000
,
00000000
00000000
00000000
00000000
,
00000000
00000000
00000000
00000000
,
00000000
00000000
00000000
00000000
,
00000000
00000000
00000000
00000000
,
00000001
00000001
00000001
00000100
,
00001000
00000000
00001000
00000000
00010000
00001000
00010000
00000000
,
01000000
01000000
00100000
00100000
,
00110000
00000000
00000000
00000000
,
10000000
01000000
01000000
00100000
,
00001000
00010000
00000010
00010000
,
00010000
00001000
00010000
00000100
,
00000010
00000000
00000001
00000000
00001000
00000001
00001000
00000000
,
00000011
00000000
00010100
00000000
,
01001000
00000000
10100000
00000000
,
10000000
01000000
00010000
00001000
,
00000010
00000000
00000001
00000000
,
00001001
00000000
00000000
00000000
,
00000000
00000000
00000000
00000000
,
00010000
00000000
00000000
00001000
00000000
00000000
01000000
00000000
,
00100000
00000000
00000000
20020000
00000000
00000000
30030000
00000000
,
10000000
00100000
10000000
10000000
,
01000000
00000000
00100000
00000000
01000000
01000000
01000000
00000000
,
00100000
00000000
00001000
00000000
00010000
00010000
00010000
00000000
,
00001000
00000000
00000010
00000000
00000100
00000100
00000100
00000000
,
00010000
00000000
00001000
00000000
01000000
00000000
00100000
00100000
,
00100000
00000000
00010000
00000000
00001000
00001000
00001000
00000000
,
00010000
00000010
00001000
00000000
00000100
00000100
00010000
00000000
,
00022000
00033000
02200000
03300000
,
10000000
00100000
00010000
00001000
,
00000100
00000001
00001000
00001000
,
00000001
00000010
00001000
00010000
,
01000000
10000000
20020000
30030000
,
01000000
01000000
01000000
00000000
00100000
00000000
00001000
00000000
,
00010000
00010000
00010000
00000000
00000010
00000000
00001000
00000000
,
00000110
00000000
00000110
00000000
00000001
00001000
00000001
00000000
,
00002000
00000000
00000002
00003003
,
00000001
00000000
00001100
00000000
,
00000001
00000100
00001000
00010000
,
00001000
00000000
01010000
00000000
,
00001000
00010000
00001000
00000000
01000000
00000000
00020000
00000000
,
10030000
00000000
00110000
10000000
,
01000000
00100000
00001000
00010000
,
00001000
00001000
00001000
00000000
00010000
00000000
00000010
00000000
,
00001000
00000001
00001000
00000001
00002000
00000000
00003000
00000000
,
00000100
00000000
00011000
00000000
,
00010000
00001000
01000000
00010000
,
00100000
00100000
00100000
00000000
01000000
00000000
10000000
00000000
,
00010000
01000000
00010000
01000000
00002000
00000000
00003000
00000000
,
00010000
00100000
00001000
00001000
,
01000000
00100000
01000000
01000000
,
00010000
10000000
01000000
01000000
,
00010000
00001000
00022000
00033000
,
00010000
00000000
00001000
00000010
,
00000001
00000000
00000100
00001000
,
00010000
00000000
00100000
10000000
,
01000000
00000000
00010000
00001000
,
00000010
00000000
00000001
00000100
,
00001000
00000000
00010000
00001000
,
01000000
00100000
01000000
00000000
00010000
00100000
00001000
00000000
,
00020000
00000000
00000000
00000000
,
00002000
00000000
00000000
00000000
,
00033000
00000000
00000000
00000000
,
00001000
00000000
00010000
00000000
00100000
10000000
00100000
00000000
,
10000000
01000000
00100000
00001000
,
00010000
00000000
00000100
00000000
00000010
00000010
00000010
00000000
,
00000001
00000100
00001000
01000000
,
00010000
10000000
20020000
30030000
,
10000000
00100000
00010000
00001000
,
00010000
00100000
01000000
01000000
,
00010000
00010000
00010000
00000000
10000000
00000000
01000000
00000000
,
00010000
00000000
00022000
00033000
,
00010000
00000000
00000000
00000010
00000000
00010000
00000000
00000000
,
00001000
00000000
00000000
01000000
00000000
00001000
00000000
00000000
,
00010000
00000000
00000000
00001000
00000000
00010000
00000000
00000000
,
00011000
00000000
00000000
00000000
,
00001000
00000000
00010000
00000000
,
00100000
00000000
10000000
00000000
,
01000000
01000000
00010000
00010000
,
00001000
01000000
00001000
00000000
00010000
00001000
01000000
00000000
,
10010000
00000000
00000000
00000000
;

//--------------- dance-double - Fred-104 ----------------
#NOTEDATA:;
#STEPSTYPE:dance-double;
#DESCRIPTION:Fred-104;
#DIFFICULTY:Medium;
#METER:13;
#DISPLAYBPM:82.5:330;
#BPMS:0=165,80=247.5,80.375=206.25,80.688=123.75,80.875=82.5,80.979=165,110.5=82.5,111=165,125=82.5,126=165,142=82.5,149.5=165,150=82.5,157=41.25,157.25=82.5,157.5=165,158=82.5,166=165,181=82.5,181.25=165,181.5=330,182=165,210=82.5,216=165;
#STOPS:40=1.091,72.979=2.545,80.979=0.372,109=0.182,109.5=0.182,110=0.181,149.5=0.182;
#TIMESIGNATURES:0=4=4,36=5=4,41=4=4,69=5=4,74=4=4,78=3=4,81=4=4,109=2=4,111=4=4,123=3=4,126=4=4,214=6=4,220=4=4;
#CREDIT:Fred-104;
#NOTES:
00000000
00000000
00000000
00000000
,
00000000
00000000
00000000
00000000
,
00000000
00000000
00000000
00000000
,
00000000
00000000
00000000
00000000
,
00000000
00000000
00000000
00000000
,
00000000
00000000
00000000
00000000
,
00000000
00000000
00000000
00000000
,
11000000
00000000
01000000
00000000
01000000
00000000
00100000
00100000
,
00001000
00000000
00001000
00000000
00010000
00001000
00010000
00000000
,
00000010
00001000
00000010
00001000
00000100
00000010
00000001
00001000
,
00000002
00000003
00000000
00000000
00000000
00000000
00000000
00000000
00000000
00000000
00000000
00000000
00000000
00000000
00000000
00000000
00001000
00000000
00000000
00000000
00000000
00000000
00000000
00000000
00000010
00000000
00000000
00000000
00000000
00000000
00000000
00000000
00001000
00000000
00000000
00000000
00000000
00000000
00000000
00000000
00000010
00000000
00000000
00000000
00000000
00000000
00000000
00000000
00000100
00000000
00000000
00000000
00000000
00000000
00000000
00000000
00001000
00000000
00000000
00000000
00000000
00000000
00000000
00000000
,
00000100
00001000
00010000
00001000
00010000
00001000
01000000
00010000
,
10000000
01000000
00100000
00001000
00100000
00001000
00010000
00000010
,
00010000
00000010
00000100
00001000
00010000
00100000
01000000
00010000
,
10000000
00000000
00000000
00000000
11000000
00000000
00000000
00100000
00000000
00000000
00001000
00000000
00011000
00000000
00000000
00000010
,
00000000
00000000
00010000
00000000
00010100
00000000
00000000
00000100
00000000
00000000
00000010
00000000
00000001
00000000
00000001
00000000
,
00001000
00001000
00000010
00000100
00001000
00010000
00001000
00100000
,
00001000
00000000
00100000
00000000
01000000
00000000
00000000
10000000
00000000
00000000
00100000
00000000
00010000
00000000
00000000
00001000
,
00000000
00000000
00010000
00001000
00000000
00000000
00000000
00000000
00020000
00000000
00000000
00001000
00000000
00000000
00001000
00000000
,
00000000
00001000
00000000
00000000
00031000
00000000
00010000
00000000
00000010
00000000
00000000
00001000
00000000
00000000
00002002
00000000
,
00000000
00000000
00000000
00000000
00000000
00000000
00000000
00003003
00000001
00000000
00000000
00000000
00001000
00000000
00000000
00000000
00000010
00000000
00000000
00000000
00000100
00000000
00000000
00000000
00001000
00000000
00000000
00000000
00010000
00000000
00000000
00000000
,
00001000
00001000
00100000
01000000
00100000
10000000
00100000
00010000
,
00100000
00001000
00010000
00000010
00001000
00000100
00010000
00001000
,
00100000
00000000
00100000
00010000
10000000
00000000
00010000
00000000
01000000
00000000
00001000
00000000
00010000
00000000
00010000
00000000
,
00001000
00010000
00001000
00000000
00010000
00000000
00000100
00000000
00000010
00000000
00000010
00000000
00000010
00000000
00000001
00000000
,
00001000
00000010
00001000
00000100
00010000
00001000
01000000
01000000
,
00001000
00010000
00001000
00000000
00010000
00000000
00010000
00000000
00000100
00000000
00000100
00000000
00000110
00000000
00000000
00000000
,
00000011
00000000
00000000
00000000
00000000
00000000
00000000
00000000
00000000
00000000
00000000
00000000
00000000
00000000
00000000
00000000
00000000
00000000
00000000
00000000
00000000
00000000
00000000
00000000
00000000
00000000
00000000
00000000
00000000
00000000
00000000
00000000
00000000
00000000
00000000
00000000
00000000
00000000
00000000
00000000
00000000
00000000
00000000
00000000
00000000
00000000
00000000
00000000
00002000
00000000
00000000
00003000
00000000
00000000
00000000
00000000
00000000
00000000
00000000
00000000
00000000
00000000
00000000
00000000
00000000
00000000
00000000
00000000
00000000
00000000
00000000
00000000
00000020
00000000
00000000
00000030
00000000
00000000
00000000
00000000
00000000
00000000
00000000
00000000
00000000
00000000
00000000
00000000
00000000
00000000
00000000
00000000
00000000
00000000
00000000
00000000
00022000
00000000
00000000
00000000
00000000
00000000
00000000
00000000
00000000
00000000
00000000
00000000
00000000
00000000
00000000
00000000
00000000
00000000
00000000
00000000
00000000
00000000
00000000
00000000
00033000
00000000
00000000
00000000
00000000
00000000
00000000
00000000
00000000
00000000
00000000
00000000
00000000
00000000
00000000
00000000
00000000
00000000
00000000
00000000
00000000
00000000
00000000
00000000
00002000
00000000
00000000
00003000
00000000
00000000
00000000
00000000
00000000
00000000
00000000
00000000
00000000
00000000
00000000
00000000
00000000
00000000
00000000
00000000
00000000
00000000
00000000
00000000
00000000
00000000
00000000
00000000
00000000
00000000
00000000
00000000
00001000
00000000
00000000
00000000
00000000
00000000
00000000
00000000
00000000
00000000
00000000
00000000
00000000
00000000
00000000
00000000
,
00010000
00000000
00010000
00100000
00000000
00100000
10000000
00010000
10000000
00010000
00000000
00010000
,
00100000
00000000
00100000
01000000
00000000
00010000
00001000
00000000
00010000
00000100
00000000
00000100
,
00001000
00000000
00001000
00000001
00000000
00000001
00000100
00000010
00000100
00000010
00000000
00000010
,
00000100
00000000
00000000
00000000
00000000
00000000
00000000
00000000
00000000
00000000
00000000
00000000
00000000
00000000
00000000
00000000
00000000
00000000
00000000
00000000
00000000
00000000
00000000
00000000
00000000
00000000
00000000
00000000
00000000
00000000
00000000
00000000
00000100
00000000
00000000
00000000
00000000
00000000
00000000
00000000
00000000
00000000
00000000
00000000
00000000
00000000
00000000
00000000
00002000
00000000
00000000
00000000
00000000
00000000
00000000
00000000
00000000
00000000
00000000
00000000
00000000
00000000
00000000
00000000
00000000
00000000
00000000
00000000
00000000
00000000
00000000
00000000
00023000
00000000
00000000
00000000
00000000
00000000
00000000
00000000
00000000
00000000
00000000
00000000
00000000
00000000
00000000
00000000
00000000
00000000
00000000
00000000
00000000
00000000
00000000
00000000
00032000
00000000
00000000
00003000
00000000
00000000
00000000
00000000
00000000
00000000
00000000
00000000
00000000
00000000
00000000
00000000
00000000
00000000
00000000
00000000
00000000
00000000
00000000
00000000
00001000
00000000
00000000
00000000
00000000
00000000
00000000
00000000
00000000
00000000
00000000
00000000
00000000
00000000
00000000
00000000
00000000
00000000
00000000
00000000
00000000
00000000
00000000
00000000
00010000
00000000
00000000
00000000
00000000
00000000
00000000
00000000
00000000
00000000
00000000
00000000
00000000
00000000
00000000
00000000
00000000
00000000
00000000
00000000
00000000
00000000
00000000
00000000
00100000
00000000
00000000
00000000
00000000
00000000
00000000
00000000
00000000
00000000
00000000
00000000
00000000
00000000
00000000
00000000
00000000
00000000
00000000
00000000
00000000
00000000
00000000
00000000
,
10000000
00000000
01000000
00000000
00100000
00010000
00000000
00010000
00100000
00000000
00100000
00000000
00001000
00000000
00010000
00000000
,
00000100
00000000
00000010
00000000
00000100
00001000
00000000
00001000
00000001
00000000
00000001
00000000
00000100
00000000
00000100
00000000
,
00001000
00010000
00001000
00010000
00002000
00000000
00000000
00000000
,
00020000
00000000
00000000
00000000
00000000
00000000
00000000
00000000
00000000
00000000
00000000
00000000
00000000
00000000
00000000
00000000
00033000
00000000
00000000
00000000
00000000
00000000
00000000
00000000
00000000
00000000
00000000
00000000
00000000
00000000
00000000
00000000
00022000
00033000
00000000
00000000
00000000
00000000
00000000
00000000
00000100
00000000
00000000
00000000
00000000
00000000
00000000
00000000
00011000
00000000
00000000
00000000
00000000
00000000
00000000
00000000
00010000
00000000
00000000
00000000
00000000
00000000
00000000
00000000
,
00001000
00010000
00000100
00001000
00000010
00000100
00000001
00001000
00000100
00000000
00000010
00000000
00000011
00000000
00000001
00000100
,
00000010
00000000
00000000
00000000
00000100
00000000
00000000
00000000
00001000
00000000
00000000
00000000
00010000
00000000
00000000
00000000
00001000
00000000
00000000
00000000
01000000
00000000
00000000
00000000
00200000
00300000
00000000
00000000
00000000
00000000
00000000
00000000
20000000
30000000
00000000
00000000
00000000
00000000
00000000
00000000
01000000
00000000
00000000
00000000
00000000
00000000
00000000
00000000
01100000
00000000
00000000
00000000
00000000
00000000
00000000
00000000
00100000
00000000
00000000
00000000
00001000
00000000
00000000
00000000
,
00010000
00001000
01000000
00001000
00010000
00001000
00100000
00001000
00010000
00000000
00001000
00000000
00001100
00000000
00000100
00000010
,
00010000
00000000
00000000
00000000
00000100
00000000
00000000
00000000
00000010
00000000
00000000
00000000
00000001
00000000
00000000
00000000
00002000
00000000
00000000
00000000
00000000
00000000
00000000
00000000
00000000
00000000
00000000
00000000
00000000
00000000
00000000
00000000
00003002
00000003
00000000
00000000
00000000
00000000
00000000
00000000
00000100
00000000
00000000
00000000
00000100
00000000
00000000
00000000
00000110
00000000
00000000
00000000
00000010
00000000
00000000
00000000
00001000
00000000
00000000
00000000
00010000
00000000
00000000
00000000
,
00001000
00100000
00010000
00100000
01000000
10000000
00010000
01000000
00100000
00100000
00010000
00001000
00010000
00010000
00000010
00010000
,
00001000
00000000
00000000
00000000
00010000
00000000
00000000
00000000
00100000
00000000
00000000
00000000
10000000
00000000
00000000
00000000
00020000
00000000
00000000
00000000
00000000
00000000
00000000
00000000
00000000
00000000
00000000
00000000
00030000
00000000
00000000
00000000
20000000
30000000
00000000
00000000
00000000
00000000
00000000
00000000
00000000
00000000
00000000
00000000
10000000
00000000
00000000
00000000
01000000
00000000
00000000
00000000
00000000
00000000
00000000
00000000
00100000
00000000
00000000
00000000
00000000
00000000
00000000
00000000
,
00001000
00010000
00011000
00000000
00010000
00001000
00000010
00000001
,
00000100
00001000
00010000
00000000
00001000
00100000
00010000
00010000
,
01000000
00000000
00100000
00000000
00010000
00000000
00001000
00000000
00011000
00000000
00000000
00001010
00000000
00000000
00011000
00000000
,
00022000
00000000
00000000
00000000
00000000
00000000
00000000
00000000
00030000
00000000
00000000
00000000
00000000
00000000
00000000
00000000
00003000
00000000
00000000
00000000
00000000
00000000
00000000
00000000
00000000
00000000
00000000
00000000
00000000
00000000
00000000
00000000
00020000
00030000
00000000
00000000
00000000
00000000
00000000
00000000
00000000
00000000
00000000
00000000
00000000
00000000
00000000
00000000
00001000
00000000
00000000
00000000
00000000
00000000
00000000
00000000
00001000
00000000
00000000
00000000
00000000
00000000
00000000
00000000
,
00000100
00000100
00000001
00000010
00000100
00001000
00000010
00000100
,
00001000
00010000
00001000
01000000
00100000
00000000
10000000
10000000
,
01000000
01000000
00010000
00010000
01000000
10000000
00100000
00010000
,
00001000
00010000
00000100
00000010
00000001
00000000
00001000
00001000
,
00000010
00000010
00000100
00000100
00001000
00010000
00100000
01000000
,
10000000
01000000
00010000
00000000
10000000
10000000
01000000
01000000
,
00010000
00001000
00010000
00001000
00020000
00000000
00000000
00000000
,
00002000
00000000
00033000
00000000
,
02000000
00000000
00000000
00000000
03100000
00000000
01000000
00000000
00100000
00000000
10000000
00000000
00020000
00030000
20000000
30000000
,
00010000
00000000
11000000
00000000
01010000
00000000
00010000
00001000
,
00010000
00000000
00010010
00000000
00000010
00001000
00000100
00000010
,
00000001
00000000
00000101
00000000
00001100
00000000
00001000
00010000
,
00001000
00000000
00000000
00101000
00000000
00000000
00110000
00000000
00100000
00000000
01000000
00000000
10000000
00000000
00010000
00000000
,
01000000
00000000
00000000
00000000
01000000
00000000
00100000
00000000
00010000
00000000
00001000
00000000
00000100
00000000
00000001
00001000
,
00000001
00000001
00000010
00001000
00010000
00000000
00011000
00000000
,
00001000
00001000
00010000
00010000
01000000
00100000
00010000
01000000
,
00100000
00000000
00000000
10010000
00000000
00000000
10000000
00000000
01000000
00000000
00010000
00000000
00001000
00000000
00010000
00000000
,
00000100
00000000
00000000
00010000
00000000
00000000
00011000
00000000
00000000
00000000
01001000
00000000
00000000
00000000
01000000
00000000
,
00100000
00000000
00000000
10000000
00000000
00000000
11000000
00000000
00000000
00000000
01010000
00000000
00000000
00000000
00010000
00000000
,
00001000
00000000
00000000
00010000
00000000
00000000
00110000
00000000
00000000
00000000
10100000
00000000
00000000
00000000
10000000
00000000
,
20020000
00000000
00000000
30030000
,
10000000
00000000
00000000
01000000
00000000
00000000
00010000
00000000
00001000
00000000
00000000
00000010
00000000
00000000
00000001
00000000
,
00000001
00000000
00000000
00000100
00000000
00000000
00001000
00000000
00010000
00000000
00000000
00100000
00000000
00000000
10000000
00000000
,
01000000
00100000
00001000
00010000
00000100
00000010
00000001
00000100
,
00001000
00010000
00100000
10000000
01000000
00010000
00001000
00000000
,
00011000
00000000
00000000
00000000
;

//--------------- dance-double - Fred-104 ----------------
#NOTEDATA:;
#STEPSTYPE:dance-double;
#DESCRIPTION:Fred-104;
#DIFFICULTY:Hard;
#METER:16;
#DISPLAYBPM:82.5:330;
#BPMS:0=165,80=247.5,80.375=206.25,80.688=123.75,80.875=82.5,80.979=165,110.5=82.5,111=165,125=82.5,126=165,142=82.5,149.5=165,150=82.5,157=41.25,157.25=82.5,157.5=165,158=82.5,166=165,181=82.5,181.25=165,181.5=330,182=165,210=82.5,216=165;
#STOPS:40=1.091,72.979=2.545,80.979=0.372,109=0.182,109.5=0.182,110=0.181,149.5=0.182;
#TIMESIGNATURES:0=4=4,36=5=4,41=4=4,69=5=4,74=4=4,78=3=4,81=4=4,109=2=4,111=4=4,123=3=4,126=4=4,214=6=4,220=4=4;
#CREDIT:Fred-104;
#NOTES:
00000000
00000000
00000000
00000000
,
00000000
00000000
00000000
00000000
,
00000000
00000000
00000000
00000000
,
00000000
00000000
00000000
00000000
,
00000000
00000000
00000000
00000000
,
00000000
00000000
00000000
00000000
,
00000000
00000000
00000000
00000000
,
00011000
00000000
00010000
00000000
00010000
00000000
00001000
00001000
,
00101000
00000000
00000000
00000000
00100000
00000000
00000000
00000000
00010000
00000000
00010000
10000000
00010000
00000000
00010000
00000000
,
10000000
00000000
10000000
00000000
01000000
00000000
01000000
00000000
00100000
00010000
00100000
00010000
00100000
00010000
00100000
00001000
,
00000000
00000000
00000000
00000000
00001000
00000000
00010000
00000000
00001000
00000000
00010000
00000000
00000010
00000000
00001000
00000001
,
00001000
00000000
00000100
00000000
00000010
00000000
00000001
00000000
00000010
00000000
00000001
00000000
00001000
00000000
00000010
00010000
,
00001000
00010000
00001000
00010000
00001000
00000000
00100000
00000000
00010000
00000000
00100000
00000000
00001000
00000000
01000000
00010000
,
01000000
00000000
00001000
00000000
00010000
00000000
00000100
00000000
00000010
00000000
00000001
00000000
00001000
00000010
00001000
00000010
,
00010000
00001000
00010000
00001000
00010000
00000000
00000000
00011000
00000000
00000000
00001000
00010000
00100000
00000000
00000000
10100000
,
00000000
00000000
10000000
00010000
00100000
00000000
00000000
00101000
00000000
00000000
00001000
00010000
00001000
00000000
00010000
00000100
,
00001000
00000000
00000001
00000100
00000010
00000000
00000010
00000000
00000100
00000000
00000100
00000000
00001000
00010000
00001000
00010000
,
00001000
00010000
00001000
00010000
00001000
00000000
00000000
00011000
00000000
00000000
00110000
00000000
10100000
00000000
00000000
11000000
,
00000000
00000000
01000000
00010000
00000000
00000000
00000000
00000000
00002000
00000000
00000000
00023000
00000000
00000000
00230000
00000000
,
00000000
20300000
00000000
00000000
32000000
00000000
03020000
00000000
00032000
00000000
00000000
00023000
00000000
00000000
00002000
00000000
,
00000000
00000000
00000000
00000000
00000000
00000000
00000000
00033000
00010000
00000000
00000000
00000000
00001000
00000000
00010000
00000000
00001000
00000000
00000000
00000000
00010000
00000000
00000000
00000000
00000010
00000000
00000000
00000000
00001000
00000000
00000001
00000000
,
00001000
00000000
00000100
00000000
00000010
00000000
00000001
00001000
00000001
00000000
00000100
00000010
00000100
00000000
00000100
00000000
,
00001000
00010000
00001000
00000000
01000000
00000000
01000000
00000000
00100000
10000000
00100000
00000000
10000000
00000000
01000000
00000000
,
00010000
00000000
00000000
00000000
00000000
00000000
00001000
00000000
00010000
00000000
00001000
00000000
00010000
00000000
00000000
00000000
00000000
00000000
00000010
00000000
00000000
00001000
00000000
00000000
00000010
00000000
00000000
00000000
00000000
00000000
00010000
00000000
00000000
00001000
00000000
00000000
00010000
00000000
00000000
00000000
00000000
00000000
00010000
00000000
00000000
00000000
00000000
00000000
,
00000100
00001000
00000100
00000000
00000110
00000000
00000010
00000000
00000001
00001000
00000001
00001000
00000001
00000000
00001000
00000010
,
00000100
00000000
00001000
00000000
00010000
00000000
00001000
00100000
01000000
00000000
00010000
00001000
00010000
00000000
00010000
00000000
,
00001000
00010000
00001000
00000000
01000000
00000000
01010000
00000000
00100000
00000000
10100000
00000000
00010000
00000000
00100000
01000000
,
10000000
00000000
00000000
00000000
00000000
00000000
00000000
00000000
00000000
00000000
00000000
00000000
00000000
00000000
00000000
00000000
00000000
00000000
00000000
00000000
00000000
00000000
00000000
00000000
00100000
00000000
00000000
00000000
00000000
00000000
00000000
00000000
00000000
00000000
00000000
00000000
01000000
00000000
00000000
00000000
00000000
00000000
00000000
00000000
00000000
00000000
00000000
00000000
00020000
00000000
00000000
00030000
00000000
00000000
00000000
00000000
00000000
00000000
00000000
00000000
00000000
00000000
00000000
00000000
00000000
00000000
00000000
00000000
00000000
00000000
00000000
00000000
00202000
00000000
00000000
00303000
00000000
00000000
00000000
00000000
00000000
00000000
00000000
00000000
00001000
00000000
00000000
00000000
00000000
00000000
00000000
00000000
00000000
00000000
00000000
00000000
00020000
00000000
00000000
00030000
00000000
00000000
00000000
00000000
00000000
00000000
00000000
00000000
00000000
00000000
00000000
00000000
00000000
00000000
00000000
00000000
00000000
00000000
00000000
00000000
00020020
00000000
00000000
00000000
00000000
00000000
00000000
00000000
00000000
00000000
00000000
00000000
00030030
00000000
00000000
00000000
00000000
00000000
00000000
00000000
00000000
00000000
00000000
00000000
00020000
00000000
00000000
00030000
00000000
00000000
00000000
00000000
00000000
00000000
00000000
00000000
00000000
00000000
00000000
00000000
00001000
00000000
00000000
00000000
00000000
00000000
00000000
00000000
00000000
00000000
00000000
00000000
00000000
00000000
00000000
00000000
00010000
00000000
00000000
00000000
00000000
00000000
00000000
00000000
00000000
00000000
00000000
00000000
00000000
00000000
00000000
00000000
,
00000100
00001000
00000100
00010000
00001000
00010000
00000010
00000010
00000010
00001000
00000001
00001000
,
00000100
00000010
00000001
00000100
00000000
00000100
00001000
00000000
00001000
00010000
00001000
00100000
,
00010000
10000000
00100000
01000000
00010000
10000000
01000000
01000000
01000000
00100000
00010000
00100000
,
00001000
00000000
00000000
00000000
00000000
00000000
00000000
00000000
00000000
00000000
00000000
00000000
00000000
00000000
00000000
00000000
00010000
00000000
00000000
00000000
00000000
00000000
00000000
00000000
00000000
00000000
00000000
00000000
00000000
00000000
00000000
00000000
00001000
00000000
00000000
00000000
00000000
00000000
00000000
00000000
00000000
00000000
00000000
00000000
00000000
00000000
00000000
00000000
00020000
00000000
00000000
00000000
00000000
00000000
00000000
00000000
00000000
00000000
00000000
00000000
00000000
00000000
00000000
00000000
00031000
00000000
00000000
00000000
00000000
00000000
00000000
00000000
00010000
00000000
00000000
00000000
00000000
00000000
00000000
00000000
00000010
00000000
00000000
00000000
00000000
00000000
00000000
00000000
00010000
00000000
00000000
00000000
00000000
00000000
00000000
00000000
00002000
00000000
00000000
00003000
00000000
00000000
00000000
00000000
00000000
00000000
00000000
00000000
00010000
00000000
00000000
00000000
00000000
00000000
00000000
00000000
00000000
00000000
00000000
00000000
00001000
00000000
00000000
00000000
00000000
00000000
00000000
00000000
00000000
00000000
00000000
00000000
00010000
00000000
00000000
00000000
00000000
00000000
00000000
00000000
00000000
00000000
00000000
00000000
00001000
00000000
00000000
00000000
00000000
00000000
00000000
00000000
00000000
00000000
00000000
00000000
00000000
00000000
00000000
00000000
00000000
00000000
00000000
00000000
00000000
00000000
00000000
00000000
00001000
00000000
00000000
00000000
00000000
00000000
00000000
00000000
00000000
00000000
00000000
00000000
00000000
00000000
00000000
00000000
00000000
00000000
00000000
00000000
00000000
00000000
00000000
00000000
,
00010000
00000000
00010000
00000000
00000100
00001000
00000000
00001000
00000010
00001000
00000010
00001000
00000100
00000000
00000100
00000000
,
00000010
00000000
00000010
00000001
00001000
00000010
00001000
00000010
00000100
00000000
00000100
00000000
00001000
00000000
00001000
00000000
,
00011000
00000000
00010000
00100000
10000000
00000000
01000000
00100000
00020000
00000000
00000000
00000000
00000000
00000000
00000000
00000000
,
20000000
00000000
00000000
00000000
00000000
00000000
00000000
00000000
30030000
00000000
00000000
00000000
00000000
00000000
00000000
00000000
00010000
00000000
01000000
00000000
00100000
00000000
10000000
00000000
10010000
00000000
00010000
00000000
00100000
01000000
00100000
01000000
,
00020000
00000000
00032000
00000000
00023000
00000000
00030020
00000000
00000230
00000000
00002300
00000000
00003002
00000000
00000023
00000000
00001030
00000000
00001000
00000001
00001000
00000000
00000001
00000000
00001001
00000000
00001000
00000000
00000010
00010000
00000010
00010000
,
00002000
00000000
00000000
00000000
00023000
00000000
00000000
00000000
02030000
00000000
00000000
00000000
23000000
00000000
00000000
00000000
30200000
00000000
00000000
00000000
00320000
00000000
00030000
00000000
00022000
00033000
00000000
00000000
00000000
00000000
00000000
00000000
00010000
00000000
00000000
00000000
00000000
00000000
00000000
00000000
00000010
00000000
00000000
00000000
00000000
00000000
00000000
00000000
00001010
00000000
00000000
00000000
00001000
00000000
00000000
00000000
00000001
00000000
00001000
00000000
00000001
00000000
00001000
00000000
,
00000002
00000000
00000023
00000000
00000230
00000000
00020300
00000000
00032000
00000000
00203000
00000000
02300000
00000000
23000000
00000000
30010000
00000000
00010000
01000000
00010000
00000000
10000000
00000000
11000000
00000000
01000000
00100000
01000000
00000000
00100000
00000000
,
00001000
00000000
00010000
00000000
00001000
00000000
00000000
00000000
01000000
00000000
00000000
00000000
00001000
00000000
00020000
00000000
00002000
00000000
00000000
00000000
00030000
00000000
00000000
00000000
00003000
00000000
00000000
00000000
00000000
00000000
00000000
00000000
00022000
00033000
00000000
00000000
00001000
00000000
00000000
00000000
00100000
00000000
00000000
00000000
00010000
00000000
00000000
00000000
10010000
00000000
00000000
00000000
10000000
00000000
00000000
00000000
00010000
00000000
01000000
00000000
00010000
00000000
01000000
00000000
,
00200000
00000000
00320000
00000000
00032000
00000000
00003200
00000000
00000320
00000000
00000032
00000000
00002003
00000000
00003200
00000000
00000310
00000000
00000010
00010000
00000010
00000000
00010000
00000000
00011000
00000000
00001000
00000000
00010000
00001000
00010000
00001000
,
00020000
00000000
00000000
00000000
00030200
00000000
00000000
00000000
00000320
00000000
00000000
00000000
00000032
00000000
00000000
00000000
00002003
00000000
00000000
00000000
00000000
00000000
00000000
00000000
00000000
00000000
00000000
00000000
00003000
00000000
00000000
00000000
00000002
00000003
00000000
00000000
00000000
00000000
00000000
00000000
00000000
00000000
00000000
00000000
00000001
00000000
00000000
00000000
00000010
00000000
00000000
00000000
00000000
00000000
00000000
00000000
00000100
00000000
00000000
00000000
00000000
00000000
00000000
00000000
,
00010000
00000000
00011000
00000000
00001000
00010000
00001000
00010000
00002000
00000000
00013000
00000000
00100000
00000000
20000000
00000000
,
30010000
10000000
00010000
10000000
01000000
00000000
01000000
00000000
00100000
00001000
00100000
00001000
00010000
00000000
00001000
00000000
,
00010000
00000100
00010000
00000100
00001000
00000100
00001000
00000100
00000010
00000001
00000000
00001001
00000000
00000000
00010010
00000000
,
00022000
00000000
00000000
00000000
00000000
00000000
00000000
00000000
00003000
00000000
00000000
00000000
00000000
00000000
00000000
00000000
00030000
00000000
00000000
00000000
00000000
00000000
00000000
00000000
00000000
00000000
00000000
00000000
00000000
00000000
00000000
00000000
00002000
00003000
00000000
00000000
00000000
00000000
00000000
00000000
00010000
00000000
00000000
00000000
00000000
00000000
00000000
00000000
00001000
00000000
00000000
00000000
00000000
00000000
00000000
00000000
01000000
00000000
00000000
00000000
00010000
00000000
00000000
00000000
,
01000000
00000000
00100000
10000000
00100000
00000000
01000000
00000000
00010000
00000000
10000000
00000000
01000000
00100000
01000000
00100000
,
00010000
00000000
00100000
00001000
00010000
00000000
00001000
00000000
00010000
00000000
00000010
00000000
00001000
00000000
00000001
00000100
,
00000001
00000000
00001000
00000010
00001000
00000000
00000001
00000000
00000010
00000000
00000100
00000000
00010000
00001000
00010000
00000000
,
00001000
01000000
00001000
01000000
00001000
00010000
00001000
00010000
00001000
00000000
00010000
00000000
00001000
00000000
00100000
00010000
,
00100000
00000000
01000000
10000000
01000000
00000000
10000000
00000000
00010000
00000000
01000000
00000000
00001000
00010000
00001000
00010000
,
00001000
00000000
00010000
00000100
00001000
00000000
00000001
00000000
00000100
00000000
00000100
00000000
00001000
00000000
00001000
00000000
,
00010000
00000000
00000000
00000000
00001000
00000000
00000000
00000000
00010000
00000000
00000000
00000000
00001000
00000000
00000000
00000000
00010000
00000000
00000000
00000000
00001000
00000000
00000000
00000000
00010000
00000000
00000000
00000000
00002000
00000000
00000000
00000000
00020000
00030000
00000000
00000000
00010000
00000000
00000000
00000000
00010000
00000000
00000000
00000000
00010000
00000000
00000000
00000000
00010000
00000000
00000000
00000000
00010000
00000000
00000000
00000000
00010000
00000000
00000000
00000000
00020000
00000000
00000000
00000000
,
00000000
00000000
00000000
00000000
00000000
00000000
00000000
00000000
00000000
00000000
00000000
00000000
00000000
00000000
00000000
00000000
00000000
00000000
00000000
00000000
00000000
00000000
00000000
00000000
00000000
00000000
00000000
00000000
00000000
00000000
00000000
00000000
00000000
00000000
00000000
00000000
00000000
00000000
00000000
00000000
00000000
00000000
00000000
00000000
00000000
00000000
00000000
00000000
00033000
00000000
00000000
00000000
00000000
00000000
00000000
00000000
00000000
00000000
00000000
00000000
00000000
00000000
00000000
00000000
00000000
00000000
00000000
00000000
00000000
00000000
00000000
00000000
00000000
00000000
00000000
00000000
00000000
00000000
00000000
00000000
00000000
00000000
00000000
00000000
00000010
00000000
00000000
00000000
00000000
00000000
00000000
00000000
00000000
00000000
00000000
00000000
00001000
00000000
00000000
00000000
00000000
00000000
00000000
00000000
00000000
00000000
00000000
00000000
00001000
00000000
00000000
00000000
00000000
00000000
00000000
00000000
00000000
00000000
00000000
00000000
00000002
00000000
00000000
00000003
00000000
00000000
00002000
00000000
00000000
00003000
00000000
00000000
00000002
00000000
00000000
00000003
00000000
00000000
00002000
00000000
00000000
00003000
00000000
00000000
00000002
00000000
00000000
00000000
00000000
00000000
00000000
00000000
00000000
00000000
00000000
00000000
00000000
00000000
00000000
00000000
00000003
00000000
00000000
00000000
00000000
00000000
00000000
00000000
00000000
00000000
00000000
00000000
00000000
00000000
00000000
00000000
00000000
00000000
00000000
00000000
00000000
00000000
00000000
00000000
00000000
00000000
00000000
00000000
00000000
00000000
00000000
00000000
,
00002000
00003000
00000000
00000000
00000000
00000000
00000000
00000000
00001000
00000000
00000000
00000000
00000000
00000000
00000000
00000000
00000010
00000000
00000000
00000000
00000100
00000000
00000000
00000000
00000010
00000000
00000000
00000000
00000100
00000000
00000000
00000000
00002000
00000000
00000000
00000000
00000000
00000000
00000000
00000000
00023000
00000000
00000000
00000000
00000000
00000000
00000000
00000000
00032000
00000000
00003000
00000000
00020000
00000000
00030000
00000000
00002000
00000000
00003000
00000000
00020000
00000000
00030000
00000000
,
00001000
00000000
00100000
00000000
00010000
00000000
00100000
00000000
00001000
00000000
00100000
00000000
01000000
10000000
00010000
00000000
,
01000000
00000000
00100000
00000000
00010000
00001000
00010000
00000000
00000010
00001000
00000010
00000000
00010000
00001000
00010000
00000000
,
00000100
00000000
00001000
00000001
00000100
00000000
00000010
00001000
00000100
00000000
00000010
00001000
00010000
00000000
00002000
00003000
,
00011000
00000000
00000000
00000000
00000000
00000000
00000000
00000000
00000000
00110000
00000000
00000000
00000000
00000000
00000000
00000000
00000000
00000000
10100000
00000000
00000000
00000000
00000000
00000000
10010000
00000000
00000000
00000000
00000000
00000000
00010000
00000000
00100000
00000000
01000000
00000000
20000000
00000000
00000000
00000000
00000000
00000000
30020000
00000000
00000000
00000000
00000000
00000000
,
01030000
00000000
00000000
00000000
00000000
00000000
00100000
00000000
00000000
00000000
00000000
00000000
00010000
00000000
00000000
00000000
00000000
00000000
00001000
00000000
00000000
00010000
00000000
00000000
00001000
00000000
00000000
00000000
00000000
00000000
00010000
00000000
00000000
00000000
00000000
00000000
00011000
00000000
00000000
00000000
00000000
00000000
00010000
00000000
00000010
00000000
00010000
00000000
,
00000010
00000000
00000010
00000000
00001000
00000001
00000010
00000100
00001000
00000000
00000010
00000000
00010000
00000000
00000000
00001000
,
00010000
00000000
00010000
00001000
00100000
00000000
00100000
00000000
01000000
00000000
01000000
00000000
10000000
00010000
10000000
00010000
,
10000000
00000000
00000000
00000000
00000000
00000000
00000000
00000000
00000000
11000000
00000000
00000000
00000000
00000000
00000000
00000000
00000000
00000000
01010000
00000000
00000000
00000000
00000000
00000000
00012000
00000000
00000000
00000000
00000000
00000000
00013000
00000000
00000000
00000100
00000000
00000000
00002000
00000000
00000000
00000000
00000000
00000000
00003001
00000000
00000100
00000000
00000001
00000000
,
00000100
00000000
00000000
00010010
00000000
00000000
00010000
00001000
00000000
00000000
00011000
00000000
00000000
00000000
00110000
00000000
,
10100000
00000000
00000000
11000000
00000000
00000000
01000000
00100000
00000000
00000000
00101000
00000000
00000000
00000000
00010010
00000000
,
00011000
00000000
00000000
00001100
00000000
00000000
00000100
00000001
00000000
00000000
00000011
00000000
00000000
00000000
00000110
00000000
,
00001000
00000000
00000000
00000000
00000000
00000000
00000000
00000000
00000000
00000000
00000000
00000000
00000000
00000000
00000000
00000000
00000000
00000000
00000000
00000000
00000000
00000000
00000000
00000000
00000000
00000000
00000000
00000000
00000001
00000000
00000000
00000000
00000000
00000000
00000000
00000000
00000000
00000000
00000000
00000000
00000000
00000000
00000000
00000000
00000000
00000000
00000000
00000000
00000000
00000000
00000000
00000000
00000000
00000000
00000000
00000000
00000000
00000000
00000000
00001000
00000000
00000000
00000000
00000000
00000000
00000000
00000000
00000000
00000000
00000000
00000000
00000000
00000000
00000000
00000000
00000000
00000000
00000000
00000000
00000000
00000001
00000000
00000000
00000000
00000000
00000000
00000000
00000000
00000000
00000000
00000000
00000000
00000000
00000000
00000000
00000000
00000000
00000000
00000000
00000000
00000000
00000000
00000000
00000000
00001000
00000000
00000000
00000000
00000000
00000000
00000000
00000000
00000000
00000000
00000000
00000000
00000000
00000000
00000000
00000000
00000000
00000000
00000000
00000000
00000000
00000000
00000000
00000000
00000000
00000000
00000001
00000000
00000000
00000000
00000000
00000000
00000000
00000000
00000000
00000000
00000000
00000000
00000000
00000000
00000000
00000000
00000000
00000000
00000000
00000000
00000000
00000000
00000000
00000000
00001000
00000000
00000000
00000000
00000000
00000000
00000000
00000000
00000000
00000000
00000000
00000000
00000000
00000000
00000001
00000000
00000000
00000000
00000000
00000000
00000000
00000000
00001000
00000000
00000000
00000000
00000000
00000000
00000000
00000000
00000001
00000000
00000000
00000000
00000000
00000000
00000000
00000000
,
00001000
00000000
00000000
00010010
00000000
00000000
00001000
00100000
00010000
00000000
00000000
11000000
00000000
00000000
00010000
01000000
,
00100000
00000000
00000000
10010000
00000000
00000000
10000000
01000000
00010000
00000000
00001000
00010000
00000000
00001000
00000010
00000000
,
00000011
00000000
00000001
00000000
00001001
00000000
00001000
00000001
00000010
00000000
00000100
00010000
00001000
00000000
01000000
00010000
,
10000000
01000000
00010000
00000000
01000000
00010000
00001000
00000000
00010000
00001000
00000010
00000000
00001000
00000010
00000001
00000000
,
00001001
00000000
00000000
00000000
;
