#TITLE:EMPEROR OF THE AVALON;
#ARTIST:L.E.D.-G;
#BANNER:EMPEROR OF THE AVALON.png;
#BACKGROUND:EMPEROR OF THE AVALON-bg.png;
#CDTITLE:./CDTitles/RB colette -Summer-.png;
#MUSIC:EMPEROR OF THE AVALON.ogg;
#SAMPLESTART:76.877;
#SAMPLELENGTH:15;
#DISPLAYBPM:90:180;
#BPMS:0=180.905,4=180,68=95,100=180,235=90,237=180,241=90,243=180,247=90,249=180,273=360,274=180;
#STOPS:196=1.667,273=0.166;
#TIMESIGNATURES:0=4=4,196=3=4,199=4=4,235=2=4,237=4=4,241=2=4,243=4=4,247=2=4,249=4=4,269=5=4,274=4=4;
#STAGE:30;

//--------------- dance-single - Fred-104-bSP ----------------
#NOTES:
     dance-single:
     Fred-104:
     Beginner:
     4:
     :
0000
0000
0000
0000
,
0000
0000
0000
0000
,
0000
0000
0000
0000
,
0000
0000
0000
0000
,
0000
0000
0000
0000
,
1000
1000
0010
0000
,
1000
0001
2000
3000
,
0001
0010
0010
0001
,
2002
0000
0000
3003
,
1000
1000
0010
0000
,
1000
0100
0100
0000
,
0010
0010
0001
0000
,
0100
0100
0020
0230
,
0310
0010
0010
0000
,
0001
1000
0002
0003
,
2000
0000
3002
0000
,
1003
1000
0001
0001
,
2002
0000
0000
3003
,
0020
0000
0000
0030
,
0002
0000
0000
0003
,
0200
0000
0000
0300
,
0100
0000
0100
0000
,
0001
0000
0010
0000
,
0001
0000
1000
0000
,
0010
1000
0001
1000
,
2002
0000
0000
0000
,
0000
0000
0000
0000
,
3003
0000
0000
0000
,
0000
0000
0000
0000
,
2000
0000
0000
3000
,
0020
0000
0000
0030
,
0002
0000
0000
0003
,
0200
0000
0000
0300
,
1001
0000
0000
0000
,
0000
0000
0000
0000
,
0100
0000
0000
0000
,
0000
0000
0100
0100
,
1001
0000
0000
0000
,
0001
0000
1000
0000
,
1001
0000
0000
0000
,
1000
1000
0001
0001
,
2000
0000
0000
0000
,
0000
0000
0000
3000
,
0002
0000
0000
0000
,
0000
0000
0000
0003
,
1000
1000
0100
0000
,
0001
0010
0001
0000
,
1000
1000
0001
0000
,
1000
1000
0001
0001
,
1001
0000
0000
1000
,
1000
0100
1000
1000
,
0000
0001
0000
0010
,
0010
0001
0001
0010
,
0000
0001
0000
0100
,
0010
0100
0010
0010
,
0000
0001
0000
1000
,
1000
0100
1000
0001
,
0000
1000
0000
0001
,
0000
1000
0000
2002
,
3003
1000
0000
0001
,
0000
2002
3003
0010
,
0000
0100
0000
0220
,
0330
0100
0000
0010
,
0000
0100
0000
0110
,
0000
0001
0001
0001
,
0000
0010
0010
0010
,
0000
0100
0100
1000
,
1000
0001
1000
0001
,
1000
0000
2002
0000
,
0000
0000
3003
0000
;

//--------------- dance-single - Fred-104-BSP ----------------
#NOTES:
     dance-single:
     Fred-104:
     Easy:
     11:
     :
0000
0000
0000
0000
,
0000
0000
0000
0000
,
0000
0000
0000
0000
,
0000
0000
0000
0000
,
0000
0000
0000
0000
,
1000
0010
1000
0000
0010
0000
0100
0000
,
0001
0000
0000
0000
0010
0000
0000
0000
0001
0000
0000
0010
0000
0000
0001
0000
,
1000
0100
1000
0000
0001
1000
0001
1000
,
0002
0000
0000
0003
,
1000
1100
0010
0100
,
0001
0011
0010
0100
,
0010
0110
0001
1000
,
0010
1000
0200
0320
,
0031
0100
0100
0000
0010
0000
0100
0000
,
1001
0000
0000
0000
1000
0000
0000
0000
0110
0000
0000
0100
0000
0000
0100
0000
,
0010
0000
0000
0100
0000
0000
0010
0000
0001
0000
0000
1000
0000
0000
0001
0000
,
1000
0001
1000
0000
0010
0100
0010
0000
,
2001
0000
0000
0000
0000
0000
3100
0010
,
0210
0000
0000
0000
0000
0000
0000
0000
0000
0000
0000
0000
0000
0000
0301
1000
,
0002
0000
0000
0000
0000
0000
0013
0100
,
0220
0000
0000
0330
1000
0001
1000
0001
,
1000
0100
1000
0010
1000
0100
0100
0010
,
0001
0010
0010
1000
0010
0001
1000
0001
,
0100
0010
1000
0100
0001
0100
0010
0100
,
1000
0000
0001
0000
0010
0000
0100
0000
1000
0000
0001
0000
1000
0001
1000
0000
,
2002
0000
0000
0000
,
0000
0000
0000
3003
,
1020
0000
0000
0000
,
0230
0000
0302
0000
,
1003
0000
0000
1000
0000
0000
1000
0000
0000
1000
0000
0000
1000
0000
0000
0000
,
0001
0000
0000
0001
0000
0000
0001
0000
1000
0000
0000
1000
0000
0000
1000
0000
,
0010
0000
0000
0010
0000
0000
0010
0000
0100
0000
0000
0100
0000
0000
0100
0000
,
0001
0000
0000
1000
0000
0000
0001
0000
0100
0000
0000
0010
0000
0000
0100
0000
,
1001
0000
0000
0000
,
0000
0000
0000
0000
0000
0100
0000
0100
,
0110
0000
0000
0000
,
0000
0000
0000
0000
0001
0000
1000
0001
,
1000
0000
0000
0000
,
1000
0000
0000
1000
0000
0000
1000
0000
0001
0000
0000
0001
0000
0000
0001
0000
,
1001
0000
0000
0000
,
1000
0100
0001
0100
2000
0000
3020
0000
,
0130
0100
0100
0100
,
0001
0001
0001
0001
,
0010
0010
0010
0010
,
1000
1000
1000
1000
,
0001
0010
0100
1000
,
0010
1000
0001
1000
,
0010
1000
0010
0000
1000
0001
1000
0000
,
0001
1000
0001
1000
0200
0000
0320
0030
,
2002
0000
0000
0000
0000
0000
0000
0000
3003
0000
0000
0000
1000
0000
0000
1000
,
0000
0000
1000
0000
0000
0000
0000
0000
0001
0000
0000
0000
0100
0000
0000
0100
,
0000
0000
0100
0000
0000
0000
0000
0000
0010
0000
0000
0000
0001
0000
0000
0001
,
0000
0000
0001
0000
0000
0000
0000
0000
0100
0000
0000
0000
0010
0000
0000
0010
,
0000
0000
0100
0000
0000
0100
0000
0000
0010
0000
0000
0000
1000
0000
0000
0100
,
0000
0000
0010
0000
0000
0000
0000
0000
0001
0000
0000
0000
0010
0000
0000
0001
,
0000
0000
0001
0000
1000
0000
0000
0100
0000
0000
0100
0000
1000
0000
0010
0000
,
1000
0001
1000
0100
,
1000
0000
0000
0000
0001
0000
0000
0001
0000
0000
1000
0000
0001
0000
0000
0010
,
0000
0000
0010
0000
0001
0000
0000
1000
0000
0000
0100
0000
0000
0000
0000
0000
,
0000
0000
0000
0000
1000
0000
0000
1000
0000
0000
0100
0000
0010
0000
0000
0001
,
0000
0000
0001
0000
0000
0000
0100
0000
0100
0000
0010
0000
0100
0000
0000
0100
,
0000
0000
0010
0000
0001
0000
0000
1000
0000
0000
0100
0000
0000
0000
0000
0000
,
0000
0000
0000
0000
1000
0000
0000
1000
0000
0000
0100
0000
0010
0000
0000
0001
,
0000
0000
0001
0000
1000
0000
0100
0000
1000
0000
0000
0000
0001
0000
0000
0001
,
0000
0100
0001
0000
0011
0000
1000
0000
,
1010
0001
0101
1000
,
1100
0000
0001
0100
0001
0100
0010
1000
,
0010
1000
0001
0010
0100
1000
0002
0000
,
2003
0000
0000
0000
0000
0000
0000
0000
0000
0000
0000
0000
0000
0000
0000
0000
3020
0030
0000
0000
0000
0000
0000
0000
0000
0000
0000
0000
0000
0000
0000
0000
2002
0000
0000
0000
0000
0000
0000
0000
0000
0000
0000
0000
0000
0000
0000
0000
0000
0000
0000
0000
0000
0000
0000
0000
0000
0000
0000
0000
0000
0000
0000
0000
,
0000
0000
3003
0000
;

//--------------- dance-single - Fred-104-DSP ----------------
#NOTES:
     dance-single:
     Fred-104:
     Medium:
     14:
     :
0000
0000
0000
0000
,
0000
0000
0000
0000
,
0000
0000
0000
0000
,
0000
0000
0000
0000
,
0000
0000
0000
0000
,
0001
0100
0001
0100
0001
0000
0100
0000
0010
0000
0000
0000
1010
0000
0000
0000
,
1001
0000
0000
0000
1100
0000
0000
0000
0001
0000
0000
0011
0000
0000
0011
0000
,
0001
0100
0010
0000
1000
0100
0001
0010
,
0200
0000
0000
0300
,
1000
0100
1100
0000
0010
1000
0001
1000
,
0100
0010
0011
0000
0001
0100
0010
0100
,
0001
0010
0110
0000
1000
0010
0100
0010
,
1000
0010
0011
0000
0200
0000
2300
0000
,
3001
1000
0001
1000
0001
0000
1000
0000
0100
0000
0000
0000
0110
0000
0000
0000
,
0011
0000
0000
0000
0001
0000
0100
0000
0010
0000
0000
0100
0000
0000
0100
0000
,
0001
0000
0000
0011
0000
0000
0011
0000
1000
0000
0000
1010
0000
0000
1010
0000
,
0001
0000
0100
0000
0010
0000
0100
0000
0001
0000
1000
0001
1000
0000
0000
0000
,
2200
0000
0000
0000
0000
0300
3100
0010
,
0022
0000
0000
0000
0000
0000
0000
0000
0000
0000
0000
0000
0030
0000
0103
0010
,
0220
0000
0000
0000
0000
0030
0310
1000
,
2002
0000
0000
0000
0000
0000
0000
3003
0001
1000
0001
1000
0001
1000
0001
1000
,
0001
0100
0001
0000
1000
0000
0100
0010
0001
0000
1000
0000
0010
1000
0010
1000
,
0100
0010
0100
0000
1000
0000
0001
0010
1000
0000
0010
0000
0001
0100
0010
0100
,
0001
0010
0100
1000
0010
0000
1000
0100
1000
0010
0100
0000
0001
0010
0001
1000
,
0100
1000
0010
1000
0100
0010
0001
1000
0010
0100
0001
1000
0001
0010
0100
0000
,
2002
0000
0000
0000
,
0000
0000
0000
3003
,
2010
0000
0000
3200
0000
0000
0320
0000
0000
0000
0032
0000
1003
0000
0010
0000
,
0200
0000
0000
0302
0000
0000
0023
0000
0000
2030
0000
0000
3020
0000
0031
0000
,
2001
0000
0000
3200
0000
0000
0320
0000
0000
0230
0000
0000
1300
0000
0010
0000
,
0120
0000
0000
0100
0000
0000
1030
0000
0120
0000
0000
0100
0000
0000
0031
0000
,
0020
0000
0000
0031
0000
0000
0011
0000
2000
0000
0000
3010
0000
0000
1010
0000
,
0002
0000
0000
0103
0000
0000
0101
0000
2000
0000
0000
3100
0000
0000
1100
0000
,
1001
0000
0000
0000
,
0000
0000
0000
0000
0000
0011
0000
0011
,
1001
0000
0000
0000
,
0000
0000
0000
0000
0000
0000
0000
0000
1010
0000
0000
0000
0001
0000
0100
0010
,
0100
0000
0000
0000
,
1100
0000
0000
1100
0000
0000
1100
0000
0101
0000
0000
0101
0000
0000
0101
0000
,
1001
0000
0000
0000
,
0001
0000
0010
0000
0001
0000
0010
0000
0001
0000
1000
0010
0100
0000
0001
0000
,
0101
0101
0101
0101
,
1100
1100
1100
1100
,
1010
1010
1010
1010
,
0011
0011
0011
0011
,
0001
0010
0001
0010
0001
0100
0001
0100
,
0010
1000
0010
1000
0100
1000
0100
1000
,
0001
0010
0100
0010
0100
1000
0001
1000
,
0100
0000
0010
0000
0001
0000
1000
0000
0001
0000
1000
0001
1000
0000
0010
0000
,
0220
0330
0000
0000
0000
0000
0000
0000
0000
0000
0000
0000
0000
0000
0000
0000
0001
0000
0000
0000
0000
0000
0000
0000
0010
0000
0000
0000
0000
0000
0000
0000
0010
0000
0000
0000
0000
0000
0000
0000
0010
0000
0000
0000
0000
0000
0000
0000
1001
0000
0000
0000
0000
0000
0000
0000
0000
0000
0000
0000
0100
0000
0000
0000
,
0000
0000
0010
0000
0001
0000
0100
0000
0010
0000
0100
0000
0110
0000
0000
0100
,
0000
0000
0010
0000
0001
0000
0100
0000
0010
0000
1000
0000
1100
0000
0000
0100
,
0000
0000
0010
0000
0001
0000
0100
0000
0010
0000
0100
0000
0002
0000
0000
0023
,
0000
0000
0230
0000
0000
2300
0000
0000
3010
0000
0100
0000
0201
0000
0000
0001
,
0000
0000
0310
0000
0001
0000
0100
0000
0010
0000
1000
0000
1200
0000
0000
0001
,
0000
0000
1300
0000
0010
0000
0100
0000
0010
0000
1000
0000
0001
1000
0001
1000
,
0001
1000
0100
0000
0110
0000
0001
0000
,
0101
0000
0000
0000
0001
0000
0000
0010
0000
0000
0001
0000
1000
0000
0000
1010
,
0000
0000
1010
0000
0001
0000
0000
0101
0000
0000
0202
0000
0000
0000
0000
0000
,
0000
0000
0303
0000
0001
0000
0000
0011
0000
0000
0011
0000
1000
0000
0000
1100
,
0000
0000
0000
0000
1100
0000
0000
0000
0000
0000
0000
0000
0001
0000
0000
0100
0000
0000
0010
0000
0100
0000
0001
0000
0010
0000
0000
0000
0000
0000
1001
0000
,
0000
0000
1001
0000
0100
0000
0000
0110
0000
0000
0220
0000
0000
0000
0000
0000
,
0000
0000
0330
0000
0001
0000
0000
0101
0000
0000
0110
0000
1000
0000
0000
1100
,
0000
0000
0110
0000
0001
1000
0001
1000
0001
0000
0100
0000
0010
0000
0000
0110
,
0000
0000
0110
0000
0001
0000
0000
0001
1000
0000
0000
0000
1000
0000
0000
1000
,
0100
0000
0000
0000
0100
0000
0000
0100
0010
0000
0000
0000
0010
0000
0000
0010
,
0001
0000
1000
0100
1000
0010
1000
0100
,
0010
0000
0001
0000
0100
0000
0010
0000
0100
0000
0010
0000
1000
0000
0001
0100
,
0001
0000
0000
0000
0000
0000
0000
0000
0100
0000
0000
0000
0000
0000
0000
0000
0220
0330
0000
0000
0000
0000
0000
0000
0000
0000
0000
0000
0000
0000
0000
0000
2002
0000
0000
0000
0000
0000
0000
0000
0000
0000
0000
0000
0000
0000
0000
0000
0000
0000
0000
0000
0000
0000
0000
0000
0000
0000
0000
0000
0000
0000
0000
0000
,
0000
0000
3003
0000
;

//--------------- dance-single - Fred-104-ESP ----------------
#NOTES:
     dance-single:
     Fred-104:
     Hard:
     17:
     :
0000
0000
0000
0000
,
0000
0000
0000
0000
,
0000
0000
0000
0000
,
0000
0000
0000
0000
,
0000
0000
0000
0000
,
1000
0100
0010
0001
1000
0000
0010
0000
0110
0000
0100
0000
0101
0000
0001
0000
,
1001
0000
1000
0000
1010
0000
0010
0000
0110
0000
0000
0011
0000
0000
1001
0000
,
0011
0100
1000
0000
1010
0100
0001
1000
,
2100
0000
0000
3002
0000
0000
0023
0000
0000
0000
0000
0000
0230
0000
0000
0000
,
1300
0000
0100
0000
2100
0000
0000
0000
3001
0000
0100
0010
0100
0000
0001
0100
,
0001
0000
0100
0000
1001
0000
0001
0000
1000
0000
0010
1000
0001
0000
1000
0000
,
0100
0000
0010
0000
0012
0000
0000
0000
1003
0000
0001
1000
0100
0000
0010
0100
,
0010
0100
0120
0000
0032
0010
2003
0010
,
3001
1000
0100
0010
0001
0000
0100
0000
0010
0000
1000
0000
0010
0000
0001
0000
,
0101
0000
0000
0100
0000
0000
0010
0000
0000
1000
0000
0000
0001
0000
0000
1000
0010
1000
0010
0000
0000
0100
0001
0100
,
0001
0000
0000
0011
0000
0000
0011
0000
1001
0000
0000
1010
0000
0000
1010
0000
,
0001
0000
0000
1000
0000
0000
0001
0000
0000
1000
0000
0000
0001
0000
0000
1000
0000
0000
0001
0000
0000
1000
0000
0000
0001
0000
0000
0000
0000
0000
1000
0000
0010
0000
0100
0000
0001
0000
0000
0000
0000
0000
1000
0000
0100
0000
0010
0000
,
0002
0000
0100
0000
0100
0000
0013
1000
,
1200
0000
0000
0000
1000
0000
0000
1000
0000
0000
1000
0000
1000
0000
0310
0100
,
0120
0000
0100
0000
0100
0000
0031
1001
,
2002
0000
0000
0000
0000
0000
0000
0000
0000
0000
0000
0000
0000
0000
3003
0000
0001
1000
0001
1000
0001
1000
0001
1000
0010
0100
0010
0100
0010
0100
0010
0100
,
0001
0010
0001
0010
0100
1000
0100
0010
0100
0001
0100
0010
1000
0010
0001
1000
,
0001
0010
0001
0100
0010
1000
0010
0001
1000
0100
0010
1000
0001
0010
0200
0000
,
0310
0001
1000
0100
0010
1000
0100
0010
0001
0100
0010
0001
0100
0010
1000
0100
,
0010
0000
1000
0000
0001
0000
0010
0000
0100
0000
1000
0000
0010
0000
0100
0000
0010
0100
0010
0100
0010
0100
0010
0100
0001
1000
0001
1000
0001
1000
0001
2000
,
0002
0000
0000
0000
,
0000
0000
0000
3003
,
0012
0000
0000
0203
0000
0000
0320
0000
0000
0000
1030
0000
0100
0000
0001
0000
,
0200
0000
0000
0320
0000
0000
0032
0000
0000
0023
0000
0000
0230
0000
0301
0000
,
2001
0000
0000
3200
0000
0000
0302
0000
0000
0023
0000
0000
1030
0001
1000
0000
,
1200
0000
0000
0010
0000
0000
0301
0000
0201
0000
0000
0010
0000
0000
1300
0000
,
0002
0000
0000
0010
0000
0000
1003
0000
0002
0000
0000
1000
0000
0000
0103
0000
,
2000
0000
0000
0100
0000
0000
3001
0000
2000
0000
0000
0001
0000
0000
3010
0000
,
1001
0000
0000
0000
,
0000
0000
0000
0000
0000
1010
0000
0101
,
1001
0000
0000
0000
,
0000
0000
0000
0000
0000
0000
0000
0000
0000
0000
0000
0000
0101
0000
0000
0000
0000
0000
1100
0000
0000
0010
0100
0010
,
0100
0000
0000
0000
,
0011
0000
0000
1010
0000
0000
0011
0000
0101
0000
0000
1100
0000
0000
0101
0000
,
1001
0000
0000
0000
,
0100
0000
0000
0110
0000
0000
0010
0000
0000
0110
0000
0000
0100
0000
0000
0001
1000
0001
1000
0000
0000
0010
0100
0010
,
0100
1100
1100
1100
,
0101
0101
0101
0101
,
0011
0011
0011
0011
,
1010
1010
1010
1010
,
1001
0000
1000
0100
0000
0100
0010
0000
0001
0000
0100
0010
0000
0010
1000
0000
,
0001
0000
0010
0100
0000
0100
1000
0000
0010
0000
0100
0010
0000
0010
0100
0000
,
0001
0010
0001
0010
0100
1000
0100
1000
0010
0100
0010
0100
0001
1000
0001
1000
,
0001
0000
0000
0010
0000
0000
0100
0000
0000
1000
0000
0000
0010
0000
0000
0100
0000
0000
0010
0000
0000
1000
0000
0000
0001
0000
0000
0000
0000
0000
1000
0000
0010
0000
0100
0000
0001
0000
0000
0000
0000
0000
1000
0000
0100
0000
0010
0000
,
0002
0003
0000
0000
0000
0000
0000
0000
0000
0000
0000
0000
0000
0000
0000
0000
1000
0000
0000
0000
0100
0000
0000
0000
1000
0000
0000
0000
0100
0000
0000
0000
0010
0000
0000
0000
0100
0000
0000
0000
0010
0000
0000
0000
0100
0000
0000
0000
1000
0000
0000
0000
0000
0000
0000
0000
0000
0000
0000
0000
1010
0000
0000
0000
,
0000
0000
0101
0000
1000
0010
0100
0000
0001
0010
0100
0000
1100
0000
0000
1010
,
0000
0000
1001
0000
0001
0000
1000
0010
0100
0001
0100
0000
0011
0000
0000
1001
,
0000
0000
1010
0000
0001
1000
0100
0000
0100
0010
0100
0000
0011
0000
0000
1010
,
0000
0000
0101
0000
0000
1100
0000
0000
1001
0000
1000
0000
0100
0000
0010
0001
,
0000
1000
0001
0000
1000
0010
0100
0000
0001
0100
0010
0000
1000
0000
0100
0010
,
0000
0001
0010
0000
0001
0000
0100
0010
0000
1000
0010
0000
1000
0001
1000
0100
,
1000
0000
0010
0000
1000
0000
0100
0010
0000
0100
0001
0000
0100
0000
1000
0010
,
0000
0100
0001
0000
0101
0000
0000
1100
0000
0000
0011
0000
1001
0000
0000
1100
,
0000
0000
0101
0000
1010
0000
0000
0011
0000
0000
1001
0000
0200
0000
0000
0000
,
0000
0000
0300
0000
0011
0000
0000
1010
0000
0000
0101
0000
1100
0000
0000
0011
,
0000
0000
0000
0000
1001
0000
0000
0000
0000
0000
0000
0000
0002
0000
0000
0203
0000
0000
0320
0000
2030
0000
3100
0000
1100
0000
0000
0000
0000
0000
1010
0000
,
0000
0000
1100
0000
0101
0000
0000
0011
0000
0000
0101
0000
2002
0000
0000
0000
,
0000
0000
3003
0000
1100
0000
0000
1100
0000
0000
1001
0000
0101
0000
0000
0101
,
0000
0000
1001
0000
0100
0010
0001
1000
0010
0000
0100
0000
1100
0000
0000
0110
,
0000
0000
0011
0000
0001
0100
0000
0001
0010
0000
0100
0000
1000
0100
0000
1000
,
0010
0000
0100
0000
0001
0100
0000
1000
0100
0000
0010
0000
0001
0010
0000
0010
,
1000
0100
0001
0100
0010
0001
0010
1000
,
0001
0000
0000
0000
0000
0000
0100
0000
0000
0000
0000
0000
0001
0000
0000
1000
0000
0000
0001
0000
0000
1000
0000
0000
0100
0000
0000
1000
0000
0000
0100
0000
0000
1000
0000
0000
0010
0000
0000
0000
0000
0000
1000
0000
0100
0000
0010
0000
,
0001
0000
0000
0000
0000
0000
0000
0000
0000
0000
0000
0000
0000
0000
0000
0000
0000
0000
0000
0000
0000
0000
0000
0000
0100
0000
0000
0000
0000
0000
0000
0000
0010
0000
0000
0000
0000
0000
0000
0000
1000
0000
0000
0000
0000
0000
0000
0000
0002
0000
0000
0003
0000
0000
0000
0000
0000
0000
0000
0000
0000
0000
0000
0000
0000
0000
0000
0000
0000
0000
0000
0000
0000
0000
0000
0000
0000
0000
0000
0000
0000
0000
0000
0000
0000
0000
0000
0000
0000
0000
0000
0000
0000
0000
0000
0000
2002
0000
0000
0000
0000
0000
0000
0000
0000
0000
0000
0000
0000
0000
0000
0000
0000
0000
0000
0000
0000
0000
0000
0000
0000
0000
0000
0000
0000
0000
0000
0000
0000
0000
0000
0000
0000
0000
0000
0000
0000
0000
0000
0000
0000
0000
0000
0000
0000
0000
0000
0000
0000
0000
0000
0000
0000
0000
0000
0000
0000
0000
0000
0000
0000
0000
0000
0000
0000
0000
0000
0000
0000
0000
0000
0000
0000
0000
0000
0000
0000
0000
0000
0000
0000
0000
0000
0000
0000
0000
0000
0000
0000
0000
0000
0000
,
0000
0000
3003
0000
;

//--------------- dance-single - Fred-104-CSP ----------------
#NOTES:
     dance-single:
     Fred-104:
     Challenge:
     18:
     :
0000
0000
0000
0000
,
0000
0000
0000
0000
,
0000
0000
0000
0000
,
0000
0000
0000
0000
,
0000
0000
0000
0000
,
0001
0010
0100
0010
0001
0000
0100
0000
0110
0000
0010
0000
1010
0000
1000
0000
,
1100
0000
0010
0000
0001
0000
1000
0000
1001
0000
0000
0110
0000
0000
1001
0000
,
1100
0010
0001
0000
0101
0010
1000
0001
,
2100
0000
0000
3020
0000
0000
0230
0000
0000
0000
0000
0300
2002
0000
0000
3003
,
1001
0000
0100
0000
0010
0000
0001
0000
0100
0000
0001
0010
0001
0000
1000
0100
,
0010
0000
0001
0000
0100
0000
0001
0000
1000
0100
0000
0100
0010
0000
0001
0000
,
0100
0000
0010
0100
0010
0000
1000
0000
0001
0000
0100
0010
0100
0000
0001
0000
,
1000
0000
0000
0000
0000
0000
0000
0000
0010
0000
0000
0000
0000
0000
0000
0000
0110
0000
0000
0000
0000
0000
0000
0000
0000
0000
0000
0000
0000
0000
0000
0000
0220
0000
0000
0000
0000
0000
0000
0000
0000
0000
0000
0000
0000
0000
0000
0330
2002
0000
0000
0000
0000
0000
0000
0000
0000
0000
0000
0000
0000
0000
0000
3003
,
0001
0100
0010
1000
0001
0000
1000
0000
0100
0000
0010
0000
0001
0000
0010
0000
,
1000
0000
0000
0010
0000
0000
0001
0000
0000
0100
0000
0000
0010
0000
0000
1000
0100
0010
0001
0000
0000
0100
0010
1000
,
0001
0000
0000
0011
0000
0000
1010
0000
0101
0000
0000
1100
0000
0000
0101
0000
,
0001
0000
0000
0010
0000
0000
0001
0000
0000
0010
0000
0000
0001
0000
0000
1000
0000
0000
0100
0000
0000
1000
0000
0000
0100
0000
0000
0000
0000
0000
1000
0000
0100
0000
0010
0000
0001
0000
0000
0000
0000
0000
0100
0000
0001
0000
1000
0000
,
0010
0000
0010
0100
1000
0100
1000
0001
1000
0100
1000
0010
1000
0100
0001
0100
,
1000
0010
0100
0010
1000
0010
0100
0010
1000
0100
0010
0001
1000
0010
0100
0100
,
0100
0010
1000
0010
0100
0001
1000
0100
0010
1000
0001
0010
0100
0001
1000
0100
,
0010
0000
0100
0000
0010
0000
0100
0000
0010
0000
1000
0000
0001
0000
0010
0000
0100
1000
0010
0100
0001
0100
0010
1000
0001
0010
0100
1000
0010
0100
0001
1000
,
0100
0000
0010
0001
1000
0000
0100
0000
0010
0100
0001
0000
0001
0100
0010
0000
,
1000
0000
0001
0100
1000
0000
0100
0000
0001
0100
0010
0000
1000
0100
0010
0000
,
0001
0000
0010
1000
0010
0000
0100
0000
1000
0100
0010
0000
0001
0000
0100
0001
,
1000
0000
0010
0000
1000
0000
1000
0000
0001
0000
0100
0000
0001
0000
0100
0000
0001
0010
0001
0100
0010
1000
0100
0010
0001
0010
0100
1000
0010
0100
0001
1000
,
0002
0000
0000
0000
,
0000
0000
0000
0003
,
1000
0000
0010
0100
0000
0010
1000
0000
0000
0001
0100
0010
0100
0001
0100
0010
,
1000
0000
0010
1000
0000
0001
1000
0000
0001
0100
0000
0100
0010
0000
0010
0000
,
0100
0000
0001
0010
0000
0001
0100
0000
0001
1000
0010
0000
1000
0100
1000
0000
,
0001
0000
1000
0100
0000
1000
0100
0000
0010
0000
0001
0100
0000
0001
0100
0000
,
0010
0000
1000
0100
0000
0010
0001
0100
0010
0000
0001
0100
0000
0010
1000
0100
,
1000
0000
0100
0010
0000
0001
1000
0100
0010
0000
0001
0100
0000
0010
1000
0010
,
0110
0000
0000
0000
,
0000
0000
0000
0000
0000
0101
0000
1100
,
1001
0000
0000
0000
,
0000
0000
0000
0000
0000
0000
0000
0000
0000
0000
0000
0000
0011
0000
0000
0000
0000
0000
1001
0000
0000
1000
0010
0100
,
0001
0000
0000
0000
,
1100
0000
1000
0100
0000
0100
0001
0000
0011
0000
0001
0100
0000
0100
1000
0000
,
1001
0000
0000
0000
,
1000
0000
0000
1010
0000
0000
0001
0000
0000
0011
0000
0000
1000
0000
0000
0001
0010
0100
1000
0000
0000
0010
0100
0001
,
1000
1100
0101
1100
,
0011
1010
0011
1010
,
1100
0101
0011
1010
,
0011
0101
1100
1001
,
1000
0100
0010
0100
0010
0001
0100
0010
,
1000
0010
0100
0010
1000
0001
0010
0001
,
0100
0001
0100
0001
0010
0001
0010
0001
1000
0010
0100
0001
1000
0100
0010
0001
,
0100
0000
0000
0010
0000
0000
1000
0000
0000
0010
0000
0000
0100
0000
0000
0001
0000
0000
1000
0000
0000
0001
0000
0000
0010
0000
0000
0000
0000
0000
0100
0000
0010
0000
0001
0000
1000
0000
0000
0000
0000
0000
0010
0000
1000
0000
0001
0000
,
0200
0300
0000
0000
0000
0000
0000
0000
0000
0000
0000
0000
0000
0000
0000
0000
0001
0000
0000
0000
1000
0000
0000
0000
0100
0000
0000
0000
0010
0000
0000
0000
0001
0000
0000
0000
1000
0000
0000
0000
0010
0000
0000
0000
0100
0000
0000
0000
0001
0000
0000
0000
0000
0000
0000
0000
0100
0000
0000
0000
0010
0000
0000
0000
,
0000
1000
0010
0000
1000
0100
0010
0000
0001
0100
0010
0000
1000
0000
0001
0010
,
0000
0001
0010
0000
0100
0000
1000
0010
0100
0001
0010
0100
0010
0000
0001
0010
,
0000
0100
0010
0000
1000
0010
0100
0001
0010
0001
0100
0010
1000
0000
0100
0010
,
0000
0001
0100
0000
0100
0010
0000
1000
0100
0000
0010
0000
0001
0000
0010
0001
,
0000
0100
0010
0000
1000
0100
0010
0000
0001
0010
0100
0000
1000
0000
0001
0010
,
0000
0010
0100
1000
0010
0000
0100
0001
0000
0001
0100
0010
1000
0001
0010
0100
,
1000
0000
0001
0000
0010
0000
0100
0010
0000
0001
0100
0010
0100
0000
1000
0100
,
0000
0010
0001
1000
0010
0000
0000
1000
0000
0000
0001
0000
1010
0000
0000
0011
,
0000
0000
1010
0000
0101
0000
0000
1100
0000
0000
0202
0000
0000
0000
0000
0000
,
0000
0000
0303
0000
0011
0000
0000
1010
0000
0000
1100
0000
1010
0000
0000
0011
,
0000
0000
0000
0000
0201
0000
0000
0000
0000
0000
0000
0000
0302
0000
0000
0023
0000
0000
2030
0000
3100
0000
0001
0000
1000
0000
0001
0000
0100
0000
0001
0000
,
1000
0000
1100
0000
0101
0000
0000
1001
0000
0000
2020
0000
0000
0000
0000
0000
,
0000
0000
3030
0000
1100
0000
0000
0101
0000
0000
1010
0000
1001
0000
0000
0011
,
0000
0000
0101
0000
0001
1000
0010
0100
0001
0000
1000
0000
1010
0000
0000
0101
,
0000
0000
1100
0000
0001
0100
0000
0010
1000
0000
0100
0000
0010
0001
0000
0100
,
0010
0000
1000
0000
0001
0010
0000
0100
0010
0000
0001
0000
0100
0010
0000
1000
,
0010
0000
0100
0000
0001
0000
0010
0001
0100
0000
0010
1000
0100
0000
0010
0001
,
0100
0000
0000
0000
0000
0000
0010
0000
0000
1000
0000
0000
0100
0000
0000
0010
0000
0000
0001
0000
0000
0100
0000
0000
0010
0000
0000
1000
0000
0000
0100
0000
0000
0010
0000
0000
0001
0000
0000
0000
0000
0000
1000
0000
0010
0000
0100
0000
,
0001
0000
0000
0000
0000
0000
0000
0000
0000
0000
0000
0000
0000
0000
0000
0000
0000
0000
0000
0000
0000
0000
0000
0000
0100
0000
0000
0000
0000
0000
0000
0000
0010
0000
0000
0000
0000
0000
0000
0000
1000
0000
0000
0000
0000
0000
0000
0000
0200
0000
0000
0300
0000
0000
0000
0000
0000
0000
0000
0000
0000
0000
0000
0000
0000
0000
0000
0000
0000
0000
0000
0000
0000
0000
0000
0000
0000
0000
0000
0000
0000
0000
0000
0000
0000
0000
0000
0000
0000
0000
0000
0000
0000
0000
0000
0000
0220
0000
0000
0000
0000
0000
0000
0000
0000
0000
0000
0000
0000
0000
0000
0000
0000
0000
0000
0000
0000
0000
0000
0000
0000
0000
0000
0000
0000
0000
0000
0000
0000
0000
0000
0000
0000
0000
0000
0000
0000
0000
0000
0000
0000
0000
0000
0000
0000
0000
0000
0000
0000
0000
0000
0000
0000
0000
0000
0000
0000
0000
0000
0000
0000
0000
0000
0000
0000
0000
0000
0000
0000
0000
0000
0000
0000
0000
0000
0000
0000
0000
0000
0000
0000
0000
0000
0000
0000
0000
0000
0000
0000
0000
0000
0000
,
0000
0000
0330
0000
;

//--------------- dance-double - Fred-104-BDP ----------------
#NOTES:
     dance-double:
     Fred-104:
     Easy:
     10:
     :
00000000
00000000
00000000
00000000
,
00000000
00000000
00000000
00000000
,
00000000
00000000
00000000
00000000
,
00000000
00000000
00000000
00000000
,
00000000
00000000
00000000
00000000
,
00010000
00001000
00010000
00000000
00001000
00000000
00100000
00000000
,
00010000
00000000
00000000
00000000
01000000
00000000
00000000
00000000
00100000
00000000
00000000
00100000
00000000
00000000
00100000
00000000
,
10000000
01000000
00010000
00001000
,
00022000
00000000
00000000
00033000
,
00001000
00001010
00000010
00000100
,
00000001
00000101
00000100
00000100
,
00000010
00001010
00001000
00010000
,
00001000
00010000
02000000
03200000
,
10300000
00010000
10000000
00000000
00100000
00000000
01000000
00000000
,
00010000
00001000
00022000
00033000
,
00002000
00000000
00003002
00000000
,
00000103
00000000
00000010
00000000
00000100
00000010
00000100
00000010
,
00000200
00000000
00000000
00000000
00000000
00000000
00001300
00001000
,
00002000
00000000
00000000
00000000
00000000
00000000
00000000
00000000
00000000
00000000
00000000
00000000
00000000
00000000
00013000
00001000
,
00020000
00000000
00000000
00000000
00000000
00000000
01030000
01000000
,
00200000
00000000
00000000
00000000
10300000
00010000
10000000
00010000
,
10000000
00000000
01000000
00000000
00100000
00010000
00100000
00000000
,
00001000
00000000
00010000
00000000
00001000
00000100
00000010
00000100
,
00000010
00000000
00000001
00000000
00000100
00001000
00010000
00000000
,
00001000
00010000
00001000
00010000
00100000
01000000
00100000
00010000
,
20020000
00000000
00000000
00000000
,
00000000
00000000
00000000
30030000
,
00012000
00000000
00000000
00000000
,
00023000
00000000
00031000
00001000
,
00000020
00000000
00000230
00000000
,
00000302
00000000
00000023
00000000
,
00002030
00000000
00023000
00000000
,
20030000
00000000
32000000
03000000
,
10010000
00000000
00000000
00000000
,
00000000
00000000
00000000
00000000
00000000
00001000
00000000
00001000
,
00011000
00000000
00000000
00000000
,
00000000
00000000
00000000
00000000
00000110
00000000
00000100
00000010
,
00000100
00000000
00000000
00000000
,
00000001
00000000
00000010
00000000
,
00011000
00000000
00000000
00000000
,
01000000
00100000
01000000
00100000
01000000
00000000
00010000
00000000
,
10000000
10000000
01000000
01000000
,
00010000
00010000
00001000
00001000
,
00000010
00000010
00000001
00000001
,
00001000
00001000
00000100
00000100
,
00000001
00000010
00001000
00010000
,
00001000
00010000
00100000
01000000
,
00100000
00010000
10000000
00100000
,
01000000
00100000
01000000
00000000
00100000
01000000
00100000
00000000
,
20020000
00000000
30030000
10000000
,
01000000
00000000
00100000
01000000
00100000
00000000
00001000
00000000
,
00010000
00000000
00000100
00001000
00000100
00001000
00000001
00000000
,
00000100
00000000
00000000
00000000
00000010
00000000
00000100
00000000
00000010
00000000
00000000
00000000
00000001
00000000
00000000
00000001
,
00000000
00000000
00001000
00000000
00000000
00001000
00000000
00000000
00001001
00000000
00000000
00000000
00000001
00000000
00000000
00000000
,
00000010
00000000
00001000
00010000
00001000
00000000
00010000
00000000
,
01000000
00000000
00100000
10000000
00100000
00000000
01000000
00100000
,
01000000
00000000
00010000
00100000
00001000
00000000
00010000
00001000
,
00010000
00000000
00001000
00000000
00000100
00000000
00000000
00000000
00000010
00000000
00000000
00000000
00000001
00000000
00000000
00000001
,
00000000
00000000
00000001
00000000
00001000
00000000
00000000
00001000
00000000
00000000
00001000
00000000
00000000
00000000
00000000
00000000
,
00000000
00000000
00000000
00000000
00000010
00000000
00000000
00000010
00000000
00000000
00000010
00000000
00001000
00000000
00000000
00001000
,
00000000
00000000
00001000
00000000
00000000
00000000
00000000
00000000
00000000
00000000
00000000
00000000
00011000
00000000
00000000
00010000
,
00000000
00000000
00010000
00000000
01000000
00000000
00000000
01000000
00000000
00000000
01000000
00000000
00000000
00000000
00000000
00000000
,
00000000
00000000
00000000
00000000
00100000
00000000
00000000
00100000
00000000
00000000
00100000
00000000
10000000
00000000
00000000
10000000
,
00000000
00000000
10000000
00000000
00010000
00000000
01000000
00000000
00010000
00000000
00000000
00000000
00001000
00000000
00000000
00001000
,
00000000
00001000
00000010
00000000
00000110
00000000
00000100
00000000
,
00000101
00000001
00001001
00001000
,
00001100
00000000
00000100
00001000
00010000
00000000
00100000
00010000
,
01000000
00000000
00100000
10000000
01000000
10000000
00010000
01000000
,
00010000
00000000
00000000
00000000
00000000
00000000
00000000
00000000
01000000
00000000
00000000
00000000
00000000
00000000
00000000
00000000
00200000
00300000
00000000
00000000
00000000
00000000
00000000
00000000
00000000
00000000
00000000
00000000
00000000
00000000
00000000
00000000
20020000
00000000
00000000
00000000
00000000
00000000
00000000
00000000
00000000
00000000
00000000
00000000
00000000
00000000
00000000
00000000
00000000
00000000
00000000
00000000
00000000
00000000
00000000
00000000
00000000
00000000
00000000
00000000
00000000
00000000
00000000
00000000
,
00000000
00000000
30030000
00000000
;

//--------------- dance-double - Fred-104-DDP ----------------
#NOTES:
     dance-double:
     Fred-104:
     Medium:
     14:
     :
00000000
00000000
00000000
00000000
,
00000000
00000000
00000000
00000000
,
00000000
00000000
00000000
00000000
,
00000000
00000000
00000000
00000000
,
00000000
00000000
00000000
00000000
,
00001000
00010000
00001000
00010000
00001000
00000000
00000010
00000000
00000100
00000000
00000010
00000000
00001000
00000000
00000001
00000000
,
00000010
00000000
00000100
00000000
00000010
00000000
00000100
00000000
00001000
00000000
00000000
00011000
00000000
00000000
00011000
00000000
,
00001000
00010000
00100000
00000000
00010000
01000000
10000000
00100000
,
02000000
00000000
00000000
03000000
,
00001000
00010000
00011000
00000000
00010000
00000010
00001000
00000010
,
00000100
00000001
00000101
00000000
00000010
00000100
00001000
00000010
,
00001000
00010000
00011000
00000000
00001000
00010000
00100000
10000000
,
00010000
00100000
01100000
00000000
00020000
00000000
00032000
00000000
,
00003100
00000001
00000100
00000001
00000100
00000000
00001000
00000000
00000010
00000000
00000000
00000000
00000110
00000000
00000000
00000000
,
00010010
00000000
00000000
00000000
00010000
00000000
00001000
00000000
01000000
00000000
00000000
01000000
00000000
00000000
01000000
00000000
,
10000000
00000000
00000000
11000000
00000000
00000000
11000000
00000000
00010000
00000000
00000000
01010000
00000000
00000000
01010000
00000000
,
00100000
01000000
10000000
00010000
01000000
00100000
01000000
00100000
,
02200000
00000000
00000000
00000000
00000000
03000000
01300000
10000000
,
20020000
00000000
00000000
00000000
00000000
00000000
00000000
00000000
00000000
00000000
00000000
00000000
00030000
00000000
31000000
00001000
,
00022000
00000000
00000000
00000000
00000000
00003000
00030010
00000100
,
00002002
00000000
00000000
00000000
00000000
00000000
00000000
00003003
00000001
00000100
00000001
00000100
00000010
00001000
00000010
00001000
,
00000100
00000010
00000100
00000000
00001000
00000000
00000010
00010000
00001000
00000000
00000100
00000000
00000010
00001000
00010000
00100000
,
10000000
00010000
10000000
00000000
01000000
00000000
00100000
01000000
10000000
00000000
01000000
00000000
00100000
00010000
00001000
00000010
,
00000100
00001000
00000100
00001000
00010000
00000000
01000000
00100000
10000000
01000000
00100000
00000000
00010000
00001000
00000010
00000001
,
00001000
00000010
00000100
00000001
00000010
00000100
00001000
00000010
00001000
00010000
00100000
10000000
00010000
01000000
00100000
00000000
,
02200000
00000000
00000000
00000000
,
00000000
00000000
00000000
03300000
,
20000000
00000000
00000000
30200000
00000000
00000000
00320000
00000000
00000000
00000000
00031000
00000000
00010000
00000000
00000010
00000000
,
00002000
00000000
00000000
00003200
00000000
00000000
00000320
00000000
00000000
00000032
00000000
00000000
00000023
00000000
00000130
00000000
,
00000210
00000000
00000000
00002300
00000000
00000000
00023000
00000000
00000000
02030000
00000000
00000000
03100000
00000000
10000000
00000000
,
10020000
00000000
00000000
00230000
00000000
00000000
00310000
00000000
00012000
00000000
00000000
00003020
00000000
00000000
00000130
00000000
,
00000200
00000000
00000000
00000310
00000000
00000000
00001010
00000000
00020000
00000000
00000000
00031000
00000000
00000000
00101000
00000000
,
00020000
00000000
00000000
01030000
00000000
00000000
01100000
00000000
20000000
00000000
00000000
31000000
00000000
00000000
01100000
00000000
,
10010000
00000000
00000000
00000000
,
00000000
00000000
00000000
00000000
00000000
00011000
00000000
00011000
,
00010010
00000000
00000000
00000000
,
00000000
00000000
00000000
00000000
00000000
00000000
00000000
00000000
00000110
00000000
00000000
00000000
00000001
00000000
00001000
00000100
,
00001000
00000000
00000000
00000000
,
00101000
00000000
00000000
00101000
00000000
00000000
00011000
00000000
00010010
00000000
00000000
00010010
00000000
00000000
00011000
00000000
,
00011000
00000000
00000000
00000000
,
00010000
00000000
10000000
00000000
01000000
00000000
00100000
00000000
00001000
00000000
00010000
00001000
00010000
00000000
00001000
00000000
,
00011000
00011000
01010000
01010000
,
11000000
11000000
10100000
10100000
,
00110000
00110000
00011000
00011000
,
00001010
00001010
00000011
00000011
,
00000001
00000100
00000001
00000100
00001000
00010000
00001000
00010000
,
01000000
10000000
01000000
10000000
00010000
01000000
00100000
10000000
,
01000000
00100000
00001000
00010000
00001000
00000010
00000100
00000010
,
00001000
00000000
00000001
00000000
00000010
00000000
00000100
00000000
00001000
00000000
00000001
00000100
00000010
00000000
00000100
00000000
,
00000220
00000330
00000000
00000000
00000000
00000000
00000000
00000000
00000000
00000000
00000000
00000000
00000000
00000000
00000000
00000000
00001000
00000000
00000000
00000000
00000000
00000000
00000000
00000000
00010000
00000000
00000000
00000000
00000000
00000000
00000000
00000000
00100000
00000000
00000000
00000000
00000000
00000000
00000000
00000000
10000000
00000000
00000000
00000000
00000000
00000000
00000000
00000000
10010000
00000000
00000000
00000000
00000000
00000000
00000000
00000000
00000000
00000000
00000000
00000000
01000000
00000000
00000000
00000000
,
00000000
00000000
00100000
00000000
10000000
00000000
00100000
00000000
01000000
00000000
00010000
00000000
00110000
00000000
00000000
00001000
,
00000000
00000000
00010000
00000000
00000100
00000000
00000010
00000000
00000100
00000000
00001000
00000000
00001001
00000000
00000000
00000100
,
00000000
00000000
00000010
00000000
00000001
00000000
00000010
00000000
00001000
00000000
00000010
00000000
00000002
00000000
00000000
00000203
,
00000000
00000000
00002300
00000000
00000000
00023000
00000000
00000000
01030000
00000000
00100000
00000000
20010000
00000000
00000000
00010000
,
00000000
00000000
30010000
00000000
01000000
00000000
00100000
00000000
01000000
00000000
00010000
00000000
00210000
00000000
00000000
00010000
,
00000000
00000000
00310000
00000000
00001000
00000000
00010000
00000000
00000100
00000000
00000010
00000000
00000001
00000100
00000001
00000100
,
00000010
00000000
00001000
00000000
00000100
00000000
00000000
00000100
00000000
00000000
00010000
00000000
00001000
00000000
00000000
00001000
,
00000000
00000000
00100000
00000000
01000000
00000000
00000000
00100000
00000000
00000000
00010000
00000000
10000000
00000000
00000000
10100000
,
00000000
00000000
10100000
00000000
00010000
00000000
00000000
01010000
00000000
00000000
02020000
00000000
00000000
00000000
00000000
00000000
,
00000000
00000000
03030000
00000000
00001000
00000000
00000000
00001010
00000000
00000000
00001010
00000000
00000001
00000000
00000000
00000101
,
00000000
00000000
00000000
00000000
00000101
00000000
00000000
00000000
00000000
00000000
00000000
00000000
00001000
00000000
00000000
00000100
00000000
00000000
00000100
00000000
00010000
00000000
01000000
00000000
00100000
00000000
00000000
00000000
00000000
00000000
10010000
00000000
,
00000000
00000000
10010000
00000000
01000000
00000000
00000000
01100000
00000000
00000000
02200000
00000000
00000000
00000000
00000000
00000000
,
00000000
00000000
03300000
00000000
00001000
00000000
00000000
00001100
00000000
00000000
00000110
00000000
00000001
00000000
00000000
00000101
,
00000000
00000000
00000110
00000000
00001000
00000001
00001000
00000001
00001000
00000000
00000100
00000000
00000010
00000000
00000000
00000110
,
00000000
00000000
00000110
00000000
00001000
00000000
00000000
00010000
00001000
00000000
00000000
00000000
00010000
00000000
00000000
00100000
,
01000000
00000000
00000000
00000000
00100000
00000000
00000000
00010000
10000000
00000000
00000000
00000000
01000000
00000000
00000000
00100000
,
10000000
00000000
10000000
01000000
00100000
00010000
01000000
00100000
,
00010000
00000000
00001000
00000000
00100000
00000000
00010000
00000000
00001000
00000000
00000100
00000000
00000010
00000000
00000001
00000100
,
00000010
00000000
00000000
00000000
00000000
00000000
00000000
00000000
00001000
00000000
00000000
00000000
00000000
00000000
00000000
00000000
00002002
00003003
00000000
00000000
00000000
00000000
00000000
00000000
00000000
00000000
00000000
00000000
00000000
00000000
00000000
00000000
00000220
00000000
00000000
00000000
00000000
00000000
00000000
00000000
00000000
00000000
00000000
00000000
00000000
00000000
00000000
00000000
00000000
00000000
00000000
00000000
00000000
00000000
00000000
00000000
00000000
00000000
00000000
00000000
00000000
00000000
00000000
00000000
,
00000000
00000000
00000330
00000000
;

//--------------- dance-double - Fred-104-EDP ----------------
#NOTES:
     dance-double:
     Fred-104:
     Hard:
     17:
     :
00000000
00000000
00000000
00000000
,
00000000
00000000
00000000
00000000
,
00000000
00000000
00000000
00000000
,
00000000
00000000
00000000
00000000
,
00000000
00000000
00000000
00000000
,
10000000
01000000
10000000
01000000
00100000
00000000
00001000
00000000
00011000
00000000
00010000
00000000
00010010
00000000
00000010
00000000
,
00000110
00000000
00000100
00000000
00000101
00000000
00000001
00000000
00000011
00000000
00000000
00000110
00000000
00000000
00001100
00000000
,
00010000
00001000
00011000
00000000
00101000
00100000
00010000
01000000
,
02100000
00000000
00000000
23000000
00000000
00000000
30020000
00000000
00000000
00000000
00000000
00000000
00032000
00000000
00000000
00000000
,
00003010
00000000
00000100
00000000
00000110
00000000
00000000
00000000
00000001
00000000
00000100
00000010
00000100
00000000
00000001
00000100
,
00000001
00000000
00000100
00000000
00000110
00000000
00000010
00000000
00001000
00000000
00000100
00010000
00000100
00000000
00010000
00000000
,
00001000
00000000
00100000
00000000
00120000
00000000
00000000
00000000
01030000
00000000
00100000
10000000
00100000
00000000
01000000
00010000
,
01000000
00010000
00012000
00000000
00003020
00000000
00000230
00000000
,
00000301
00000100
00000010
00000100
00000001
00000000
00000010
00000000
00000001
00000000
00000010
00000000
00001000
00000000
00010000
00000000
,
00001000
00000000
00000000
00010000
00000000
00000000
00100000
00000000
00000000
10000000
00000000
00000000
00010000
00000000
00000000
10000000
00010000
10000000
00010000
00000000
00000000
01000000
00100000
01000000
,
00100000
00000000
00000000
00110000
00000000
00000000
00110000
00000000
00011000
00000000
00000000
00001010
00000000
00000000
00001010
00000000
,
00000100
00000000
00000000
00000010
00000000
00000000
00000100
00000000
00000000
00000010
00000000
00000000
00000100
00000000
00000000
00000010
00000000
00000000
00000100
00000000
00000000
00000010
00000000
00000000
00000100
00000000
00000000
00000000
00000000
00000000
00000001
00000000
00000010
00000000
00000001
00000000
00000010
00000000
00000000
00000000
00000000
00000000
00000100
00000000
00001000
00000000
00000100
00000000
,
00002000
00000000
00000000
00000000
00000000
00000000
00013000
01000000
,
00200000
00000000
00000000
00000000
00000000
00000000
00000000
00000000
00000000
00000000
00000000
00000000
00000000
00000000
10300000
01000000
,
00020000
00000000
00000000
00000000
00000000
00000000
00031000
00000010
,
00000002
00000000
00000000
00000000
00000000
00000000
00000000
00000000
00000000
00000000
00000000
00000000
00000000
00000000
00000000
00000000
00001003
00000010
00001000
00000010
00001000
00000010
00001000
00000010
00001000
00000010
00001000
00000010
00001000
00000010
00001000
00000010
,
00000100
00000001
00000010
00000001
00000010
00001000
00010000
00001000
00010000
00100000
10000000
00010000
10000000
01000000
00100000
00001000
,
00010000
00001000
01000000
00010000
00001000
00010000
00001000
00000100
00000001
00000010
00000100
00000010
00000100
00000100
00000200
00000000
,
00000310
00000001
00000010
00001000
00000010
00001000
00010000
00100000
00001000
00010000
00000100
00010000
00001000
01000000
00001000
00010000
,
00100000
00000000
01000000
00000000
10000000
00000000
00100000
00000000
01000000
00000000
00100000
00000000
10000000
00000000
01000000
00000000
00100000
01000000
00100000
01000000
00100000
01000000
00100000
01000000
00100000
01000000
00100000
01000000
00100000
01000000
00100000
02000000
,
00200000
00000000
00000000
00000000
,
00000000
00000000
00000000
03300000
,
20010000
00000000
00000000
32000000
00000000
00000000
03020000
00000000
00000000
00000000
00031000
00000000
00010000
00000000
00001000
00000000
,
00000200
00000000
00000000
00000302
00000000
00000000
00000023
00000000
00000000
00000230
00000000
00000000
00000320
00000000
00000031
00000000
,
00000012
00000000
00000000
00000203
00000000
00000000
00002300
00000000
00000000
00003200
00000000
00000000
00000301
00001000
00000001
00000000
,
00000012
00000000
00000000
00000203
00000000
00000000
00000310
00000000
00002010
00000000
00000000
00023000
00000000
00000000
00031000
00000000
,
00021000
00000000
00000000
00230000
00000000
00000000
01300000
00000000
20010000
00000000
00000000
32000000
00000000
00000000
03100000
00000000
,
00201000
00000000
00000000
00302000
00000000
00000000
00013000
00000000
00020010
00000000
00000000
00030020
00000000
00000000
00000130
00000000
,
00001001
00000000
00000000
00000000
,
00000000
00000000
00000000
00000000
00000000
00101000
00000000
00101000
,
00110000
00000000
00000000
00000000
,
00000000
00000000
00000000
00000000
00000000
00000000
00000000
00000000
01100000
00000000
00000000
00000000
10010000
00000000
00100000
01000000
,
00100000
00000000
00000000
00000000
,
10100000
00000000
00000000
01000000
00000000
00000000
00010000
00000000
00011000
00000000
00000000
00000100
00000000
00000000
00000001
00000000
,
00000011
00000000
00000000
00000000
,
00000010
00000000
00000011
00000000
00000001
00000000
00001001
00000000
00001000
00000000
00000010
00010000
00001000
00000000
00010000
00001000
,
00100000
00110000
10100000
00110000
,
00011000
00001100
00000101
00001100
,
00011000
00110000
10100000
01010000
,
00011000
00001010
00000011
00000101
,
00001001
00000000
00000001
00000100
00000000
00000010
00001000
00000000
00000100
00000000
00001000
00010000
00000000
00100000
00010000
00000000
,
00001000
00000000
00100000
01000000
00000000
00100000
00010000
00000000
10000000
00000000
00100000
01000000
00000000
00010000
10000000
00000000
,
01000000
00100000
01000000
00100000
00010000
00001000
00010000
00001000
00000100
00000010
00000100
00000010
00000001
00001000
00000001
00001000
,
00000100
00000010
00000001
00000100
00000010
00001000
00000100
00010000
00001000
00000000
00010000
00100000
01000000
00000000
10000000
00010000
,
20000000
30000000
00000000
00000000
00000000
00000000
00000000
00000000
00000000
00000000
00000000
00000000
00000000
00000000
00000000
00000000
00100000
00000000
00000000
00000000
10000000
00000000
00000000
00000000
00010000
00000000
00000000
00000000
10000000
00000000
00000000
00000000
01000000
00000000
00000000
00000000
10000000
00000000
00000000
00000000
00010000
00000000
00000000
00000000
10000000
00000000
00000000
00000000
00100000
00000000
00000000
00000000
00000000
00000000
00000000
00000000
00000000
00000000
00000000
00000000
10100000
00000000
00000000
00000000
,
00000000
00000000
01010000
00000000
00100000
00010000
00100000
00000000
00001000
00010000
00001000
00000000
00011000
00000000
00000000
00001010
,
00000000
00000000
00000110
00000000
00000100
00000000
00000001
00000010
00000100
00000010
00000001
00000000
00000101
00000000
00000000
00000110
,
00000000
00000000
00001010
00000000
00000100
00010000
00001000
00000000
00010000
00001000
00010000
00000000
00011000
00000000
00000000
00110000
,
00000000
00000000
10100000
00000000
00000000
10010000
00000000
00000000
01100000
00000000
00100000
00000000
01000000
00000000
00010000
10000000
,
00000000
01000000
10000000
00000000
00100000
01000000
00010000
00000000
00100000
00001000
00010000
00000000
00011000
00000000
00000000
00001010
,
00000000
00000000
00000110
00000000
00000101
00000000
00000000
00001100
00000000
00000000
00000101
00000000
00000001
00000100
00000010
00001000
,
00000001
00000000
00000010
00000000
00000100
00000000
00000010
00000001
00000000
00001000
00000010
00000000
00001000
00000000
00010000
00100000
,
00000000
01000000
00100000
00000000
00110000
00000000
00000000
00110000
00000000
00000000
00110000
00000000
10010000
00000000
00000000
11000000
,
00000000
00000000
01010000
00000000
00011000
00000000
00000000
00001010
00000000
00000000
00000022
00000000
00000000
00000000
00000000
00000000
,
00000000
00000000
00000033
00000000
00000101
00000000
00000000
00001100
00000000
00000000
00011000
00000000
01010000
00000000
00000000
11000000
,
00000000
00000000
00000000
00000000
10010000
00000000
00000000
00000000
00000000
00000000
00000000
00000000
02000000
00000000
00000000
03020000
00000000
00000000
00032000
00000000
00013000
00000000
00001000
00000000
00011000
00000000
00000000
00000000
00000000
00000000
00010010
00000000
,
00000000
00000000
00101000
00000000
00011000
00000000
00000000
01001000
00000000
00000000
00020200
00000000
00000000
00000000
00000000
00000000
,
00000000
00000000
00030300
00000000
00001010
00000000
00000000
00000011
00000000
00000000
00001010
00000000
00010010
00000000
00000000
00011000
,
00000000
00000000
00101000
00000000
00100000
00010000
01000000
00100000
10000000
00000000
00010000
00000000
01100000
00000000
00000000
10010000
,
00000000
00000000
01100000
00000000
00010000
10000000
00000000
01000000
10000000
00000000
00100000
00000000
01000000
00010000
00000000
00100000
,
00001000
00000000
00010000
00000000
00001000
00000010
00000000
00000001
00000010
00000000
00000100
00000000
00001000
00000001
00000000
00000100
,
00000010
00001000
00000001
00000001
00000010
00000010
00001000
00001000
,
00010000
00000000
00010000
00000000
00001000
00100000
00010000
01000000
00100000
10000000
00100000
10000000
01000000
00000000
00100000
00010000
,
00001000
00000000
00000000
00000000
00000000
00000000
00000000
00000000
00000000
00000000
00000000
00000000
00000000
00000000
00000000
00000000
00000000
00000000
00000000
00000000
00000000
00000000
00000000
00000000
00000010
00000000
00000000
00000000
00000000
00000000
00000000
00000000
00000100
00000000
00000000
00000000
00000000
00000000
00000000
00000000
00000010
00000000
00000000
00000000
00000000
00000000
00000000
00000000
00000200
00000000
00000000
00000300
00000000
00000000
00000000
00000000
00000000
00000000
00000000
00000000
00000000
00000000
00000000
00000000
00000000
00000000
00000000
00000000
00000000
00000000
00000000
00000000
00000000
00000000
00000000
00000000
00000000
00000000
00000000
00000000
00000000
00000000
00000000
00000000
00000000
00000000
00000000
00000000
00000000
00000000
00000000
00000000
00000000
00000000
00000000
00000000
00002002
00000000
00000000
00000000
00000000
00000000
00000000
00000000
00000000
00000000
00000000
00000000
00000000
00000000
00000000
00000000
00000000
00000000
00000000
00000000
00000000
00000000
00000000
00000000
00000000
00000000
00000000
00000000
00000000
00000000
00000000
00000000
00000000
00000000
00000000
00000000
00000000
00000000
00000000
00000000
00000000
00000000
00000000
00000000
00000000
00000000
00000000
00000000
00000000
00000000
00000000
00000000
00000000
00000000
00000000
00000000
00000000
00000000
00000000
00000000
00000000
00000000
00000000
00000000
00000000
00000000
00000000
00000000
00000000
00000000
00000000
00000000
00000000
00000000
00000000
00000000
00000000
00000000
00000000
00000000
00000000
00000000
00000000
00000000
00000000
00000000
00000000
00000000
00000000
00000000
00000000
00000000
00000000
00000000
00000000
00000000
,
00000000
00000000
00003003
00000000
;

//--------------- dance-double - Fred-104-CDP ----------------
#NOTES:
     dance-double:
     Fred-104:
     Challenge:
     18:
     :
00000000
00000000
00000000
00000000
,
00000000
00000000
00000000
00000000
,
00000000
00000000
00000000
00000000
,
00000000
00000000
00000000
00000000
,
00000000
00000000
00000000
00000000
,
00000001
00000010
00000100
00010000
00001000
00000000
00010000
00000000
00011000
00000000
00001000
00000000
00101000
00000000
00100000
00000000
,
00110000
00000000
00010000
00000000
01010000
00000000
01000000
00000000
10100000
00000000
00000000
11000000
00000000
00000000
01010000
00000000
,
00010000
00100000
01100000
00000000
00011000
00000100
00000010
00000100
,
00000102
00000000
00000000
00000023
00000000
00000000
00002030
00000000
00000000
00000000
00000000
00003000
00022000
00000000
00000000
00033000
,
00011000
00000000
00100000
00000000
01000000
00000000
10000000
00000000
00010000
00000000
01000000
00100000
10000000
00000000
00100000
01000000
,
00010000
00000000
10000000
00000000
01000000
00000000
00010000
00000000
00001000
00100000
00000000
00001000
00010000
00000000
00000010
00000000
,
00001000
00000000
00000100
00000010
00000100
00000000
00000001
00000000
00001000
00000000
00000010
00000100
00000010
00000000
00000001
00000000
,
00000100
00000000
00000000
00000000
00000000
00000000
00000000
00000000
00001000
00000000
00000000
00000000
00000000
00000000
00000000
00000000
00011000
00000000
00000000
00000000
00000000
00000000
00000000
00000000
00000000
00000000
00000000
00000000
00000000
00000000
00000000
00000000
00020020
00000000
00000000
00000000
00000000
00000000
00000000
00000000
00000000
00000000
00000000
00000000
00000000
00000000
00000000
00030030
00202000
00000000
00000000
00000000
00000000
00000000
00000000
00000000
00000000
00000000
00000000
00000000
00000000
00000000
00000000
00303000
,
00001000
00010000
00100000
10000000
00010000
00000000
01000000
00000000
00100000
00000000
10000000
00000000
01000000
00000000
00010000
00000000
,
01000000
00000000
00000000
10000000
00000000
00000000
00100000
00000000
00000000
01000000
00000000
00000000
00010000
00000000
00000000
00100000
00001000
00010000
00000100
00000000
00000000
00001000
00000100
00000010
,
00000001
00000000
00000000
00000011
00000000
00000000
00001010
00000000
00011000
00000000
00000000
01010000
00000000
00000000
11000000
00000000
,
00010000
00000000
00000000
10000000
00000000
00000000
01000000
00000000
00000000
00100000
00000000
00000000
00001000
00000000
00000000
00010000
00000000
00000000
00001000
00000000
00000000
00100000
00000000
00000000
00001000
00000000
00000000
00000000
00000000
00000000
00010000
00000000
00001000
00000000
00000100
00000000
00000001
00000000
00000000
00000000
00000000
00000000
00001000
00000000
00000100
00000000
00000010
00000000
,
00000001
00000000
00000001
00000100
00000010
00001000
00000010
00010000
00001000
00010000
00100000
00001000
00000010
00001000
00010000
00001000
,
00100000
00010000
00100000
10000000
00010000
01000000
00100000
01000000
00010000
00000100
00010000
00001000
00000100
00000010
00000001
00000001
,
00000001
00000100
00000010
00001000
00000010
00000001
00000010
00001000
00100000
01000000
10000000
00100000
01000000
00100000
01000000
00010000
,
00001000
00000000
00001000
00000000
00010000
00000000
00001000
00000000
00000010
00000000
00001000
00000000
00000100
00000000
00000001
00000000
00000100
00001000
00010000
00001000
00010000
00100000
10000000
00010000
01000000
00100000
10000000
01000000
00010000
00001000
00010000
00100000
,
01000000
10000000
00100000
01000000
00100000
01000000
10000000
01000000
00010000
00001000
00000010
00000100
00000010
00001000
00000001
00000010
,
00000001
00000100
00000010
00001000
00010000
00100000
10000000
00010000
10000000
01000000
00010000
00100000
00001000
00001000
00001000
00000010
,
00000100
00001000
00000001
00000010
00001000
00000010
00001000
00010000
00100000
10000000
00010000
00100000
00010000
01000000
00100000
01000000
,
00010000
00000000
10000000
00000000
01000000
00000000
00100000
00000000
00010000
00000000
00001000
00000000
00000100
00000000
00000010
00000000
00000001
00000100
00000010
00001000
00000100
00010000
00001000
01000000
00010000
00100000
01000000
10000000
00100000
01000000
00010000
10000000
,
00020000
00000000
00000000
00000000
,
00000000
00000000
00000000
00030000
,
10000000
00000000
01000000
00100000
00000000
00001000
00010000
00000000
00000000
00001000
00010000
00000100
00001000
00000001
00000010
00001000
,
00000010
00000000
00000001
00000100
00000000
00000010
00000100
00000000
00000001
00000100
00000000
00000100
00000010
00000000
00001000
00000000
,
00000100
00000000
00010000
00001000
00000000
00010000
00100000
00000000
10000000
00100000
00010000
00000000
00010000
00100000
10000000
00000000
,
00010000
00000000
10000000
01000000
00000000
00100000
00010000
00000000
01000000
00000000
00001000
00010000
00000000
00000010
00001000
00000000
,
00000100
00000000
00000010
00000001
00000000
00000010
00001000
00000000
00000001
00000000
00000100
00001000
00000000
00010000
01000000
00000000
,
00100000
10000000
01000000
10000000
00100000
01000000
00100000
00001000
00010000
00001000
00000010
00000100
00000001
00000010
00000100
00001000
,
00001001
00000000
00000000
00000000
,
00000000
00000000
00000000
00000000
00000000
01010000
00000000
11000000
,
10010000
00000000
00000000
00000000
,
00000000
00000000
00000000
00000000
00000000
00000000
00000000
00000000
00000000
00000000
00000000
00000000
00011000
00000000
00000000
00000000
00000000
00000000
00001010
00000000
00000000
00000001
00001000
00000100
,
00000010
00000000
00000000
00000000
,
00011000
00000000
00000000
00010010
00000000
00000000
00001010
00000000
00011000
00000000
00000000
01001000
00000000
00000000
01010000
00000000
,
00011000
00000000
00000000
00000000
,
00011000
00000000
00000000
00010000
00000000
00000000
00110000
00000000
00000000
00100000
00000000
00000000
01000000
00000000
00000000
00100000
10000000
01000000
00100000
00000000
00000000
00010000
01000000
00100000
,
10000000
11000000
01010000
00011000
,
00001010
00000011
00000101
00001100
,
00011000
01010000
11000000
10100000
,
00110000
00011000
00001100
00000101
,
00001001
00000010
00000001
00000010
00000100
00010000
00001000
00100000
,
10000000
00100000
00001000
00010000
00000100
00000001
00000100
00000010
,
00000100
00000001
00000100
00000010
00001000
00000100
00001000
00010000
00100000
10000000
00010000
01000000
00100000
10000000
01000000
00100000
,
00001000
00000000
00000000
00010000
00000000
00000000
00001000
00000000
00000000
00100000
00000000
00000000
00001000
00000000
00000000
00010000
00000000
00000000
00000010
00000000
00000000
00001000
00000000
00000000
00000100
00000000
00000000
00000000
00000000
00000000
00000010
00000000
00000001
00000000
00001000
00000000
00000010
00000000
00000000
00000000
00000000
00000000
00000100
00000000
00000010
00000000
00001000
00000000
,
00000200
00000300
00000000
00000000
00000000
00000000
00000000
00000000
00000000
00000000
00000000
00000000
00000000
00000000
00000000
00000000
01000000
00000000
00000000
00000000
00100000
00000000
00000000
00000000
00010000
00000000
00000000
00000000
00001000
00000000
00000000
00000000
00010000
00000000
00000000
00000000
00100000
00000000
00000000
00000000
01000000
00000000
00000000
00000000
00100000
00000000
00000000
00000000
01000000
00000000
00000000
00000000
00000000
00000000
00000000
00000000
10000000
00000000
00000000
00000000
00100000
00000000
00000000
00000000
,
00000000
10000000
01000000
00000000
00010000
00100000
01000000
00000000
00001000
00010000
00000100
00000000
00010000
00000000
00001000
00000100
,
00000000
00000001
00000100
00000000
00001000
00000000
00000010
00000100
00000001
00001000
00000100
00000000
00000010
00000000
00000001
00000010
,
00000000
00001000
00000010
00000000
00000001
00000100
00000010
00001000
00000100
00010000
00001000
00010000
00100000
00000000
10000000
00100000
,
00000000
00100000
00010000
00000000
10000000
01000000
00000000
01000000
00010000
00000000
10000000
00000000
00010000
00000000
01000000
00100000
,
00000000
10000000
01000000
00000000
00010000
00100000
00001000
00000000
00010000
00001000
00000100
00000000
00001000
00000000
00000010
00000001
,
00000000
00001000
00000010
00000000
00000100
00000000
00000001
00001000
00000000
00000100
00001000
00000000
00010000
00000100
00001000
00000100
,
00010000
00000000
00001000
00000000
00100000
00000000
00010000
01000000
00000000
00100000
01000000
00000000
00010000
00000000
10000000
01000000
,
00000000
00100000
00010000
00000000
01010000
00000000
00000000
00011000
00000000
00000000
00001100
00000000
00001010
00000000
00000000
00000011
,
00000000
00000000
00001010
00000000
00011000
00000000
00000000
01010000
00000000
00000000
22000000
00000000
00000000
00000000
00000000
00000000
,
00000000
00000000
33000000
00000000
10100000
00000000
00000000
00110000
00000000
00000000
00011000
00000000
00001100
00000000
00000000
00000101
,
00000000
00000000
00000000
00000000
00002001
00000000
00000000
00000000
00000000
00000000
00000000
00000000
00003002
00000000
00000000
00000023
00000000
00000000
00002030
00000000
00013000
00000000
00001000
00000000
00010000
00000000
00001000
00000000
00010000
00000000
00001000
00000000
,
00010000
00000000
00110000
00000000
10010000
00000000
00000000
11000000
00000000
00000000
20200000
00000000
00000000
00000000
00000000
00000000
,
00000000
00000000
30300000
00000000
01001000
00000000
00000000
00010010
00000000
00000000
00011000
00000000
00001010
00000000
00000000
00000110
,
00000000
00000000
00000101
00000000
00000001
00000100
00000010
00001000
00000001
00000000
00000010
00000000
00000110
00000000
00000000
00000110
,
00000000
00000000
00000110
00000000
00000001
00000010
00000000
00001000
00000010
00000000
00000001
00000000
00000100
00001000
00000000
00001000
,
00010000
00000000
00100000
00000000
10000000
00100000
00000000
00010000
00100000
00000000
10000000
00000000
00010000
10000000
00000000
10000000
,
01000000
00000000
00010000
00000000
00011000
00000000
00000010
00001000
00000100
00000000
00010000
00001000
00010000
00000000
00000100
00001000
,
00000100
00000000
00000000
00000000
00000000
00000000
00000010
00000000
00000000
00000100
00000000
00000000
00000001
00000000
00000000
00000100
00000000
00000000
00000010
00000000
00000000
00001000
00000000
00000000
00000100
00000000
00000000
00010000
00000000
00000000
00001000
00000000
00000000
00100000
00000000
00000000
01000000
00000000
00000000
00000000
00000000
00000000
00100000
00000000
00010000
00000000
10000000
00000000
,
01000000
00000000
00000000
00000000
00000000
00000000
00000000
00000000
00000000
00000000
00000000
00000000
00000000
00000000
00000000
00000000
00000000
00000000
00000000
00000000
00000000
00000000
00000000
00000000
00100000
00000000
00000000
00000000
00000000
00000000
00000000
00000000
01000000
00000000
00000000
00000000
00000000
00000000
00000000
00000000
10000000
00000000
00000000
00000000
00000000
00000000
00000000
00000000
00020000
00000000
00000000
00030000
00000000
00000000
00000000
00000000
00000000
00000000
00000000
00000000
00000000
00000000
00000000
00000000
00000000
00000000
00000000
00000000
00000000
00000000
00000000
00000000
00000000
00000000
00000000
00000000
00000000
00000000
00000000
00000000
00000000
00000000
00000000
00000000
00000000
00000000
00000000
00000000
00000000
00000000
00000000
00000000
00000000
00000000
00000000
00000000
00022000
00000000
00000000
00000000
00000000
00000000
00000000
00000000
00000000
00000000
00000000
00000000
00000000
00000000
00000000
00000000
00000000
00000000
00000000
00000000
00000000
00000000
00000000
00000000
00000000
00000000
00000000
00000000
00000000
00000000
00000000
00000000
00000000
00000000
00000000
00000000
00000000
00000000
00000000
00000000
00000000
00000000
00000000
00000000
00000000
00000000
00000000
00000000
00000000
00000000
00000000
00000000
00000000
00000000
00000000
00000000
00000000
00000000
00000000
00000000
00000000
00000000
00000000
00000000
00000000
00000000
00000000
00000000
00000000
00000000
00000000
00000000
00000000
00000000
00000000
00000000
00000000
00000000
00000000
00000000
00000000
00000000
00000000
00000000
00000000
00000000
00000000
00000000
00000000
00000000
00000000
00000000
00000000
00000000
00000000
00000000
,
00000000
00000000
00033000
00000000
;
