#VERSION:0.83;
#TITLE:EMERALDAS;
#ARTIST:BEMANI Sound Team "HuΣeR vs dj Hellix";
#ARTISTTRANSLIT:HuMeR vs dj Hellix;
#GENRE:IRREGULAR DJENT STEP;
#BANNER:EMERALDAS.png;
#BACKGROUND:EMERALDAS-bg.png;
#CDTITLE:./CDTitles/bm IIDX 25 CANNON BALLERS.png;
#MUSIC:EMERALDAS.ogg;
#SAMPLESTART:38.168;
#SAMPLELENGTH:15;
#DISPLAYBPM:88:352;
#BPMS:0=88,20=176,84=352,84.5=176,84.75=88,85=176,116=352,116.5=176,116.75=88,117=176,124=88,140=176,164=352,164.5=176,164.75=88,165=176,220=352,220.5=176,220.75=88,221=176,236=352,236.5=176,236.75=88,237=176,268=352,268.5=176,268.75=88,269=176;
#BGSTAGE:21;

//--------------- dance-single - Fred-104 ----------------
#NOTEDATA:;
#STEPSTYPE:dance-single;
#DESCRIPTION:Fred-104;
#DIFFICULTY:Beginner;
#METER:6;
#DISPLAYBPM:88:176;
#BPMS:0=88,20=176,124=88,140=176;
#CREDIT:Fred-104;
#NOTES:
0000
0000
0000
0000
,
0000
0000
0000
0000
,
0000
0000
0000
0000
,
2000
3100
0010
0001
,
2000
0000
3001
0000
0100
0100
0001
0000
,
0001
0001
0100
0100
,
0001
1000
0001
0000
,
1000
1000
0100
1000
,
0001
0100
0001
0000
,
1000
1000
0001
0010
,
0100
0010
0001
0000
,
0100
0100
0010
0010
,
0100
0100
0001
1000
,
0002
0000
2003
0000
,
0002
0000
0000
3003
,
1001
0000
0001
0000
,
1001
0000
1000
0100
,
0110
0000
0010
0000
,
0001
0001
1000
1000
,
1001
0000
0001
0000
,
0110
0000
1000
0000
,
0001
0000
1000
0000
,
0001
0001
0001
0001
,
1001
0000
1000
0000
,
0110
0000
0001
1000
,
0001
0000
1001
0000
,
1000
0001
0001
0100
,
0010
0000
0110
0000
,
0100
0100
0001
1000
,
0001
0000
1000
0000
,
0001
0001
1000
1000
,
0002
0000
0000
0000
,
2003
0000
0000
0000
,
3020
0000
0000
0000
,
0230
0000
0000
0000
,
0301
0000
1000
0000
,
0100
0000
0010
0001
,
0010
0000
0001
0000
,
1000
0000
0001
1000
,
0010
0000
0100
0000
,
0001
1000
0001
1000
,
0001
0000
1000
0000
,
0100
0100
0010
0010
,
0002
0000
0000
0000
,
2003
0000
0000
0000
,
3002
0000
0000
0000
,
2003
0000
0000
0000
,
3001
0001
1000
1000
,
0001
1000
1001
0000
,
1000
0010
0100
0001
,
1000
1000
0001
0001
,
2002
0000
0000
0000
,
0000
0000
3003
0000
,
1000
0000
1001
0000
,
0001
1000
0001
0001
,
1000
0000
0100
0000
,
0001
0000
0010
0000
,
1000
0000
0001
0000
,
0100
0100
0010
0100
,
0100
0000
0001
1000
,
0001
0001
0010
0100
,
1000
0000
0001
0000
,
1000
0000
0001
1000
,
0010
0000
0100
0000
,
0010
0010
1000
0001
,
0010
0000
0100
0000
,
1000
1000
0010
1000
,
1000
0000
0001
0000
,
1000
0100
0010
0001
,
2002
0000
0000
0000
,
0000
0000
0000
0000
,
0000
0000
0000
0000
,
0000
0000
0000
0000
,
3003
0000
0000
0000
;

//--------------- dance-single - Fred-104 ----------------
#NOTEDATA:;
#STEPSTYPE:dance-single;
#DESCRIPTION:Fred-104;
#DIFFICULTY:Easy;
#METER:10;
#DISPLAYBPM:88:176;
#BPMS:0=88,20=176,124=88,140=176;
#CREDIT:Fred-104;
#NOTES:
0000
0000
0000
0000
,
0000
0000
0000
0000
,
0000
0000
0000
0000
,
0001
0100
0110
0010
,
1000
0000
0100
0000
1000
1000
0001
0001
,
1000
0000
0100
0000
0010
0100
0010
0000
,
0001
0000
1000
0000
0010
1000
0010
0000
,
0100
0000
0001
0000
1000
0100
0010
0000
,
0001
0000
1000
0000
0001
1000
1001
0000
,
0001
0000
0100
0000
1000
0100
0001
0000
,
1000
0000
0100
0000
0001
0100
1000
0000
,
0001
0010
1000
0000
1000
0010
0001
0000
,
1100
0101
1010
0011
,
2002
0000
0000
0000
,
0000
0000
0000
3003
,
1000
0000
0100
0010
0001
0000
0000
0000
,
0100
0000
0000
0010
0000
0000
0100
0000
0001
0000
0000
0000
1001
0000
0000
0000
,
1000
0000
0001
1000
0010
0100
0010
0000
,
1000
0000
0000
1000
0000
0000
1000
0000
0100
0000
0010
0000
0001
0000
0000
0000
,
1000
0000
0001
1000
0010
0000
0100
0000
,
0001
0000
0000
0001
0000
0000
0001
0000
0010
0000
0100
0000
1000
0000
0000
0000
,
0002
0103
0010
1000
,
1010
0011
1100
0101
,
1001
0000
0001
1000
0010
0000
0100
0000
,
0001
0100
0001
0000
1000
0100
1000
0000
,
1001
0000
1000
0100
0010
0000
0001
0000
,
1000
0000
0000
1000
0000
0000
0001
0000
0100
0000
0000
0000
0010
0000
0100
0000
,
0010
0000
0100
0001
0100
0000
0001
0000
,
1000
0000
0000
0001
0000
0000
0100
0000
0010
0000
0000
0000
0100
0000
0000
0000
,
0002
1003
0001
0100
,
0010
1000
0010
0000
0100
0001
0100
0000
,
1002
0000
2003
0000
3100
0010
0001
0000
,
2000
0000
3002
0000
0103
0010
2000
0000
,
3001
0000
0100
0000
1000
0100
0001
0000
,
1000
0100
0001
0100
1000
0010
0001
0010
,
1000
0000
0000
0100
0000
0000
0010
0000
,
0001
0000
0000
1000
0000
0000
0001
0000
,
0100
0000
0000
0010
0000
0000
0100
0000
,
0001
0000
0000
1000
0000
0000
0100
0000
,
0010
0000
0000
0100
0000
0000
1000
0000
,
0001
0100
0010
1000
,
0002
1003
0010
0100
,
0101
0000
1010
0000
0001
0100
0010
0000
,
2000
0000
0000
0000
,
3200
0000
0320
0000
,
0032
2003
3002
0203
,
0320
0000
0230
0300
0220
0000
0330
0000
,
0001
0010
1000
0010
,
0001
0000
1000
0000
0010
0100
0001
0000
,
1000
0100
1000
0000
0001
0100
0001
0000
,
1100
0000
0011
0000
1000
0001
1000
0000
,
2002
0000
0000
0000
,
0000
0000
0000
3003
,
1000
0000
0000
1000
0000
0000
1000
0000
0001
0000
0000
0000
0100
0000
0010
0000
,
0100
0010
0100
0000
0001
1000
0001
0000
,
2000
3100
0001
1000
,
0010
0000
0001
0000
0010
0100
1000
0000
,
0001
0000
0100
0010
0100
0000
0001
0000
,
0010
0000
0000
0010
0000
0000
0100
0000
1000
0000
0000
0000
0001
0000
0000
0000
,
2000
3100
0010
0001
,
0100
0010
0100
0110
,
0001
0000
0000
1000
0000
0000
0010
0000
,
0100
0000
0001
0000
1000
0100
1000
0000
,
0001
1000
0100
1000
,
0001
0000
0100
0000
0010
1000
0010
0000
,
0100
0000
0001
0000
1000
0100
1000
0000
,
0001
0000
0100
0000
0010
0100
0010
0000
,
2000
3001
0010
0100
,
1000
0100
0010
0001
0100
0010
1000
0000
,
2001
0000
3002
0000
,
0203
0000
0320
0000
,
2030
0000
3002
0000
,
0023
0000
0230
0000
,
0300
0000
0000
0000
;

//--------------- dance-single - Fred-104 ----------------
#NOTEDATA:;
#STEPSTYPE:dance-single;
#DESCRIPTION:Fred-104;
#DIFFICULTY:Medium;
#METER:15;
#CREDIT:Fred-104;
#NOTES:
0000
0000
0000
0000
,
0000
0000
0000
0000
,
0000
0000
0000
0000
,
0001
0000
0010
0000
0100
0100
0110
0000
,
1000
0000
0001
0000
1000
0010
0100
0001
,
1000
0100
1000
0000
0001
0000
0100
0000
0010
1000
0010
0000
0100
0000
0001
0000
,
1000
0010
1000
0000
0001
0000
0010
0000
0100
1000
0100
0000
0010
0000
0001
0000
,
1000
0010
1000
0000
0001
0000
0100
0000
0010
1000
0010
0000
0100
0000
0001
0000
,
1000
0100
1000
0000
0001
0000
1000
0000
0001
0010
0001
0010
0001
0000
0000
0000
,
1000
0100
1000
0000
0001
0100
0001
0000
1000
0010
1000
0000
0001
0000
1000
0000
,
0001
0010
0001
0000
1000
0010
1000
0000
0001
1000
0001
1000
0001
0000
0000
0000
,
1000
0100
1000
0000
0001
0100
0001
0000
1000
0100
1000
0100
0010
0100
0010
0100
,
1000
1100
0101
1001
,
1000
0100
1000
0010
1000
0100
1000
0001
,
0100
0000
0010
0000
1000
0000
0001
0000
0010
0000
0100
1000
0100
0000
0000
0000
,
1001
0000
0000
0000
0001
0010
0100
0000
1000
0000
0001
0100
0010
0000
1000
0000
,
1001
0000
0000
0011
0000
0000
1001
0000
1000
0000
0001
0000
0100
0000
0010
0000
,
0200
0000
0000
0000
0301
1000
0001
0000
0100
0000
0010
0000
1000
0000
0100
0000
,
0110
0000
0000
0011
0000
0000
1001
0000
1000
0000
0001
0000
0100
0010
0100
0010
,
0100
0000
1001
0001
1000
0010
0100
0010
,
1010
0000
0000
1010
0000
0000
0110
0000
0100
0000
0001
0000
0010
0100
0010
0100
,
0020
0000
0031
0010
1000
0010
0001
1000
,
1100
0101
1010
0011
,
1001
0000
0000
0000
0001
0100
0001
0000
1000
0000
0100
0000
0010
0000
0001
0000
,
2000
0010
3002
0100
1003
0001
1001
0000
,
0110
0000
1000
0100
0110
0010
0001
0000
,
0101
0000
0000
0001
0000
0000
1000
0000
0100
0000
0010
0000
0001
1000
0001
1000
,
0001
0000
0000
0000
1000
0010
1000
0010
0100
0000
0001
0000
1000
0000
0100
0000
,
0110
0000
0000
0110
0000
0000
0011
0000
0001
0000
1000
0000
0010
0000
0100
0000
,
0002
0000
2003
0100
3002
0010
1003
0001
,
0010
0100
0010
0000
0100
1000
0100
0000
1000
0000
0001
0000
2001
0000
0000
0000
,
3001
0010
0100
0000
1000
0001
0100
0010
0000
1000
0010
0000
0100
0001
1000
0000
,
0100
0010
0001
0000
1000
0010
0100
0010
0000
1000
0100
0000
0010
0100
1000
0000
,
0001
0010
0100
0000
0010
0001
1000
0010
0000
0100
0010
0000
1000
0001
0010
0100
,
1000
0100
0001
0100
0010
0001
1000
0010
0001
0010
0100
0000
0001
1000
0001
1000
,
0001
0010
0010
0100
0010
0010
0001
0100
,
0010
0000
1000
0100
0001
0100
1000
0000
,
0001
0100
0100
0010
0100
0100
0001
1000
,
0100
0000
0001
0100
0010
0001
1000
0000
,
0010
0100
0100
0001
0100
0100
0010
0100
,
0001
0000
0000
0000
1000
0000
0100
0000
0010
0000
0001
0000
1000
0010
1000
0010
,
0200
0000
0000
0000
0301
0010
0001
0000
1000
0010
0000
0100
0001
0000
1000
0000
,
0100
1000
0100
0000
0010
0001
0010
0000
0021
0000
0000
0031
1000
0000
0000
0000
,
2002
0000
0000
0000
0000
0000
3003
0000
0002
0000
0000
2003
0000
0000
3020
0000
,
0000
0000
0130
0001
0100
0000
0010
0000
1000
0000
0001
0000
0010
0000
0100
0000
,
1000
0000
0010
0100
0010
0000
1000
0000
0100
0000
0010
0000
0100
0000
1000
0000
,
0001
0100
0010
0100
0001
1000
1001
0000
,
0001
0100
0001
0000
1000
0100
1000
0000
0001
0010
0001
0000
1000
0010
1000
0000
,
0001
0010
0001
0000
0100
0010
0100
0000
0001
0010
0001
0010
0001
0000
1000
0000
,
0001
0100
0001
0000
1000
0100
1000
0000
0001
0100
0001
0100
0010
0100
0010
0100
,
0001
0011
1010
0110
,
2002
0000
0000
0000
,
0000
0000
0000
0000
0000
0000
0000
0000
3003
0000
0001
1000
0001
0000
0000
0000
,
1100
0000
0000
0001
0000
0000
0010
0001
1000
0000
0001
0000
0100
0000
0010
1000
,
0010
1000
0001
0000
0010
0000
0100
0000
1000
0000
0001
0100
0001
0000
1000
0000
,
1200
0000
0000
1300
0000
0100
0010
0000
0001
1000
0000
0001
,
0100
0000
0000
0000
0010
0000
1000
0000
0000
0000
0001
0000
0010
0000
0100
0000
1000
0000
0001
0000
0000
1000
0000
0000
,
1001
0000
0000
0000
0001
0000
0100
0010
0100
0000
0001
0000
1000
0000
0000
0000
,
1100
0000
0000
0110
0000
0000
1100
0000
1000
0000
0001
0000
0100
0010
0100
0010
,
0200
0000
0301
0100
1000
0100
0010
0100
,
0010
1000
0010
0000
0100
0001
0100
0000
0001
1000
0001
0000
1001
0000
0000
0000
,
1000
0000
0010
0000
0100
0000
0001
1000
0001
0000
0010
0000
0100
0000
1000
0000
,
0001
0000
0100
0000
0010
1000
0010
0000
0100
0000
0001
0010
0001
0000
1000
0000
,
0001
0000
0010
0000
0100
0000
1000
0001
1000
0000
0000
0001
0000
0000
0100
0000
,
0010
0000
1000
0000
0010
0000
0100
0001
0100
0000
0010
0000
1000
0100
1000
0000
,
0001
0000
0010
0000
0100
0000
1000
0000
0001
0000
0100
0010
0100
0000
0001
0000
,
1000
0000
0001
0100
0001
0000
1000
0000
0100
0000
0010
0000
0001
1000
0001
1000
,
0002
0000
1003
0100
0001
1000
0010
0001
,
0010
0100
1000
0010
0100
0001
1001
0000
,
1000
0100
1000
0100
0010
0001
1000
0010
,
0100
0001
0100
0001
0010
0100
1000
0001
,
0100
0010
1000
0010
0100
0001
1000
0100
,
0010
0001
0100
0010
1000
0100
0010
0001
,
MMMM
0000
0000
0000
;

//--------------- dance-single - Fred-104 ----------------
#NOTEDATA:;
#STEPSTYPE:dance-single;
#DESCRIPTION:Fred-104;
#DIFFICULTY:Hard;
#METER:18;
#CREDIT:Fred-104;
#NOTES:
0000
0000
0000
0000
,
0000
0000
0000
0000
,
0000
0000
0000
0000
,
0001
0000
0000
0000
0000
0000
0010
0000
0100
0000
0000
0000
0000
0000
1000
0000
0001
0000
0000
0100
0000
0000
0010
0000
0100
0000
0000
0000
0000
0000
0000
0000
,
0001
0000
0000
0000
0000
0000
0000
0000
0000
1000
0000
0000
0100
0000
0000
0000
0000
0000
0000
0000
0000
0010
0000
0000
0001
0000
0100
0000
0010
0000
1000
0000
0000
0100
0000
0000
0010
0000
0000
0001
0000
0000
1000
0000
0000
0000
0000
0000
,
0001
0100
0001
1000
0100
0010
0001
1000
0010
1000
0001
0100
0010
1000
0001
0000
,
0010
0100
1000
0001
0100
0010
1000
0010
0100
0001
1000
0100
0010
0001
0010
0000
,
0001
1000
0100
1000
0001
0100
0010
1000
0010
0100
0001
1000
0100
0010
0100
0000
,
1000
0001
0100
0001
1000
0100
0010
0001
1000
0010
0100
0001
1000
0000
0000
0000
,
0001
0010
0100
1000
0010
0100
0001
0010
0100
1000
0010
0100
0001
1000
0100
0000
,
1000
0001
0100
0010
1000
0100
0010
0001
0100
0010
1000
0001
0010
0000
0000
0000
,
0001
0010
0100
1000
0001
0100
0010
1000
0100
1000
0010
0100
0001
0010
0001
1000
,
0001
0100
1000
0000
0001
0010
1000
0000
0001
0010
0100
0000
1001
0000
0000
0000
,
2000
3020
0230
0302
2003
3200
0320
0032
,
2003
0000
3200
0000
0302
0000
0203
0000
2300
0000
3001
1000
0001
0000
0000
0000
,
0110
0000
0100
0000
0001
1000
0100
1000
0001
0000
0100
0001
1000
0000
0100
0000
,
0110
0000
0000
0011
0000
0000
1001
0000
1000
0000
0001
0100
0010
0000
1000
0000
,
0200
0000
0000
0000
0310
0001
0010
0001
0010
0000
0001
0100
0010
0000
1000
0000
,
1100
0000
0000
0101
0000
0000
1010
0000
1000
0001
0010
0100
1000
0010
0100
0001
,
0100
0000
0000
0000
1001
0000
0001
0000
0100
0000
0001
1000
0100
0000
0010
0000
,
0011
0000
0000
0101
0000
0000
0011
0000
0001
0000
0100
0000
0010
1000
0001
0010
,
0200
0000
2300
0100
3002
0010
1003
0100
,
1000
0100
0001
0000
1000
0010
0001
0000
1000
0010
0100
0000
1001
0000
0000
0000
,
0110
0000
0000
0001
0010
0100
0010
1000
0010
0000
0001
1000
0001
0000
0100
0000
,
0020
0100
2030
0100
3010
1000
1001
0000
,
1100
0000
0000
0000
0101
0000
1100
0000
0101
0000
0001
1000
0001
0000
0010
0000
,
0011
0000
0000
1010
0000
0000
0110
0000
0001
1000
0100
0000
0010
0100
1000
0001
,
0100
0000
0010
0000
1000
0100
0010
0001
0100
0000
0010
1000
0001
0000
0010
0000
,
0011
0000
0000
1100
0000
0000
0101
0000
0001
1000
0001
0000
0100
0010
1000
0001
,
0020
0000
0230
1000
0320
0001
0130
1000
,
0001
0010
0100
1000
0010
0100
0001
0010
0100
1000
0010
0100
0002
0000
0000
0000
,
1003
0000
0100
0000
0010
0000
0000
0000
0001
0000
1000
0100
1000
0000
0010
0000
0000
0000
0100
0000
0001
0000
1000
0000
0100
0000
0010
0000
1000
0000
0010
0000
,
0100
0000
1000
0000
0001
0000
0000
0000
0100
0000
0001
0010
0001
0000
0100
0000
0000
0000
0001
0000
0010
0000
0100
0000
1000
0000
0001
0000
0100
0000
1000
0000
,
0100
0000
0010
0000
0100
0000
0000
0000
0001
0000
1000
0100
0010
0000
0001
0000
0000
0000
1000
0000
0010
0000
0001
0000
1000
0000
0100
0000
0001
0000
1000
0000
,
0001
0000
0010
0000
0010
0000
1000
0000
0100
0000
0100
0000
0001
0000
0010
0000
0010
0000
1000
0000
0100
0000
0100
0000
0001
0000
1000
0001
1000
0001
1000
0000
,
1100
0010
0001
0101
0010
1000
1001
0001
,
0011
0000
0000
0000
0110
0000
0100
0000
1100
0000
1000
0001
0010
0000
0100
0000
,
1100
0100
0010
0101
0100
0010
1001
1000
,
1010
0000
0000
0000
0011
0000
1000
0000
0001
0000
0010
0100
1000
0000
0001
0000
,
0101
0010
1000
1100
0010
0001
1001
1000
,
0100
0000
0110
0000
0010
0000
0001
0000
1000
0000
0001
0100
0010
1000
0100
0010
,
0002
0000
0000
0000
1003
0010
0100
0001
0010
0100
1000
0010
1000
0000
0100
0000
,
1000
0100
0001
0000
1000
0010
0001
0000
2000
0100
0000
3100
0110
0000
0000
0000
,
0002
0000
0000
0000
0000
0000
0000
0000
0203
0000
0000
2300
0000
0000
3020
0000
,
0000
0000
0031
1000
0001
0000
0100
0000
0010
0000
1000
0100
0010
0000
0001
0000
,
1000
0000
0100
0001
0100
0000
1000
0000
0001
0000
0100
1000
0100
0000
0001
0000
,
1000
0100
0010
0000
0001
0100
0010
0000
1000
0100
0010
0001
1000
0000
0000
0000
,
0001
0010
0100
1000
0010
0100
0010
1000
0001
0010
0100
0010
0001
0100
0010
1000
,
0010
0100
0001
1000
0100
0010
0001
0100
0010
1000
0100
0010
0001
0000
1000
0000
,
0001
0010
0100
1000
0010
0100
0001
0100
0010
1000
0100
0010
0001
0100
0010
1000
,
0001
0100
1000
0000
0001
0010
1000
0000
0001
0010
1000
0000
0001
0100
1000
0000
,
2002
0000
0000
0000
,
0000
0000
0000
0000
0000
0000
0000
0000
3003
0000
0001
1000
1001
0000
0000
0000
,
1100
0000
0000
0101
0000
0001
1000
0010
0100
0000
0101
0000
0011
0000
1000
0001
,
0010
0100
1000
0010
0100
0001
0100
0010
1000
0000
1010
0000
0001
0000
0101
0000
,
0210
0000
0000
0000
0000
0301
1000
0000
0100
0000
0010
0000
1000
0000
0010
0000
0001
0000
1000
0000
0010
0000
0001
0000
,
0010
0000
0000
0000
0100
0000
0000
0000
0001
0000
0000
0000
0010
0000
0000
0000
0100
0000
0000
0000
0001
0000
0000
0000
0100
0000
0000
0000
0010
0000
0000
0000
0001
0000
0000
0000
1000
0000
0000
0010
0000
0000
0100
0000
0000
0001
0000
0000
,
1000
0000
0001
0000
1000
0010
0100
0001
0010
0000
0100
0010
0001
1000
0010
0000
,
0110
0000
0000
1010
0000
0000
0101
0000
0001
1000
0100
0000
0010
0001
1000
0010
,
0200
0000
0000
0000
0301
0000
0010
0000
0110
0000
0100
1000
0001
0000
0100
0000
,
0001
0010
0100
1000
0100
0010
0001
0100
0010
1000
0010
0100
0002
0000
0000
0000
,
1003
0000
0010
0100
1000
0000
0100
0000
0010
0000
1000
0100
0010
0001
1000
0000
,
0001
0000
0010
0000
0100
0001
0100
0000
0010
0000
0001
1000
0010
0100
0001
1000
,
0100
0000
0010
0000
0001
0000
0100
1000
0100
0000
0010
1000
0000
0001
0010
0000
,
0100
0000
1000
0000
0100
0000
0010
0001
1000
0010
0100
0001
1000
0100
0010
0001
,
1000
0000
0001
0100
0010
0000
0001
0000
1000
0000
0100
0001
1000
0100
0010
0000
,
0001
0000
1000
0001
0100
0001
1000
0000
0001
0010
0100
1000
0010
0100
0001
0010
,
0200
0000
0000
0000
1300
0100
0001
0000
1000
0010
0001
0000
1000
0100
0010
0000
,
0001
0100
0010
1000
0010
0100
0001
0010
0100
1000
0100
0010
0001
0000
0000
0000
,
1000
0001
0100
1000
0100
0010
0100
0001
,
1000
0100
0001
0100
0010
0100
1000
0001
,
0100
0010
0001
0010
0100
0001
0010
0100
,
0001
0100
0010
0001
1000
0010
0100
0001
,
MMMM
0000
0000
0000
;

//--------------- dance-single - Fred-104† ----------------
#NOTEDATA:;
#STEPSTYPE:dance-single;
#DESCRIPTION:Fred-104†;
#DIFFICULTY:Challenge;
#METER:19;
#CREDIT:Fred-104†;
#NOTES:
0000
0000
0000
0000
,
0000
0000
0000
0000
,
0000
0000
0000
0000
,
1000
0000
0000
0000
0000
0000
0100
0000
0010
0000
0000
0000
0000
0000
0001
0000
2000
0000
0000
0010
0000
0000
0010
0000
3010
0000
0000
0000
0100
0000
0000
0000
,
0001
0000
0000
0000
0000
0000
0000
0000
0000
0000
0000
0000
0000
0000
0000
0000
0000
0000
0010
0000
0000
0000
0000
0000
0100
0000
0000
0000
0000
0000
0000
0000
0000
0000
0000
0000
0000
0000
0000
0000
0000
0000
1000
0000
0000
0000
0000
0000
0100
0000
0000
0000
1000
0000
0000
0000
0001
0000
0000
0000
0100
0000
0000
0000
0000
0000
1000
0000
0000
0000
0000
0000
0100
0000
0000
0010
0000
0000
0100
0000
0000
0010
0000
0000
1000
0000
0000
0001
0000
0000
1000
0000
0000
0000
0000
0000
,
0001
0010
0100
0010
0001
1000
0010
0001
0010
0100
0010
1000
0001
0010
0100
1000
,
0010
0100
1000
0100
0010
1000
0100
0010
1000
0010
0100
1000
0001
0100
0001
1000
,
0010
0100
1000
0100
0010
1000
0100
0010
1000
0010
0001
1000
0010
0100
0001
0100
,
0010
0001
0010
0100
0001
0010
0100
0001
0100
0010
0001
1000
0001
0000
MMMM
0000
,
0001
0100
1000
0100
0010
0100
0001
1000
0100
0010
0100
0001
0100
1000
0001
0010
,
0100
0010
1000
0010
0001
1000
0010
0100
0010
0001
0010
1000
0001
0000
MMMM
0000
,
1000
0100
0001
1000
0010
0100
1000
0001
0100
1000
0001
0010
0100
0001
1000
0100
,
0010
0001
0101
0000
0010
1000
1100
0000
0100
0010
0110
0000
1001
0000
0000
0000
,
0002
0100
0010
0023
0230
1000
0010
0320
,
0032
0000
0203
0000
2300
0000
3002
0000
0023
0000
1030
0001
1001
0000
0000
0000
,
1001
0000
0001
0000
0100
0010
1000
0001
0010
0000
0100
0010
0001
0000
1000
0000
,
1010
0000
0001
0100
0000
1000
0100
0000
0001
0000
1000
0100
0010
0000
0001
0000
,
0200
0300
0000
0000
0000
0000
0000
0000
0200
0300
0000
0000
0000
0000
0000
0000
1000
0000
0000
0000
0001
0000
0000
0000
0100
0000
0000
0000
1000
0000
0000
0000
0100
0000
0000
0000
0000
0000
0000
0000
0010
0000
0000
0000
0100
0000
0000
0000
0001
0000
0000
0000
1000
0000
0000
0000
0100
0000
0000
0000
0010
0000
0000
0000
,
0001
0000
0000
0110
0000
0000
1001
0000
1000
0100
0010
0001
0100
0010
0001
0010
,
0100
0000
0001
0000
1000
0100
0010
1000
0010
0000
0100
1000
0001
1000
0100
0000
,
1100
0000
0000
0101
0000
0000
1100
0000
1000
0001
0100
0010
1000
0001
0010
0100
,
2000
0000
3002
0100
2003
0010
3001
1000
,
0001
0000
0000
0000
0010
0000
0000
0000
0200
0300
0000
0000
0200
0300
0000
0000
0001
0000
0000
0000
1000
0000
0000
0000
0200
0300
0000
0000
0200
0300
0000
0000
0001
0000
0000
0000
0010
0000
0000
0000
0100
0000
0000
0000
1000
0000
0000
0000
1001
0000
0000
0000
0000
0000
0000
0000
MMMM
0000
0000
0000
0000
0000
0000
0000
,
1001
0000
0000
0001
0100
1000
0100
0001
0100
0000
1000
0100
0010
0000
1000
0000
,
0002
0010
2003
0100
3001
0100
0110
MMMM
,
1010
0000
MMMM
0000
0011
0000
1100
0000
0101
0000
1000
0100
0010
0000
0001
0000
,
0101
0000
0000
1100
0000
0000
0110
0000
0001
0100
0010
1000
0001
0010
0100
1000
,
0001
0000
0100
0000
1000
0100
0010
0100
0001
0000
1000
0100
0010
0001
0010
0000
,
0011
0000
0000
1010
0000
0000
0101
0000
0001
0100
0010
1000
0100
0010
0001
1000
,
0020
0000
0230
0001
0320
1000
0230
0001
,
0310
0100
0001
1000
0100
0010
0001
1000
0010
0001
0010
0100
0002
0000
0000
0000
,
1003
0000
0100
0000
0001
0000
0000
0000
0100
0000
0010
0100
1000
0000
0001
0000
0000
0000
0100
0000
1000
0000
0100
0000
0001
0000
0010
0100
0010
0001
0010
0000
,
0001
0000
1000
0000
0010
0000
0000
0000
0001
0000
0010
1000
0100
0000
0010
0000
0000
0000
1000
0000
0010
0000
0001
0000
1000
0000
0010
0001
0010
1000
0001
0000
,
0010
0000
0100
0000
0110
0000
0000
0000
1000
0000
0001
1000
0010
0000
0100
0000
0000
0000
0001
0000
0010
0000
0100
0000
1000
0000
0010
0100
1000
0100
0010
0000
,
1000
0100
0001
0000
0110
0000
0001
0100
1000
0000
0110
0000
1000
0010
0001
0000
0110
0000
0001
0010
1000
0001
1000
0000
0001
0100
1000
0100
0001
1000
0100
0010
,
0001
0010
1000
0000
0001
0000
0100
1000
0001
0000
1000
0000
0100
0001
1000
0000
,
0010
0000
0001
0010
0100
0000
1000
0000
0010
0000
0100
1000
0100
0000
0001
0000
,
1000
0010
0001
0000
0010
0000
1000
0100
0001
0000
0100
0000
1000
0001
0100
0000
,
1000
0000
0100
0001
0010
0000
1000
0000
0010
0001
0010
0100
1000
0000
0001
0000
,
0100
0010
0001
0010
0100
0000
0001
0010
0100
0001
0100
0000
0010
0001
0100
0000
,
0010
0000
0001
0010
1000
0000
0001
0000
0010
0100
0001
0100
0010
0001
1000
0010
,
0200
0000
0000
0000
0301
0100
1000
0100
0010
0001
0010
0100
0001
0000
1000
0000
,
0001
0010
0110
0000
1000
0010
0110
0000
0002
1000
0000
1003
1001
0000
0000
0000
,
2000
0000
0000
0000
0000
0000
0000
0000
0100
0000
0000
0010
0000
0000
3002
0000
,
0000
0000
0103
0010
0001
0000
0010
0000
1000
0000
0001
0010
0100
0000
1000
0000
,
0001
1000
0100
0020
1000
0000
0031
0000
1000
0001
0100
0020
0001
0000
1030
0000
,
0001
0010
1000
0010
0100
0001
0100
0010
0100
1000
0010
0100
0001
0000
MMMM
0000
,
1000
0010
0001
0010
0100
1000
0100
0001
1000
0100
0001
0100
0010
1000
0010
0001
,
1000
0010
0001
0010
0100
0010
1000
0001
0010
1000
0010
0100
0010
0000
0001
0000
,
1000
0010
0100
1000
0001
0010
0100
0001
1000
0010
0001
1000
0100
0010
1000
0001
,
1000
0100
0110
0000
0001
0100
0110
0000
1000
0010
0110
0000
0001
0010
0110
0000
,
2002
0000
0000
0000
,
0000
0000
0000
0000
0000
0000
3003
0000
MMMM
0000
0100
0010
0110
0000
0000
0000
,
1001
0000
0000
1100
0000
0001
0100
0010
0001
0000
0010
0000
1000
0000
0001
0010
,
0100
1000
0001
0100
1000
0100
0010
0100
0001
0000
0011
0000
0110
0000
1100
0000
,
2001
0000
0000
0000
0000
3001
1001
0000
1000
0000
0100
0000
0110
0000
0010
0000
0001
0000
0101
0000
0100
0000
0010
0000
,
1010
0000
0000
0000
1000
0000
0000
0000
0001
0000
0000
0000
0101
0000
0000
0000
0001
0000
0000
0000
1000
0000
0000
0000
1100
0000
0000
0000
0100
0000
0000
0000
0010
0000
0000
0000
0001
0000
0000
0100
0000
0000
1000
0000
0000
0100
0000
0000
,
0001
0000
1000
0000
0001
0010
1000
0010
0100
0000
1000
0010
0001
0010
1000
0000
,
0101
0000
0000
1010
0000
0000
0011
0000
0001
0100
0010
1000
0100
0010
0001
1000
,
0020
0000
0000
0030
1001
0000
0100
0000
0110
0000
0010
0001
0100
0000
0010
0000
,
1000
0100
0010
1000
0001
0100
0010
0001
1000
0100
0001
0100
1000
0000
MMMM
0000
,
0001
0000
0100
1000
0001
0010
1000
0000
0001
0010
1000
0010
0100
0001
0100
1000
,
0001
0000
0100
1000
0001
0010
0100
0000
0001
0010
0100
0001
0100
0010
0001
1000
,
0010
0000
1000
0100
0010
1000
0010
0001
1000
0000
0001
0100
1000
0001
0010
0100
,
0001
0000
1000
0100
0001
0000
1000
0010
0001
0010
0100
1000
0001
0100
1000
0100
,
0001
0000
1000
0100
0001
0000
1000
0010
0001
1000
0010
0001
0010
1000
0001
0010
,
0100
0000
0000
0000
0000
0000
1000
0000
0000
0001
0000
0000
0100
0000
0000
0000
0000
0000
1000
0000
0000
0100
0000
0000
0010
0000
0000
0100
0000
0000
0001
0000
0000
1000
0000
0000
0100
0000
0010
0000
0001
0000
1000
0000
0010
0000
0100
0000
,
0002
0000
0000
0000
1003
0100
0001
0000
1000
0010
0001
0000
0010
0100
1000
0000
,
0001
0100
1000
0001
0010
1000
0001
0100
1000
0001
0010
1000
1001
0000
0000
0000
,
2000
3200
0302
2003
3020
0032
0023
0230
,
2300
3002
0203
0320
0032
2003
3200
0302
,
2003
3200
0320
2030
3002
0203
0320
0032
,
2003
0000
3002
0000
0203
0000
2300
0000
3002
0000
0023
0000
2030
0000
3002
0003
,
MMMM
0000
0000
0000
;

//--------------- dance-double - Fred-104 ----------------
#NOTEDATA:;
#STEPSTYPE:dance-double;
#DESCRIPTION:Fred-104;
#DIFFICULTY:Easy;
#METER:10;
#DISPLAYBPM:88:176;
#BPMS:0=88,20=176,124=88,140=176;
#CREDIT:Fred-104;
#NOTES:
00000000
00000000
00000000
00000000
,
00000000
00000000
00000000
00000000
,
00000000
00000000
00000000
00000000
,
00010000
00001000
00011000
00001000
,
00010000
00000000
00100000
00000000
10000000
10000000
00010000
00010000
,
10000000
00000000
01000000
00000000
00100000
00010000
00100000
00000000
,
00001000
00000000
00010000
00000000
00100000
01000000
00100000
00000000
,
10000000
00000000
00010000
00000000
10000000
01000000
00100000
00000000
,
00001000
00000000
00010000
00000000
00001000
00010000
00011000
00000000
,
00010000
00000000
00001000
00000000
00000100
00000001
00001000
00000000
,
00000001
00000000
00000100
00000000
00001000
00010000
00100000
00000000
,
01000000
00010000
10000000
00000000
01000000
00100000
00001000
00000000
,
01001000
00010100
00101000
00010010
,
00022000
00000000
00000000
00000000
,
00000000
00000000
00000000
00033000
,
00001000
00000000
00100000
00010000
00100000
00000000
00000000
00000000
,
01000000
00000000
00000000
10000000
00000000
00000000
01000000
00000000
00100000
00000000
00000000
00000000
00110000
00000000
00000000
00000000
,
00001000
00000000
00010000
00001000
00010000
00000010
00001000
00000000
,
00000010
00000000
00000000
00000010
00000000
00000000
00001000
00000000
00000100
00000000
00000010
00000000
00000001
00000000
00000000
00000000
,
00001000
00000000
00000100
00010000
00001000
00000000
00010000
00000000
,
00000100
00000000
00000000
00010000
00000000
00000000
00010000
00000000
00001000
00000000
00010000
00000000
00100000
00000000
00000000
00000000
,
02000000
03010000
10000000
01000000
,
01100000
11000000
01010000
10010000
,
10100000
00000000
10000000
01000000
00010000
00000000
00001000
00000000
,
00010000
00001000
00000010
00000000
00000001
00000010
00000100
00000000
,
00011000
00000000
00001000
00010000
01000000
00000000
00100000
00000000
,
00010000
00000000
00000000
00010000
00000000
00000000
10000000
00000000
01000000
00000000
00000000
00000000
00100000
00000000
00001000
00000000
,
00010000
00000000
00001000
00010000
00000010
00000000
00001000
00000000
,
00000100
00000000
00000000
00000100
00000000
00000000
00000100
00000000
00000010
00000000
00000000
00000000
00000001
00000000
00000000
00000000
,
00002000
00003001
00000100
00001000
,
00010000
00001000
00010000
00000000
01000000
00100000
01000000
00000000
,
10020000
00000000
20030000
00000000
31000000
00100000
00001000
00000000
,
00020000
00000000
00032000
00000000
00003100
00000001
00002000
00000000
,
00003001
00000100
00001000
00000000
00000001
00000010
00001000
00000000
,
00000001
00000010
00000100
00010000
00001000
00100000
01000000
10000000
,
00010000
00000000
00000000
01000000
00000000
00000000
00100000
00000000
,
01000000
00000000
00000000
00010000
00000000
00000000
10000000
00000000
,
01000000
00000000
00000000
00100000
00000000
00000000
00001000
00000000
,
00010000
00000000
00000000
00100000
00000000
00000000
01000000
00000000
,
00010000
00000000
00000000
10000000
00000000
00000000
01000000
00000000
,
00010000
00001000
00000100
00000001
,
00002000
00003001
00000100
00000010
,
00000110
00001001
00001010
00010010
,
00012000
00000000
00000000
00000000
,
00023000
00000000
00032000
00000000
,
00023000
00230000
20300000
32000000
,
03020000
00000000
00032000
00003000
00022000
00000000
00033000
00000000
,
00010000
00001000
00000010
00001000
,
00010000
00000000
00001000
00000000
00000100
00001000
00010000
00000000
,
00001000
00010000
00100000
00000000
01000000
00010000
10000000
00000000
,
10100000
00000000
01010000
00000000
10000000
01000000
00100000
00000000
,
20020000
00000000
00000000
00000000
,
00000000
00000000
00000000
30030000
,
00001000
00000000
00000000
00001000
00000000
00000000
00001000
00000000
00010000
00000000
00000000
00000000
00001000
00000000
00100000
00000000
,
00010000
00100000
00001000
00000000
00010000
00000010
00010000
00000000
,
00002000
00013000
00001000
00000100
,
00000010
00000000
00001000
00000000
00000100
00000010
00000001
00000000
,
00001000
00000000
00000001
00000100
00000010
00000000
00001000
00000000
,
00000100
00000000
00000000
00000100
00000000
00000000
00010000
00000000
00001000
00000000
00000000
00000000
00010000
00000000
00000000
00000000
,
00002000
00013000
00100000
10000000
,
00010000
00100000
01000000
11000000
,
10000000
00000000
00000000
00010000
00000000
00000000
10000000
00000000
,
01000000
00000000
00100000
00000000
00001000
00010000
00001000
00000000
,
01000000
00001000
00010000
00001000
,
00000100
00000000
00000010
00000000
00001000
00000010
00000100
00000000
,
00000010
00000000
00001000
00000000
00000001
00000010
00001000
00000000
,
00010000
00000000
01000000
00000000
10000000
01000000
00100000
00000000
,
00002000
00013000
00100000
01000000
,
00010000
10000000
01000000
00100000
00001000
00010000
00001000
00000000
,
00012000
00000000
00023000
00000000
,
00032000
00000000
02003000
00000000
,
03002000
00000000
00023000
00000000
,
00030200
00000000
00020300
00000000
,
00030000
00000000
00000000
00000000
;

//--------------- dance-double - Fred-104 ----------------
#NOTEDATA:;
#STEPSTYPE:dance-double;
#DESCRIPTION:Fred-104;
#DIFFICULTY:Medium;
#METER:15;
#CREDIT:Fred-104;
#NOTES:
00000000
00000000
00000000
00000000
,
00000000
00000000
00000000
00000000
,
00000000
00000000
00000000
00000000
,
10000000
00000000
01000000
00000000
00100000
00001000
00011000
00000000
,
00010000
00000000
00001000
00000000
00000100
00000001
00001000
00000100
,
00000010
00000000
00000001
00001000
00000001
00000000
00000100
00000010
00000100
00000000
00000001
00001000
00000001
00000000
00000100
00000000
,
00001000
00000000
00010000
00001000
00010000
00000000
00100000
01000000
00100000
00000000
10000000
00010000
10000000
00000000
00100000
00000000
,
01000000
00000000
00010000
00100000
00010000
00000000
10000000
00100000
10000000
00000000
00010000
01000000
00010000
00000000
10000000
00000000
,
01000000
00000000
00100000
00010000
00100000
00000000
00001000
00010000
00001000
00000000
00010000
00000000
00011000
00000000
00000000
00000000
,
00010000
00001000
00010000
00000000
00000010
00001000
00000010
00000000
00010000
00001000
00010000
00000000
00000100
00000000
00001000
00000000
,
00000001
00000100
00000001
00000000
00001000
00000100
00001000
00000000
00000100
00010000
00000100
00010000
00000100
00000000
00000000
00000000
,
00010000
00001000
00010000
00000000
00001000
01000000
00001000
00000000
00010000
00001000
00010000
00001000
00010000
00000010
00010000
00000010
,
00010000
00010010
01001000
00011000
,
00001000
00010000
00100000
10000000
00010000
00100000
01000000
10000000
,
00010000
00000000
01000000
00000000
00100000
00000000
00010000
00000000
00001000
00000000
00010000
00001000
00010000
00000000
00000000
00000000
,
00000110
00000000
00000000
00000000
00001000
00000100
00001000
00000000
00000001
00000000
00000100
00000010
00001000
00000000
00000001
00000000
,
00000011
00000000
00000000
00001001
00000000
00000000
00001100
00000000
00000100
00000000
00010000
00000000
00001000
00000000
00010000
00000000
,
00002000
00000000
00000000
00000000
01003000
00010000
01000000
00000000
00010000
00000000
10000000
00000000
01000000
00000000
00100000
00000000
,
00101000
00000000
00000000
00011000
00000000
00000000
00010010
00000000
00010000
00000000
00001000
00000000
00000100
00000001
00000100
00000001
,
00001000
00000000
00001001
00000001
00000100
00001000
00010000
00001000
,
00011000
00000000
00000000
01001000
00000000
00000000
00011000
00000000
00001000
00000000
00100000
00000000
00010000
10000000
00010000
10000000
,
00200000
00000000
0130MMMM
00010000
10000000
01000000
00100000
00001000
,
00011000
00010010
00011000
00010100
,
00011000
00000000
00000000
00000000
00010000
00000010
00010000
00000000
00001000
00000000
00100000
00000000
00010000
00000000
10000000
00000000
,
02000000
00000000
10000000
0000MMMM
03200000
00000000
00010000
0000MMMM
01300000
00000000
10000000
00000000
10010000
00000000
00000000
00000000
,
01100000
00000000
10000000
01000000
00100000
00001000
00010000
00000010
,
00001010
00000000
00000000
00000001
00000000
00000000
00001000
00000000
00000100
00000000
00000010
00000000
00000100
00001000
00000100
00001000
,
00000001
00000000
00000000
00000000
00001000
00000100
00001000
00000100
00010000
00000000
00001000
00000000
01000000
00000000
00010000
00000000
,
01010000
00000000
00000000
10010000
00000000
00000000
11000000
00000000
01000000
00000000
00000000
00000000
00100000
00000000
00001000
00000000
,
00000020
00000000
00000000
00000000
MMMM0032
00000000
00000010
MMMM0000
00002003
00000000
00000100
MMMM0000
00003001
00000000
00000010
00000000
,
00000100
00001000
00000100
00000000
00010000
00001000
00010000
00000000
00001000
00000000
00010000
00000000
00021000
00000000
00000000
00000000
,
00031000
00010000
00100000
00000000
01000000
00010000
01000000
00010000
00000000
10000000
01000000
00000000
00100000
00001000
00010000
00001000
,
00000010
00000001
00000010
00000000
00000100
00001000
00000001
00000100
00000000
00001000
00010000
00000000
01000000
00100000
00010000
10000000
,
00100000
01000000
00010000
00000000
10000000
00100000
01000000
00100000
00000000
00010000
00001000
00000100
00000010
00000100
00000001
00000000
,
00001000
00000100
00000100
00000010
00000100
00000100
00001000
00000001
00000100
00000010
00000100
00000000
00000001
00001000
00000100
00010000
,
00001000
00010000
00100000
10000000
00010000
00100000
01000000
00100000
,
00001000
00000000
00010000
00001000
00000100
00000001
00001000
00000000
,
00000100
00000010
00000001
00000100
00000010
00000001
00000010
00000100
,
00000001
00000000
00000100
00001000
00010000
01000000
10000000
10000000
,
00010000
00100000
01000000
00010000
10000000
00100000
01000000
10000000
,
00010000
01000000
00100000
00010000
00001000
00000100
00000010
00001000
,
00000002
00000000
00000000
00000000
MMMM1003
00000100
00000010
00000000
00000001
00001000
00000000
00000001
00000100
00000000
00000010
00000000
,
00001000
00000100
00001000
00000000
00000100
00010000
00001000
00000000
00020000
00000000
00000000
00030010
00001000
00000000
00000000
00000000
,
00002002
00000000
00000000
00000000
00000000
00000000
00003003
00000000
00000002
00000000
00000000
00000203
00000000
00000000
00002300
00000000
,
00000000
00013000
01000000
10000000
00010000
01000000
00100000
10000000
,
00010000
00100000
01000000
00100000
00001000
00010000
00000100
00000010
,
00000001
00000100
00001000
00010000
00100000
10000000
10010000
00000000
,
10000000
01000000
10000000
00000000
00010000
01000000
00010000
00000000
00100000
00001000
00100000
00000000
00001000
00000000
00010000
00000000
,
00000010
00001000
00000010
00000000
00010000
00001000
00010000
00000000
00000100
00001000
00000100
00001000
00000100
00000000
MMMMMMMM
00000000
,
00000010
00000001
00000010
00000000
00000001
00001000
00000001
00000000
00001000
00000100
00001000
00000100
00010000
00001000
00010000
00001000
,
00010000
00011000
00010010
00001010
,
00002002
00000000
00000000
00000000
,
00000000
00000000
00000000
00000000
00000000
00000000
00000000
00000000
00003003
00000000
00001000
00000001
00001000
00000000
00000000
00000000
,
00000101
00000000
00000000
00001000
00000000
00000000
00000001
00001000
00000100
00000000
00010000
00000000
00001000
00000000
01000000
00010000
,
01000000
00010000
01000000
00000000
00100000
00000000
10000000
00000000
01000000
00000000
00100000
00000000
00001000
00010000
00001000
00000000
,
00020000
00000000
00000000
00031000
00000000
00100000
00001000
00000000
00010000
00000010
00000000
00001000
,
00000001
00000000
00000000
00000000
00000010
00000000
00000100
00000000
00000000
00000000
00001000
00000000
00000100
00000000
00010000
00000000
00001000
00000000
00010000
00000000
00000000
00000010
00000000
00000000
,
00001010
00000000
00000000
00000000
00001000
00000000
00000100
00000010
00000100
00000000
00001000
00000000
00000001
00000000
00000000
00000000
,
00000101
00000000
00000000
00001100
00000000
00000000
00001001
00000000
00000001
00000000
00000100
00000000
00001000
00000000
00010000
00000000
,
00002000
00000000
00013000
01000000
00100000
00010000
00100000
01000000
,
10000000
00100000
00010000
00001000
00000010
00000001
00002000
00000000
,
00003001
00000100
00000010
00000001
00000010
00000100
00001000
00010000
,
00001000
01000000
00010000
00100000
01000000
10000000
00100000
00010000
,
00001000
00000000
00010000
00000000
00100000
00000000
01000000
00000000
00001000
00000000
00010000
01000000
00000000
10000000
00010000
00000000
,
01000000
00000000
00100000
00000000
00010000
00000000
00001000
00000000
00000100
00000000
00000001
00000000
00001000
00000001
00001000
00000001
,
00001000
00000001
00000100
00000010
00000001
00000010
00000100
00001000
,
00010000
00000000
00100000
00000000
01000000
00000000
00010000
00000000
10000000
00000000
01000000
00000000
00010000
00001000
00010000
00001000
,
00020000
00000000
00000000
00000000
00031000
00000000
00010000
00000000
00000100
00000000
00001000
00000001
00001000
00000000
00000001
00000000
,
00000100
00000010
00001000
00000000
00000100
00010000
00001000
00000000
00010000
00001000
00010000
00000000
00011000
00000000
00000000
00000000
,
00001000
00010000
00100000
10000000
00010000
00100000
01000000
10000000
,
00010000
01000000
00100000
00010000
00001000
00000100
00000001
00000100
,
00001000
00010000
00100000
10000000
00010000
00100000
01000000
00010000
,
00001000
00000010
00000001
00000010
00000100
00010000
00001000
00010000
,
MMMMMMMM
00000000
00000000
00000000
;

//--------------- dance-double - Fred-104 ----------------
#NOTEDATA:;
#STEPSTYPE:dance-double;
#DESCRIPTION:Fred-104;
#DIFFICULTY:Hard;
#METER:18;
#CREDIT:Fred-104;
#NOTES:
00000000
00000000
00000000
00000000
,
00000000
00000000
00000000
00000000
,
00000000
00000000
00000000
00000000
,
00000001
00000000
00000000
00000000
00000000
00000000
00001000
00000000
00000100
00000000
00000000
00000000
00000000
00000000
00010000
00000000
00001000
00000000
00000000
00010000
00000000
00000000
00100000
00000000
01000000
00000000
00000000
00000000
00010000
00000000
00000000
00000000
,
10000000
00000000
00000000
00000000
00000000
00000000
00000000
00000000
00000000
01000000
00000000
00000000
00100000
00000000
00000000
00000000
00000000
00000000
00000000
00000000
00000000
00001000
00000000
00000000
00010000
00000000
00000100
00000000
00001000
00000000
00000001
00000000
00000000
00000100
00000000
00000000
00001000
00000000
00000000
00010000
00000000
00000000
00001000
00000000
00000000
00000000
00000000
00000000
,
00010000
00000010
00001000
00000010
00010000
00001000
00100000
00010000
00100000
00001000
00010000
00000010
00001000
00000010
00010000
00000000
,
00001000
01000000
00010000
01000000
00001000
00010000
00000100
00001000
00000100
00010000
00001000
01000000
00010000
01000000
00001000
00000000
,
00010000
00000100
00001000
00000001
00000100
00000001
00001000
00000100
00010000
00001000
01000000
00010000
10000000
01000000
10000000
00000000
,
00010000
10000000
00100000
10000000
00010000
00100000
00001000
00010000
00000010
00001000
00000001
00000010
00000001
00000000
MMMMMMMM
00000000
,
00001000
00000001
00000010
00000100
00001000
00000100
00000010
00000001
00001000
00000100
00010000
00001000
00100000
00010000
10000000
00000000
,
00010000
01000000
00100000
10000000
00010000
00100000
00001000
00010000
00000100
00001000
00000100
00000010
00000001
00000000
MMMMMMMM
00000000
,
00001000
00000001
00000010
00000100
00001000
00000100
00010000
00001000
00100000
01000000
10000000
00010000
01000000
00100000
10000000
00010000
,
10000000
01000000
00010000
00000000
00001000
00000010
00000001
00000000
00001000
00000010
00000100
00000000
00000101
00000000
00000000
00000000
,
00002000
00003002
00000203
00002300
00023000
00230000
02300000
03020000
,
00230000
00000000
02300000
00000000
23000000
00000000
30020000
00000000
02030000
00000000
03001000
00010000
00001000
00000000
00000000
00000000
,
01100000
00000000
00010000
00000000
10000000
01000000
00100000
00010000
00100000
00000000
00001000
00010000
00001000
00000000
01000000
00000000
,
01100000
00000000
00000000
10100000
00000000
00000000
01010000
00000000
00010000
00000000
10000000
01000000
00100000
00000000
00001000
00000000
,
00020000
00000000
0000MMMM
00000000
00031000
00010000
00001000
00010000
00001000
00000000
00010000
00000010
00001000
00000000
00000001
00000000
,
00000011
00000000
00000000
00001010
00000000
00000000
00000101
00000000
00000001
00000000
00000010
00000000
00000100
00001000
00000100
00010000
,
00001000
00000000
00000000
00000000
00011000
00000000
00001000
00000000
01000000
00000000
00001000
00010000
00100000
00000000
01000000
00000000
,
01010000
00000000
00000000
10010000
00000000
00000000
11000000
00000000
01000000
00000000
00100000
00000000
00001000
00010000
00100000
01000000
,
00020000
00000000
00000000
00000000
2003MMMM
00000000
00100000
0000MMMM
30020000
00000000
01000000
0000MMMM
10030000
00000000
00010000
00000000
,
00100000
00010000
10000000
00000000
01000000
00100000
00001000
00000000
00010000
00000010
00001000
00000000
00001001
00000000
00000000
00000000
,
00000110
00000000
00000000
00000001
00000100
00001000
00000100
00000001
00001000
00000000
00000100
00000010
00000001
00000000
00001000
00000000
,
00000002
00000000
00000023
00000000
00020030
00000000
00230000
00000000
02300000
00000000
23000000
30000000
10010000
00000000
00000000
00000000
,
11000000
00000000
00000000
00000000
01100000
00000000
00001000
00000000
00010000
00000000
00000010
00001000
00000010
00000000
00010000
00000000
,
00011000
00000000
00000000
00010100
00000000
00000000
00001100
00000000
00001000
00000100
00000010
00000000
00000001
00001000
00000001
00000100
,
00000010
00000000
00001000
00000000
00000001
00000010
00000100
00010000
00001000
00000000
00100000
00001000
00010000
00000000
00001000
00000000
,
01001000
00000000
00000000
00010100
00000000
00000000
00011000
00000000
00001000
00100000
00010000
00000000
00100000
00001000
00010000
00001000
,
00000020
00000000
00000000
00000000
MMMM0032
00000000
00000100
MMMM0000
00002003
00000000
00000010
MMMM0000
00003001
00000000
00000010
00000000
,
00001000
00010000
00000010
00001000
00000001
00000010
00000100
00010000
00001000
01000000
00100000
10000000
00020000
00000000
00000000
00000000
,
10030000
00000000
01000000
00000000
00010000
00000000
00000000
00000000
00001000
00000000
00000100
00000001
00000100
00000000
00000010
00000000
00000000
00000000
00001000
00000000
00000001
00000000
00000000
00000000
00000010
00000000
00000100
00000000
00010000
00000000
00001000
00000000
,
00010000
00000000
00100000
00000000
01000000
00000000
00000000
00000000
00010000
00000000
10000000
01000000
10000000
00000000
01000000
00000000
00000000
00000000
00100000
00000000
00001000
00000000
00010000
00000000
00001000
00000000
00000010
00000000
00000001
00000000
00000000
00000000
,
00000010
00000000
00000100
00000000
00001000
00000000
00000000
00000000
00000001
00000000
00000100
00000010
00000100
00000000
00000001
00000000
00000000
00000000
00001000
00000000
00000100
00000000
00000000
00000000
00000010
00000000
00000001
00000000
00001000
00000000
00000000
00000000
,
00000001
00000000
00000100
00000000
00001000
00000000
00010000
00000000
00100000
00000000
10000000
00000000
10000000
00000000
01000000
00000000
00010000
00000000
00001000
00000000
00000010
00000000
00000001
00000000
00001000
00000100
00000010
00000001
00001000
00000000
00000001
00000000
,
00001001
00000001
00000010
00000110
00000100
00010000
00011000
00001000
,
01001000
00000000
00000000
00000000
01010000
00000000
01000000
00000000
01100000
00000000
00100000
10000000
00010000
00000000
00100000
00000000
,
01100000
01000000
10000000
10010000
00010000
00100000
00101000
00001000
,
00011000
00000000
00000000
00000000
00020010
00000000
00031000
00000000
00010000
00000000
00000010
00001000
00000001
00000000
00000010
00000000
,
00000110
00000100
00001000
00001100
00000100
00010000
00011000
00001000
,
01000000
00000000
01100000
00000000
00100000
00000000
10000000
00000000
10100000
00000000
00100000
10000000
01000000
00100000
00010000
10000000
,
00020000
00000000
00000000
00000000
1003MMMM
01000000
10000000
00010000
01000000
00001000
00010000
00001000
00100000
00000000
00001000
00000000
,
00010000
00001000
00000010
00000000
00000001
00000010
00000100
00000000
00020000
00001000
00000000
00031000
00011000
00000000
00000000
00000000
,
02002000
00000000
00000000
00000000
00000000
00000000
03003000
00000000
00002000
00000000
00000000
00023000
00000000
00000000
00032000
00000000
,
MMMM0000
00000000
00103000
00001000
00010000
00000000
00001000
00000000
00000100
00000000
00000001
00000100
00000010
00000000
00001000
00000000
,
00000100
00000000
00000010
00001000
00010000
00000000
01000000
00000000
00100000
00000000
00010000
00000000
01000000
00000000
00100000
00000000
,
10000000
00010000
00100000
00001000
00010000
00000100
00001000
00000100
00000010
00000001
00001000
00000010
00000100
00000000
MMMMMMMM
00000000
,
00000001
00000010
00000100
00001000
00000001
00001000
00000100
00010000
00001000
01000000
00010000
10000000
01000000
00100000
01000000
10000000
,
00010000
01000000
00100000
10000000
00100000
01000000
00001000
00010000
00000100
00001000
00000100
00000010
00000001
00000000
00001000
00000000
,
00000010
00010000
00001000
00100000
00010000
10000000
00010000
01000000
00001000
00010000
00000100
00001000
00000001
00000100
00000010
00001000
,
00000001
00000010
00000100
00000000
00010000
00001000
00000100
00000000
00000001
00000010
00000100
00000000
00010000
00001000
00010000
00000000
,
00022000
00000000
00000000
00000000
,
00000000
00000000
00000000
00000000
00000000
00000000
00000000
00000000
00033000
00000000
01000000
00100000
01100000
00000000
00000000
00000000
,
10100000
00000000
00000000
01010000
00000000
00010000
10000000
01000000
00100000
00000000
00001000
00000000
00010000
00000000
00010000
00001000
,
00000100
00000001
00001000
00000010
00000100
00000001
00000010
00000100
00001000
00000000
00000010
00000000
00010000
00000000
00001000
00000000
,
00021000
00000000
00000000
00000000
00000000
00031000
00010000
00000000
00001000
00000000
00000100
00000000
00000010
00000000
00000100
00000000
00001000
00000000
00010000
00000000
00100000
00000000
01000000
00000000
,
00100000
00000000
00000000
00000000
00010000
00000000
00000000
00000000
00001000
00000000
00000000
00000000
00000100
00000000
00000000
00000000
00000010
00000000
00000000
00000000
00001000
00000000
00000000
00000000
00000001
00000000
00000000
00000000
00000100
00000000
00000000
00000000
00001000
00000000
00000000
00000000
00010000
00000000
00000000
01000000
00000000
00000000
10000000
00000000
00000000
00010000
00000000
00000000
,
00100000
00000000
01000000
00000000
00100000
00010000
10000000
00100000
01000000
00000000
00001000
00010000
00000010
00001000
00000001
00000000
,
00000011
00000000
00000000
00001010
00000000
00000000
00000101
00000000
00000001
00001000
00000100
00000000
00010000
00001000
00010000
00000010
,
00002000
00000000
00000000
00000000
MMMM3001
00000000
00000100
00000000
00000110
00000000
00000010
00001000
00000001
00000000
00001000
00000000
,
00000001
00000010
00000100
00001000
00000100
00010000
00001000
00100000
00010000
00100000
01000000
10000000
00020000
00000000
00000000
00000000
,
10030000
00000000
01000000
00010000
01000000
00000000
10000000
00000000
00010000
00000000
00100000
01000000
00100000
00001000
00010000
00000000
,
00001000
00000000
00000010
00000000
00000001
00000010
00000100
00000000
00001000
00000000
00000010
00000100
00001000
00010000
00100000
01000000
,
00010000
00000000
10000000
00000000
01000000
00000000
00100000
00001000
00010000
00000000
00001000
00100000
00000000
00010000
10000000
00000000
,
00100000
00000000
01000000
00000000
00010000
00000000
10000000
01000000
00100000
01000000
00010000
00001000
00000010
00000100
00000010
00000001
,
00001000
00000000
00000010
00000100
00001000
00000000
00010000
00000000
00100000
00000000
10000000
00010000
00100000
00010000
10000000
00000000
,
01000000
00000000
00100000
00001000
00010000
00000000
00000100
00000000
00001000
00000100
00000010
00000001
00000100
00000010
00001000
00000001
,
00000020
00000000
00000000
00000000
00000031
00000100
00001000
00000000
00010000
01000000
10000000
00000000
00010000
10000000
00010000
00000000
,
10000000
01000000
00100000
00001000
00010000
00000100
00000010
00000001
00001000
00000010
00010000
00001000
00010000
00000000
00000000
00000000
,
00001000
00010000
00100000
01000000
00100000
00010000
00001000
01000000
,
00001000
00010000
01000000
10000000
00010000
01000000
00100000
00010000
,
00001000
00000100
00000001
00001000
00000100
00000010
00010000
00100000
,
01000000
10000000
00100000
00001000
00000010
00000100
00000001
00001000
,
MMMMMMMM
00000000
00000000
00000000
;

//--------------- dance-double - Fred-104† ----------------
#NOTEDATA:;
#STEPSTYPE:dance-double;
#DESCRIPTION:Fred-104†;
#DIFFICULTY:Challenge;
#METER:19;
#CREDIT:Fred-104†;
#NOTES:
00000000
00000000
00000000
00000000
,
00000000
00000000
00000000
00000000
,
00000000
00000000
00000000
00000000
,
00100000
00000000
00000000
00000000
00000000
00000000
00001000
00000000
00010000
00000000
00000000
00000000
00000000
00000000
00001000
00000000
00000010
00000000
00000000
00000001
00000000
00000000
00000010
00000000
00000100
00000000
00000000
00000000
00010000
00000000
00000000
00000000
,
00001000
00000000
00000000
00000000
00000000
00000000
00000000
00000000
00000000
00000000
00000000
00000000
00000000
00000000
00000000
00000000
00000000
00000000
01000000
00000000
00000000
00000000
00000000
00000000
00100000
00000000
00000000
00000000
00000000
00000000
00000000
00000000
00000000
00000000
00000000
00000000
00000000
00000000
00000000
00000000
00000000
00000000
10000000
00000000
00000000
00000000
00000000
00000000
00010000
00000000
00000000
00000000
10000000
00000000
00000000
00000000
01000000
00000000
00000000
00000000
00100000
00000000
00000000
00000000
00000000
00000000
00001000
00000000
00000000
00000000
00000000
00000000
00010000
00000000
00000000
00001000
00000000
00000000
00000100
00000000
00000000
00000010
00000000
00000000
00001000
00000000
00000000
00000100
00000000
00000000
00000010
00000000
00000000
00000000
00000000
00000000
,
00000001
00000100
00000010
00000001
00000010
00000100
00001000
00010000
00100000
01000000
10000000
01000000
00100000
10000000
00010000
10000000
,
01000000
00100000
01000000
00010000
00001000
00000010
00000100
00000010
00000001
00001000
00000010
00000100
00001000
00010000
00100000
01000000
,
00010000
00100000
01000000
10000000
00100000
01000000
00100000
10000000
00010000
00100000
01000000
00100000
00001000
00010000
00001000
00000010
,
00000001
00000100
00000010
00000001
00000010
00000100
00001000
00010000
00100000
01000000
10000000
01000000
00010000
00000000
MMMMMMMM
00000000
,
10000000
01000000
00100000
00010000
01000000
00100000
00010000
00001000
00100000
00010000
00001000
00000100
00010000
00001000
00000100
00000010
,
00001000
00000100
00000010
00000001
00000100
00001000
00010000
00100000
10000000
00010000
00100000
01000000
10000000
00000000
MMMMMMMM
00000000
,
00010000
10000000
00100000
01000000
10000000
01000000
00100000
00010000
00001000
00000100
00000010
00000001
00000010
00000100
00000001
00001000
,
00000001
00000010
00001000
00000000
00010000
00100000
10000000
00000000
01000000
00100000
00001000
00000000
00011000
00000000
00000000
00000000
,
20000000
30200000
00302000
00003020
00000230
00000302
00000023
00020030
,
00230000
00000000
02300000
00000000
03200000
00000000
00320000
00000000
20030000
00000000
30100000
00010000
00001000
00000000
00000000
00000000
,
00011000
00000000
00010000
00000000
00000100
00001000
00000001
00001000
00000100
00000000
00000001
00000100
00001000
00000000
00000100
00000000
,
00000110
00000000
00000000
00000011
00000000
00000000
00001001
00000000
00000001
00000000
00000100
00001000
00010000
00000000
00100000
00000000
,
0200MMMM
03000000
00000000
00000000
00000000
00000000
00000000
00000000
0200MMMM
03000000
00000000
00000000
00000000
00000000
00000000
00000000
10000000
00000000
00000000
00000000
01000000
00000000
00000000
00000000
00100000
00000000
00000000
00000000
00010000
00000000
00000000
00000000
10000000
00000000
00000000
00000000
00000000
00000000
00000000
00000000
00010000
00000000
00000000
00000000
01000000
00000000
00000000
00000000
10000000
00000000
00000000
00000000
01000000
00000000
00000000
00000000
00010000
00000000
00000000
00000000
01000000
00000000
00000000
00000000
,
00001000
00000000
00000000
01001000
00000000
00000000
00010100
00000000
00010000
00001000
00000100
00000001
00000010
00000100
00000010
00000001
,
00001000
00000000
00000010
00000000
00001000
00000001
00000010
00000100
00010000
00000000
00001000
00010000
00100000
10000000
00010000
00000000
,
00110000
00000000
00000000
10100000
00000000
00000000
01010000
00000000
10000000
01000000
00100000
00001000
00010000
00000100
00000010
00000001
,
00002000
00000000
00000000
00000000
MMMM3002
00000000
00000100
MMMM0000
00002003
00000000
00000010
MMMM0000
00003001
00000000
00001000
00000000
,
00000001
00000000
00000000
00000000
00000200
00000300
00000000
00000000
00000200
00000300
00000000
00000000
00010000
00000000
00000000
00000000
00001000
00000000
00000000
00000000
02000000
03000000
00000000
00000000
02000000
03000000
00000000
00000000
10000000
00000000
00000000
00000000
01000000
00000000
00000000
00000000
00100000
00000000
00000000
00000000
00001000
00000000
00000000
00000000
00010000
00000000
00000000
00000000
00011000
00000000
00000000
00000000
00000000
00000000
00000000
00000000
MMMMMMMM
00000000
00000000
00000000
00000000
00000000
00000000
00000000
,
00011000
00000000
00000000
00010000
00001000
00000010
00000100
00001000
00000100
00000000
00000010
00000001
00001000
00000000
00000001
00000000
,
00000200
00000000
00000001
MMMM0000
00000320
00000000
00001000
MMMM0000
00000130
00000000
00000001
00000000
00001001
00000000
MMMMMMMM
00000000
,
00010010
00000000
MMMMMMMM
00000000
00011000
00000000
00101000
00000000
00110000
00000000
10000000
00010000
01000000
00000000
00100000
00000000
,
10100000
00000000
00000000
01010000
00000000
00000000
11000000
00000000
10000000
01000000
00100000
01000000
00010000
01000000
10000000
00100000
,
01000000
00000000
00010000
00000000
10000000
01000000
00010000
00001000
00000100
00000000
00000010
00001000
00000001
00000010
00000001
00000000
,
00000011
00000000
00000000
00001010
00000000
00000000
00011000
00000000
00001000
00010000
00100000
01000000
00010000
00100000
01000000
10000000
,
00020000
00000000
00000000
00000000
2003MMMM
00000000
00100000
0000MMMM
30020000
00000000
01000000
0000MMMM
10030000
00000000
00100000
01000000
,
10000000
01000000
00100000
00010000
00001000
00000100
00000010
00000001
00000010
00001000
00000001
00000010
00000200
00000000
00000000
00000000
,
00001300
00000000
00000001
00000000
00000100
00000000
00000000
00000000
00000010
00000000
00010000
00001000
00010000
00000000
01000000
00000000
00000000
00000000
10000000
00000000
01000000
00000000
00000000
00000000
00100000
00000000
00001000
00010000
00001000
00000000
00000010
00000000
,
00000001
00000000
00000010
00000000
00000100
00000000
00000000
00000000
00010000
00000000
00001000
00010000
00001000
00000000
00000100
00000000
00000000
00000000
00000010
00000000
00001000
00000000
00000001
00000000
00000010
00000000
00001000
00010000
00100000
00000000
01000000
00000000
,
00100000
00000000
10000000
00000000
00010000
00000000
00000000
00000000
01000000
00000000
00100000
10000000
00100000
00000000
01000000
00000000
00000000
00000000
00010000
00000000
10000000
00000000
01000000
00000000
00010000
00000000
00001000
00010000
00100000
01000000
00010000
00000000
,
1000MMMM
00100000
00010000
00000000
00011000
00000000
00001000
00000100
MMMM0001
00000000
00001001
00000000
00000001
00000010
00001000
00000000
00011000
00000000
00010000
01000000
10000000
00010000
01000000
00000000
0001MMMM
01000000
00100000
00010000
00001000
00010000
00100000
01000000
,
00010000
10000000
01000000
00000000
10000000
00000000
00100000
00010000
00001000
00000000
00000100
00000000
00000010
00001000
00000001
00000000
,
00000010
00000000
00000100
00000010
00001000
00000000
00010000
00000000
01000000
00100000
00010000
10000000
00100000
00000000
01000000
00000000
,
00010000
10000000
00100000
00000000
00010000
00000000
00001000
00000100
00000010
00000000
00001000
00000100
00000010
00000001
00001000
00000000
,
00000010
00000000
00000100
00001000
00010000
00000000
00100000
00000000
01000000
00100000
10000000
01000000
00010000
00001000
00000010
00000000
,
00000001
00000100
00000010
00000100
00001000
00000000
00010000
00100000
01000000
00100000
10000000
00000000
00010000
10000000
01000000
00000000
,
00010000
00000000
01000000
00100000
01000000
00000000
10000000
00000000
00100000
01000000
00001000
00010000
00000100
00001000
00000001
00000100
,
00000020
00000000
00000000
00000000
MMMM1030
00000001
00000010
00000100
00010000
00001000
01000000
00100000
10000000
00000000
00010000
00000000
,
10000000
01000000
00010000
00000000
00001000
00000010
00000001
00000000
00002000
00000100
00000000
00003100
00010100
00000000
00000000
00000000
,
00022000
00000000
00000000
00000000
00000000
00000000
00033000
00000000
00002000
00000000
00000000
00023000
00000000
00000000
00230000
00000000
,
0000MMMM
00000000
10300000
00010000
00100000
00000000
00001000
00000000
00000010
00000000
00000001
00001000
00000010
00000000
00010000
00000000
,
00001000
00010000
01000000
00200000
00010000
0000MMMM
01300000
00000000
10000000
00010000
01000000
00200000
00010000
0000MMMM
10300000
00000000
,
00010000
00100000
01000000
00010000
01000000
00100000
10000000
00100000
00010000
10000000
00100000
00010000
00001000
00000000
MMMMMMMM
00000000
,
00010000
00001000
00000010
00000001
00001000
00000001
00000100
00000010
00000001
00000010
00000100
00001000
00010000
00100000
01000000
10000000
,
01000000
00010000
10000000
01000000
00100000
00010000
01000000
00001000
00010000
00001000
00000010
00000001
00000010
00000000
00000100
00000000
,
00001000
00000010
00000100
00001000
00010000
00100000
01000000
00010000
00100000
01000000
10000000
00100000
01000000
00010000
00100000
01000000
,
10000000
00100000
00010000
00000000
00001000
00000100
00000001
00000000
00000001
00000010
00001000
00000000
00010000
01000000
10000000
00000000
,
20020000
00000000
00000000
00000000
,
00000000
00000000
00000000
00000000
00000000
00000000
30030000
00000000
MMMMMMMM
00000000
00001000
00010000
00011000
00000000
00000000
00000000
,
01001000
00000000
00000000
00010100
00000000
00100000
00001000
00010000
00001000
00000000
00000010
00000000
00000001
00000000
00001000
00000010
,
00000100
00001000
00000100
00000010
00001000
00000001
00000010
00000100
00010000
00000000
00011000
00000000
01000000
00000000
01100000
00000000
,
20010000
00000000
00000000
00000000
00000000
30010000
0101MMMM
00000000
01000000
00000000
00100000
00000000
10100000
00000000
10000000
00000000
01000000
00000000
01100000
00000000
00100000
00000000
00001000
00000000
,
00011000
00000000
00000000
00000000
00010000
00000000
00000000
00000000
00000010
00000000
00000000
00000000
00001010
00000000
00000000
00000000
00001000
00000000
00000000
00000000
00000001
00000000
00000000
00000000
00000011
00000000
00000000
00000000
00000010
00000000
00000000
00000000
00000001
00000000
00000000
00000000
00000100
00000000
00000000
00001000
00000000
00000000
00010000
00000000
00000000
00100000
00000000
00000000
,
01000000
00000000
00001000
00000000
00010000
01000000
00100000
00010000
10000000
00000000
00100000
00010000
00001000
00000100
00000001
00000000
,
00000011
00000000
00000000
00001100
00000000
00000000
00000101
00000000
00001000
00000100
00000010
00000001
00000010
00000100
00010000
00001000
,
02000000
00000000
00000000
03000000
0101MMMM
00000000
01000000
00000000
01100000
00000000
00100000
10000000
00010000
00000000
10000000
00000000
,
01000000
00100000
00010000
01000000
00100000
00010000
00001000
00100000
00010000
00001000
00000100
00010000
00001000
00000000
MMMMMMMM
00000000
,
00010000
00000000
00001000
00000010
00000001
00000010
00000100
00000000
00001000
00000001
00000100
00001000
00010000
00100000
01000000
00000000
,
00010000
00000000
00100000
01000000
00100000
00001000
00010000
00000000
00001000
00010000
00100000
10000000
00010000
00100000
01000000
10000000
,
01000000
00000000
00010000
01000000
00100000
00010000
10000000
00100000
00010000
00000000
00001000
00000100
00000000
00000010
00001000
00000001
,
00001000
00000000
00000001
00001000
00000100
00000000
00000001
00000100
00000010
00001000
00010000
01000000
00100000
10000000
00100000
00010000
,
10000000
00000000
00010000
01000000
00001000
00000000
00010000
00000100
00001000
00000000
00000001
00000100
00000000
00001000
00010000
00100000
,
10000000
00000000
01000000
00100000
00001000
00000000
00010000
00100000
01000000
00100000
00010000
00001000
00000100
00000010
00001000
00000001
,
00000020
00000000
00000000
00000000
MMMM0130
00001000
00000001
00000000
00000100
00001000
00010000
00000000
01000000
10000000
00010000
00000000
,
10000000
00100000
00010000
00001000
00000100
00000001
00001000
00000001
00000010
00001000
00010000
01000000
10000000
00000000
00000000
00000000
,
00020000
02030000
03200000
00302000
00003020
00000230
00000302
00002003
,
00003200
00000320
00020030
00230000
02300000
23000000
30020000
02030000
,
03200000
00302000
00003020
00000230
00000302
00002003
00003200
00000320
,
00020030
00000000
00230000
00000000
00320000
00000000
02030000
00000000
03002000
00000000
00023000
00000000
00230000
00000000
20300000
30000000
,
MMMMMMMM
00000000
00000000
00000000
;
