#VERSION:0.83;
#TITLE:EGOISM -Rebuild-;
#ARTIST:HAMA topground;
#BANNER:EGOISM -Rebuild-.png;
#BACKGROUND:EGOISM -Rebuild--bg.png;
#CDTITLE:./CDTitles/SDVX VIVID WAVE.png;
#MUSIC:EGOISM -Rebuild-.ogg;
#SAMPLESTART:27.871;
#SAMPLELENGTH:15;
#BPMS:0=155.3,4=155,56=310,56.5=155,60=310,60.5=155,65=310,71=620,73=155,121=310,123=155,129=620,133=310,135=155,156=77.5,156.5=155,229=310,237=620,241=310,243=155,245=77.5,249=155,271=77.5,272=310,328=620,332=310,334=155,336=310;
#STOPS:36=1.161,56=0.097,60=0.096,71=0.194,121=0.145,121.75=0.145,122.5=0.097,156.5=0.097,156.75=0.096,200=1.161;
#TIMESIGNATURES:0=4=4,36=1=4,37=4=4,145=5=4,150=4=4,154=3=4,157=4=4,161=3=4,167=5=4,172=4=4,200=1=4,201=4=4,269=3=4,272=4=4;
#STAGE:28;

//--------------- dance-single - Fred-104 ----------------
#NOTEDATA:;
#STEPSTYPE:dance-single;
#DESCRIPTION:Fred-104;
#DIFFICULTY:Beginner;
#METER:8;
#CREDIT:Fred-104;
#NOTES:
0000
0000
0000
0000
,
0000
0000
0000
0000
,
0000
0000
0000
0000
,
0000
0000
0000
0000
,
0000
0000
0000
0000
,
0000
0000
0000
0000
,
1000
0000
0010
0000
,
1000
1000
0100
0000
,
0001
0000
0100
0000
,
2002
3003
0000
0000
0000
0000
0000
0000
0000
0000
0000
0000
0000
0000
0000
0000
1000
0000
0000
0000
0000
0000
0000
0000
0000
0000
0000
0000
0000
0000
0000
0000
1000
0000
0000
0000
0000
0000
0000
0000
0000
0000
0000
0000
0000
0000
0000
0000
0100
0000
0000
0000
0000
0000
0000
0000
0000
0000
0000
0000
0000
0000
0000
0000
,
0010
0001
0001
0100
,
0010
1000
1000
0100
,
0001
0010
0010
1000
,
0001
1000
0100
2200
,
3300
0001
0100
0202
,
0303
0000
0001
1000
0001
0000
1000
0001
,
1000
2002
0000
0000
,
0000
0000
0000
3003
,
0000
1001
0000
0001
,
0001
0100
0001
0010
,
0010
0100
1000
1000
,
0010
1000
0001
0001
,
0010
0110
0000
0100
,
0010
0001
1000
1000
,
0100
1000
0010
1000
,
0001
1000
0001
1001
,
0000
0000
0100
0010
0100
0000
0001
1000
,
0001
1000
0100
1000
,
0100
0001
0100
0001
,
0010
0100
1000
0001
,
0010
0000
2000
0000
0000
3000
0001
0000
,
1000
0001
0010
0001
,
0001
1000
0000
0000
,
0000
0000
0000
0000
,
0000
2002
0000
0000
,
3003
1000
0010
0200
,
0000
0301
0001
1000
,
0100
0000
1000
0001
1000
0000
0020
0000
,
0000
0031
0001
0100
,
1000
1000
1000
0000
0010
0000
0010
0000
,
1000
0001
0010
0100
,
0000
0001
0000
0001
0000
1000
0000
0100
,
0000
0010
0000
0001
0000
1001
0000
0000
,
1000
0010
1000
0000
,
0001
0001
0010
0000
,
0001
0100
1000
0000
,
0100
0001
0010
0000
,
0100
0100
0010
0000
,
0001
1000
0100
0000
,
1000
0010
0100
0001
,
2002
3003
0000
0000
0000
0000
0000
0000
0000
0000
0000
0000
0000
0000
0000
0000
1000
0000
0000
0000
0000
0000
0000
0000
0000
0000
0000
0000
0000
0000
0000
0000
1000
0000
0000
0000
0000
0000
0000
0000
0000
0000
0000
0000
0000
0000
0000
0000
0100
0000
0000
0000
0000
0000
0000
0000
0000
0000
0000
0000
0000
0000
0000
0000
,
0100
0010
0010
0001
,
0001
0100
0100
1000
,
1000
0100
0100
0001
,
0001
1000
0010
1000
,
0001
0010
0100
1000
,
0001
0000
1000
0001
1000
0000
0001
1000
,
0001
2002
0000
0000
,
0000
0000
0000
0000
,
0000
3003
0000
0000
,
0000
0000
0000
0000
,
0000
0000
1000
0000
0100
1000
0001
0000
,
0100
0010
1000
0000
0100
0000
1000
0001
,
1000
0001
0010
0100
,
0100
0010
0001
1000
,
0000
0010
1000
0100
,
1000
0000
0001
0000
0010
0000
0100
0010
,
0100
2002
0000
3003
,
1000
0000
0010
0000
,
1000
0000
1000
0000
,
0100
0000
1000
0000
,
0001
0001
0001
0000
,
0001
0000
0100
0000
,
0001
0000
1000
0000
,
0100
0000
0010
0000
,
0100
0100
0100
0000
,
0001
0000
1000
0000
,
0010
0000
1000
0000
,
0100
0000
1000
0000
,
0001
1000
0001
0000
,
1000
0010
1000
0000
,
0001
0100
0001
0000
,
1001
0000
0000
0000
,
0000
0000
0000
0000
,
2002
0000
0000
0000
,
3003
0000
0000
0000
;

//--------------- dance-single - Fred-104 ----------------
#NOTEDATA:;
#STEPSTYPE:dance-single;
#DESCRIPTION:Fred-104;
#DIFFICULTY:Easy;
#METER:11;
#CREDIT:Fred-104;
#NOTES:
0000
0000
0000
0000
,
0000
0000
0000
0000
,
0000
0000
0000
0000
,
0000
0000
0000
0000
,
0000
0000
0000
0000
,
0000
0000
0000
0000
,
1000
0000
0010
0000
1000
0100
1000
0000
,
0001
0000
0010
0000
0001
0100
0001
0000
,
1000
0100
0010
0000
0001
0100
1000
0000
,
2002
3003
0000
0000
0000
0000
0000
0000
0000
0000
0000
0000
0000
0000
0000
0000
0001
0000
0000
0000
0000
0000
0000
0000
0000
0000
0000
0000
0001
0000
0000
0000
0000
0000
0000
0000
0000
0000
0000
0000
1000
0000
0000
0000
0000
0000
0000
0000
0000
0000
0000
0000
1000
0000
0000
0000
0000
0000
0000
0000
0000
0000
0000
0000
,
0100
0000
0000
0000
0010
0000
0000
0010
0000
0000
0001
0000
0000
0001
0000
0000
,
0100
0000
0000
0000
0010
0000
0000
0010
0000
0000
1000
0000
0000
1000
0000
0000
,
0100
0000
0000
0000
0001
0000
0000
0010
0000
0000
0100
0000
0000
1000
0000
0000
,
1001
0000
0001
0000
1000
0000
0100
1000
,
0001
0000
1000
0000
0100
0000
0010
0001
,
1000
0000
0001
1000
0001
1000
0010
0100
,
0010
0100
0002
0000
0000
0000
0000
0000
,
0000
0000
0000
0003
,
0000
0000
1001
0000
0100
0000
0001
0100
,
0001
0000
1000
0100
0010
0001
1000
0000
,
0010
0000
0000
0000
0100
0000
0000
0100
0000
0000
0010
0000
0001
0000
0000
0001
,
0000
1000
0010
1000
0100
0000
0010
0001
,
0100
0002
1000
0203
,
0010
0000
0301
0100
0010
0000
1000
0100
,
0010
0000
0000
0000
0001
0000
0000
0000
1000
0000
0100
0000
1000
0000
0000
1000
,
0000
0000
0010
0000
0100
0000
0000
0000
0001
0000
0010
0000
0100
0000
0000
0100
,
0000
0010
0001
1000
1001
0000
1000
0000
,
0200
0000
0310
0000
0001
1000
0001
0100
,
0020
0100
0130
0001
0000
0001
1000
0001
,
0000
0001
0010
0000
0100
0000
1000
0000
,
0002
0000
0000
0000
1003
0000
0000
0001
0000
0000
1000
0000
1001
0000
0000
0000
,
0001
0100
0010
1000
0010
1000
0001
0000
,
1000
2002
0000
0000
,
0000
3003
0000
0000
,
0000
0220
0000
0000
,
0330
0000
1010
0000
0010
1000
0002
0000
,
0000
0000
0103
0010
1000
0001
1000
0100
,
0002
0000
0103
1000
0002
0000
0100
0203
,
0000
0310
1000
0010
1000
0001
0010
0000
,
0100
0000
1000
0001
1000
0000
0000
0000
1000
0000
0000
0000
0100
0000
0000
0000
,
0001
0100
0100
1000
,
0001
1000
0000
0010
0000
1010
0000
0100
,
0000
0010
0000
0011
0000
2002
0000
3003
,
1000
0000
0000
0000
0100
0000
0000
0000
0001
0000
0000
0001
0000
0000
0001
0000
,
0100
0000
0000
0000
0010
0000
0000
0000
1000
0000
0000
1000
0000
0000
1000
0000
,
0001
0000
0000
0000
0010
0000
0000
0000
0100
0000
0000
0100
0000
0000
0100
0000
,
0001
0010
0100
1000
0010
0100
0001
0000
,
1000
0000
0000
0000
0010
0000
1000
0000
0001
0000
0000
0100
0000
0000
0010
0000
,
0100
0000
0000
0000
0001
0000
0010
0000
0100
0000
0000
1000
0000
0000
0001
0000
,
0001
0100
0010
0000
1000
0100
0001
0000
,
0220
0330
0000
0000
0000
0000
0000
0000
0000
0000
0000
0000
0000
0000
0000
0000
2000
0000
0000
0000
0000
0000
0000
0000
0000
0000
0000
0000
0000
0000
0000
0000
3200
0000
0000
0000
0000
0000
0000
0000
0000
0000
0000
0000
0000
0000
0000
0000
0320
0000
0000
0000
0000
0000
0000
0000
0000
0000
0000
0000
0000
0000
0000
0000
,
0032
2003
3020
0230
,
0302
2003
3200
0302
,
0023
2030
3002
0203
,
2300
0000
0000
0000
3001
0000
0000
0001
0000
0000
1000
0000
0100
0000
0010
0000
,
0010
0000
0000
0000
0010
0000
0000
0010
0000
0000
0001
0000
1000
0000
0100
0000
,
0100
0000
0010
0001
1000
0010
0100
0000
,
0010
0100
0200
0000
0000
0000
0000
0000
,
0000
0020
0000
0000
,
0000
0330
0000
0000
,
0000
0000
0000
0000
,
0000
0000
1000
0010
0001
0010
1000
0001
,
0100
0010
1000
0100
1000
0000
0001
0100
,
0001
1000
0010
0220
,
0330
0001
0010
1000
,
0010
0100
0010
1000
,
0001
0000
1000
0100
0010
0000
0001
1000
,
0010
0000
0100
0000
0010
0100
0110
0000
,
1000
0000
0010
0000
,
1000
0001
1000
0000
,
0001
0000
0010
0000
,
0001
0100
0001
0100
,
0001
0000
0100
0000
,
0010
0100
0010
0000
,
1000
0000
0100
0000
,
0010
0100
0010
0100
,
0010
0000
0001
0000
,
1000
0001
1000
0000
,
0010
0000
1000
0000
,
0100
1000
0100
1000
,
0100
0000
0010
0000
,
0001
1000
0001
0000
,
1001
0000
0000
0000
,
1000
0000
0000
0000
0001
0100
0010
0100
,
0220
0000
0000
0000
,
0330
0000
0000
0000
;

//--------------- dance-single - Fred-104 ----------------
#NOTEDATA:;
#STEPSTYPE:dance-single;
#DESCRIPTION:Fred-104;
#DIFFICULTY:Medium;
#METER:15;
#CREDIT:Fred-104;
#NOTES:
0000
0000
0000
0000
,
0000
0000
0000
0000
,
0000
0000
0000
0000
,
0000
0000
0000
0000
,
0000
0000
0000
0000
,
0000
0000
0000
0000
,
1000
0000
0000
0010
0000
0000
1000
0000
0001
0000
0010
0000
0100
0010
0100
0000
,
0001
0000
0000
0100
0000
0000
0010
0000
0001
0000
1000
0000
0100
1000
0100
0000
,
1000
0000
0000
0010
0000
0000
0100
0000
0010
0000
1000
0000
0001
0010
0001
0000
,
0202
0303
0000
0000
0000
0000
0000
0000
0000
0000
0000
0000
0000
0000
0000
0000
0001
0000
0000
0000
0010
0000
0000
0000
0000
0000
0000
0000
0001
0000
0000
0000
0010
0000
0000
0000
0000
0000
0000
0000
0001
0000
0000
0000
0010
0000
0000
0000
0000
0000
0000
0000
0001
0000
0000
0000
0010
0000
0000
0000
0000
0000
0000
0000
,
0002
0000
0000
0000
1003
0010
0000
1000
0010
0000
1000
0010
0000
1000
0010
0000
,
0200
0000
0000
0000
0301
1000
0000
0001
1000
0000
0010
0100
0000
0010
0100
0000
,
0002
0000
0000
0000
1003
0100
0000
1000
0100
0000
0010
0001
0000
0010
0001
0000
,
0200
0000
0301
0010
0100
1000
0010
0100
,
0002
1003
0100
0001
0100
1000
0010
0100
,
0200
0000
0310
0000
0001
0010
0001
0000
1000
0010
1000
0000
0001
1000
0001
1000
,
0001
1000
0001
1000
0002
0000
0000
0000
0000
0000
0000
0000
0000
0000
0000
0000
,
0000
0000
0000
0003
,
0000
0000
0000
0000
1100
0000
0000
0000
0001
0000
1000
0010
1000
0000
0001
0000
,
1000
0100
1000
0000
0001
0000
0010
0000
0100
0010
0100
0000
0001
0000
0100
0000
,
1000
0000
0100
0000
0001
0000
1000
0001
0000
1000
0100
0000
0010
0001
0010
0001
,
0020
0000
0000
0000
1030
0000
0010
0000
0001
1000
0001
0000
0100
0010
0100
0010
,
0200
0000
0000
0000
0301
0000
1000
0001
1000
0000
0010
0100
0020
0000
0000
0000
,
0230
0000
0320
0000
0130
0000
0001
0000
1000
0100
1000
0000
0100
0000
0010
0000
,
0001
0000
0100
0000
0101
0000
0000
0000
1100
0000
0000
0000
0010
0000
0000
1000
,
0000
0000
0001
0000
1001
0000
0000
0000
0110
0000
0000
0000
0010
0000
0000
0100
,
0000
0001
1000
0001
1001
0000
0200
0000
,
0310
0000
0100
0000
0010
0000
0100
0000
0000
0001
0000
0000
1000
0000
0100
0000
0010
0000
0001
0000
0000
0100
0000
0000
,
0001
1000
0001
0000
2000
0000
0000
0100
0000
0000
3100
0000
0002
0000
0000
0010
,
0000
0013
1000
0001
0010
0001
0100
0010
,
1000
0000
0000
0000
0000
0000
0000
0000
0000
0000
0000
0000
0000
0000
0000
0000
0020
0030
0000
0000
0000
0000
0000
0000
0000
0000
0000
0000
0020
0030
0000
0000
0000
0000
0000
0000
0000
0000
0000
0000
0200
0300
0000
0000
0000
0000
0000
0000
0010
0000
0000
0000
0000
0000
0000
0000
0000
0000
0000
0000
0000
0000
0000
0000
,
1000
0100
1000
0000
0001
0000
1000
0000
0010
0000
0100
0000
0010
0000
1000
0000
,
0001
0010
0100
0000
2002
0000
0000
0000
0000
0000
0000
0000
0000
0000
0000
0000
,
0000
3003
0000
0000
,
0000
0220
0000
0000
,
0330
0000
1000
0010
0100
0010
0020
0000
,
0000
0130
0001
1000
0100
0010
0001
1000
,
0020
0000
0000
0000
0130
0010
0100
0000
1000
0000
0010
0000
0100
0000
0002
0000
,
0000
0103
1000
0100
0001
0010
0100
1000
,
0001
0000
0000
0000
0200
0300
0020
0030
1000
0000
0000
0000
1000
0000
0000
0000
0100
0000
0000
0000
0010
0000
0000
0000
0020
0000
0000
0000
0000
0000
0000
0000
,
0031
0010
1000
0100
0010
0000
0001
0100
,
0001
0010
0100
0000
0010
0000
0001
0000
1000
0000
0002
0000
0000
0000
1003
0000
,
0010
1000
0100
0010
0001
1000
0001
0000
,
1000
0000
0010
0000
0100
0000
0001
0000
0010
0000
0000
0011
0000
0000
0001
0000
,
0100
0000
0001
0000
1000
0000
0100
0000
0010
0000
0000
0110
0000
0000
0100
0000
,
0001
0000
0100
0000
1000
0000
0100
0000
0010
0000
0000
1001
0000
0000
0100
0000
,
0001
0010
1000
0001
0100
1000
0002
0003
,
1000
0000
0010
0000
0100
0000
0001
0000
0010
0000
0000
0010
0000
0010
0100
0000
,
1000
0000
0100
0000
0001
0000
0100
0000
0010
0000
0000
0001
0000
0000
1000
0000
,
0001
0000
0000
0000
0000
0000
1000
0000
0100
0000
0010
0000
0001
0000
1000
0000
0010
0000
0100
0000
0000
0001
0000
0000
,
0022
0033
0000
0000
0000
0000
0000
0000
0000
0000
0000
0000
0000
0000
0000
0000
0001
0000
0000
0000
0000
0000
0000
0000
0100
0000
0000
0000
0000
0000
0000
0000
0010
0000
0000
0000
0000
0000
0000
0000
1000
0000
0000
0000
0000
0000
0000
0000
0100
0000
0000
0000
0000
0000
0000
0000
0010
0000
0000
0000
0000
0000
0000
0000
,
0001
0100
0010
0100
0001
0100
0001
0010
,
0100
1000
0001
0100
0001
0100
0010
0100
,
0001
0010
0001
0010
0100
0010
0001
0010
,
0001
0000
0100
0000
0001
0000
0000
0011
0000
0000
0010
0000
1000
0000
0000
1010
,
0000
0000
0010
0000
0001
0000
0000
0101
0000
0000
0010
0000
1000
0000
0000
1100
,
0000
0000
0010
0000
0001
1000
0001
1000
0001
1000
0001
1000
0010
0100
0010
0100
,
0010
0100
0010
0100
0002
0000
0000
0000
0000
0000
0000
0000
0000
0000
0000
0000
,
0000
2000
0000
3003
,
0000
0110
0000
0000
,
0000
0000
0000
0000
,
0000
0000
0000
0000
0001
0100
1000
0010
0100
0000
0000
1000
0100
0201
0000
0010
,
0301
0010
0100
0100
0100
0000
0010
0000
1000
0000
0100
0000
0010
0000
0001
1000
,
0000
1000
0100
0000
0001
0000
0100
0000
1000
0000
0010
0000
0100
0000
0001
0100
,
0000
0100
0010
0000
0100
0000
0010
0000
1000
0000
0100
0000
0010
0000
0000
0011
,
0000
0000
1001
0000
0001
0000
0010
0000
1000
0000
0010
0000
0001
1000
0001
1000
,
0001
0000
0000
0000
1010
0000
0010
0000
0101
0000
0000
0000
1000
0000
0001
0100
,
0010
0100
0010
0000
1100
0000
0100
0000
0011
0000
0000
0000
1001
0000
0000
0000
,
1000
0010
1000
0100
,
1000
0000
0001
0000
0010
0100
0010
0000
,
0001
1000
0010
1000
,
0100
0000
1000
0000
0001
0100
0001
0000
,
1000
0100
0010
0001
,
0100
0000
0010
0000
0100
0010
0100
0000
,
0001
1000
0100
1000
,
0001
1000
0001
1000
0001
0000
0000
0000
,
1000
0100
0010
0100
,
1000
0000
0010
0000
0100
0010
0100
0000
,
0010
1000
0010
0100
,
0010
0000
1000
0000
0001
0010
0001
0000
,
1000
0010
1000
0000
0001
0100
0001
0000
,
1000
0100
0010
0000
0001
0100
0010
0000
,
1000
0000
0001
0000
,
1000
0000
0001
0000
1000
0000
0000
0000
0001
0000
0100
0000
0010
1000
0001
0000
,
2002
0000
0000
0000
,
3003
0000
0000
0000
;

//--------------- dance-single - Fred-104 ----------------
#NOTEDATA:;
#STEPSTYPE:dance-single;
#DESCRIPTION:Fred-104;
#DIFFICULTY:Hard;
#METER:18;
#CREDIT:Fred-104;
#NOTES:
0000
0000
0000
0000
,
0000
0000
0000
0000
,
0000
0000
0000
0000
,
0000
0000
0000
0000
,
0000
0000
0000
0000
,
0000
0000
0000
0000
,
1000
0000
0001
0010
0000
0000
0010
0001
0100
0000
0010
0000
1000
0100
1000
0100
,
1000
0000
0000
0000
0000
0000
0010
0000
0000
0100
0000
0000
0010
0000
0000
0000
0000
0000
0001
0000
0000
0000
0000
0000
0010
0000
0000
0000
0000
0000
1000
0000
0000
0000
0000
0000
0001
0000
0010
0000
0100
0000
1000
0000
0001
0000
1000
0000
,
0100
0000
0010
0001
0000
0000
0001
1000
0100
0000
1000
0000
0010
0100
0010
0100
,
0002
0003
0000
0000
0000
0000
0000
0000
0000
0000
0000
0000
0000
0000
0000
0000
0001
0000
0000
0000
0010
0000
0000
0000
0000
0000
0000
0000
0001
0000
0000
0000
0010
0000
0000
0000
0000
0000
0000
0000
0100
0000
0000
0000
1000
0000
0000
0000
0000
0000
0000
0000
0100
0000
0000
0000
1000
0000
0000
0000
0100
0000
0000
0000
,
1000
0001
0100
0010
1000
0100
0000
0010
0001
0000
1000
0010
0000
0100
0001
1000
,
0100
0010
0100
1000
0001
1000
0000
0001
1000
0000
0010
0100
0000
0010
0100
0001
,
0010
0001
0100
0010
1000
0010
0000
0100
0001
0000
1000
0010
0000
0100
0001
0010
,
0100
1000
0010
0100
0001
0000
1000
0100
0010
0001
0100
0000
1000
0100
0001
0010
,
0200
0300
0000
0000
0000
0000
0000
0000
1000
0000
0000
0000
0001
0000
0000
0000
1000
0000
0000
0000
0010
0000
0000
0000
0100
0000
0000
0000
0001
0000
0000
0000
1000
0000
0000
0000
0010
0000
0000
0000
0000
0000
0000
0000
0100
0000
0000
0000
0010
0000
0000
0000
1000
0000
0000
0000
0001
0000
0000
0000
0100
0000
0000
0000
,
0002
0003
0000
0000
0000
0000
0000
0000
1000
0000
0000
0000
0100
0000
0000
0000
0010
0000
0000
0000
0001
0000
0000
0000
0010
0000
0000
0000
0001
0000
0000
0000
0010
0000
0000
0000
0100
0000
0000
0000
0010
0000
0000
0000
0100
0000
0000
0000
1000
0000
0000
0000
0100
0000
0000
0000
1000
0000
0000
0000
0100
0000
0000
0000
,
0010
0001
1000
0001
0200
0000
0000
0000
0000
0000
0000
0000
0000
0000
0000
0000
,
0000
0000
0000
0310
,
0000
0000
0000
0000
1001
0000
0000
0000
0100
0000
0001
0100
1000
0000
0100
0000
,
1000
0100
0010
0000
0001
0000
0100
0001
0010
0001
0100
0000
0001
1000
0001
1000
,
0001
0100
0001
0100
0001
0010
0100
1000
0000
0010
0100
0001
1000
0100
0010
0100
,
0001
0100
0010
0001
1000
0000
0010
1000
0100
1000
0010
0000
0100
0001
1000
0000
,
0010
0000
0100
0000
0010
0000
0100
0000
0000
0010
0000
0000
1000
0000
0000
0000
0000
0000
0001
0000
1000
0000
0010
0000
0100
0000
0000
0000
0000
0000
0010
0000
1000
0000
0001
0000
0200
0000
0000
0000
0000
0000
0000
0000
0000
0000
0000
0000
,
0301
0000
0000
1000
0000
0000
0001
0000
0000
0000
0000
0000
0100
0000
0000
0000
0000
0000
0001
0000
1000
0000
0001
0000
1000
0000
0000
0000
0000
0000
0010
0000
0000
0000
0000
0000
0200
0000
0000
0000
0000
0000
0000
0000
0000
0000
0000
0000
,
0301
0100
0010
0100
0001
0000
1001
0000
1000
0100
0001
0000
0100
0000
1000
0001
,
0000
0000
0011
0000
0001
0100
0010
0000
0001
0010
1000
0000
0001
0000
0100
0010
,
0000
0000
0110
0000
1001
0000
1001
0000
1001
0000
0000
0000
1000
0000
0001
0010
,
0001
0000
0000
0000
0100
0000
0000
0000
0100
0000
0000
0000
1000
0000
0000
0000
0000
0000
0001
0000
0000
0100
0000
0000
0010
0000
0000
0000
1000
0000
0000
0000
0010
0000
0100
0000
0001
0000
0000
0000
0000
0000
1000
0000
0000
0100
0000
0000
,
1000
0010
0100
0001
1000
0100
0010
0001
0000
0100
0010
0001
0010
1000
0001
0100
,
0000
0000
1100
0000
1000
0000
0100
0010
1000
0100
0010
0000
0001
0000
1001
0000
,
1000
0000
0000
0000
0100
0000
0000
0000
0100
0000
0000
0000
0000
0000
0000
0000
2020
3030
0000
0000
0000
0000
0000
0000
0000
0000
0000
0000
0202
0303
0000
0000
0000
0000
0000
0000
0000
0000
0000
0000
2200
3300
0000
0000
0000
0000
0000
0000
1001
0000
0000
0000
0000
0000
0000
0000
0001
0000
0000
0000
0000
0000
0000
0000
,
0010
0000
0000
0100
0000
0000
0010
0000
0000
0001
0000
0000
1000
0000
0000
0000
0000
0000
1000
0000
0100
0000
0010
0000
0001
0000
0000
0000
0000
0000
0010
0000
0100
0000
1000
0000
0001
0000
0000
0000
0000
0000
0010
0000
0000
0000
0000
0000
,
0001
0100
1000
0100
0002
0000
0000
0000
0000
0000
0000
0000
0000
0000
0000
0000
,
0000
0000
0000
0003
,
0000
2002
0000
0000
,
3003
0000
1000
0010
0001
0100
2000
0000
,
0001
3001
0100
1000
0100
0001
2000
3010
,
0002
0000
0000
0000
1003
0001
1000
0000
1001
0000
0001
0000
0100
0000
2000
0000
,
0000
3100
0001
0010
0100
1000
0001
0100
,
0020
0000
0000
0000
0230
0300
0200
0300
1100
0000
0000
0000
1000
0000
0000
0000
0001
0000
0000
0000
0010
0000
0000
0000
0200
0000
0000
0000
0000
0000
0000
0000
,
1300
0100
0001
0010
2000
0000
3001
0100
,
0001
1000
0001
0000
1000
0000
0010
0000
0001
0000
0200
0000
0000
0000
1300
0000
,
0100
0001
0010
1000
0001
0100
0010
1000
,
1000
0000
0100
0000
1000
0000
0001
0000
1000
0000
0000
1010
0000
0000
0101
0000
,
0001
0000
0010
0000
0001
0000
0100
0000
0001
0000
0000
0011
0000
0000
1001
0000
,
0001
0000
0100
0000
1000
0000
0100
0000
0001
0000
0000
0011
0000
0000
1001
0000
,
0100
0000
0000
0000
0000
0000
0010
0000
0000
1000
0000
0000
0001
0000
0010
0000
0100
0000
1000
0000
0001
0000
1000
0000
0010
0000
0000
0000
0000
0000
1000
0000
0000
0001
0000
0000
1000
0000
0000
0010
0000
0000
0100
0000
0000
0000
0000
0000
,
0001
0000
0100
0010
1000
0000
0100
0000
0002
0000
0100
1003
0000
0001
0100
0000
,
0010
0000
1000
0000
0002
0000
0203
0000
0320
0000
0000
2030
0000
0000
3002
0000
,
1003
0000
0000
0001
0000
0000
0100
0000
0100
0000
0100
0000
0010
0000
0100
0000
0100
0000
0100
0000
0000
0001
0000
0000
,
2002
3003
0000
0000
0000
0000
0000
0000
0000
0000
0000
0000
0000
0000
0000
0000
1000
0000
0000
0000
0000
0000
0000
0000
0010
0000
0000
0000
1000
0000
0000
0000
0100
0000
0000
0000
0000
0000
0000
0000
0010
0000
0000
0000
0001
0000
0000
0000
0100
0000
0000
0000
0000
0000
0000
0000
0001
0000
0000
0000
0100
0000
0000
0000
,
0010
0000
1000
0100
0001
0000
0100
1000
0010
0000
1000
0100
0001
0000
0100
1000
,
0010
0000
0100
0001
0010
0000
0001
1000
0010
0000
0100
0010
1000
0000
0001
0010
,
1000
0000
0010
0001
0100
0000
0001
0010
1000
0000
0010
0001
0100
0000
0010
1000
,
0001
0000
0100
0001
1000
0010
0001
0010
0000
0000
0100
0001
1000
0010
0100
0001
,
0010
0100
1000
0000
0001
0100
1000
0100
0000
0000
0010
1000
0100
0010
0001
1000
,
0010
0100
0001
0000
1000
0100
0010
0001
0100
0010
1000
0010
0100
0001
0010
0100
,
0010
0001
0010
0100
2000
0000
0000
0000
0000
0000
0000
0000
0000
0000
0000
0000
,
0000
0002
0000
3003
,
0000
0002
0000
0000
,
0000
0203
0000
0320
,
2030
0000
0000
0000
0000
0000
0000
0000
0000
0000
0000
0000
3001
0000
0000
0010
0000
0000
0100
0000
0000
1000
0000
0000
2100
0000
0000
0000
0000
0000
0000
0000
0000
3001
1000
0001
1000
0000
0000
1020
0000
0000
0000
0000
0000
0100
0000
0000
,
0130
0000
0001
0100
0010
1000
0001
0000
0001
0000
0100
0000
0010
0000
0100
0000
0001
0000
0100
0000
0010
0000
0100
0000
0001
0000
0100
0000
0010
0000
1000
0000
,
0001
0100
1000
0100
0001
1000
0010
0100
0001
1000
0100
0010
0001
0100
1000
0100
,
0001
1000
0001
0000
1000
0000
0010
0000
0100
0000
0010
0000
1010
0000
0000
0101
,
0000
0000
0000
0000
0000
0000
0001
0000
1000
0000
0100
0000
0010
0000
0000
0000
0000
0000
0012
0000
0000
0000
0000
0000
0000
0000
0000
0000
0000
0000
1003
0000
0000
0000
0000
0000
1000
0000
0000
0100
0000
0000
0000
0000
0000
0001
0000
0000
,
0010
0000
1000
0001
0010
0100
0010
0001
1000
0100
0010
0100
1000
0001
0100
0010
,
1000
0000
0100
0000
0010
0000
1000
0000
0001
0000
0100
0000
0010
0000
0001
0000
1000
0000
0010
0000
0100
0000
0001
0000
1000
0000
0000
1001
0000
0000
0000
0000
,
0001
0010
0001
1000
0001
0010
0001
1000
,
0001
0000
0000
0010
0000
0000
0100
0000
0000
1000
0000
0000
0010
0000
0000
0000
0010
0000
0000
0000
0010
0000
0000
0000
,
0100
0000
0000
0001
1000
0001
1000
0000
0000
0010
0100
0010
,
0100
0000
0001
0000
1000
0100
0010
0001
,
1000
0000
0001
0000
1000
0000
0010
1000
0010
1000
0010
1000
,
0001
0000
0000
0100
0000
0000
1000
0000
1000
0000
0100
0000
,
0001
0000
0000
1000
0100
0010
0001
0000
0000
1000
0010
0100
,
0001
0000
0100
0000
0010
1000
0010
0100
,
0001
0010
0100
0010
0001
0010
0100
0010
,
0001
0000
0000
1000
0000
0000
0010
0000
0000
0100
0000
0000
0001
0000
0000
0000
0001
0000
0000
0000
1000
0000
0000
0000
,
1000
0000
0000
0010
1000
0001
0100
0000
0000
0010
0100
1000
,
0001
0000
0100
0000
0001
0010
0001
1000
,
0001
0010
0100
1000
0000
0000
1000
0010
0100
0001
0000
0000
,
1000
0001
0100
0010
0000
0000
0001
0100
0010
1000
0000
0000
,
0001
0000
1000
0000
,
0010
0000
0000
0000
0100
0000
0000
0000
0001
0000
0000
0000
1000
0000
0000
0000
0000
0000
0000
0000
0000
0000
0000
0000
0001
0000
0000
0000
0000
0000
0100
0000
0000
0000
0000
0000
0001
0000
0000
0100
0000
0000
1000
0000
0000
0010
0000
0000
,
0002
0000
0000
0000
,
0003
0000
0000
0000
;

//--------------- dance-double - Fred-104 ----------------
#NOTEDATA:;
#STEPSTYPE:dance-double;
#DESCRIPTION:Fred-104;
#DIFFICULTY:Easy;
#METER:11;
#CREDIT:Fred-104;
#NOTES:
00000000
00000000
00000000
00000000
,
00000000
00000000
00000000
00000000
,
00000000
00000000
00000000
00000000
,
00000000
00000000
00000000
00000000
,
00000000
00000000
00000000
00000000
,
00000000
00000000
00000000
00000000
,
10000000
00000000
01000000
00000000
10000000
00100000
10000000
00000000
,
00100000
01000000
01000000
00010000
,
00001000
00000000
00010000
00000000
00000010
00001000
00000010
00000000
,
00002002
00003003
00000000
00000000
00000000
00000000
00000000
00000000
00000000
00000000
00000000
00000000
00000000
00000000
00000000
00000000
00000001
00000000
00000000
00000000
00000000
00000000
00000000
00000000
00000000
00000000
00000000
00000000
00000001
00000000
00000000
00000000
00000000
00000000
00000000
00000000
00000000
00000000
00000000
00000000
00000100
00000000
00000000
00000000
00000000
00000000
00000000
00000000
00000000
00000000
00000000
00000000
00000100
00000000
00000000
00000000
00000000
00000000
00000000
00000000
00000000
00000000
00000000
00000000
,
00000010
00000000
00000000
00000000
00001000
00000000
00000000
00001000
00000000
00000000
00010000
00000000
00000000
00010000
00000000
00000000
,
00100000
00000000
00000000
00000000
01000000
00000000
00000000
01000000
00000000
00000000
00100000
00000000
00000000
00100000
00000000
00000000
,
10000000
00000000
00000000
00000000
01000000
00000000
00000000
01000000
00000000
00000000
00010000
00000000
00000000
00001000
00000000
00000000
,
00011000
00000000
00000100
00000000
00000010
00000000
00000001
00000100
,
00000002
00000003
00000100
00000000
00001000
00000000
00010000
00001000
,
00020000
00030000
00010000
01000000
00100000
00000000
10000000
01000000
,
00100000
20020000
00000000
00000000
,
00000000
00000000
00000000
30030000
,
00000000
00000000
01000000
00000000
00100000
01000000
00100000
00000000
,
00010000
00000000
00001000
00001000
00010000
00001000
00000000
00000100
,
00000010
00000000
00000100
00000000
00000001
00000000
00000000
00000100
00000000
00000000
00001000
00000000
00010000
00000000
00000000
00000000
,
00010000
00000000
00000000
00100000
00000000
00000000
01000000
00000000
00000000
01000000
00000000
00000000
00100000
00000000
00000000
00000000
,
10000000
00200000
10000000
00320000
,
10000000
00000000
01030000
00100000
00001000
00010000
00000000
00010000
,
00001000
00000000
00010000
00000000
00000010
00000000
00000000
00000000
00000100
00000000
00000000
00000000
00000010
00000000
00000000
00000010
,
00000000
00000000
00000001
00000000
00001000
00000000
00000000
00000000
00000010
00000000
00000000
00000000
00001000
00000000
00000000
00001000
,
00000000
00010000
00001000
00010000
00011000
00000000
00010000
00000000
,
02000000
00000000
03100000
00000000
02000000
00000000
03100000
10000000
,
00010000
10000000
00010000
01000000
00000000
00100000
10000000
01000000
,
00000000
00100000
00001000
00010000
00000000
00000100
00001000
00000010
,
00000100
00000000
00000001
00000000
00000010
00000000
00000000
00000010
00000000
00000000
00000010
00000000
00000100
00000000
00000000
00000000
,
00000010
00000010
00000001
00000000
00000100
00000000
00001000
00000000
,
00010000
01000000
20000000
00000000
00000000
00000000
00000000
00000000
,
00000000
00000000
00000000
00000000
,
00000000
00020000
00000000
00000000
,
30030000
00000000
10100000
00000000
01000000
10000000
00020000
00000000
,
00000000
00000000
00130000
00001000
00010000
00001000
00010000
00000010
,
00002000
00000000
00003200
00000000
00000320
00000000
00000001
00000032
,
00000000
00000103
00000010
00000100
00000010
00000000
00001000
00000000
,
00010000
00000000
01000000
00100000
01000000
00000000
00000000
00000000
00100000
00000000
00000000
00000000
10100000
00000000
00000000
00000000
,
10000000
01000000
00100000
00001000
,
00010000
00010000
00000000
00001000
00000000
00000010
00000000
00000100
,
00000000
00000001
00000000
00000010
00000000
00000100
00000000
00000100
,
00001000
00000000
00000000
00000000
00000010
00000000
00000000
00000000
00001000
00000000
00000000
00001000
00000000
00000000
00001000
00000000
,
00010000
00000000
00000000
00000000
01000000
00000000
00000000
00000000
00100000
00000000
00000000
00100000
00000000
00000000
00100000
00000000
,
10000000
00000000
00000000
00000000
01000000
00000000
00000000
00000000
00010000
00000000
00000000
00010000
00000000
00000000
00010000
00000000
,
00001000
00010000
00000100
00001000
00000010
00000100
00000001
00000000
,
00000100
00000000
00000000
00000000
00001000
00000000
00010000
00000000
00010000
00000000
00000000
01000000
00000000
00000000
00100000
00000000
,
10000000
00000000
00000000
00000000
01000000
00000000
01000000
00000000
10000000
00000000
00000000
00100000
00000000
00000000
10000000
00000000
,
00010000
01000000
00100000
00000000
10000000
01000000
00010000
00000000
,
00022000
00033000
00000000
00000000
00000000
00000000
00000000
00000000
00000000
00000000
00000000
00000000
00000000
00000000
00000000
00000000
00002000
00000000
00000000
00000000
00000000
00000000
00000000
00000000
00000000
00000000
00000000
00000000
00000000
00000000
00000000
00000000
00003200
00000000
00000000
00000000
00000000
00000000
00000000
00000000
00000000
00000000
00000000
00000000
00000000
00000000
00000000
00000000
00000302
00000000
00000000
00000000
00000000
00000000
00000000
00000000
00000000
00000000
00000000
00000000
00000000
00000000
00000000
00000000
,
00000023
00002030
00023000
02030000
,
23000000
30200000
02300000
03020000
,
00230000
00302000
00023000
00030020
,
00002030
00000000
00000000
00000000
00003001
00000000
00000000
00000001
00000000
00000000
00000001
00000000
00000100
00000000
00000000
00000100
,
00000000
00000000
00000100
00000000
00001000
00000000
00000000
00001000
00000000
00000000
00001000
00000000
00010000
00000000
00000000
00010000
,
00000000
00010000
01000000
00100000
01000000
00100000
01000000
00100000
,
01000000
20000000
00000000
00000000
,
00000000
00020000
00000000
00000000
,
00000000
30030000
00000000
00000000
,
00000000
00000000
00000000
00000000
,
00000000
00000000
00010000
00001000
00000010
00000001
00001000
00000010
,
00000100
00000001
00000010
00000001
00000010
00000000
00001000
00000010
,
00001000
00010000
00001000
00202000
,
00303000
00010000
01000000
00100000
,
10000000
01000000
01000000
00100000
,
00010000
00000000
10000000
01000000
00100000
00000000
00001000
00010000
,
00000010
00000100
00000010
00001001
,
00000001
00000000
00000100
00000000
,
00000001
00000100
00000010
00000000
,
00001000
00000000
00000100
00000000
,
00001000
00010000
00100000
00000000
,
10000000
00000000
00100000
00000000
,
00010000
00001000
00010000
00000000
,
00001000
00000000
00000100
00000000
,
00000010
00000100
00000010
00000100
,
00000010
00000000
00000001
00000000
,
00000010
00000001
00001000
00000000
,
00000010
00000000
00001000
00000000
,
00010000
00100000
01000000
00000000
,
00010000
10000000
00010000
10000000
,
00100000
01000000
00100000
01000000
,
00010000
00000000
00000000
00000000
,
00010000
00000000
00000000
00000000
00001000
00000100
00000010
00000000
,
00000202
00000000
00000000
00000000
,
00000303
00000000
00000000
00000000
;

//--------------- dance-double - Fred-104 ----------------
#NOTEDATA:;
#STEPSTYPE:dance-double;
#DESCRIPTION:Fred-104;
#DIFFICULTY:Medium;
#METER:15;
#CREDIT:Fred-104;
#NOTES:
00000000
00000000
00000000
00000000
,
00000000
00000000
00000000
00000000
,
00000000
00000000
00000000
00000000
,
00000000
00000000
00000000
00000000
,
00000000
00000000
00000000
00000000
,
00000000
00000000
00000000
00000000
,
00100000
00000000
00000000
10000000
00000000
00000000
01000000
00000000
00100000
00000000
01000000
00010000
01000000
00000000
00010000
00000000
,
00001000
00000000
00000000
00010000
00000000
00000000
00001000
00000000
00010000
00000000
00000100
00001000
00000100
00000000
00010000
00000000
,
00000100
00000000
00000000
00000010
00000000
00000000
00000100
00000000
00001000
00000000
00000001
00000100
00000001
00000000
00000100
00000000
,
00002000
00003000
00000000
00000000
00000000
00000000
00000000
00000000
00000000
00000000
00000000
00000000
00000000
00000000
00000000
00000000
00010000
00000000
00000000
00000000
01000000
00000000
00000000
00000000
00000000
00000000
00000000
00000000
00010000
00000000
00000000
00000000
01000000
00000000
00000000
00000000
00000000
00000000
00000000
00000000
00010000
00000000
00000000
00000000
10000000
00000000
00000000
00000000
00000000
00000000
00000000
00000000
00010000
00000000
00000000
00000000
10000000
00000000
00000000
00000000
00000000
00000000
00000000
00000000
,
00200000
00000000
00000000
00000000
01300000
00010000
00000000
01000000
00010000
00000000
00001000
00010000
00000000
00001000
00010000
00000000
,
00000200
00000000
00000000
00000000
00001300
00000010
00000000
00001000
00000010
00000000
00000100
00000001
00000000
00000100
00000001
00000000
,
00002000
00000000
00000000
00000000
00003010
00000100
00000000
00000010
00000100
00000000
00001000
00010000
00000000
00001000
00010000
00000000
,
00200000
00000000
01300000
10000000
00100000
01000000
00010000
00001000
,
00020000
00031000
00000010
00000001
00001000
00000100
00000010
00000100
,
00002000
00000000
00003010
00000000
00000100
00000001
00000100
00000000
00000010
00001000
00000010
00000000
00010000
00001000
00010000
00001000
,
00010000
00001000
00010000
00000000
00022000
00000000
00000000
00000000
00000000
00000000
00000000
00000000
00000000
00000000
00000000
00000000
,
00000000
00000000
00000000
00033000
,
00000000
00000000
00000000
00000000
01100000
00000000
00000000
00000000
10000000
00000000
00100000
10000000
00100000
00000000
01000000
00000000
,
00010000
01000000
00010000
00000000
00100000
00000000
00001000
00010000
00001000
00000000
00010000
00000000
00001000
00000000
00000100
00000000
,
00000010
00000100
00000010
00000000
00000001
00000000
00000000
00000100
00000000
00000000
00001000
00000000
00010000
00001000
00010000
00001000
,
00010000
00001000
00010000
00000000
00000000
00000000
01000000
00000000
00000000
00100000
00000000
00000000
10000000
00100000
10000000
00100000
,
10000000
00100000
01000000
00000000
00010000
00000000
01000000
00100000
01000000
00000000
00010000
10000000
00020000
00000000
00000000
00000000
,
20030000
00000000
32000000
00000000
03001000
00000000
00000100
00000000
00000010
00000100
00000010
00000000
00000001
00000000
00000010
00000000
,
00001000
00000000
00010000
00000000
00110000
00000000
00000000
00000000
10010000
00000000
00000000
00000000
01000000
00000000
00000000
00010000
,
00000000
00000000
00001000
00000000
00001100
00000000
00000000
00000000
00000101
00000000
00000000
00000000
00000001
00000000
00000000
00001000
,
00000000
00000010
00010000
00001000
00201000
00000000
00310000
00000000
,
01000000
00000000
00010000
00000000
01000000
00000000
00010000
00000000
00000000
10000000
00000000
00000000
01000000
00000000
00100000
00000000
00001000
00000000
00010000
00000000
00000000
00000100
00000000
00000000
,
00010000
00001000
00010000
00000000
00002000
00000000
00000000
00000100
00000000
00000000
00003001
00000000
00000002
00000000
00000000
00000010
,
00000000
00001003
00000001
00000100
00001000
00010000
01000000
10000000
,
00010000
00000000
00000000
00000000
00000000
00000000
00000000
00000000
00000000
00000000
00000000
00000000
00000000
00000000
00000000
00000000
02000000
03000000
00000000
00000000
00000000
00000000
00000000
00000000
00000000
00000000
00000000
00000000
20000000
30000000
00000000
00000000
00000000
00000000
00000000
00000000
00000000
00000000
00000000
00000000
00020000
00030000
00000000
00000000
00000000
00000000
00000000
00000000
10000000
00000000
00000000
00000000
00000000
00000000
00000000
00000000
00010000
00000000
00000000
00000000
00000000
00000000
00000000
00000000
,
10000000
01000000
00010000
00001000
00000010
00000001
00001000
00000010
,
00000100
00000001
00000100
00000001
00002000
00000000
00000000
00000000
00000000
00000000
00000000
00000000
00000000
00000000
00000000
00000000
,
00000000
00000000
00000000
00003000
,
00000000
00022000
00000000
00000000
,
00033000
00000000
00001000
00010000
01000000
10000000
00200000
00000000
,
00000000
01300000
00100000
10000000
00100000
00010000
00001000
00010000
,
00200000
00000000
00000000
00000000
01300000
00100000
01000000
00000000
00010000
00000000
00001000
00000000
00000100
00000000
00000200
00000000
,
00000000
00000301
00000100
00001000
00000100
00000001
00000010
00000100
,
00001100
00000000
00000000
00000000
00020000
00030000
00200000
00300000
01000000
00000000
00000000
00000000
00100000
00000000
00000000
00000000
00010000
00000000
00000000
00000000
10000000
00000000
00000000
00000000
00200000
00000000
00000000
00000000
00000000
00000000
00000000
00000000
,
00301000
00000010
00000001
00000100
00002000
00000000
01003000
00100000
,
10000000
01000000
00100000
00000000
01000000
00000000
00001000
00000000
00010000
00000000
00002000
00000000
00000000
00000000
00013000
00000000
,
00001000
00000010
00000001
00001000
00000100
00000010
00000001
00000100
,
00000001
00000000
00000100
00000000
00000010
00000000
00001000
00000000
00010000
00000000
00000000
00011000
00000000
00000000
00110000
00000000
,
00010000
00000000
01000000
00000000
00100000
00000000
10000000
00000000
01000000
00000000
00100000
01000000
00000000
01000000
00100000
00000000
,
10000000
00000000
01000000
00000000
00010000
00000000
00001000
00000000
00100000
00000000
00000000
00011000
00000000
00000000
00010010
00000000
,
00001000
00000100
00000010
00000001
00000100
00001000
00020000
00030000
,
00001000
00000000
00100000
00000000
00010000
00000000
00100000
00000000
01000000
00000000
00000000
00100000
00000000
01000000
00100000
00000000
,
10000000
00000000
01000000
00000000
00010000
00000000
00001000
00000000
00100000
00000000
00000000
00001000
00000000
00010000
00000010
00000000
,
00000100
00000000
00000000
00000000
00000000
00000000
00000010
00000000
00000001
00000000
00000100
00000000
00001000
00000000
00010000
00000000
01000000
00000000
10000000
00000000
00000000
00100000
00000000
00000000
,
02200000
03300000
00000000
00000000
00000000
00000000
00000000
00000000
00000000
00000000
00000000
00000000
00000000
00000000
00000000
00000000
00010000
00000000
00000000
00000000
00000000
00000000
00000000
00000000
01000000
00000000
00000000
00000000
00000000
00000000
00000000
00000000
00100000
00000000
00000000
00000000
00000000
00000000
00000000
00000000
10000000
00000000
00000000
00000000
00000000
00000000
00000000
00000000
01000000
00000000
00000000
00000000
00000000
00000000
00000000
00000000
00100000
00000000
00000000
00000000
00000000
00000000
00000000
00000000
,
00010000
00001000
00000010
00000100
00000001
00000100
00000001
00000010
,
00000100
00001000
00010000
01000000
00010000
01000000
00100000
01000000
,
10000000
00100000
00010000
00001000
00000010
00000001
00001000
00000001
,
00000100
00000000
00001000
00000000
00010000
00000000
00000000
00010000
00000000
00000000
01000000
00000000
10000000
00000000
00000000
10000000
,
00000000
00000000
01000000
00000000
00010000
00000000
00000000
00010000
00000000
00000000
00001000
00000000
00000010
00000000
00000000
00000001
,
00000000
00000000
00000001
00000000
00000100
00000010
00000100
00000010
00000100
00000010
00000100
00000010
00001000
00000001
00001000
00000001
,
00001000
00000001
00001000
00000001
00002000
00000000
00000000
00000000
00000000
00000000
00000000
00000000
00000000
00000000
00000000
00000000
,
00000000
00000200
00000000
00003300
,
00000000
00010010
00000000
00000000
,
00000000
00000000
00000000
00000000
,
00000000
00000000
00000000
00000000
01000000
00100000
10000000
00100000
00010000
00000000
00000000
00010000
00012000
00000010
00000000
00003010
,
00000001
00000100
00001000
00010000
00001000
00000000
00010000
00000000
01000000
00000000
00100000
00000000
10000000
00000000
01000000
00010000
,
00000000
00001000
00010000
00000000
00100000
00000000
00001000
00000000
00010000
00000000
00001000
00000000
00000100
00000000
00000001
00000010
,
00000000
00000100
00000010
00000000
00000001
00000000
00000100
00000000
00001000
00000000
00010000
00000000
00010000
00000000
00000000
00011000
,
00000000
00000000
01100000
00000000
10000000
00000000
01000000
00000000
00010000
00000000
01000000
00000000
10000000
00100000
10000000
00100000
,
01000000
00000000
00000000
00000000
01010000
00000000
00000000
00000000
00011000
00000000
00000100
00000000
00001000
00000000
00000010
00000100
,
00000000
00000001
00000010
00000000
00000110
00000000
00000000
00000000
00011000
00000000
00000000
00000000
01100000
00000000
00000000
00000000
,
10000000
01000000
10000000
00000000
00010000
01000000
00010000
00000000
,
00100000
00001000
00010000
00010000
,
00010000
00000000
00001000
00000000
00000100
00000010
00000100
00000000
,
00001000
00000000
00000001
00000000
00000100
00000001
00000100
00000001
,
00001000
00000000
00000100
00000000
00000010
00000000
00000100
00000000
00001000
00000000
00000100
00000000
,
00001000
00000001
00000010
00000010
,
00001000
00010000
01000000
00100000
,
10000000
01000000
10000000
01000000
00100000
00010000
00100000
00010000
,
10000000
00100000
01000000
00100000
,
00001000
00000000
00010000
00000010
00010000
00000000
00000010
00001000
,
00000010
00000100
00000001
00000001
,
00001000
00000000
00000100
00000000
00000010
00000100
00000010
00000000
,
00000001
00000010
00000100
00000000
00000010
00000100
00001000
00000000
,
00000100
00001000
00010000
00000000
00001000
00010000
00100000
00000000
,
01000000
00000000
00000000
00000000
,
00100000
00000000
10000000
00000000
00100000
00000000
00000000
00000000
10000000
00000000
00100000
00000000
01000000
00000000
00010000
00100000
,
02000000
00000000
00000000
00000000
,
03000000
00000000
00000000
00000000
;

//--------------- dance-double - Fred-104 ----------------
#NOTEDATA:;
#STEPSTYPE:dance-double;
#DESCRIPTION:Fred-104;
#DIFFICULTY:Hard;
#METER:18;
#CREDIT:Fred-104;
#NOTES:
00000000
00000000
00000000
00000000
,
00000000
00000000
00000000
00000000
,
00000000
00000000
00000000
00000000
,
00000000
00000000
00000000
00000000
,
00000000
00000000
00000000
00000000
,
00000000
00000000
00000000
00000000
,
00000001
00000000
00000000
00000010
00000000
00000000
00001000
00000010
00001000
00000000
00010000
00000000
00001000
00100000
00010000
01000000
,
00100000
00000000
01000000
00010000
01000000
00000000
00100000
00000000
10000000
00000000
01000000
00000000
00100000
00001000
00010000
00001000
,
00010000
00000000
00000000
00000100
00000000
00000000
00000001
00000010
00000100
00000000
00000010
00000000
00000001
00000100
00000010
00000100
,
00000002
00000003
00000000
00000000
00000000
00000000
00000000
00000000
00000000
00000000
00000000
00000000
00000000
00000000
00000000
00000000
00000010
00000000
00000000
00000000
00000001
00000000
00000000
00000000
00000000
00000000
00000000
00000000
00000001
00000000
00000000
00000000
00000100
00000000
00000000
00000000
00000000
00000000
00000000
00000000
00000100
00000000
00000000
00000000
00001000
00000000
00000000
00000000
00000000
00000000
00000000
00000000
00001000
00000000
00000000
00000000
00010000
00000000
00000000
00000000
00000000
00000000
00000000
00000000
,
00010000
00100000
01000000
10000000
00100000
10000000
00000000
10000000
01000000
00000000
01000000
00010000
00000000
00010000
00001000
00000000
,
00001000
00000100
00000001
00000010
00000100
00000010
00000000
00000010
00000001
00000000
00000001
00000100
00000000
00000100
00001000
00000000
,
00001000
00010000
01000000
00100000
01000000
00100000
00000000
00100000
10000000
00000000
10000000
01000000
00000000
01000000
00010000
00000000
,
00010000
00100000
01000000
10000000
00010000
00000000
01000000
00001000
00010000
00000100
00001000
00000000
00000010
00000100
00000001
00001000
,
00000200
00000300
00000000
00000000
00000000
00000000
00000000
00000000
00000010
00000000
00000000
00000000
00000001
00000000
00000000
00000000
00000010
00000000
00000000
00000000
00000000
00000000
00000000
00000000
00000001
00000000
00000000
00000000
00000100
00000000
00000000
00000000
00000010
00000000
00000000
00000000
00001000
00000000
00000000
00000000
00000000
00000000
00000000
00000000
00000100
00000000
00000000
00000000
00010000
00000000
00000000
00000000
00001000
00000000
00000000
00000000
00100000
00000000
00000000
00000000
00010000
00000000
00000000
00000000
,
02000000
03000000
00000000
00000000
00000000
00000000
00000000
00000000
00100000
00000000
00000000
00000000
01000000
00000000
00000000
00000000
00100000
00000000
00000000
00000000
10000000
00000000
00000000
00000000
00100000
00000000
00000000
00000000
10000000
00000000
00000000
00000000
01000000
00000000
00000000
00000000
00100000
00000000
00000000
00000000
00001000
00000000
00000000
00000000
00010000
00000000
00000000
00000000
00000100
00000000
00000000
00000000
00010000
00000000
00000000
00000000
00001000
00000000
00000000
00000000
00010000
00000000
00000000
00000000
,
00000010
00001000
00000100
00000010
00000002
00000000
00000000
00000000
00000000
00000000
00000000
00000000
00000000
00000000
00000000
00000000
,
00000000
00000000
00000000
00001003
,
00000000
00000000
00000000
00000000
00011000
00000000
00000000
00000000
00010000
00000000
00010000
01000000
10000000
00000000
01000000
00000000
,
10000000
01000000
00100000
00000000
00001000
00000000
00010000
00001000
00010000
00000100
00001000
00000000
00000010
00000100
00000010
00000100
,
00000001
00001000
00000001
00001000
00000001
00000010
00000100
00010000
00000000
00001000
00100000
00000000
01000000
00100000
10000000
00010000
,
00000000
00100000
00001000
00000000
00010000
00000000
00001000
00010000
00000100
00010000
00001000
00000000
00010000
00100000
00010000
00100000
,
01000000
00000000
00000000
10000000
00000000
00000000
00010000
00000000
00000000
01000000
00000000
00000000
00100000
00000000
00000000
00000000
00000000
00000000
10000000
00000000
01000000
00000000
00100000
00000000
00010000
00000000
00000000
00000000
00000000
00000000
01000000
00000000
00100000
00000000
10000000
00000000
00020000
00000000
00000000
00000000
00000000
00000000
00000000
00000000
00000000
00000000
00000000
00000000
,
00130000
00000000
00000000
00001000
00000000
00000000
00100000
00000000
00000000
00000000
00000000
00000000
00001000
00000000
00000000
00000000
00000000
00000000
00010000
00000000
00001000
00000000
00010000
00000000
00001000
00000000
00000000
00000000
00000000
00000000
00000010
00000000
00000000
00000000
00000000
00000000
00000200
00000000
00000000
00000000
00000000
00000000
00000000
00000000
00000000
00000000
00000000
00000000
,
00000301
00000100
00000001
00001000
00000100
00000000
00000010
00000000
00000001
00000010
00000100
00000000
00001100
00000000
00000000
00011000
,
00000000
00000000
00110000
00000000
01000000
00100000
00010000
00000000
10000000
01000000
00100000
00000000
01100000
00000000
00000000
11000000
,
00000000
00000000
01010000
00000000
00011000
00000000
00011000
00000000
00011000
00000000
00000000
00000000
00000100
00000000
00000010
00000001
,
00001000
00000000
00000000
00000000
00000100
00000000
00000000
00000000
00000001
00000000
00000000
00000000
00001000
00000000
00000000
00000000
00000000
00000000
00000010
00000000
00000000
00000100
00000000
00000000
00000010
00000000
00000000
00000000
00001000
00000000
00000000
00000000
00010000
00000000
00000000
00000000
00100000
00000000
00000000
01000000
00000000
00000000
00100000
00000000
00000000
00000000
00000000
00000000
,
00010000
00100000
01000000
10000000
00010000
01000000
00010000
01000000
00000000
00100000
01000000
00000000
00001000
00010000
00001000
00010000
,
00000000
00000100
00001000
00000000
00000010
00000100
00000001
00001000
00000100
00000000
00000010
00000000
00000001
00000000
00000100
00000000
,
00000010
00000000
00000000
00000000
00000010
00000000
00000000
00000000
00000100
00000000
00000000
00000000
00000000
00000000
00000000
00000000
00000022
00000033
00000000
00000000
00000000
00000000
00000000
00000000
00000000
00000000
00000000
00000000
00002002
00003003
00000000
00000000
00000000
00000000
00000000
00000000
00000000
00000000
00000000
00000000
00002020
00003030
00000000
00000000
00000000
00000000
00000000
00000000
00000100
00000000
00000000
00000000
00000000
00000000
00000000
00000000
00000010
00000000
00000000
00000000
00000000
00000000
00000000
00000000
,
00001000
00000000
00000000
00000010
00000000
00000000
00001000
00000000
00000000
00000010
00000000
00000000
00010000
00000000
00000000
00000000
00000000
00000000
00001000
00000000
00100000
00000000
00010000
00000000
10000000
00000000
00000000
00000000
00000000
00000000
01000000
00000000
00100000
00000000
01000000
00000000
00100000
00000000
00000000
00000000
00000000
00000000
00010000
00000000
00000000
00000000
00000000
00000000
,
00001000
00010000
00001000
00010000
00002000
00000000
00000000
00000000
00000000
00000000
00000000
00000000
00000000
00000000
00000000
00000000
,
00000000
00000000
00000000
00003000
,
00000000
00022000
00000000
00000000
,
00033000
00000000
00100000
00010000
00000010
00000001
00002000
00000000
,
00010000
00003010
00001000
00010000
00100000
10000000
00020000
01030000
,
00200000
00000000
00000000
00000000
01300000
00100000
01000000
00000000
10000000
00000000
01000000
00000000
00001000
00000000
00000200
00000000
,
00000000
00000301
00000100
00001000
01000000
10000000
00010000
01000000
,
00200000
00000000
00000000
00000000
02300000
03000000
00200000
00300000
10010000
00000000
00000000
00000000
10000000
00000000
00000000
00000000
01000000
00000000
00000000
00000000
00001000
00000000
00000000
00000000
00000200
00000000
00000000
00000000
00000000
00000000
00000000
00000000
,
00000301
00000010
00010000
00100000
00020000
00000000
00130000
10000000
,
01000000
00100000
01000000
00000000
00010000
00000000
00001000
00000000
00010000
00000000
02000000
00000000
00000000
00000000
03100000
00000000
,
10000000
01000000
00010000
01000000
00010000
00001000
00000100
00000010
,
00000001
00000000
00000100
00000000
00000001
00000000
00000100
00000000
00000010
00000000
00001000
00000100
00000000
00010000
00001000
00000000
,
00100000
00000000
01000000
00000000
10000000
00000000
00010000
00000000
00100000
00000000
00001000
00100000
00000000
00000010
00001000
00000000
,
00000100
00000000
00000010
00000000
00000001
00000000
00000010
00000000
00000001
00000000
00000100
00001000
00000000
00010000
00001000
00000000
,
00000100
00000000
00000000
00000000
00000000
00000000
00000001
00000000
00000000
00000000
00000000
00000000
00000010
00000000
00000100
00000000
00000010
00000000
00000100
00000000
00000010
00000000
00000100
00000000
00000010
00000000
00000000
00000000
00000000
00000000
00010000
00000000
00000000
00001000
00000000
00000000
00020000
00000000
00000000
00000000
00000000
00000000
00032000
00000000
00000000
00000000
00000000
00000000
,
00013000
00000000
00001000
00100000
00010000
00000000
01000000
00000000
01100000
00000000
00000000
11000000
00000000
00000000
01010000
00000000
,
00001000
00000000
00010000
00000100
00001000
00000000
00000001
00000000
00000011
00000000
00000000
00001001
00000000
00000000
00001010
00000000
,
00000100
00000000
00000000
00000010
00000000
00000000
00001000
00000000
00001000
00000000
00010000
00000000
00001000
00000000
00001000
00000000
00010000
00000000
01000000
00000000
00000000
00100000
00000000
00000000
,
20020000
30030000
00000000
00000000
00000000
00000000
00000000
00000000
00000000
00000000
00000000
00000000
00000000
00000000
00000000
00000000
10000000
00000000
00000000
00000000
00000000
00000000
00000000
00000000
00100000
00000000
00000000
00000000
10000000
00000000
00000000
00000000
01000000
00000000
00000000
00000000
00000000
00000000
00000000
00000000
00100000
00000000
00000000
00000000
00010000
00000000
00000000
00000000
01000000
00000000
00000000
00000000
00000000
00000000
00000000
00000000
00010000
00000000
00000000
00000000
10000000
00000000
00000000
00000000
,
01000000
00000000
10000000
00010000
01000000
00000000
00001000
00010000
00000100
00000000
00001000
00000010
00000100
00000000
00000001
00000010
,
00000100
00000000
00000010
00000001
00001000
00000000
00000001
00000100
00001000
00000000
00010000
01000000
10000000
00000000
10000000
01000000
,
00010000
00000000
00001000
00000010
00000001
00000000
00000001
00000010
00001000
00000000
00010000
01000000
10000000
00000000
10000000
00100000
,
00010000
00000000
00001000
00000100
00000001
00000010
00000100
00000010
00000000
00000010
00000001
00000000
00000100
00000010
00001000
00000100
,
00000000
00000100
00010000
00000000
00001000
00010000
01000000
00100000
00000000
00100000
01000000
00000000
00010000
01000000
00100000
10000000
,
00000000
10000000
01000000
00000000
00100000
00010000
10000000
00100000
01000000
00010000
00001000
00010000
00001000
00000100
00000010
00000100
,
00001000
00000010
00000100
00000001
00000020
00000000
00000000
00000000
00000000
00000000
00000000
00000000
00000000
00000000
00000000
00000000
,
00000000
00002000
00000000
00003030
,
00000000
00000200
00000000
00000000
,
00000000
00020300
00000000
00032000
,
02003000
00000000
00000000
00000000
00000000
00000000
00000000
00000000
00000000
00000000
00000000
00000000
03100000
00000000
00000000
10000000
00000000
00000000
01000000
00000000
00000000
00100000
00000000
00000000
00120000
00000000
00000000
00000000
00000000
00000000
00000000
00000000
00000000
00031000
00010000
00001000
00010000
00000000
00000000
00000020
00000000
00000000
00000000
00000000
00000000
00000031
00000000
00000000
,
00000100
00000000
00000001
00000100
00000001
00000000
00000100
00000000
00000001
00000000
00000010
00000000
00000100
00000000
00010000
00000000
00001000
00000000
00100000
00000000
00010000
00000000
00100000
00000000
01000000
00000000
10000000
00000000
00100000
00000000
01000000
00000000
,
00000000
00010000
10000000
00000000
00100000
10000000
01000000
00100000
00001000
00010000
00000100
00010000
00001000
00000100
00000010
00000001
,
00000000
00000100
00001000
00000000
00000100
00000000
00000001
00000000
00000010
00000000
00000100
00000000
00000110
00000000
00000000
00000100
,
00000000
00000000
00000000
00000000
00000000
00000000
00000010
00000000
00000100
00000000
00000001
00000000
00001000
00000000
00000000
00000000
00000000
00000000
00000020
00000000
00000000
00000000
00000000
00000000
00000000
00000000
00000000
00000000
00000000
00000000
00001030
00000000
00000000
00000000
00000000
00000000
00001000
00000000
00000000
00100000
00000000
00000000
00000000
00000000
00000000
00100000
00000000
00000000
,
01000000
00000000
00100000
00000000
00010000
01000000
00100000
10000000
01000000
00100000
00001000
00010000
00000100
00010000
00001000
00010000
,
00000000
00000000
00000010
00000000
00001000
00000000
00000000
00000000
00000100
00000000
00000010
00000000
00000001
00000000
00000100
00000000
00000010
00000000
00000100
00000000
00000001
00000000
00000100
00000000
00001000
00000000
00000000
00011000
00000000
00000000
00000000
00000000
,
01000000
00100000
01000000
00001000
00010000
00001000
01000000
00100000
,
10000000
00000000
00000000
01000000
00000000
00000000
00100000
00000000
00000000
00001000
00000000
00000000
00010000
00000000
00000000
00000000
00000010
00000000
00000000
00000000
00000100
00000000
00000000
00000000
,
00000001
00000000
00000000
00001000
00000100
00001000
00000100
00000000
00000000
00000001
00000100
00000001
,
00000100
00000000
00000010
00000000
00000100
00001000
00000001
00000010
,
00000100
00000000
00000010
00000000
00000001
00000000
00001000
00000010
00001000
00000010
00001000
00000010
,
00000100
00000000
00000000
00001000
00000000
00000000
00010000
00000000
00100000
00000000
10000000
00000000
,
00010000
00000000
00000000
00100000
01000000
00100000
01000000
00000000
00000000
10000000
01000000
10000000
,
01000000
00000000
00100000
00000000
00010000
00001000
00010000
00100000
,
00001000
00010000
00000010
00010000
00001000
00000100
00000001
00000010
,
00000100
00000000
00000000
00001000
00000000
00000000
00000001
00000000
00000000
00000100
00000000
00000000
00000010
00000000
00000000
00000000
00001000
00000000
00000000
00000000
00010000
00000000
00000000
00000000
,
00100000
00000000
00000000
01000000
00100000
01000000
00100000
00000000
00000000
10000000
00100000
10000000
,
00010000
00000000
01000000
00000000
10000000
00100000
01000000
00010000
,
00100000
00001000
00100000
00001000
00000000
00000000
00010000
00000010
00010000
00000010
00000000
00000000
,
00001000
00000010
00001000
00000010
00000000
00000000
00000100
00000001
00000100
00000001
00000000
00000000
,
00001000
00000000
00000000
00000000
,
00010000
00000000
00000000
00000000
00001000
00000000
00000000
00000000
00010000
00000000
00000000
00000000
00001000
00000000
00000000
00000000
00000000
00000000
00000000
00000000
00000000
00000000
00000000
00000000
00010000
00000000
00000000
00000000
00000000
00000000
00001000
00000000
00000000
00000000
00000000
00000000
00010000
00000000
00000000
01000000
00000000
00000000
10000000
00000000
00000000
00010000
00000000
00000000
,
00200000
00000000
00000000
00000000
,
00300000
00000000
00000000
00000000
;
