#TITLE:EBONY & IVORY;
#ARTIST:OSTER project;
#GENRE:RAGTIME CHIPTUNE;
#BANNER:EBONY & IVORY.png;
#BACKGROUND:EBONY & IVORY-bg.png;
#CDTITLE:./CDTitles/BeatStream.png;
#MUSIC:EBONY & IVORY.ogg;
#SAMPLESTART:12.7;
#SAMPLELENGTH:15;
#BPMS:0=170,164=113.333,188=170;

//--------------- dance-single - Fred-104 ----------------
#NOTES:
     dance-single:
     Fred-104:
     Beginner:
     3:
     :
0000
0000
0000
0000
,
0000
0000
0000
0000
,
0000
0000
0000
0000
,
0000
0000
0000
0000
,
0000
0000
0000
0000
,
0001
0000
0000
0000
,
0001
0000
0000
0000
,
1000
0000
0000
0000
,
1000
0000
0000
0000
,
0001
0000
0000
0000
,
0002
0000
0003
0000
,
1000
0000
0000
0000
,
0001
0000
0000
0000
,
1000
0000
0000
0000
,
2000
0000
3000
0000
,
0001
0000
0000
0000
,
0001
0000
0000
0000
,
1000
0000
0000
0000
,
0020
0000
0030
0000
,
1000
0000
0000
0000
,
0001
0000
0001
0000
,
0001
0000
0000
0000
,
0200
0000
0300
0000
,
0001
0000
0001
0000
,
0002
0000
0000
0003
,
0001
0000
0000
0000
,
0010
0000
0000
0000
,
1000
0000
0000
0000
,
0100
0000
0000
0000
,
0002
0000
0000
0003
,
2000
0000
0000
3000
,
0001
0000
0001
0000
,
1001
0000
0000
0000
,
0001
0000
0001
0000
,
0020
0000
0030
0000
,
1000
0000
1000
0000
,
0200
0000
0300
0000
,
0001
0000
0001
0000
,
1000
0000
1000
0000
,
0001
0000
0001
0000
,
1001
0000
0000
0000
,
1000
0000
0000
0000
,
1000
0100
0010
0000
,
0001
0000
1000
1000
,
0001
0000
0000
0000
,
0100
0010
0100
0000
,
0010
0010
1000
0000
,
0002
0003
0002
0003
,
0010
0000
1000
0000
,
0100
0000
0001
0000
,
2002
0000
0000
0000
,
3003
0000
0000
0000
,
0002
0000
0003
0000
,
2000
0000
3000
0000
,
0002
0000
0003
0000
,
2000
0000
3000
0000
,
0020
0000
0030
0000
,
0200
0000
0300
0000
,
0020
0000
0030
0000
,
0200
0000
0300
0000
,
0002
0000
0000
0000
,
0003
0000
0000
0000
,
2000
0000
0000
0000
,
3000
0000
0000
0000
,
0001
0001
0001
0000
,
1000
1000
1000
0000
,
0001
0000
1000
0001
,
1000
2002
3003
0000
;

//--------------- dance-single - Fred-104 ----------------
#NOTES:
     dance-single:
     Fred-104:
     Easy:
     8:
     :
0000
0000
0000
0000
,
0000
0000
0000
0000
,
0000
0000
0000
0000
,
0000
0000
0000
0000
,
0000
0000
0000
0000
,
1000
0100
0010
0000
,
0001
1000
0010
0000
,
1000
0001
0010
0000
,
0100
1000
0001
0000
,
0100
0000
0010
0000
0100
0001
0100
0000
,
0001
1000
1100
0000
,
0001
0000
1000
0000
0001
0100
0001
0000
,
1000
0100
0110
0000
,
0001
0000
1000
0000
0010
0100
0010
0000
,
1000
0001
0011
0000
,
0001
1000
0010
1000
,
0001
0010
0100
1000
,
0001
0000
0100
0000
0010
1000
0010
0000
,
0100
0001
1001
0000
,
1000
0000
0100
0000
0010
0100
0010
0000
,
0001
1000
1010
0000
,
0001
0000
1000
0000
0010
1000
0010
0000
,
0100
0001
0011
0000
,
0001
1000
0010
0100
,
0001
0000
1000
0000
0100
0010
0100
0000
,
0010
0000
0000
0001
0000
0000
1000
0000
,
0010
0000
0000
0100
0000
0000
0001
0000
,
1000
0000
0000
0100
0000
0000
0010
0000
,
0001
0000
1000
0000
0010
0010
0010
0000
,
1000
0000
0000
0010
0000
0000
0001
0000
,
0001
0000
0000
0100
0000
0000
1000
0000
,
2002
3003
0220
0330
,
0001
0000
1000
0000
0100
0010
0100
0000
,
0020
0000
0000
0001
0031
0000
1000
0000
,
0001
0100
0010
1000
,
0002
0000
0000
1000
1003
0000
0100
0000
,
0110
0000
0001
1000
,
0001
0010
0001
0010
,
1000
0100
1000
0100
,
0001
1000
0100
0010
,
2002
0000
3003
0000
,
1001
0000
1000
0000
0100
0100
0100
0000
,
0010
0000
0001
0000
1000
0000
0001
0001
,
0001
0100
0110
0000
,
0001
0000
0010
0000
0100
0100
0100
0000
,
1000
0000
0001
0000
0100
0100
0100
0000
,
0010
0000
1000
0000
0001
0001
0001
0000
,
1001
0000
0110
0000
,
0001
0000
1000
0000
0010
0100
0010
0000
,
1000
0100
0010
0001
,
2000
0000
0000
3000
,
2002
0000
3003
0000
,
0001
0010
0001
0000
0010
0000
0100
0000
,
1000
0001
1000
0000
0001
0000
0100
0000
,
0010
1000
0010
0000
0100
0000
0001
0000
,
1000
0100
1000
0000
0001
0100
0001
0000
,
1000
0100
1000
0000
0001
0000
0100
0000
,
0010
1000
0010
0000
0100
0000
0001
0000
,
1000
0100
1000
0000
1000
0001
1000
0000
,
0001
0100
0001
0000
0001
1000
0001
0000
,
0010
0000
0100
0000
1000
1000
1000
0000
,
0001
0100
0010
0100
,
0001
0000
1000
0000
0001
0001
0001
0000
,
1001
0000
0110
1001
,
0001
0100
1000
0010
,
0001
1000
0100
0010
,
0002
0000
1003
1000
,
0001
2002
3003
0000
;

//--------------- dance-single - Fred-104 ----------------
#NOTES:
     dance-single:
     Fred-104:
     Medium:
     12:
     :
0000
0000
0000
0000
,
0000
0000
0000
0000
,
0000
0000
0000
0000
,
0000
0000
0000
0000
,
0000
0000
0000
0000
,
1000
0000
0010
0000
0100
0000
0001
0000
1000
0000
0000
1000
0000
0000
1000
0000
,
0100
0000
0010
0000
0001
0000
1000
0000
0010
0000
0000
0010
0000
0000
0010
0000
,
0100
0000
0001
0000
1000
0000
0001
0000
0100
0000
0000
0100
0000
0000
0100
0000
,
0010
0000
1000
0000
0010
0000
0100
0000
0001
0000
0000
0001
0000
0000
0001
0000
,
1000
0100
0010
0001
1000
0010
0100
0001
,
1000
0100
0010
0000
0011
0000
1001
0000
,
0001
0100
1000
0100
0001
1000
0100
0010
,
0001
0000
1000
0000
0001
0000
1000
0000
0001
0000
0000
0001
0000
0000
0001
0000
,
0100
0010
0100
0001
0010
0100
1000
0001
,
0100
0010
1000
0000
0110
0000
1001
0000
,
0001
0010
0001
0010
1000
0010
1000
0010
,
0001
0010
0100
1000
0001
0100
0010
0000
,
1000
0001
0100
0010
1000
0001
0010
0100
,
1000
0001
0100
0000
0110
0000
1001
0000
,
0001
0010
1000
0010
0001
1000
0010
0100
,
0001
0000
1000
0000
0100
0000
0010
0000
0100
0000
0000
0100
0000
0000
0100
0000
,
1000
0001
0100
0010
0100
0001
0010
0100
,
1000
0001
0100
0000
0110
0000
1001
0000
,
1000
0100
1000
0100
0001
0100
0001
0100
,
1000
0001
0100
0010
1000
0001
0010
0000
,
0001
0010
0001
1000
0010
1000
0001
0010
,
0100
1000
0001
0100
0010
1000
0010
0000
,
1000
0001
0100
0001
1000
0100
0010
0001
,
1000
0010
0100
0010
1000
0001
0010
0000
,
0100
1000
0010
1000
0001
1000
0010
1000
,
0001
0010
0001
0100
0001
1000
0001
0010
,
0220
0330
2002
3003
,
0001
0000
1000
0000
0001
0000
0100
0010
0000
0010
0100
0000
0001
0000
1000
0000
,
0200
0000
0000
0310
0001
1000
0010
0100
,
0001
1000
0100
0010
0100
0000
1100
0000
,
2001
0000
0000
3001
0100
0000
0101
0000
,
0001
0100
1000
0100
0001
1000
0100
0010
,
0001
0000
1000
0001
0200
0000
0320
0000
,
0032
0023
0230
0320
,
1030
0001
0010
0100
1000
0001
0100
0001
,
2000
0000
3000
0000
,
0001
0000
1000
0000
0001
0001
0101
0000
,
2000
0000
3200
0000
0320
0000
0031
0001
,
0200
0000
0310
0100
0001
1000
0100
0010
,
0200
0000
1300
0000
0010
0010
0110
0000
,
0002
0000
0023
0000
0130
1000
0002
0000
,
0203
0000
0310
1000
0010
0100
0001
1000
,
2002
3003
0220
0330
,
0001
1000
0100
1000
0001
0100
0010
0000
,
0100
0010
1000
0100
,
0220
0000
0000
0330
,
2002
0000
3003
0000
,
0002
0023
0230
2300
,
3002
0203
0320
2030
,
3200
0320
0032
2003
,
3020
0000
0230
0000
0301
1000
0001
0000
,
1000
0100
1000
0000
0100
0001
0100
0000
,
1000
0010
1000
0000
0010
0001
0010
0000
,
1000
0001
0010
0000
0100
1000
0001
0000
,
0100
0010
0100
0010
1000
0010
0100
0001
,
1000
0000
0100
0000
0010
0001
1000
0000
,
0001
0100
0010
0100
0001
0100
0010
0000
,
1000
0000
0001
0000
0010
0100
1000
0000
,
0220
0330
1010
0101
,
0001
0010
0100
1000
0001
0100
0010
1000
,
0001
0010
0100
1000
0001
0000
0100
0100
,
0200
0000
0310
0100
,
0110
2002
3003
0000
;

//--------------- dance-single - Fred-104 ----------------
#NOTES:
     dance-single:
     Fred-104:
     Hard:
     16:
     :
0000
0000
0000
0000
,
0000
0000
0000
0000
,
0000
0000
0000
0000
,
0000
0000
0000
0000
,
0000
0000
0000
0000
,
0001
0000
0010
0000
0100
0000
1000
0000
0001
0000
0100
0001
0000
1000
0100
0000
,
0010
0000
0001
0000
1000
0000
0010
0000
0100
0000
0001
1000
0000
0100
1000
0000
,
0001
0000
0100
0000
0010
0000
1000
0000
0001
0000
0010
0100
0000
1000
0100
0000
,
0010
0000
0001
0000
1000
0000
0010
0000
0100
0000
0001
1000
0000
0100
1000
0000
,
0001
0000
0010
0000
0100
1000
0100
1000
0000
1000
0000
1000
0001
0000
0100
0000
,
0010
0000
0000
0000
0000
0000
1000
0000
0000
0001
0000
0000
0100
0000
0000
0001
0000
0000
1000
0000
0000
0001
0000
0000
0000
0000
0000
0000
1000
0000
0000
0000
0100
0000
0000
0000
0010
0000
0000
0000
0001
0000
0000
0000
1000
0000
0000
0000
,
0000
0000
0001
0000
0100
0010
0100
0010
0000
0000
1000
0000
0100
0000
1000
0000
,
0001
1000
0010
0000
0100
0001
1000
0000
1001
0000
0000
0110
0000
0000
0001
1000
,
0100
0000
0010
0000
0001
1000
0010
1000
0000
1000
0000
1000
0100
0000
0010
0000
,
0001
0000
1000
0000
0010
0100
0010
1000
0000
0001
0010
0100
1000
0000
0001
0000
,
1000
0010
1000
0010
0100
0001
0100
0001
1000
0100
1000
0100
0010
0001
0010
0001
,
0010
0000
0001
0000
1000
0000
0001
0000
0100
0000
0010
1000
0010
0000
0100
0000
,
0001
0000
1000
0000
0100
0010
0001
0010
0000
0010
0000
0010
0001
0000
1000
0000
,
0001
0000
0000
0000
0000
0000
0100
0000
0000
0000
0000
0000
0001
0000
0000
0100
0000
0000
0010
0000
0000
1000
0000
0000
0000
0000
0000
0000
0001
0000
0000
0000
1000
0000
0000
0000
0100
0000
0000
0000
0010
0000
0000
0000
0001
0000
0000
0000
,
0000
0000
1000
0000
0010
0100
0010
1000
0000
0000
0001
0000
0010
0000
0100
0000
,
2000
0000
3002
0000
0203
0000
0320
0000
0130
0000
0000
0110
0000
0000
0010
1000
,
0001
0000
0010
0000
0100
0010
0001
1000
0000
1000
0000
1000
0010
0000
1000
0000
,
0100
0000
1000
0000
0001
0100
0010
1000
0000
0001
0010
0100
1000
0000
0001
0000
,
0100
0001
0100
0001
1000
0100
1000
0100
0010
0001
0010
0001
1000
0001
1000
0001
,
1000
0000
0001
0000
0100
0000
0010
0000
1000
0000
0001
0010
0001
0000
1000
0000
,
0001
0100
0001
0000
1000
0000
0001
0010
0001
0000
1000
0000
0001
0100
0001
0000
,
1000
0100
1000
0000
0001
0000
1000
0010
1000
0000
0001
0010
0001
0010
0001
0000
,
1000
0010
1000
0000
0001
0000
1000
0100
1000
0000
0001
0100
0001
0100
0001
1000
,
0001
0000
0010
0000
0100
0000
1000
0000
0001
1000
0010
0000
0100
0000
0001
1000
,
0100
0010
0001
0000
1000
0000
0010
0100
0001
0000
1000
0000
0100
0010
0001
0000
,
1000
0001
0100
0000
0010
0000
1000
0001
0010
0000
0100
1000
0100
1000
0100
0000
,
0220
0330
2002
3003
,
0001
0010
0100
0000
1000
0000
0001
0100
0000
0010
1000
0001
0010
0001
1000
0000
,
1002
0000
0000
0000
0000
0000
1003
0001
0010
0000
0100
0000
0001
0000
0100
0000
,
1000
0001
0100
1000
0100
0000
0110
0000
,
0200
0000
0000
0000
0000
0000
0310
1000
0001
0000
0000
0000
1001
0000
0000
0000
,
0001
0000
1000
0100
1000
0000
0001
0100
0010
1000
0001
0000
0010
0100
1000
0000
,
1001
0000
0000
0000
1000
0010
0100
0001
2000
0000
0000
0000
3002
0000
0000
0000
,
0023
1000
0100
0031
,
1000
0010
1000
0010
0100
0001
0100
0001
1000
0100
1000
0100
0010
0001
0010
0001
,
2000
0000
3000
0000
,
0002
0000
0100
0100
0010
0013
1002
0000
,
2003
0000
0000
0000
0000
3001
0020
0000
0000
0000
0000
0000
0230
0000
0000
0000
0000
0000
0302
0000
0000
0203
0000
0000
,
2300
0000
0000
0000
3002
0000
0103
0010
1000
0100
0010
0001
0100
0010
1000
0000
,
1001
0000
0000
0000
0000
0000
0000
0000
0000
0000
0000
0000
0000
0000
0000
0000
0000
0000
0000
0000
0001
0000
0000
0000
0200
0000
0000
0000
0000
0000
0000
0000
0000
0000
0000
0000
0320
0000
0000
0000
0000
0000
0000
0000
0000
0000
0000
0000
0032
0000
0000
0000
0000
0000
0000
0000
0000
0000
0000
0000
0023
0000
0000
0000
0000
0000
0000
0000
0000
0000
0000
0000
2030
0000
0000
0000
0000
0000
0000
0000
0000
0000
0000
0000
0000
0000
0000
0000
0000
0000
3000
0000
0000
1000
0000
0000
,
0200
0000
0000
0000
0000
0310
0002
0000
0000
1003
0000
0001
0200
0000
0000
0320
0000
0000
0230
0000
0000
0000
0000
0000
,
0302
0000
0000
0000
2003
0000
3100
0010
0001
0100
0010
1000
0100
0010
0001
0000
,
1000
0010
0100
0001
1000
0000
0000
0000
0001
0010
0100
1000
0001
0000
0000
0000
,
1000
0100
1000
0001
0100
0001
1000
0100
1000
0000
0001
0010
0000
0100
1000
0000
,
0001
0000
0000
0000
0000
0000
0100
0000
0010
0000
0001
0000
0010
0000
0000
1000
0000
0000
0100
0000
0000
0010
0000
0000
,
0220
0000
0000
0330
,
2002
0000
3003
0000
,
0001
0010
0001
0010
0100
0000
1000
0000
0001
0100
0001
0100
0010
0000
1000
0000
,
0001
1000
0001
1000
0100
0000
0010
0000
0001
1000
0001
1000
0010
0000
1000
0000
,
0001
0100
0001
0100
0010
0000
1000
0000
0001
0010
0001
0010
0100
0000
0010
0000
,
0001
1000
0001
1000
0010
0000
0100
0000
0010
1000
0001
0000
0010
0000
0100
1000
,
0001
0100
0001
0000
1000
0100
1000
0000
0001
0010
0001
0000
1000
0010
1000
0000
,
0001
1000
0001
0000
0100
0010
0100
0000
0010
1000
0010
0000
0100
0001
0100
0000
,
0001
1000
0001
0000
1000
0100
1000
0000
0001
0010
0001
0000
1000
0010
1000
0000
,
0001
0010
0001
0010
0100
1000
0100
1000
0001
0100
0001
0100
0010
1000
0010
1000
,
0001
0000
1000
0000
0100
0010
0001
1000
0000
1000
0000
0010
1000
0000
0001
0000
,
1000
0000
0001
0010
0001
1000
0000
1000
0010
0100
0001
1000
0200
0000
0320
0000
,
0031
0000
1000
0000
0001
0100
0010
1000
0000
1000
0000
1000
0001
0000
0010
0000
,
0022
0033
1010
0101
,
1000
0010
1000
0001
0010
0001
1000
0100
1000
0001
0100
0001
1000
0100
0010
0001
,
1000
0001
0010
0100
1000
0001
0100
0010
1000
0000
0000
0000
0001
0000
0001
0000
,
2002
0000
0000
3003
0000
0000
0010
1000
0100
0010
0001
0100
,
0010
2002
3003
0000
;

//--------------- dance-single - Fred-104† ----------------
#NOTES:
     dance-single:
     Fred-104†:
     Challenge:
     18:
     :
0000
0000
0000
0000
,
0000
0000
0000
0000
,
0000
0000
0000
0000
,
1010
1010
0000
0101
0000
1100
0011
0110
,
1001
0000
0000
0000
0001
0001
0001
0000
,
1000
0000
0100
0000
0001
0000
0100
0000
1000
0000
0001
0010
0000
0100
1000
0000
,
0001
0000
0100
0000
1000
0000
0100
0000
0001
0000
1000
0010
0000
0100
0001
0000
,
1000
0000
0100
0000
0001
0000
0100
0000
1000
0000
0100
0010
0000
0001
1000
0000
,
0001
0000
0100
0000
1000
0000
0100
0000
0001
1000
0100
1000
0001
1000
0010
0000
,
1000
0000
0001
0000
0100
0001
1000
0001
0000
0100
0000
0100
0010
0000
0100
0000
,
0001
0000
0000
0000
0000
0000
1000
0000
0000
0001
0000
0000
0010
0000
0000
0100
0000
0000
0010
0000
0000
0001
0000
0000
0000
0000
0000
0000
1000
0000
0000
0000
0010
0000
0000
0000
0001
0000
0000
0000
0010
0000
0000
0000
1000
0000
0000
0000
,
0000
0000
0001
0000
1000
0100
0010
0001
0000
0000
1000
0000
0001
0100
0001
0000
,
1000
0100
0010
0001
1000
0010
1000
0001
0010
0000
0000
0110
0000
0000
0100
1000
,
0001
0000
0100
0000
0001
1000
0010
0100
0000
0001
0000
1000
0100
0000
0010
0000
,
0001
0000
1000
0000
0010
1000
0001
0010
0100
1000
0001
0100
0001
0000
1000
0000
,
0001
1000
0001
0010
0100
1000
0001
1000
0010
0100
0010
1000
0001
0010
0100
1000
,
0001
0000
0001
0000
1000
0000
1000
0000
0010
0100
0010
0100
0001
0000
1000
0000
,
0100
0000
0010
0000
0001
1000
0010
1000
0000
0001
0010
0100
0010
0000
0001
0000
,
1000
0000
0000
0010
0000
0000
0100
0000
0000
0001
0000
0000
0010
0000
0000
0100
0000
0000
1000
0000
0000
0001
0000
0000
1000
0000
0000
0000
0010
0000
0000
0000
0001
0000
0000
0000
1000
0000
0000
0000
0100
0000
0000
0000
0001
0000
0000
0000
,
1000
0000
0001
0000
1000
0001
0100
0001
0000
0010
0100
0010
0001
0000
1000
0000
,
0002
0000
0203
0000
2300
0000
3200
0000
0301
0000
0000
1001
0000
0000
1000
0010
,
0100
0000
0001
0000
1000
0100
1000
0001
0000
0100
0010
0100
0001
0000
1000
0000
,
0001
0000
0010
0000
0100
1000
0001
0100
0010
1000
0010
0100
0001
0000
1000
0000
,
0001
0010
0100
1000
0100
0010
0001
1000
0001
0100
0001
1000
0100
1000
0001
0100
,
0010
1000
0010
1000
0010
0100
0010
0100
0001
1000
0100
0010
0001
1000
0001
0000
,
1000
0001
0010
0000
0100
1000
0001
1000
0010
0000
0100
0001
1000
0001
0010
0000
,
0100
1000
0001
0000
0100
0001
1000
0001
0010
0000
0100
1000
0001
0100
0010
1000
,
0010
0100
0001
0000
1000
0001
0010
0001
1000
0000
0001
0100
0010
0100
0001
1000
,
0100
0000
0010
0001
1000
0010
0100
0001
0010
0100
1000
0001
0100
0000
0001
1000
,
0100
0010
0001
0000
1000
0010
0100
0010
1000
0000
0100
0010
0001
1000
0010
0000
,
0100
0001
0010
0000
0100
1000
0001
0100
0010
0000
1000
0001
0010
0001
0100
0000
,
0220
0330
2002
3003
,
1000
0001
0010
0000
1000
0000
0010
0100
0000
0010
0001
1000
0010
0100
0001
0000
,
1000
0100
0010
0001
0010
0100
1000
0001
0200
0000
1000
0000
0010
0000
0301
0000
,
2000
0000
0010
0000
0001
0000
3100
0000
0010
0000
0001
0010
0100
1000
0001
0000
,
1000
0010
0100
0001
0010
0100
1000
0001
0100
0000
0000
0000
0110
0000
0000
0000
,
1001
0000
1000
0001
0100
0000
0001
1000
0100
0010
0001
0100
0010
0100
0001
1000
,
0002
0000
0103
0010
2000
0000
3001
0010
0200
0000
1300
0010
0200
0000
1300
0100
,
0020
0000
1030
0001
0020
0000
0130
1000
0002
0000
0103
0010
0100
0001
1000
0000
,
0001
0010
0001
0100
0010
1000
0100
1000
0001
0100
0010
1000
0001
0010
0100
1000
,
0002
0000
0003
0000
,
1200
0000
1000
1000
0001
1300
0110
0000
,
2000
0000
0000
0000
0000
3100
0020
0000
0000
0000
0000
0000
0032
0000
0000
0000
0000
0000
2003
0000
0000
3002
0000
0000
,
0203
0000
0000
0000
0302
0000
1003
1000
0001
0010
1000
0001
0100
1000
0001
0100
,
0120
0000
0000
0000
0000
0000
0000
0000
0000
0000
0000
0000
0000
0000
0000
0000
0000
0000
0000
0000
1000
0000
0000
0000
1000
0000
0000
0000
0000
0000
0000
0000
0000
0000
0000
0000
0001
0000
0000
0000
0000
0000
0000
0000
0000
0000
0000
0000
0100
0000
0000
0000
0000
0000
0000
0000
0000
0000
0000
0000
0100
0000
0000
0000
0000
0000
0000
0000
0000
0000
0000
0000
2030
0000
0000
0000
0000
0000
0000
0000
0000
0000
0000
0000
0000
0000
0000
0000
0000
0000
0000
0000
0000
3001
0000
0000
,
0200
0000
0000
0000
0000
0310
0020
0000
1000
0001
0000
1030
2000
0000
0000
3200
0000
0000
0320
0000
0000
0000
0000
0000
,
2030
0000
0000
0000
0000
0000
3020
0000
0000
0031
0100
0010
1000
0100
0010
0001
0100
0010
1000
0100
0010
0001
0000
0000
,
1000
0000
0010
0000
0100
0000
0010
0000
0002
0003
0000
0000
0000
0000
0000
0000
1000
0000
0100
0000
0010
0000
0100
0000
0002
0003
0000
0000
0000
0000
0000
0000
,
1000
0100
0010
0001
1000
0010
0100
0001
1000
0000
0001
0010
0100
0010
0001
1000
,
0001
0000
0000
1000
0000
0000
0100
0000
0100
0000
0100
0000
0010
0000
0000
0000
0000
0000
0110
0000
0000
0000
0000
0000
,
1002
0000
1000
1000
0000
0100
0103
0000
,
0220
0330
2002
3003
,
0001
0010
0001
0010
0100
1000
0100
1000
0001
0100
0001
0100
0010
1000
0010
1000
,
0001
1000
0001
1000
0100
0010
0100
0010
0001
1000
0001
1000
0010
0100
0010
0100
,
0001
1000
0001
1000
0100
1000
0100
1000
0001
1000
0001
1000
0010
1000
0010
1000
,
0001
0010
0001
0010
0100
1000
0100
1000
0001
0100
0010
0000
1000
0000
0001
0010
,
0001
1000
0010
0100
0001
1000
0010
0100
0001
1000
0100
0010
0001
1000
0100
0010
,
0001
0010
0100
1000
0001
0010
0100
1000
0001
0100
0010
1000
0001
0100
0010
1000
,
0001
1000
0100
0010
0001
0010
0100
1000
0001
0100
0010
1000
0010
0100
0001
1000
,
0100
0010
0001
1000
0010
0100
0010
1000
0001
0010
0100
1000
0001
0100
0001
1000
,
0100
0000
0010
0000
0001
1000
0010
0100
0000
0010
0001
0010
0100
0000
0001
0000
,
1000
0000
0001
0010
0100
1000
0001
0100
0010
1000
0010
0100
0001
0000
1000
0000
,
0100
0000
0010
0000
0001
1000
0010
0001
0000
0010
0100
0010
1000
0001
0010
0100
,
1000
0000
0001
0100
0001
1000
0000
0100
0010
0100
1000
0001
0100
0010
1000
0000
,
0001
0010
0100
1000
0100
0010
0100
1000
0001
0100
0010
1000
0010
0100
0001
1000
,
0001
0000
0000
0010
0000
0000
0100
0000
0000
1000
0000
0000
0100
0000
0000
0010
0000
0000
0001
0000
0000
1000
0000
0000
0001
0000
0000
0000
0000
0000
0000
0000
0000
0000
0000
0000
1000
0000
0000
0000
0010
0000
1000
0000
0000
0000
0010
0000
,
2000
0000
0000
3000
0000
0000
0010
0010
0010
0100
0100
0100
,
1001
2002
3003
0000
;

//--------------- dance-double - Fred-104 ----------------
#NOTES:
     dance-double:
     Fred-104:
     Easy:
     8:
     :
00000000
00000000
00000000
00000000
,
00000000
00000000
00000000
00000000
,
00000000
00000000
00000000
00000000
,
00000000
00000000
00000000
00000000
,
00000000
00000000
00000000
00000000
,
00010000
00001000
00010000
00000100
,
00010000
00001000
00010000
00000010
,
00010000
00001000
00100000
00001000
,
00010000
00001000
01000000
00001000
,
00010000
00001000
00000100
00000001
,
00001000
00000100
00000110
00000000
,
00000001
00000100
00001000
00010000
,
00100000
10000000
10010000
00000000
,
10000000
01000000
00010000
00001000
,
00010000
00000100
00001100
00000000
,
00000001
00000010
00001000
00010000
,
00100000
00000000
10000000
00000000
00010000
10000000
00010000
00000000
,
00100000
01000000
10000000
00100000
,
00010000
00001000
00010000
00000000
00011000
00000000
00000000
00000000
,
00010000
00001000
01000000
00010000
,
10000000
01000000
10000000
00000000
10010000
00000000
00000000
00000000
,
00010000
10000000
01000000
00010000
,
00001000
00010000
00001000
00000000
00011000
00000000
00000000
00000000
,
00010000
00001000
00000010
00000100
,
00000010
00000000
00000001
00000000
00001000
00000010
00001000
00000000
,
00000001
00000000
00000000
00000010
00000000
00000000
00000100
00000000
,
00010000
00000000
00000000
00001000
00000000
00000000
01000000
00000000
,
00001000
00000000
00000000
00010000
00000000
00000000
00001000
00000000
,
00100000
00100000
00001000
00001000
,
00010000
00000000
00000000
00001000
00000000
00000000
00100000
00000000
,
00010000
00000000
00000000
00100000
00000000
00000000
01000000
00000000
,
20020000
30030000
02200000
03300000
,
10000000
01000000
00010000
00001000
,
00020000
00000000
00000000
00001000
00031000
00000000
00010000
00000000
,
00001000
00000100
00000001
00000010
,
00000200
00000000
00000000
00001000
00001300
00000000
00000100
00000000
,
00011000
00000000
00010000
00010000
,
00001000
00010000
00100000
10000000
,
01000000
00100000
00010000
00100000
,
00001000
00010000
00000010
00010000
,
00022000
00000000
00033000
00000000
,
00001000
00010000
00000100
00000010
,
00000001
00000100
00001000
00010000
,
00100000
01000000
00010000
10000000
,
00100000
00010000
00001000
00010000
,
00000100
00000010
00000100
00001000
,
00000001
00000100
00001000
00010000
,
00011000
00000000
00011000
00000000
,
00001000
00010000
00001000
00000000
01000000
00010000
01000000
00000000
,
00100000
10000000
01000000
00100000
,
00002000
00000000
00000000
00003000
,
00022000
00000000
00000000
00033000
,
00010000
00001000
00010000
00000000
00000010
00000000
00001000
00000000
,
00000001
00000010
00000001
00000000
00000010
00000000
00000100
00000000
,
00010000
00001000
00010000
00000000
00100000
00000000
01000000
00000000
,
00010000
10000000
00010000
00000000
10000000
00000000
00100000
00000000
,
10000000
01000000
10000000
00000000
10000000
00010000
10000000
00000000
,
00010000
01000000
00010000
00000000
00010000
00100000
00010000
00000000
,
00100000
00001000
00100000
00000000
00100000
00010000
00100000
00000000
,
00001000
00010000
00001000
00000000
00001000
01000000
00001000
00000000
,
00010000
00000000
00001000
00000000
00000100
00000001
00000100
00000000
,
00000010
00001000
00000001
00000010
,
00000100
00000000
00010000
00000000
00001000
01000000
00001000
00000000
,
00022000
00033000
00000110
00001001
,
00000001
00000100
00000010
00000100
,
00001000
00010000
00001000
01000000
,
00020000
00000000
10030000
10000000
,
00010000
20020000
30030000
00000000
;

//--------------- dance-double - Fred-104 ----------------
#NOTES:
     dance-double:
     Fred-104:
     Medium:
     12:
     :
00000000
00000000
00000000
00000000
,
00000000
00000000
00000000
00000000
,
00000000
00000000
00000000
00000000
,
00000000
00000000
00000000
00000000
,
00000000
00000000
00000000
00000000
,
00001000
00000000
00010000
00000000
00100000
00000000
01000000
00000000
00100000
00000000
00000000
00100000
00000000
00000000
00100000
00000000
,
10000000
00000000
00010000
00000000
00100000
00000000
01000000
00000000
00100000
00000000
00000000
00100000
00000000
00000000
00100000
00000000
,
00001000
00000000
00000010
00000000
00000100
00000000
00001000
00000000
00000001
00000000
00000000
00000001
00000000
00000000
00000001
00000000
,
00000100
00000000
00001000
00000000
00010000
00000000
00001000
00000000
01000000
00000000
00000000
01000000
00000000
00000000
01000000
00000000
,
00010000
10000000
01000000
10000000
00100000
01000000
00100000
00010000
,
00001000
00010000
00000100
00000000
00000110
00000000
00001001
00000000
,
00000001
00000100
00001000
00000100
00000001
00001000
00000100
00000010
,
00000100
00000000
00010000
00000000
00001000
00000000
00000000
00000000
00010000
00000000
00000000
00010000
00000000
00000000
00010000
00000000
,
00001000
00010000
01000000
00100000
00010000
10000000
00100000
00010000
,
00001000
00010000
00000100
00000000
00010100
00000000
01001000
00000000
,
00001000
00010000
00001000
00010000
00100000
10000000
00100000
10000000
,
00010000
00100000
01000000
00010000
00001000
00010000
00001000
00000000
,
00010000
00001000
00000100
00000010
00000001
00000010
00000100
00000010
,
00001000
00000001
00000010
00000000
00001100
00000000
00010100
00000000
,
00010000
00001000
00010000
01000000
00100000
10000000
00100000
00010000
,
10000000
00000000
00100000
00000000
00010000
00000000
00000000
00000000
00001000
00000000
00000000
00001000
00000000
00000000
00001000
00000000
,
00010000
00001000
00000100
00000001
00001000
00000100
00000010
00000001
,
00001000
00000010
00000100
00000000
00000101
00000000
00011000
00000000
,
00010000
00001000
00010000
00001000
00000010
00001000
00000010
00001000
,
00010000
00001000
00100000
00010000
10000000
00100000
01000000
00000000
,
00010000
10000000
01000000
00010000
00001000
00010000
00000010
00000000
,
00010000
00001000
00000100
00000010
00001000
00000001
00000010
00000000
,
00000100
00001000
00000001
00000100
00001000
00010000
00001000
00000000
,
00010000
00001000
00000010
00001000
00010000
00001000
01000000
00000000
,
00010000
10000000
00100000
00010000
00001000
00000100
00000010
00001000
,
00000100
00000010
00000001
00001000
00000010
00000100
00001000
00010000
,
00022000
00033000
00000220
00000330
,
00000001
00000010
00001000
00010000
00100000
10000000
00010000
00100000
,
01000000
00000000
10000000
00010000
01000000
10000000
01000000
00010000
,
10000000
01000000
00010000
00001000
00010000
00000000
00011000
00000000
,
00000110
00000000
00000001
00000010
00000100
00000000
00011000
00000000
,
00002000
00023000
02030000
23000000
,
30010000
00000000
10000000
01000000
00200000
00000000
00302000
00000000
,
00003020
00000230
00002300
00003002
,
00000013
00000100
00010000
00001000
00100000
00010000
10000000
00100000
,
02000000
00000000
03000000
00000000
,
00010000
00000000
10000000
00000000
01000000
01000000
01100000
00000000
,
00002000
00000000
00023000
00000000
00030020
00000000
00001030
00001000
,
00000200
00000000
00000310
00000001
00000100
00001000
00010000
01000000
,
20000000
00000000
30100000
00000000
00010000
00010000
00011000
00000000
,
00002000
00000000
00023000
00000000
00130000
01000000
00200000
00000000
,
00320000
00000000
00031000
00010000
00000010
00010000
00001000
00000000
,
00022000
00033000
00022000
00033000
,
00001000
00010000
00100000
10000000
00010000
00100000
01000000
00010000
,
00001000
00000010
00000001
00000100
,
00000220
00000000
00000000
00000330
,
00022000
00000000
00033000
00000000
,
00001000
00010000
00001000
00000000
00001000
01000000
00001000
00000000
,
00010000
00000100
00010000
00000000
00010000
00001000
00010000
00000000
,
00001000
01000000
00001000
00000000
00001000
00100000
00001000
00000000
,
00010000
00000100
00010000
00000000
00010000
00000010
00010000
00000000
,
00001000
00010000
00001000
01000000
00010000
01000000
00001000
00000000
,
00010000
00000100
00001000
00000100
00000010
00000001
00001000
00000000
,
00000010
00000100
00001000
00010000
00001000
00010000
00100000
00000000
,
01000000
00010000
10000000
01000000
00100000
00001000
00010000
00001000
,
00010000
00000000
00001000
00000000
00000100
00000001
00001000
00000000
,
00000100
00000010
00000001
00000000
00000100
00001000
00010000
00000000
,
00001000
00000000
01000000
00000000
00010000
10000000
01000000
00000000
,
02200000
03300000
11000000
00110000
,
10000000
00100000
00010000
00001000
00010000
01000000
00010000
00001000
,
00000010
00000001
00001000
00000100
00000010
00000000
00000001
00000001
,
00000002
00000003
00001000
00000001
,
00000110
00002002
00003003
00000000
;

//--------------- dance-double - Fred-104 ----------------
#NOTES:
     dance-double:
     Fred-104:
     Hard:
     16:
     :
00000000
00000000
00000000
00000000
,
00000000
00000000
00000000
00000000
,
00000000
00000000
00000000
00000000
,
00000000
00000000
00000000
00000000
,
00000000
00000000
00000000
00000000
,
00010000
00000000
00001000
00000000
00010000
00000000
00001000
00000000
00000100
00000000
00000001
00001000
00000000
00000100
00000010
00000000
,
00000001
00000000
00001000
00000000
00000001
00000000
00001000
00000000
00000010
00000000
00000100
00001000
00000000
00010000
00001000
00000000
,
01000000
00000000
00010000
00000000
10000000
00000000
01000000
00000000
00100000
00000000
00010000
10000000
00000000
00100000
00010000
00000000
,
00001000
00000000
00000100
00000000
00000010
00000000
00000100
00000000
00000001
00000000
00001000
00000001
00000000
00000010
00000100
00000000
,
00010000
00000000
00001000
00000000
01000000
00010000
01000000
00010000
00000000
00010000
00000000
00010000
00100000
00000000
01000000
00000000
,
10000000
00000000
00000000
00000000
00000000
00000000
00010000
00000000
00000000
01000000
00000000
00000000
00010000
00000000
00000000
01000000
00000000
00000000
00001000
00000000
00000000
00010000
00000000
00000000
00000000
00000000
00000000
00000000
00001000
00000000
00000000
00000000
00010000
00000000
00000000
00000000
00000010
00000000
00000000
00000000
00001000
00000000
00000000
00000000
00000100
00000000
00000000
00000000
,
00000000
00000000
00010000
00000000
00001000
00010000
00000010
00001000
00000000
00000000
00000100
00000000
00000010
00000000
00000001
00000000
,
00000200
00000000
00002300
00000000
00023000
00000000
00230000
00000000
10300000
00000000
00000000
01100000
00000000
00000000
00010000
10000000
,
01000000
00000000
00100000
00000000
00001000
00010000
00001000
00010000
00000000
00010000
00000000
00010000
00001000
00000000
00000100
00000000
,
00000001
00000000
00001000
00000000
00000100
00000010
00000100
00000010
00000000
00000001
00001000
00000010
00001000
00000000
00000001
00000000
,
00000010
00000100
00001000
00000000
00000100
00010000
00001000
00000000
01000000
00010000
10000000
00010000
00100000
01000000
10000000
00010000
,
01000000
00000000
00001000
00000000
00010000
00000000
00001000
00000000
00000100
00000000
00000010
00001000
00000001
00000000
00000010
00000000
,
00000100
00000000
00010000
00000000
00001000
00010000
00001000
00010000
00000000
00010000
00000000
00010000
00001000
00000000
01000000
00000000
,
00010000
00000000
00000000
00000000
00000000
00000000
01000000
00000000
00000000
00000000
00000000
00000000
00001000
00000000
00000000
00010000
00000000
00000000
00000010
00000000
00000000
00001000
00000000
00000000
00000000
00000000
00000000
00000000
00000001
00000000
00000000
00000000
00000010
00000000
00000000
00000000
00000100
00000000
00000000
00000000
00010000
00000000
00000000
00000000
00001000
00000000
00000000
00000000
,
00000000
00000000
00010000
00000000
00001000
00010000
00001000
00100000
00000000
00000000
01000000
00000000
10000000
00000000
00010000
00000000
,
02000000
00000000
03200000
00000000
00320000
00000000
00032000
00000000
00013000
00000000
00000000
00011000
00000000
00000000
00001000
00010000
,
00000010
00000000
00010000
00000000
00001000
00100000
00010000
00100000
00000000
00100000
00000000
00100000
00001000
00000000
00010000
00000000
,
00000010
00000000
00001000
00000000
00000001
00000010
00000100
00001000
00000000
00000010
00000100
00001000
00010000
00000000
00001000
00000000
,
00010000
00000100
00001000
00000000
00000100
00010000
00001000
00000000
01000000
00001000
00010000
00000100
00001000
00000100
00000010
00000001
,
00001000
00000000
00000010
00000000
00000100
00000000
00001000
00000000
00010000
00000000
00001000
00010000
00001000
00000000
01000000
00000000
,
00001000
00010000
00001000
00000000
00100000
00000000
00001000
00010000
00001000
00000000
01000000
00000000
00001000
00010000
00001000
00000000
,
00010000
00000100
00010000
00000000
00001000
00000000
00010000
00000010
00010000
00000000
00000010
00001000
00000001
00001000
00000100
00000000
,
00000010
00000001
00000010
00000000
00000001
00000000
00001000
00000010
00001000
00000000
00000010
00010000
00001000
00010000
00001000
00000000
,
00010000
00000000
00100000
00000000
01000000
00000000
00100000
00000000
10000000
00010000
00100000
00000000
01000000
00000000
10000000
00010000
,
01000000
00010000
10000000
00000000
01000000
00000000
00100000
00001000
00010000
00000000
00000100
00000000
00001000
00000100
00000010
00000000
,
00000001
00001000
00000010
00000000
00010000
00000000
00001000
00100000
00010000
00000000
01000000
00010000
10000000
00010000
00100000
00000000
,
00202000
00303000
00020020
00030030
,
00010000
00001000
00010000
00000000
00001000
00000000
00000100
00000001
00000000
00001000
00000100
00000010
00000001
00000100
00000010
00000000
,
00002000
00000000
00000000
00000000
00000000
00000000
00003100
00000010
00001000
00000000
00010000
00000000
01000000
00000000
00100000
00000000
,
00010000
01000000
00100000
00010000
00001000
00000000
00011000
00000000
,
01002000
00000000
00000000
00000000
00000000
00000000
01003000
00001000
00010000
00000000
00000000
00000000
00010010
00000000
00000000
00000000
,
00010000
00000000
00001000
01000000
00010000
00000000
00100000
00001000
00010000
00000100
00001000
00000000
00000010
00010000
00001000
00000000
,
00011000
00000000
00000000
00000000
00001000
00010000
00100000
01000000
00200000
00000000
00000000
00000000
20300000
00000000
00000000
00000000
,
32000000
03020000
00032000
00023000
,
00031000
00100000
00010000
00000000
01000000
00010000
10000000
00000000
01000000
00100000
00010000
00100000
00001000
00010000
00000010
00001000
,
00000002
00000000
00000003
00000000
,
00001001
00000000
00000002
00000023
00002030
00023000
02030000
00000000
,
23000000
00000000
00000000
00000000
00000000
30010000
02000000
00000000
00000000
00000000
00000000
00000000
03200000
00000000
00000000
00000000
00000000
00000000
00320000
00000000
00000000
00230000
00000000
00000000
,
20300000
00000000
00000000
00000000
32000000
00000000
03100000
00001000
00010000
00001000
00000010
00000001
00000010
00000100
00001000
00000010
,
00010000
00000000
00000000
00000000
00000000
00010000
00002000
00000000
00000000
00003200
00000000
00000000
00000302
00000000
00000000
00002003
00000000
00000000
00003200
00000000
00000000
00000000
00000000
00000000
,
00000320
00000000
00000000
00000000
00000000
00000031
00000200
00000000
00000000
00001300
00000000
00010000
00200000
00000000
00000000
02300000
00000000
00000000
23000000
00000000
00000000
00000000
00000000
00000000
,
32000000
00000000
00000000
00000000
03020000
00000000
10030000
01000000
00100000
01000000
00010000
00001000
00000010
00000001
00001000
00000000
,
00000001
00001000
00000010
00010000
00001000
00000000
00000000
00000000
00010000
00001000
01000000
00010000
10000000
00000000
00000000
00000000
,
00010000
00100000
00010000
10000000
00100000
10000000
00010000
00100000
01000000
00000000
00100000
00001000
00000000
00010000
00000010
00000000
,
00001000
00000000
00000000
00000000
00000000
00000000
00000100
00000000
00000010
00000000
00000001
00000000
00000100
00000000
00000000
00001000
00000000
00000000
00010000
00000000
00000000
00001000
00000000
00000000
,
00022000
00000000
00000000
00033000
,
02200000
00000000
03300000
00000000
,
10000000
01000000
10000000
00000000
01000000
00100000
01000000
00000000
00100000
00001000
00100000
00000000
00001000
00010000
00001000
00000000
,
00010000
00000010
00010000
00000000
00000010
00001000
00000010
00000000
00000100
00000001
00000100
00000000
00000001
00001000
00000001
00000000
,
00000010
00000100
00000010
00000000
00000100
00001000
00000100
00000000
00010000
00001000
00010000
00000000
00001000
01000000
00001000
00000000
,
01000000
00010000
01000000
00000000
00100000
10000000
00100000
00000000
10000000
00010000
00100000
00000000
01000000
00000000
00100000
00001000
,
00010000
00001000
00010000
00001000
00000100
00000000
00000001
00000000
00001000
00000100
00001000
00000100
00000010
00000000
00000001
00000000
,
00001000
00000010
00001000
00000010
00000100
00000000
00001000
00000000
00010000
00100000
00010000
00100000
01000000
00000000
00010000
00000000
,
00100000
01000000
00100000
01000000
10000000
00000000
00100000
00000000
00010000
00001000
00010000
00001000
00010000
00000000
00000010
00000000
,
00010000
00001000
00010000
00000010
00001000
00000010
00010000
00001000
00010000
00000100
00001000
00000100
00010000
00001000
00010000
00001000
,
00010000
00000000
00001000
00000000
01000000
00010000
01000000
00010000
00000000
00010000
00000000
00010000
00100000
00000000
01000000
00000000
,
10000000
00000000
00010000
01000000
00100000
10000000
00000000
10000000
01000000
00100000
00010000
00100000
00002000
00000000
00023000
00000000
,
00030010
00000000
00010000
00000000
00001000
00010000
00000010
00001000
00000000
00001000
00000000
00001000
00000001
00000000
00000010
00000000
,
00000220
00000330
00011000
01100000
,
00010000
10000000
00010000
10000000
01000000
00100000
01000000
00100000
00001000
00010000
00001000
00010000
00000010
00001000
00000010
00001000
,
00000001
00000010
00000100
00001000
00000100
00010000
00001000
01000000
00001000
00000000
00000000
00000000
00010000
00000000
00010000
00000000
,
00010000
00000000
00000000
00000000
00000000
00000000
00000001
00000100
00001000
00010000
01000000
10000000
,
00100000
20020000
30030000
00000000
;

//--------------- dance-double - Fred-104† ----------------
#NOTES:
     dance-double:
     Fred-104†:
     Challenge:
     18:
     :
00000000
00000000
00000000
00000000
,
00000000
00000000
00000000
00000000
,
00000000
00000000
00000000
00000000
,
00010100
00010100
00000000
01001000
00000000
00010010
00010000
00001000
,
00101000
00000000
00000000
00000000
10000000
10000000
10000000
00000000
,
00010000
00000000
10000000
00000000
01000000
00000000
00010000
00000000
00001000
00000000
00000100
00000001
00000000
00001000
00000100
00000000
,
00001000
00000000
00000001
00000000
00000010
00000000
00001000
00000000
00010000
00000000
00100000
10000000
00000000
00010000
00100000
00000000
,
01000000
00000000
10000000
00000000
00010000
00000000
01000000
00000000
00100000
00000000
00010000
00001000
00000000
00000010
00000100
00000000
,
00001000
00000000
00000010
00000000
00000100
00000000
00001000
00000000
00010000
00000000
01000000
00100000
00010000
10000000
00100000
00000000
,
01000000
00000000
00010000
00000000
10000000
01000000
10000000
01000000
00000000
00010000
00000000
00001000
00010000
00000000
00000100
00000000
,
00001000
00000000
00000000
00000000
00000000
00000000
00000001
00000000
00000000
00000100
00000000
00000000
00000001
00000000
00000000
00000100
00000000
00000000
00000001
00000000
00000000
00001000
00000000
00000000
00000000
00000000
00000000
00000000
00000100
00000000
00000000
00000000
00010000
00000000
00000000
00000000
00001000
00000000
00000000
00000000
00010000
00000000
00000000
00000000
00100000
00000000
00000000
00000000
,
00000000
00000000
10000000
00000000
00010000
10000000
01000000
00100000
00000000
00000000
00001000
00000000
00010000
00000000
00001000
00000000
,
00000100
00000001
00000100
00000001
00001000
00000100
00000010
00000001
00000010
00000000
00000000
00001001
00000000
00000000
00000001
00000100
,
00001000
00000000
00010000
00000000
00001000
00100000
00001000
00100000
00000000
00010000
00000000
10000000
00100000
00000000
00010000
00000000
,
00001000
00000000
00010000
00000000
00000100
00001000
00000100
00010000
00001000
01000000
00010000
01000000
00001000
00000000
00010000
00000000
,
00001000
00010000
00001000
00010000
00100000
01000000
00100000
01000000
00010000
10000000
00010000
10000000
01000000
00100000
00010000
00100000
,
00001000
00000000
00010000
00000000
00001000
00000000
00010000
00000000
00000010
00001000
00000010
00000100
00000001
00000000
00001000
00000000
,
00000100
00000000
00000010
00000000
00000001
00000100
00000001
00001000
00000000
00000100
00000000
00000010
00001000
00000000
00010000
00000000
,
00001000
00000000
00000000
00000000
00000000
00000000
00010000
00000000
00000000
00001000
00000000
00000000
01000000
00000000
00000000
00010000
00000000
00000000
10000000
00000000
00000000
00010000
00000000
00000000
00100000
00000000
00000000
00000000
01000000
00000000
00000000
00000000
10000000
00000000
00000000
00000000
00010000
00000000
00000000
00000000
01000000
00000000
00000000
00000000
00010000
00000000
00000000
00000000
,
10000000
00000000
01000000
00000000
00100000
00001000
00010000
00001000
00000000
00000000
00010000
00000010
00010000
00000000
00001000
00000000
,
00020000
00000000
00032000
00000000
00003200
00000000
00000302
00000000
00000013
00000000
00000000
00000110
00000000
00000000
00000001
00000010
,
00001000
00000000
00010000
00000000
00001000
00010000
00100000
01000000
00000000
00010000
00000000
10000000
00010000
00000000
00100000
00000000
,
01000000
00000000
10000000
00000000
00010000
01000000
00001000
00010000
00000100
00001000
00000100
00000010
00000100
00000000
00000010
00000000
,
00000001
00001000
00000010
00000100
00001000
00010000
00001000
00000000
01000000
00010000
10000000
01000000
00100000
00010000
00100000
00000000
,
00001000
00010000
00001000
00010000
00000010
00010000
00000010
00010000
00001000
00100000
00010000
10000000
00100000
01000000
00010000
00000000
,
10000000
01000000
00100000
00000000
00001000
00010000
00000010
00010000
00001000
00000000
00010000
00000100
00001000
00000100
00000010
00000000
,
00000001
00001000
00000010
00000000
00001000
00000001
00000010
00000100
00010000
00000000
00001000
00100000
00010000
00100000
00001000
00010000
,
00001000
01000000
00010000
00000000
10000000
00010000
00100000
00001000
00010000
00000000
00001000
00010000
00000010
00001000
00000010
00001000
,
00000001
00000000
00000010
00000100
00001000
00000000
00000100
00010000
00001000
01000000
00010000
00000000
10000000
00000000
01000000
00100000
,
00010000
00100000
00001000
00000000
00010000
00000010
00001000
00000010
00010000
00000000
00001000
00100000
00010000
00100000
00001000
00000000
,
00010000
00000100
00001000
00000000
00000100
00000010
00000001
00001000
00000010
00000000
00000100
00000001
00001000
00000100
00010000
00000000
,
00022000
00033000
02200000
03300000
,
00010000
00100000
01000000
00000000
10000000
00000000
00010000
01000000
00000000
10000000
01000000
00100000
01000000
00010000
10000000
00000000
,
01000000
00000000
00100000
00001000
00010000
00000000
00001000
00000100
00000002
00000000
00000010
00000000
00002003
00000000
00000100
00000000
,
00003001
00000100
00001000
00010000
00001000
00000000
01100000
00000000
,
10010000
00000000
10000000
01000000
00010000
00000000
00001000
00010000
00001000
00000000
00000000
00000000
00000110
00000000
00000000
00000000
,
00001001
00000000
00000001
00000100
00000010
00000000
00000100
00001000
00010000
00001000
01000000
00000000
00010000
10000000
01000000
00000000
,
20000000
00000000
31000000
00100000
00020000
00000000
10030000
00100000
00020000
00000000
00031000
00000100
00000020
00000000
00001030
00000100
,
00000020
00000000
00000031
00000010
00000200
00000000
00001300
00000010
00000200
00000000
00001300
00000000
02000000
00000000
03010000
00000000
,
10000000
01000000
10000000
01000000
00100000
00001000
00100000
00001000
00010000
00000010
00010000
00000010
00001000
00000001
00000010
00000100
,
00002000
00000000
00003000
00000000
,
00021000
00000000
00001000
00001000
00100000
00031000
00011000
00000000
,
00002000
00000000
00000000
00000000
00000000
00013000
00200000
00000000
00000000
00000000
00000000
00000000
02300000
00000000
00000000
00000000
00000000
00000000
03020000
00000000
00000000
20030000
00000000
00000000
,
32000000
00000000
00000000
00000000
03020000
00000000
00030100
00000010
00000001
00000100
00010000
01000000
00001000
00010000
00100000
10000000
,
10010000
00000000
00000000
00000000
00000000
00000000
00000000
00000000
00000000
00000000
00000000
00000000
00000000
00000000
00000000
00000000
00000000
00000000
00000000
00000000
10000000
00000000
00000000
00000000
20000000
00000000
00000000
00000000
00000000
00000000
00000000
00000000
00000000
00000000
00000000
00000000
32000000
00000000
00000000
00000000
00000000
00000000
00000000
00000000
00000000
00000000
00000000
00000000
03002000
00000000
00000000
00000000
00000000
00000000
00000000
00000000
00000000
00000000
00000000
00000000
00003200
00000000
00000000
00000000
00000000
00000000
00000000
00000000
00000000
00000000
00000000
00000000
00020300
00000000
00000000
00000000
00000000
00000000
00000000
00000000
00000000
00000000
00000000
00000000
00000000
00000000
00000000
00000000
00000000
00000000
00030000
00000000
00000000
00010000
00000000
00000000
,
00002000
00000000
00000000
00000000
00000000
00010000
00010000
00000000
00000000
00000010
00000000
00000000
00023000
00000000
00000000
00032000
00000000
00000000
00003200
00000000
00000000
00000000
00000000
00000000
,
00000302
00000000
00000000
00000000
00000000
00000000
00002003
00000000
00000000
00003001
00000010
00000100
00000010
00001000
00010000
00001000
00010000
00100000
01000000
00100000
10000000
00010000
00000000
00000000
,
10000000
00000000
01000000
00000000
00010000
00000000
00001000
00000000
00000020
00000030
00000000
00000000
00000000
00000000
00000000
00000000
00000001
00000000
00000100
00000000
00001000
00000000
00010000
00000000
00200000
00300000
00000000
00000000
00000000
00000000
00000000
00000000
,
10000000
00010000
10000000
01000000
00100000
00010000
00100000
00001000
00010000
00000000
00000010
00001000
00000010
00000100
00000001
00001000
,
00000100
00000000
00000000
00010000
00010000
00010000
00010000
00000000
00000000
00011000
00000000
00000000
,
00020020
00000000
00000000
00030030
,
00202000
00303000
00022000
00033000
,
00001000
00010000
00001000
00010000
01000000
00100000
01000000
00100000
00010000
10000000
00010000
10000000
00100000
01000000
00100000
00010000
,
00001000
00010000
00001000
00010000
00000010
00001000
00000010
00001000
00000001
00001000
00000001
00001000
00000100
00000010
00000001
00000000
,
00001000
00000010
00001000
00000010
00010000
00001000
00010000
00001000
00100000
00010000
00100000
00010000
10000000
00100000
10000000
00010000
,
01000000
00010000
01000000
00010000
10000000
01000000
10000000
01000000
00100000
00010000
00100000
00000000
00001000
00000000
00010000
00000010
,
00001000
00000001
00000010
00000100
00001000
00000001
00000010
00000100
00001000
00000100
00010000
00001000
01000000
00010000
01000000
00001000
,
00010000
00001000
00100000
00010000
10000000
00100000
10000000
00010000
00100000
00001000
00010000
00000010
00010000
00001000
00010000
00000000
,
00001000
00100000
00010000
00100000
00001000
00010000
00000010
00001000
00000010
00000100
00000001
00001000
00000100
00000010
00000001
00000010
,
00000100
00001000
00000001
00000100
00000010
00001000
00000010
00010000
00001000
01000000
00010000
10000000
01000000
00100000
00010000
00100000
,
00001000
00000000
00010000
00000000
00000100
00001000
00000100
00000010
00000000
00001000
00000010
00000001
00000010
00000000
00000100
00000000
,
00001000
00000000
00000001
00000100
00000010
00000100
00001000
00010000
00001000
00010000
00001000
01000000
00010000
00000000
10000000
00000000
,
00010000
00000000
10000000
00000000
00010000
00100000
01000000
00100000
00000000
10000000
00100000
01000000
00100000
00010000
10000000
00100000
,
01000000
00000000
00100000
00010000
00001000
00010000
00000000
00010000
00000100
00001000
00000001
00001000
00000010
00000100
00000001
00000000
,
00001000
00000100
00000010
00000001
00001000
00000010
00010000
00001000
00100000
00001000
00010000
00001000
01000000
00010000
10000000
00010000
,
00100000
00000000
00000000
01000000
00000000
00000000
10000000
00000000
00000000
00010000
00000000
00000000
10000000
00000000
00000000
01000000
00000000
00000000
10000000
00000000
00000000
00010000
00000000
00000000
01000000
00000000
00000000
00000000
00000000
00000000
00000000
00000000
00000000
00000000
00000000
00000000
00001000
00000000
00000000
00000000
00010000
00000000
00001000
00000000
00000000
00000000
00010000
00000000
,
00002000
00000000
00000000
00003000
00000000
00000000
00010000
00010000
00010000
00001000
00001000
00001000
,
00011000
00022000
00033000
00000000
;
