#TITLE:Dragon Blade;
#ARTIST:Kozo Nakamura;
#BANNER:Dragon Blade.png;
#BACKGROUND:Dragon Blade-bg.png;
#CDTITLE:./CDTitles/GF 11thMIX & dm 10thMIX.png;
#MUSIC:Dragon Blade.ogg;
#SAMPLESTART:37.251;
#SAMPLELENGTH:15;
#DISPLAYBPM:240;
#BPMS:0=240.8,4=240;
#STAGE:14;

//--------------- dance-single - Fred-104 ----------------
#NOTES:
     dance-single:
     Fred-104:
     Beginner:
     6:
     :
0000
0000
0000
0000
,
0000
0000
0000
0000
,
0000
0000
0000
0000
,
0000
0000
0000
0000
,
0000
0000
0000
0000
,
0000
0000
0000
0000
,
1000
0000
0000
1000
0000
0000
0001
0000
,
0000
0001
0000
0000
,
0100
0000
0000
0100
0000
0000
0010
0000
,
0000
0010
0010
0000
,
1000
0000
1000
0000
,
0001
0000
1000
0000
,
0001
0000
0100
0000
,
0001
0000
0001
0001
,
0001
0000
0100
0000
,
0010
0000
0100
0000
,
0001
0000
1000
0000
,
0001
0000
1000
1000
,
1000
0000
0001
0000
,
1000
0000
0001
0000
,
1000
0000
0010
0000
,
0100
0000
0001
0000
,
1000
0000
0001
0000
,
0100
0100
0100
0000
,
0001
0000
1000
0000
,
0001
0000
0100
0000
,
0001
0000
0000
0000
,
1000
0000
0000
0000
,
0001
0000
1000
0000
,
0010
0000
0100
0000
,
0010
0000
1000
0000
,
0001
0001
0001
0000
,
1000
0000
0000
0000
0010
0000
0000
0100
,
0000
0000
0001
0000
,
1000
0000
0001
0000
,
1000
0000
0001
0000
,
1000
0000
0000
0000
0001
0000
0000
1001
,
0000
0000
0000
0000
,
1000
0000
0000
0010
0000
0000
1000
0000
,
0000
0000
0001
0000
,
0100
0001
0100
0000
,
0001
1000
0001
0000
,
1000
0100
1000
0000
,
0001
1000
0001
1000
,
0001
0000
1000
0000
,
0010
0000
0100
0000
,
0001
0000
0000
1000
0000
0000
0001
0000
,
0000
0000
1000
0010
,
1000
0000
0010
0000
,
0100
0000
0001
0000
,
1000
0000
0000
0001
0000
0000
1000
0000
,
0000
0001
0000
0000
1000
0000
0001
0000
,
0100
0000
0000
0010
0000
0000
0110
0000
,
0000
0000
0000
0000
,
1000
0000
0010
0000
,
1000
0000
0001
0001
,
0100
0000
0010
0000
,
0100
0100
0010
0000
,
1000
0000
0001
0000
,
1000
0000
0010
0100
,
0010
0000
0100
0000
,
0001
1000
0001
1000
,
0001
0000
1000
0000
,
0010
0000
0100
0000
,
0001
0000
1000
0000
,
0001
0000
1000
0000
,
0010
0000
1000
0000
,
1000
0000
0100
0000
,
0010
0000
0001
0000
,
1000
0000
0001
0000
,
2000
0000
3000
0000
,
0001
0000
0000
0100
0000
0000
0001
0000
,
0020
0000
0000
0030
,
0001
0000
0000
1000
0000
0000
0010
0000
,
0200
0000
0000
0300
,
0001
0000
0000
1000
0000
0000
0001
0000
,
0100
0000
0010
0000
,
1000
0000
0001
0000
,
1000
1000
1000
0000
,
0001
0001
0001
0000
,
0100
0000
0000
0100
0000
0000
0100
0000
,
0000
0010
0010
0000
,
1000
0000
0010
0000
,
1000
0000
0001
0000
,
0100
0000
0010
0000
,
0100
0100
0100
0000
,
0001
0000
1000
0000
,
0001
0000
0100
0000
,
0001
0000
0000
0000
,
0010
0000
0000
0000
,
1000
0000
1000
0000
,
0100
0000
0001
0000
,
1000
0000
0001
0000
,
0100
0010
0100
0000
,
0001
0000
0000
0000
0100
0000
0000
0010
,
0000
0000
1000
0000
,
0010
0000
0100
0000
,
0002
0000
2003
0000
,
3020
0000
0230
0000
,
0300
0000
0000
0000
,
2002
3003
1000
0000
,
0010
0000
0100
0000
,
0001
0000
1000
0000
,
0001
0000
1000
0000
,
0001
0000
0000
0000
,
1000
0000
0000
0010
0000
0000
0010
0000
,
0100
0000
0001
0000
,
1000
0000
0000
0001
0000
0000
1000
0000
,
2002
3003
1000
0000
,
0010
0000
0100
0000
,
0001
0000
1000
0000
,
0001
0000
0100
0000
,
0002
0000
0000
0003
,
0100
0000
0000
0010
0000
0000
0100
0000
,
0001
0000
1000
0000
,
0010
0000
0100
0000
,
0001
0000
1000
0000
,
2002
0000
3003
0000
;

//--------------- dance-single - Fred-104 ----------------
#NOTES:
     dance-single:
     Fred-104:
     Easy:
     11:
     :
0000
0000
0000
0000
,
0000
0000
0000
0000
,
0000
0000
0000
0000
,
0000
0000
0000
0000
,
0000
0000
0000
0000
,
0000
0000
0000
0000
,
1000
0000
0000
0010
0000
0000
0100
0000
,
0000
0000
0001
0000
0000
0100
0000
0000
,
0010
0000
0000
0100
0000
0000
0010
0000
,
0000
1000
1000
0010
,
1000
0100
1000
0100
,
0010
0100
0010
0001
,
1000
0100
1000
0100
,
0001
0100
0001
0200
,
1300
0010
1000
0010
,
0100
0010
0100
0001
,
1000
0010
0001
0010
,
1000
0010
0001
0010
,
1000
0000
1000
0000
0001
0100
0000
0000
,
0001
0000
0001
0000
1000
0010
0000
0000
,
1000
0010
1000
0100
,
1000
0100
0010
0001
,
1000
0001
0100
0010
,
0100
0001
2000
0000
,
3001
0100
0001
0100
,
0010
0100
0010
1000
,
0000
0010
0000
1000
0000
0010
0000
1000
,
0000
0100
0000
0010
0000
0001
1000
0000
,
0001
0010
0001
0100
,
0010
0100
0001
1000
,
0010
0100
0001
1000
,
0001
1000
0200
0000
,
0310
0000
0001
0000
1000
0000
0010
0100
,
0000
0000
0001
0000
1000
0001
1000
0000
,
0001
0001
1000
0010
,
1000
0100
1000
0000
0001
0100
0001
0000
,
0200
0000
0000
0000
0310
0100
0010
0100
,
0000
0000
0001
1000
0001
1000
0001
0000
,
1000
0000
0000
0010
0000
0000
0110
0000
,
0000
0100
0100
0001
,
1000
0000
0001
0100
0001
0000
0100
0000
,
0010
0000
1000
0100
1000
0000
0100
0000
,
0010
0000
0001
0010
0001
0000
1000
0000
,
0001
0000
0100
0010
0100
0000
0001
0000
,
2000
0000
0000
0000
3001
1000
0001
1000
,
0000
0001
0000
1000
0000
0001
0000
0000
,
1000
0000
0000
0100
0000
0000
1100
0000
,
0000
0001
0000
0000
0100
0000
0010
0000
,
1000
2000
3001
0002
,
1003
0010
0100
0001
,
1000
0000
0000
0010
0000
0000
0100
0000
,
0000
0001
0000
0000
1000
0000
0010
0000
,
0100
0010
0000
0100
0010
0000
0100
0010
,
0000
0000
0000
0000
,
0001
1000
0000
0000
0000
0000
0000
0000
,
0000
0000
0000
0000
0010
0100
0000
0000
,
0001
0100
0000
0000
0000
0000
0000
0000
,
0001
1000
2002
3003
,
1000
0100
0000
0000
1000
0100
0000
0000
,
0010
0001
0000
0000
0010
0001
0000
0000
,
1000
0010
1000
0001
,
1000
0100
1000
0000
0001
0100
0001
0000
,
2000
3200
0320
0032
,
2003
3020
0230
0302
,
0203
0320
0230
0302
,
1003
0010
0100
0100
,
0002
0023
0230
2300
,
3002
2003
3020
0230
,
0302
2003
3200
2300
,
3020
0230
0301
0001
,
2002
0000
0000
3003
,
1000
0000
0000
0010
0000
0000
0100
0000
,
0002
0000
0000
0013
,
0002
0000
0000
2003
0000
0000
3020
0000
,
0230
0000
0301
1000
,
0002
0000
0000
2003
0000
0000
3200
0000
,
2300
0000
3001
1000
,
0001
0100
0001
0000
1000
0100
1000
0000
,
0001
0100
0101
0000
,
1000
0100
1100
0000
,
0011
0000
0000
1010
0000
0000
1001
0000
,
0000
0000
0010
0100
0010
0000
0000
0000
,
1000
0010
0100
0010
,
1000
0100
0010
0001
,
0100
0001
0100
0010
,
1000
0001
2000
0000
,
3001
0100
0010
0100
,
0001
0100
0010
1000
,
0000
0010
0000
1000
0000
0010
0000
0100
,
0000
0001
0000
1000
0000
0001
1000
0000
,
0010
0100
0010
1000
,
0100
0010
0001
1000
,
0001
0100
0001
0010
,
0001
0100
0002
0000
,
1003
0000
0010
0000
0100
0000
0001
0100
,
0000
0001
0100
0100
,
0010
1000
0010
0000
1000
0000
0001
0000
,
1000
0000
0010
0000
1000
0000
0010
0000
0100
0000
0010
0000
,
0100
0000
0001
0000
0100
0000
0001
0000
1000
0000
0001
0000
,
0000
0000
0000
0000
,
2002
0000
0000
3003
0001
0000
0100
0000
,
0001
0100
0001
0001
,
0100
0010
1000
0001
,
1000
0100
0010
0001
,
2001
0000
3010
0100
,
0001
0000
1000
0100
0000
1000
0100
0000
,
0010
0001
1000
0010
,
0100
0000
0000
0100
0000
0000
0100
0000
,
0220
0330
0100
0010
,
0100
0001
1000
0001
,
1000
0100
0010
0001
,
1000
0000
0001
0100
0000
0001
0100
0000
,
0020
0000
1030
0010
,
0100
0000
0001
0010
0000
0001
1000
0000
,
0001
0100
0001
0000
1000
0100
1000
0000
,
0001
0010
0001
0000
1000
0010
1000
0000
,
0001
0100
0010
1000
,
2002
0000
3003
0000
;

//--------------- dance-single - Fred-104 ----------------
#NOTES:
     dance-single:
     Fred-104:
     Medium:
     14:
     :
0000
0000
0000
0000
,
0000
0000
0000
0000
,
0000
0000
0000
0000
,
0000
0000
0000
0000
,
0000
0000
0000
0000
,
0000
0000
0000
0000
,
1000
0100
1000
0100
0000
0000
0010
0001
,
0000
0000
0100
0010
0100
0010
0000
0000
,
1000
0001
1000
0001
0000
0000
0100
0001
,
0000
0000
0100
0000
0010
0100
0010
0000
,
1000
0010
0100
0101
,
0001
0010
0100
1100
,
1000
0010
0001
0010
,
1000
0010
0001
0020
,
1030
0001
1000
1100
,
0100
0010
0001
0101
,
0001
0100
1000
0100
,
0001
0100
0010
1000
,
0001
0000
0001
0000
0100
0010
0000
0010
,
0100
0001
0100
0000
0010
1000
0000
0000
,
0001
0100
0001
0100
,
0010
1000
0010
0000
1000
0000
0100
0000
,
0010
0100
0010
0000
0001
0000
1000
0000
,
0001
1000
0001
1000
0002
0000
0000
0000
,
1003
0100
1000
0000
0001
0100
0001
0000
,
1000
0100
1000
0000
0001
0010
0001
0000
,
0000
1000
0000
0010
0000
0010
0000
1010
,
0000
1000
0000
0001
1000
0001
0100
0000
,
0001
0000
0010
0000
0001
0100
0001
0000
,
1000
0100
0000
0010
0001
0000
0010
0000
,
0001
1000
0010
0100
,
0010
0100
0010
0100
0020
0000
0000
0000
,
1030
0000
0001
0100
0001
0000
0100
0010
,
0000
0000
1000
0000
0001
0010
0001
0000
,
1000
0010
1000
0000
0001
0100
0001
0000
,
0100
0010
0100
0010
0100
0010
0100
0010
,
0200
0000
0000
0000
0301
1000
0001
1000
,
0000
0000
0001
0100
0001
0100
0010
0000
,
1010
0000
0000
0101
0000
0000
1001
0000
,
0000
0000
0010
1000
0010
0100
0010
0000
,
1000
0000
0001
0100
0001
0100
0001
0100
,
0001
0000
1000
0100
1000
0100
1000
0100
,
1000
0000
0001
0100
0010
0100
0010
0100
,
0010
0000
1000
0001
1000
0001
1000
0001
,
2000
0000
0000
0000
3001
0100
0001
0100
,
0000
0010
0000
1000
0000
0001
0000
0001
,
1000
0000
0000
1100
0000
0000
0110
0000
,
0000
0011
0000
0000
0001
0100
0001
0000
,
1000
0000
0001
0010
0001
0000
1000
0010
,
1000
0000
0001
0100
0001
0000
1000
0000
,
0001
0010
0000
0010
0100
0000
0100
1000
,
0000
1000
0010
0000
0100
0010
0100
0000
,
0001
0100
0000
0001
0010
0000
0001
1000
,
0000
0000
0000
0000
,
1000
0010
0000
0000
0000
0000
0000
0000
,
0000
0000
0000
0000
0100
0001
0000
0000
,
0100
0010
0000
0000
0000
0000
0000
0000
,
0010
0110
2002
3003
,
1000
0100
0000
0000
0100
0001
0000
0000
,
0001
0010
0000
0000
0010
2000
0000
3000
,
1000
1000
0001
0001
,
1000
0100
1000
0100
0010
0100
0010
0000
,
0001
0100
0001
0000
0100
0010
0100
0000
,
0010
1000
0010
0000
1000
0100
1000
0000
,
0001
0100
0010
0000
1000
0100
0010
0000
,
0002
0000
0103
0010
0100
0000
0001
1000
,
0001
0100
0001
0000
1000
0100
1000
0000
,
0010
0100
0010
0000
1000
0100
1000
0000
,
0001
0000
0010
0001
1000
0000
0010
1000
,
0001
0000
0100
1000
0001
0000
0100
0001
,
2000
0000
3010
0100
,
0001
0000
0100
0010
0000
1000
0010
0000
,
0200
0000
0000
0000
0301
0000
1000
0100
,
1000
0000
0100
0010
0000
0010
0001
0000
,
2000
0000
3001
0100
,
0002
0000
0003
2000
0000
3000
0002
0000
,
0203
0010
0010
1300
,
0001
1000
0001
1000
0001
1000
0001
0000
,
1001
0000
1000
0000
0010
0100
0000
0000
,
0001
0100
0001
0000
1000
0001
0000
0000
,
1000
0000
0000
0100
0000
0000
1001
0000
,
0000
0000
0001
1000
0020
0000
0030
0000
,
1000
0100
1000
0000
0010
0100
0010
0000
,
0100
0001
0100
0000
0001
0010
0001
0000
,
1000
0010
1000
0010
1000
0010
1000
0000
,
0001
0100
0001
0100
0020
0000
0000
0000
,
1030
0100
1000
0000
0100
0010
0100
0000
,
0010
0001
0010
0000
0001
1000
0001
0000
,
0000
0001
0000
0100
0000
0100
0000
0010
,
1000
0010
0000
1000
0100
1000
0010
0000
,
1000
0100
1000
0000
0010
0100
0010
0000
,
0100
0001
0100
0000
0001
0010
0001
0000
,
1000
0001
1000
0001
1000
0001
1000
0000
,
0001
0100
0010
0100
0020
0000
0000
0000
,
0130
0000
0001
0100
0001
0000
0100
0010
,
0000
0000
1000
0000
0001
0100
0001
0000
,
1000
0010
1000
0010
1000
0010
0100
0000
,
0001
0000
0010
0000
0001
0000
1000
0000
0010
0000
0100
0000
,
0001
0000
0010
0000
0100
0000
1000
0000
0001
0000
1000
0000
,
0000
0000
0000
0000
,
2002
0000
0000
3003
0001
0100
0001
0100
,
0001
0100
0010
0100
,
0010
1000
1000
0001
,
1000
0001
1000
0001
1000
0001
1000
0001
,
2000
0000
3010
0010
,
1000
0000
0010
0100
0000
0010
1000
0000
,
0001
0100
0002
0000
1003
0100
2000
0000
,
3001
0000
0000
0100
0000
0000
0010
0000
,
2002
0000
0000
3003
0100
0000
0010
0000
,
1000
0100
0010
0010
,
0001
1000
0001
0100
,
0001
0010
0001
0010
0001
0010
0001
0010
,
0200
0000
1300
0010
,
0100
0000
0001
1000
0000
0001
0100
0000
,
0001
0100
0001
0000
1000
0100
1000
0000
,
0001
0010
0001
0000
1000
0010
1000
0000
,
0001
1000
0001
1000
0010
0100
0010
0100
,
0002
0000
0003
0000
;

//--------------- dance-single - Fred-104 ----------------
#NOTES:
     dance-single:
     Fred-104:
     Hard:
     17:
     :
0000
0000
0000
0000
,
0000
0000
0000
0000
,
0000
0000
0000
0000
,
0000
0000
0000
0000
,
0000
0000
0000
0000
,
0000
0000
0000
0000
,
1000
0010
0100
0001
0000
0000
1000
1000
,
0000
0000
0001
0010
0001
0100
0000
0000
,
0001
0010
0001
1000
0000
0000
0001
0001
,
0000
0000
1000
0010
0100
0001
1000
0100
,
1000
1100
0001
0101
,
1000
1010
0001
0011
,
2000
3100
0002
0103
,
2000
3010
0002
0023
,
1030
1100
0001
0011
,
1000
1010
0001
0101
,
2000
3010
0200
0301
,
0200
0000
0310
0000
1000
0001
0100
0010
,
1010
0000
1001
0000
0001
0100
0000
0100
,
0001
1000
0001
0000
1000
0100
0000
0010
,
0001
0000
0100
0010
0100
0001
0100
0010
,
1000
0000
0010
0000
0100
0000
0001
0000
1000
0000
0100
0010
0100
0000
0010
0000
,
0001
0100
0010
0100
1000
0100
0010
0100
,
0001
1000
0001
0010
0200
0000
0000
0000
,
1300
0100
1000
0100
0001
0100
0001
0100
,
1000
0010
1000
0010
0001
0010
0001
0010
,
0000
1010
0000
0011
0000
1100
0000
0101
,
0100
0000
0010
0000
0000
0000
1000
0000
0001
1000
0001
1000
0001
0000
0100
0000
,
0001
0000
0001
0001
1000
0010
0100
0001
,
1000
0100
0000
0100
0010
0001
1000
0001
,
1000
0100
0010
0000
0100
0000
0001
0100
,
1000
0100
0010
0100
0002
0000
0000
0000
,
1003
0000
0001
0100
0010
1000
0100
0110
,
0000
0010
0001
1000
0001
0100
0010
0100
,
0001
0000
0010
0000
0100
1000
0100
0000
0010
0000
0001
0000
1000
0010
1000
0000
,
0001
0100
0001
0100
1000
0100
1000
0100
,
0002
0000
0000
0000
0103
0100
0100
0010
,
0000
0000
0000
0000
0000
0000
1000
0000
0000
0010
0000
0000
1000
0000
0100
0000
0010
0000
0001
0000
0100
0000
0010
0000
,
1000
0000
0001
0011
0000
1000
2020
0000
,
3030
0000
0001
1000
0010
0100
0001
1000
,
0001
0000
0000
0000
0000
0000
0000
0000
0000
0000
0000
0000
0000
0000
0000
0000
0020
0030
0000
0000
0000
0000
0000
0000
0020
0030
0000
0000
0000
0000
0000
0000
1000
0000
0000
0000
0000
0000
0000
0000
0001
0000
0000
0000
0000
0000
0000
0000
0100
0000
0000
0000
0000
0000
0000
0000
0010
0000
0000
0000
0000
0000
0000
0000
,
1000
0000
0000
0000
0000
0000
0000
0000
0000
0000
0000
0000
0000
0000
0000
0000
0200
0300
0000
0000
0000
0000
0000
0000
0200
0300
0000
0000
0000
0000
0000
0000
0001
0000
0000
0000
0000
0000
0000
0000
1000
0000
0000
0000
0000
0000
0000
0000
0100
0000
0000
0000
0000
0000
0000
0000
0010
0000
0000
0000
0000
0000
0000
0000
,
0001
0000
0000
0000
0000
0000
0000
0000
0000
0000
0000
0000
0000
0000
0000
0000
0200
0300
0000
0000
0000
0000
0000
0000
0200
0300
0000
0000
0000
0000
0000
0000
1000
0000
0000
0000
0000
0000
0000
0000
0001
0000
0000
0000
0000
0000
0000
0000
0100
0000
0000
0000
0000
0000
0000
0000
0010
0000
0000
0000
0000
0000
0000
0000
,
1000
0000
0000
0001
0100
0001
1000
0100
1000
0010
0100
0001
,
2000
0000
0000
0000
3001
0100
0001
1000
,
0000
1010
0000
0101
0000
0110
0000
0001
,
1001
0000
0000
0110
0000
0000
1100
0000
,
0000
0001
0100
0010
1000
0100
0010
0100
,
1000
0000
0000
0000
0000
0000
0000
0000
0000
0000
0000
0000
0000
0000
0000
0000
0200
0300
0000
0000
0000
0000
0000
0000
0200
0300
0000
0000
0000
0000
0000
0000
0001
0000
0000
0000
0000
0000
0000
0000
0000
0000
0000
0000
0000
0000
0000
0000
0200
0300
0000
0000
0000
0000
0000
0000
0200
0300
0000
0000
0000
0000
0000
0000
,
1000
0010
0100
0001
1000
0100
0010
0001
,
1000
1010
0000
0001
0011
0000
1000
1100
,
0000
0001
0101
0000
1000
0100
0010
0001
,
1000
1000
0000
0001
0001
0000
0100
0110
,
0000
0000
0000
0000
0000
0000
0001
0000
0100
0000
0001
0000
1000
0000
0000
0100
0000
0000
0010
0000
0000
0001
0000
0000
,
1000
1000
0000
1000
0100
0010
0001
0100
,
0001
1000
0010
0100
0001
1001
0000
0000
,
0100
0100
0000
0010
0001
1000
0100
1000
,
1100
0101
2002
3003
,
1000
0100
0000
0100
0001
0100
0000
0100
,
1000
0010
0000
0010
0001
2002
0000
3003
,
1100
0010
0101
0010
,
1000
0000
0000
0100
0000
0000
0010
0000
0000
0001
0000
0000
1000
0000
0010
0000
0100
0000
0001
0000
0100
0000
0010
0000
,
1000
0000
0100
0000
0010
0001
0010
0000
0001
0000
0100
0000
0001
1000
0001
0000
,
0100
0000
0010
0000
1000
0100
1000
0000
0100
0000
0010
0000
0001
1000
0001
0000
,
0100
0000
0010
0100
0010
0000
1000
0000
0100
0000
0010
0100
0010
0000
0001
0000
,
2000
0000
0000
0000
0000
0000
0000
0000
0000
0000
0000
0000
0000
0000
0000
0000
3200
0300
0000
0000
0000
0000
0000
0000
0200
0300
0000
0000
0000
0000
0000
0000
0001
0000
0000
0000
0000
0000
0000
0000
1000
0000
0000
0000
0000
0000
0000
0000
0100
0000
0000
0000
0000
0000
0000
0000
0010
0000
0000
0000
0000
0000
0000
0000
,
0001
0100
0010
1000
0100
0010
0001
1000
0010
0100
0001
0100
,
0001
0010
0100
1000
0010
1000
0100
0010
0001
1000
0001
0100
,
0010
0000
0000
0000
1000
0100
1000
0100
0010
0000
0000
0000
0001
0100
0001
0100
,
0010
0000
0000
0000
1000
0001
1000
0001
1000
0000
0010
0000
0100
0000
0001
0000
,
2000
0010
0100
3010
,
2000
0000
3020
0230
0000
0320
0032
0000
,
1003
0000
0001
0000
0100
0000
0001
1000
,
0002
0000
0203
2300
0000
3200
0302
1003
,
0002
0100
0010
0103
,
0002
0000
0003
0200
0000
0300
0020
0000
,
2030
0010
0010
3100
,
0001
0010
0001
0100
0010
1000
1001
0000
,
1010
0000
0101
0000
1000
1100
0000
0010
,
0100
0001
0011
0000
0001
1000
0000
0001
,
1001
0000
0000
1100
0000
0000
0101
0000
,
0000
0000
1000
0001
2002
0000
3003
0000
,
1000
0000
0100
1000
0100
0000
0010
0000
0001
0000
1000
0000
0001
0000
0100
0000
,
0010
0020
0000
1030
0001
0100
0001
0001
,
1000
0100
1000
0100
0001
0100
0001
0100
,
1000
0010
0001
0010
2000
0000
3000
0000
,
1000
0100
1000
0100
0001
0100
0001
0100
,
1000
0010
1000
0010
0001
0010
0001
0010
,
0000
1010
0000
0101
0000
1100
0000
0011
,
0010
0000
0100
0000
0000
0000
1000
0000
0001
1000
0001
1000
0001
0000
0100
0000
,
0001
0001
1000
0100
0010
0001
1000
0010
,
0100
0000
0001
1000
0001
0000
1000
0000
0010
0000
0100
0000
0010
0000
1000
0000
,
0001
0100
0001
0100
1000
0100
1000
0100
,
0001
0010
1000
0010
0002
0000
0003
0000
,
2000
0000
0000
0000
0000
0000
0000
0000
0000
0000
0000
0000
0000
0000
0000
0000
3020
0030
0000
0000
0000
0000
0000
0000
0020
0030
0000
0000
0000
0000
0000
0000
0001
0000
0000
0000
0000
0000
0000
0000
1000
0000
0000
0000
0000
0000
0000
0000
0001
0000
0000
0000
0000
0000
0000
0000
0101
0000
0000
0000
0000
0000
0000
0000
,
0000
0100
0010
1000
0001
0010
0100
0010
,
0001
0100
0010
0100
1000
0100
0010
0100
,
0001
0000
0001
0000
0001
0000
1000
0000
1000
0000
1000
0000
,
0010
0000
0010
0000
0010
0000
0100
0000
0100
0000
0100
0000
,
0000
0000
0000
0000
,
2002
0000
0000
0000
0000
0000
0000
0000
0000
0000
0000
0000
0000
0000
0000
0000
0000
0000
0000
0000
0000
0000
0000
0000
3003
0000
0000
0000
0000
0000
0000
0000
1000
0000
0000
0000
0000
0000
0000
0000
0200
0300
0000
0000
0000
0000
0000
0000
0200
0300
0000
0000
0000
0000
0000
0000
0001
0000
0000
0000
0000
0000
0000
0000
,
1000
0010
1000
0001
0010
0001
0100
0010
,
1000
0100
1000
0001
0100
0010
0100
1000
,
0100
0000
0000
0001
0000
0000
1000
0000
0000
0001
0000
0000
0100
0000
0010
0000
0100
0000
0001
0000
0010
0000
0100
0000
,
1000
0000
0010
0000
0110
0000
0100
0010
,
2000
0000
3200
0302
0000
0203
1300
0001
,
1000
0100
1000
0100
1000
0000
0100
0000
0010
0001
0010
0001
0010
0000
0001
0000
,
1000
0000
0000
0000
0000
0000
0000
0000
0020
0030
0000
0000
0000
0000
0000
0000
0020
0030
0000
0000
0000
0000
0000
0000
0100
0000
0000
0000
0000
0000
0000
0000
0020
0030
0000
0000
0000
0000
0000
0000
0020
0030
0000
0000
0000
0000
0000
0000
1001
0000
0000
0000
0000
0000
0000
0000
0000
0000
0000
0000
0000
0000
0000
0000
,
2002
0000
0000
3003
1000
0100
1000
1000
,
0001
0100
0010
1000
0010
0100
0010
1000
,
0001
0000
0010
0000
0100
0000
1000
0000
0010
0000
0100
0000
0001
0000
0000
0100
0000
0000
0010
0000
0000
1000
0000
0000
,
0001
0100
0001
0100
1000
0100
0001
0100
,
0020
0000
0000
0000
1030
0000
0010
0100
,
0002
0000
0203
2300
0000
3200
0301
1000
,
0001
0100
0001
0100
1000
0100
1000
0100
,
0001
0010
0001
0010
1000
0010
1000
0010
,
0001
0100
1000
0100
0001
0010
1000
0010
,
2002
0000
3003
0000
;

//--------------- dance-double - Fred-104 ----------------
#NOTES:
     dance-double:
     Fred-104:
     Easy:
     11:
     :
00000000
00000000
00000000
00000000
,
00000000
00000000
00000000
00000000
,
00000000
00000000
00000000
00000000
,
00000000
00000000
00000000
00000000
,
00000000
00000000
00000000
00000000
,
00000000
00000000
00000000
00000000
,
00001000
00000000
00000000
00000010
00000000
00000000
00000100
00000000
,
00000000
00000000
00000001
00000000
00000000
00000010
00000000
00000000
,
00000100
00000000
00000000
00000010
00000000
00000000
00000001
00000000
,
00000000
00000100
00000001
00000100
,
00000001
00000100
00000010
00000100
,
00001000
00010000
00100000
01000000
,
00010000
10000000
00100000
10000000
,
00100000
01000000
00010000
00200000
,
00301000
00000010
00001000
00010000
,
00001000
00010000
00100000
01000000
,
10000000
00100000
00010000
00001000
,
00000010
00000001
00001000
00000010
,
00000100
00000000
00000001
00000000
00000100
00000010
00000000
00000000
,
00000100
00000000
00010000
00000000
00001000
00010000
00000000
00000000
,
00001000
00010000
00100000
10000000
,
00010000
01000000
00100000
10000000
,
00100000
00010000
00100000
10000000
,
00100000
01000000
00002000
00000000
,
00013000
00000100
00001000
00000010
,
00000100
00000010
00000100
00000001
,
00000000
00000001
00000000
00000010
00000000
00001000
00000000
00000010
,
00000000
00001000
00000000
00010000
00000000
00100000
01000000
00000000
,
10000000
00100000
01000000
00100000
,
10000000
01000000
00100000
00001000
,
00010000
00100000
10000000
00010000
,
01000000
00100000
20000000
00000000
,
30100000
00000000
01000000
00000000
00010000
00000000
00100000
00001000
,
00000000
00000000
00010000
00000000
00001000
00010000
00001000
00000000
,
00010000
00000100
00001000
00000001
,
00000100
00000010
00000100
00000000
00000001
00000010
00000001
00000000
,
00002000
00000000
00000000
00000000
00003010
00000100
00000010
00000100
,
00000000
00000000
00001000
00010000
00001000
00010000
00001000
00000000
,
00010000
00000000
00000000
00100000
00000000
00000000
01100000
00000000
,
00000000
10000000
00100000
10000000
,
10000000
00000000
00100000
01000000
00100000
00000000
10000000
00000000
,
00010000
00000000
00100000
01000000
00100000
00000000
00001000
00000000
,
00010000
00000000
00001000
00010000
00001000
00000000
00000100
00000000
,
00000010
00000000
00000100
00000010
00000100
00000000
00000001
00000000
,
00002000
00000000
00000000
00000000
00003001
00000010
00000001
00000010
,
00000000
00000100
00000000
00010000
00000000
00001000
00000000
00000000
,
00001000
00000000
00000000
00100000
00000000
00000000
00110000
00000000
,
00000000
01000000
00000000
00000000
10000000
00000000
00100000
00000000
,
01000000
02000000
03100000
00200000
,
10300000
00100000
00010000
00001000
,
00000100
00000000
00000000
00000010
00000000
00000000
00001000
00000000
,
00000000
00010000
00000000
00000000
00100000
00000000
01000000
00000000
,
00010000
00100000
00000000
00010000
00100000
00000000
00001000
00010000
,
00000000
00000000
00000000
00000000
,
00010000
00000100
00000000
00000000
00000000
00000000
00000000
00000000
,
00000000
00000000
00000000
00000000
00001000
00000001
00000000
00000000
,
00000010
00000100
00000000
00000000
00000000
00000000
00000000
00000000
,
00001000
00010000
00022000
00033000
,
00000010
00000100
00000000
00000000
00000100
00001000
00000000
00000000
,
00001000
00010000
00000000
00000000
00010000
00100000
00000000
00000000
,
00100000
01000000
10000000
00010000
,
10000000
00100000
10000000
00000000
00100000
01000000
00100000
00000000
,
20000000
30200000
02300000
03020000
,
00230000
00302000
00023000
00030200
,
00000320
00000230
00002300
00023000
,
01030000
00100000
00010000
00001000
,
00000020
00000230
00000302
00000023
,
00002030
00003020
00000032
00000203
,
00000320
00000230
00002300
00023000
,
00230000
02300000
13000000
00010000
,
20020000
00000000
00000000
30030000
,
10000000
00000000
00000000
00100000
00000000
00000000
01000000
00000000
,
00020000
00000000
00000000
00031000
,
00000200
00000000
00000000
00000320
00000000
00000000
00000032
00000000
,
00002003
00000000
00003010
00000100
,
00000002
00000000
00000000
00000023
00000000
00000000
00000230
00000000
,
00020300
00000000
00031000
00010000
,
00001000
00100000
00001000
00000000
00100000
00010000
00100000
00000000
,
01000000
11000000
10010000
00000000
,
01000000
01010000
01001000
00000000
,
00011000
00000000
00000000
00000110
00000000
00000000
00001001
00000000
,
00000000
00000000
00000001
00001000
00000010
00000000
00000000
00000000
,
00000100
00000001
00000100
00000010
,
00000100
00000001
00000100
00001000
,
00010000
00100000
10000000
00010000
,
01000000
00100000
20000000
00000000
,
30100000
01000000
00010000
10000000
,
01000000
00100000
00010000
00100000
,
00000000
00001000
00000000
00010000
00000000
00001000
00000000
00000100
,
00000000
00000001
00000000
00001000
00000000
00000010
00000100
00000000
,
00000001
00000001
00000100
00000100
,
00000010
00000010
00001000
00001000
,
00010000
00010000
00100000
00100000
,
01000000
01000000
20000000
00000000
,
30010000
00000000
01000000
00000000
00100000
00000000
01000000
00010000
,
00000000
00010000
00001000
00000100
,
00000010
00000100
00000010
00000000
00010000
00000000
00001000
00000000
,
00010000
00000000
00000000
00000000
00010000
00000000
00001000
00000000
00000000
00000000
00001000
00000000
,
00010000
00000000
00001000
00000000
00010000
00000000
00001000
00000000
00010000
00000000
00001000
00000000
,
00000000
00000000
00000000
00000000
,
00002200
00000000
00000000
00003300
00000100
00000000
00001000
00000000
,
00000001
00000100
00000010
00000010
,
00001000
00000001
00000010
00000100
,
00010000
00001000
00010000
00100000
,
02100000
00000000
13000000
00010000
,
10000000
00000000
00000000
00100000
00000000
01000000
00100000
00000000
,
10000000
00100000
01000000
00010000
,
00100000
00000000
00000000
00001000
00000000
00000000
00010000
00000000
,
00022000
00033000
00010000
00000100
,
00000010
00000001
00001000
00000010
,
00000100
00000001
00000100
00001000
,
00010000
00000000
00000000
00001000
00000000
00010000
00001000
00000000
,
00020000
00000000
01030000
10000000
,
00010000
00000000
10000000
00100000
00000000
10000000
01000000
00000000
,
10000000
00100000
10000000
00000000
00100000
00010000
00100000
00000000
,
00010000
00001000
00010000
00000000
00001000
00000010
00001000
00000000
,
00000010
00000001
00001000
00000100
,
00002002
00000000
00003003
00000000
;

//--------------- dance-double - Fred-104 ----------------
#NOTES:
     dance-double:
     Fred-104:
     Medium:
     14:
     :
00000000
00000000
00000000
00000000
,
00000000
00000000
00000000
00000000
,
00000000
00000000
00000000
00000000
,
00000000
00000000
00000000
00000000
,
00000000
00000000
00000000
00000000
,
00000000
00000000
00000000
00000000
,
00010000
00001000
00010000
00001000
00000000
00000000
00100000
00010000
,
00000000
00000000
00100000
01000000
00100000
01000000
00000000
00000000
,
10000000
00100000
10000000
00100000
00000000
00000000
01000000
00010000
,
00000000
00000000
10000000
00000000
01000000
00100000
01000000
00000000
,
10000000
01000000
00100000
00001000
,
00010000
00001000
00000010
00000001
,
00001000
00000100
00000001
00000100
,
00001000
00010000
01000000
00200000
,
10300000
00010000
10000000
00100000
,
01000000
00010000
00001000
00000010
,
00000001
00000100
00001000
00010000
,
01000000
10000000
00100000
01000000
,
00010000
00000000
00010000
00000000
10000000
01000000
00000000
01000000
,
00100000
00001000
00010000
00000000
00001000
00010000
00000000
00000000
,
00001000
00000100
00000010
00000001
,
00000100
00000010
00000100
00000000
00000001
00000000
00001000
00000000
,
00000010
00010000
00000010
00000000
00010000
00000000
00001000
00000000
,
00010000
00001000
00010000
00001000
00020000
00000000
00000000
00000000
,
00031000
00100000
00001000
00000000
00100000
00010000
00100000
00000000
,
00010000
10000000
00010000
00000000
10000000
01000000
10000000
00000000
,
00000000
00100000
00000000
01000000
00000000
00100000
00000000
00001000
,
00000000
00000010
00000000
00000001
00001000
00000001
00000100
00000000
,
00000001
00000000
00000100
00000010
00000100
00000000
00000001
00000000
,
00001000
00000010
00000000
00010000
00001000
00000000
00010000
00000000
,
00100000
01000000
10000000
00010000
,
01000000
00100000
01000000
00100000
20000000
00000000
00000000
00000000
,
30010000
00000000
10000000
01000000
00100000
00000000
00001000
00010000
,
00000000
00000000
00001000
00000000
00100000
00001000
00100000
00000000
,
00001000
00010000
00000010
00000000
00001000
00000010
00000100
00000000
,
00000001
00000100
00000001
00000100
00000010
00001000
00000010
00001000
,
00020000
00000000
00000000
00000000
00031000
00010000
01000000
10000000
,
00000000
00000000
00100000
01000000
00100000
01000000
00010000
00000000
,
10010000
00000000
00000000
01100000
00000000
00000000
10010000
00000000
,
00000000
00000000
01000000
00100000
00100000
01000000
00100000
00000000
,
01000000
00000000
00001000
00010000
00001000
00010000
00001000
00010000
,
00001000
00000000
00000010
00000100
00000010
00000100
00000010
00000100
,
00000010
00000000
00001000
00000001
00000100
00000001
00000100
00000001
,
00000100
00000000
00000010
00001000
00000100
00010000
00001000
00010000
,
00002000
00000000
00000000
00000000
00013000
00001000
00100000
00010000
,
00000000
01000000
00000000
00100000
00000000
10000000
00000000
00100000
,
00010000
00000000
00000000
00011000
00000000
00000000
00001010
00000000
,
00000000
00001001
00000000
00000000
00000001
00000010
00000100
00000000
,
00001000
00000000
00000001
00000100
00000010
00000000
00001000
00000100
,
00000010
00000000
00000001
00001000
00000010
00000000
00001000
00000000
,
00010000
00100000
00000000
01000000
10000000
00000000
00100000
01000000
,
00000000
00010000
10000000
00000000
01000000
00100000
00010000
00000000
,
00100000
00001000
00000000
00010000
00000010
00000000
00001000
00000001
,
00000000
00000000
00000000
00000000
,
00010000
00001000
00000000
00000000
00000000
00000000
00000000
00000000
,
00000000
00000000
00000000
00000000
10000000
00010000
00000000
00000000
,
10000000
01000000
00000000
00000000
00000000
00000000
00000000
00000000
,
00010000
00101000
00022000
00033000
,
00010000
00001000
00000000
00000000
00001000
00000010
00000000
00000000
,
00000010
00000001
00000000
00000000
00000001
00002000
00000000
00003000
,
00000001
00001000
00000010
00010000
,
00001000
00100000
00001000
00010000
00001000
01000000
00010000
00000000
,
01000000
00100000
01000000
00000000
00010000
01000000
00010000
00000000
,
10000000
01000000
10000000
00000000
00100000
01000000
00100000
00000000
,
01000000
00010000
00001000
00000000
00010000
00001000
00000100
00000000
,
00000020
00000000
00000031
00000100
00000001
00000000
00001000
00000010
,
00000100
00000010
00001000
00000000
00000001
00000100
00001000
00000000
,
00010000
00001000
00010000
00000000
00001000
00010000
01000000
00000000
,
10000000
00000000
00010000
10000000
00010000
00000000
01000000
00100000
,
01000000
00000000
00010000
10000000
00100000
00000000
10000000
01000000
,
00200000
00000000
01300000
00010000
,
00001000
00000000
00000100
00000010
00000000
00000001
00001000
00000000
,
00000020
00000000
00000000
00000000
00000130
00000000
00000001
00001000
,
00000100
00000000
00000010
00001000
00000000
00010000
00100000
00000000
,
10000000
00000000
00010000
01000000
,
00200000
00000000
00300000
00200000
00000000
00300000
02000000
00000000
,
03200000
10000000
10000000
10300000
,
00010000
01000000
00010000
01000000
00001000
00010000
00001000
00000000
,
00011000
00000000
00010000
00000000
00001000
00000100
00000000
00000000
,
00000010
00000001
00001000
00000000
00000001
00000100
00000000
00000000
,
00000001
00000000
00000000
00001000
00000000
00000000
00011000
00000000
,
00000000
00000000
00001000
00100000
00020000
00000000
00030000
00000000
,
10000000
00100000
01000000
00000000
00010000
00100000
01000000
00000000
,
00100000
00001000
00010000
00000000
00001000
00100000
00010000
00000000
,
00100000
00001000
00010000
00001000
00010000
00000010
00001000
00000000
,
00000100
00000010
00000100
00000010
00000002
00000000
00000000
00000000
,
00001003
00000010
00001000
00000000
00000001
00000100
00000001
00000000
,
00000100
00000010
00000100
00000000
00000010
00001000
00000010
00000000
,
00000000
00001000
00000000
00010000
00000000
00100000
00000000
01000000
,
00100000
00010000
00000000
00001000
00010000
00001000
00000100
00000000
,
00000010
00000100
00000010
00000000
00000100
00000001
00000100
00000000
,
00000001
00000010
00000001
00000000
00001000
00000010
00001000
00000000
,
00010000
00001000
00010000
00001000
00010000
00001000
00010000
00000000
,
00001000
00100000
00010000
01000000
00200000
00000000
00000000
00000000
,
10300000
00000000
00100000
01000000
00010000
00000000
10000000
01000000
,
00000000
00000000
00010000
00000000
01000000
10000000
00010000
00000000
,
01000000
00100000
01000000
00010000
00100000
00001000
00010000
00000000
,
00000100
00000000
00001000
00000000
00000010
00000000
00010000
00000000
00001000
00000000
01000000
00000000
,
00010000
00000000
00100000
00000000
00001000
00000000
00010000
00000000
00000010
00000000
00000100
00000000
,
00000000
00000000
00000000
00000000
,
00022000
00000000
00000000
00033000
00010000
00001000
00010000
00001000
,
00010000
00100000
00010000
10000000
,
01000000
00010000
00001000
00010000
,
01000000
00100000
01000000
00100000
10000000
00010000
10000000
00010000
,
02000000
00000000
03100000
00001000
,
00010000
00000000
00001000
00000100
00000000
00000010
00000001
00000000
,
00001000
00000010
00000200
00000000
00000301
00000010
00000200
00000000
,
00001300
00000000
00000000
00010000
00000000
00000000
00001000
00000000
,
00022000
00000000
00000000
00033000
00010000
00000000
00001000
00000000
,
00100000
00010000
10000000
00100000
,
01000000
00010000
10000000
01000000
,
00100000
00001000
00010000
00000010
00001000
00000100
00001000
00000010
,
00000200
00000000
00000301
00000100
,
00000010
00000000
00001000
00000100
00000000
00000010
00000001
00000000
,
00001000
00000010
00001000
00000000
00000001
00000100
00000010
00000000
,
00001000
00000100
00000010
00000001
00001000
00000010
00000100
00000001
,
00000100
00000010
00001000
00000010
00001000
00000100
00010000
00000000
,
00022000
00000000
00033000
00000000
;

//--------------- dance-double - Fred-104 ----------------
#NOTES:
     dance-double:
     Fred-104:
     Hard:
     17:
     :
00000000
00000000
00000000
00000000
,
00000000
00000000
00000000
00000000
,
00000000
00000000
00000000
00000000
,
00000000
00000000
00000000
00000000
,
00000000
00000000
00000000
00000000
,
00000000
00000000
00000000
00000000
,
00000001
00000100
00000001
00001000
00000000
00000000
00000010
00000010
,
00000000
00000000
00001000
00000100
00010000
00001000
00000000
00000000
,
01000000
00010000
01000000
00100000
00000000
00000000
10000000
10000000
,
00000000
00000000
00010000
01000000
00100000
10000000
01000000
00100000
,
00010000
00110000
00001000
00011000
,
00000100
00000110
00000001
00001001
,
00000002
00000023
00000230
00020300
,
00032000
00203000
02300000
13000000
,
10010000
10000000
11000000
01000000
,
01100000
00100000
00101000
00001000
,
00020000
00032000
00003020
00000032
,
00002003
00000000
00003002
00000000
00000103
00000010
00001000
00000010
,
00001010
00000000
00001001
00000000
00000001
00000010
00000000
00000010
,
00000001
00001000
00000100
00000000
00000010
00000001
00000000
00001000
,
00000010
00000000
00010000
00001000
00010000
00000100
00001000
00000100
,
00000010
00000001
00001000
00000010
00000100
00000100
00000001
00000100
,
00001000
00000100
00001000
00010000
00001000
00010000
01000000
00010000
,
01000000
10000000
00010000
01000000
00200000
00000000
00000000
00000000
,
10300000
00100000
10000000
00100000
00010000
00100000
00010000
00001000
,
00010000
00001000
00000010
00001000
00000010
00000001
00000010
00000001
,
00000000
00001001
00000000
00000110
00000000
00001001
00000000
00000001
,
00000100
00000000
00000010
00000000
00000000
00000000
00001000
00000000
00000100
00001000
00000100
00000000
00010000
00000000
00001000
00000000
,
00010000
00000000
00001000
00001000
00100000
00010000
00100000
01000000
,
10000000
00010000
00000000
00010000
01000000
00100000
10000000
00100000
,
10000000
00100000
01000000
00000000
00100000
00000000
00001000
00010000
,
00000010
00001000
00000010
00000100
00000020
00000000
00000000
00000000
,
00001030
00000000
00000001
00000100
00000010
00001000
00000001
00001001
,
00000000
00000100
00000010
00001000
00000010
00000100
00000001
00000100
,
00000001
00000010
00000100
00000100
00010000
00001000
00010000
00010000
,
00001000
00010000
00001000
00010000
01000000
10000000
00010000
00100000
,
02000000
00000000
00000000
00000000
03001000
00001000
00001000
00010000
,
00000000
00000000
00000000
00000000
00000000
00000000
00000100
00000000
00000000
00001000
00000000
00000000
00000100
00000000
00000010
00000000
00000100
00000000
00000010
00000000
00000001
00000000
00001000
00000000
,
00000001
00000000
00001000
00001100
00000000
00000001
00000202
00000000
,
00000303
00000000
00000001
00000010
00001000
00000010
00000001
00001000
,
00000001
00000000
00000100
00000001
00000100
00001000
00000100
00001000
,
00010000
00000000
00001000
00010000
00001000
00010000
01000000
00010000
,
01000000
00000000
10000000
01000000
10000000
00100000
01000000
00010000
,
10000000
00000000
00100000
10000000
01000000
00100000
00001000
00010000
,
00021000
00000000
00000000
00000000
00031000
00010000
00001000
00000100
,
00000000
00000110
00000000
00000101
00000000
00001001
00000000
00000001
,
00000101
00000000
00000000
00001100
00000000
00000000
00011000
00000000
,
00000000
00010000
00001000
00010000
00000010
00010000
00001000
00100000
,
01000000
00000000
10000000
01000000
00010000
00000000
10000000
00100000
,
00010000
10000000
00100000
01000000
00100000
00001000
00010000
00000100
,
00001000
00001100
00000000
00000001
00000101
00000000
00001000
00001010
,
00000000
00000001
00000011
00000000
00001000
00000001
00000100
00000010
,
00001000
00001010
00000000
00000010
00010010
00000000
00010000
00011000
,
00000000
00000000
00000000
00000000
00000000
00000000
00001000
00000000
00100000
00000000
00001000
00000000
00100000
00000000
00000000
00010000
00000000
00000000
10000000
00000000
00000000
00000000
00000000
00000000
,
00010000
00010000
00000000
10000000
00100000
01000000
00100000
10000000
,
00100000
01000000
00100000
00010000
01000000
01100000
00000000
00000000
,
10000000
10000000
00000000
00100000
01000000
00100000
00010000
00001000
,
00011000
00001010
00000220
00000330
,
00001000
00000100
00000000
00000100
00000001
00000100
00000000
00000100
,
00001000
00010000
00000000
00010000
00001000
00022000
00000000
00033000
,
00010010
00001000
00101000
00010000
,
00001000
00000000
00000000
00100000
00000000
00000000
00010000
00000000
00000000
00100000
00000000
00000000
01000000
00000000
10000000
00000000
00010000
00000000
10000000
00000000
00100000
00000000
01000000
00000000
,
00010000
00000000
01000000
00000000
00100000
10000000
00100000
00000000
10000000
00000000
01000000
00000000
00100000
01000000
00100000
00000000
,
00010000
00000000
01000000
00000000
00001000
00010000
00001000
00000000
00100000
00000000
00001000
00000000
00010000
00001000
00010000
00000000
,
00000100
00000000
00001000
00000000
00000001
00001000
00000001
00000000
00000100
00000000
00000010
00000000
00001000
00000100
00001000
00000000
,
00000002
00000000
00000103
00000010
00001000
00000001
00000010
00000100
,
00000010
00000001
00000010
00000001
00001000
00000001
00000100
00000010
00001000
00000010
00001000
00000100
,
00010000
00001000
01000000
00001000
00010000
00001000
00100000
00010000
00100000
01000000
10000000
00010000
,
01000000
00000000
00000000
00000000
00010000
01000000
00010000
01000000
00100000
00000000
00000000
00000000
10000000
01000000
10000000
01000000
,
00100000
00000000
00000000
00000000
00001000
00010000
00001000
00010000
00001000
00000000
00100000
00000000
00010000
00000000
10000000
00000000
,
00020000
10000000
01000000
10030000
,
00020000
00000000
20030000
32000000
03000000
00020000
00032000
00000000
,
00023000
00000100
00001000
00030100
,
00002000
00000000
00003200
00000302
00000000
00000203
00002300
00003010
,
00000200
00000010
00001000
00000310
,
00000200
00000000
00000300
00000200
00000000
00000300
00000020
00000000
,
00002030
00000100
00010000
00003100
,
00010000
00001000
01000000
00001000
00010000
00001000
00011000
00000000
,
00101000
00000000
00110000
00000000
00010000
10000000
00000000
01000000
,
10000000
00100000
10100000
00000000
00010000
01000000
00000000
00100000
,
01100000
00000000
00000000
00011000
00000000
00000000
00000110
00000000
,
00000000
00000000
00001000
00000001
00002002
00000000
00003003
00000000
,
00000001
00000100
00000010
00001000
00000010
00000100
00000010
00001000
,
00000100
00000000
00010000
00001000
00010000
00000000
00000100
00000000
00010000
00000000
00000010
00000000
00001000
00000000
00000100
00000000
,
00010000
00001000
00100000
00010000
00100000
01000000
10000000
00010000
,
01000000
00100000
01000000
00010000
20000000
00000000
30000000
00000000
,
10000000
01000000
10000000
00100000
01000000
00010000
00100000
00001000
,
00010000
00000100
00001000
00000010
00000100
00000001
00001000
00000001
,
00000000
00000101
00000000
00001100
00000000
00010000
00000000
00001000
,
00010000
00000000
00001000
00000000
00000000
00000000
00100000
00000000
00010000
01000000
00010000
01000000
00010000
00000000
10000000
00000000
,
00010000
00000000
01000000
01000000
00100000
10000000
00100000
01000000
,
00010000
00000000
00100000
01000000
00100000
00000000
00010000
00000000
10000000
00000000
00100000
00000000
01000000
00000000
00100000
00000000
,
10000000
00100000
10000000
00100000
00010000
00001000
00010000
00001000
,
00000010
00000001
00001000
00000001
00000200
00000000
00000300
00000000
,
00010000
00000000
00000000
00000000
00000000
00000000
00000000
00000000
00000000
00000000
00000000
00000000
00000000
00000000
00000000
00000000
00001000
00000000
00000000
00000000
00000000
00000000
00000000
00000000
00100000
00000000
00000000
00000000
00000000
00000000
00000000
00000000
00010000
00000000
00000000
00000000
00000000
00000000
00000000
00000000
01000000
00000000
00000000
00000000
00000000
00000000
00000000
00000000
00200000
00300000
00000000
00000000
00000000
00000000
00000000
00000000
00200000
00300000
00000000
00000000
00000000
00000000
00000000
00000000
,
00000000
00010000
01000000
00100000
10000000
01000000
00100000
01000000
,
00010000
00100000
00001000
00010000
00000010
00001000
00000001
00000100
,
00000001
00000000
00000100
00000000
00000010
00000000
00010000
00000000
00001000
00000000
01000000
00000000
,
00010000
00000000
00100000
00000000
00001000
00000000
00010000
00000000
00000010
00000000
00001000
00000000
,
00000000
00000000
00000000
00000000
,
00002200
00000000
00000000
00003300
00000001
00000100
00000010
00001000
,
00000001
00000010
00000100
00000010
00000001
00001000
00000010
00010000
,
00001000
00100000
00010000
10000000
01000000
00010000
01000000
10000000
,
00010000
00000000
00000000
01000000
00000000
00000000
00100000
00000000
00000000
10000000
00000000
00000000
00010000
00000000
01000000
00000000
00010000
00000000
00100000
00000000
00001000
00000000
00010000
00000000
,
00001000
00000000
00010000
00000000
00011000
00000000
00001000
00000100
,
00000020
00000000
00000032
00000023
00000000
00002030
00003010
00000001
,
00001000
00000100
00001000
00000000
00000010
00000100
00000010
00000000
00000100
00000001
00000100
00000000
00000001
00001000
00000001
00000000
,
00001000
00000001
00000100
00001000
00010000
01000000
10000000
00000000
,
20020000
00000000
00000000
30030000
00010000
01000000
00100000
10000000
,
00100000
01000000
00100000
10000000
01000000
00010000
00001000
00010000
,
00001000
00000000
00010000
00000000
00001000
00000000
00010000
00000000
00000100
00000000
00001000
00000000
00000100
00000000
00000000
00000010
00000000
00000000
00000001
00000000
00000000
00001000
00000000
00000000
,
00000001
00000100
00000001
00000100
00001000
00000100
00001000
00010000
,
00002000
00000000
00000000
00000000
00013000
00000000
01000000
00100000
,
20000000
00000000
32000000
03020000
00030000
02000000
03100000
00100000
,
10000000
01000000
10000000
00100000
01000000
00010000
00100000
00001000
,
00010000
00000100
00001000
00000010
00000100
00000001
00000010
00000001
,
00001000
00000001
00000100
00001000
00010000
01000000
10000000
00010000
,
20020000
00000000
30030000
00000000
;
