#TITLE:Double or Nothing;
#ARTIST:Tatsunoshin;
#BANNER:Double or Nothing.png;
#BACKGROUND:Double or Nothing-bg.png;
#CDTITLE:./CDTitles/SDVX EXCEED GEAR.png;
#MUSIC:Double or Nothing.ogg;
#SAMPLESTART:2.743;
#SAMPLELENGTH:15;
#BPMS:0=175;
#BGSTAGE:27;

//--------------- dance-single - Fred-104 ----------------
#NOTES:
     dance-single:
     Fred-104:
     Beginner:
     4:
     :
0000
0000
0000
0000
,
0000
0000
0000
0000
,
0000
0000
0000
0000
,
0000
0000
0000
0000
,
0000
0000
0000
0000
,
0000
0000
0000
0000
,
1000
0000
0002
0000
,
0003
0000
2000
3000
,
0200
0000
0000
0300
,
0020
0000
0030
0000
,
0002
0000
0000
0003
,
2000
0000
0000
3000
,
0002
0000
0000
0003
,
1000
0000
0001
0000
,
0020
0000
0000
0000
,
0000
0000
0030
0000
,
2002
0000
0000
0000
,
3003
0000
0000
0000
,
1000
0000
0000
0000
,
0100
0000
0000
0000
,
0001
0000
0000
0000
,
0010
0000
0000
0000
,
1000
0000
0001
0000
,
1000
0000
0000
0000
,
0100
0000
0010
0000
,
0002
0000
0000
0003
,
1000
0000
0001
0000
,
0100
0000
0100
0000
,
0010
0000
0010
0000
,
0100
0000
0001
0000
,
2000
0000
3000
0000
,
0002
0000
0003
0000
,
2000
0000
0000
0000
,
3000
0000
0000
0000
,
0002
0000
0000
0000
,
0003
0000
0000
0000
,
2000
0000
0000
0000
,
3000
0000
0000
0000
,
0001
0000
0100
0000
,
0010
0000
1000
0000
,
0001
0001
0001
0001
,
2002
0000
3003
0000
,
1000
0000
1000
0000
,
0100
0000
0100
0000
,
0001
0000
0001
0000
,
0010
0000
0010
0000
,
1000
0000
1000
0000
,
0001
0000
0001
0000
,
1000
0000
0001
0000
,
2000
0000
0000
3000
,
0002
0000
0000
0000
,
0000
0000
0000
0003
,
2000
0000
0000
0000
,
0000
0000
0000
3000
,
0001
0000
1000
0000
,
0200
0000
0300
0000
,
0010
0000
0001
0000
,
2000
0000
0000
3000
,
2002
0000
0000
0000
,
0000
0000
3003
0000
,
1000
0000
0000
0000
,
1000
0000
0000
0000
,
0001
0000
1000
0000
,
0002
0000
0003
0000
,
1000
0000
0000
0000
,
0100
0000
0000
0000
,
0010
0000
0000
0000
,
0002
0000
0003
0000
,
1001
0000
0000
0000
,
1001
0000
0000
0000
,
1000
0000
0001
0000
,
0001
0000
0100
0000
,
0100
0000
0010
0000
,
0010
0000
1000
0000
,
1000
0000
0001
0000
,
2002
0000
3003
0000
,
2000
0000
0000
3000
,
0002
0000
0000
0003
,
2000
0000
0000
3000
,
0001
0000
1000
0000
,
0200
0000
0000
0300
,
0020
0000
0000
0030
,
0002
0000
0000
0003
,
2000
0000
3000
0000
,
2002
0000
3003
0000
;

//--------------- dance-single - Fred-104 ----------------
#NOTES:
     dance-single:
     Fred-104:
     Easy:
     8:
     :
0000
0000
0000
0000
,
0000
0000
0000
0000
,
0000
0000
0000
0000
,
0000
0000
0000
0000
,
0000
0000
0000
0000
,
0000
0000
0000
0000
,
0001
0000
0000
0000
0000
0000
0000
0000
1000
0000
0000
1000
0000
0000
1000
0000
,
0000
0000
0000
0000
0100
0000
0000
0000
0010
0000
0000
0010
0000
0000
0010
0000
,
0001
1000
0020
0030
,
0100
0001
1001
0000
,
1000
0000
0000
0000
0000
0000
0000
0000
0000
0000
0100
0000
0000
0100
0000
0000
,
0010
0000
0000
0000
0000
0000
0000
0000
0000
0000
0001
0000
0000
1000
0000
0000
,
0001
0000
0000
0000
0000
0000
0000
0000
0000
0000
0100
0000
0000
0010
0000
0000
,
0100
0001
1001
0000
,
2000
0000
3200
0000
,
0320
0000
0032
0000
,
1003
0010
0100
0001
,
2000
0001
3001
1001
,
0002
0003
0010
0001
,
1000
0010
0100
0001
,
1000
0100
0001
0100
,
1000
0100
0010
0001
,
2000
3000
0001
1000
,
0001
0100
0010
0100
,
0001
1000
0100
0010
,
0001
1000
2002
3003
,
1000
0000
0100
0000
1000
0001
1000
0000
,
0010
0000
0100
0000
0001
1000
0001
0000
,
1000
0100
0001
0010
,
1000
0000
1001
0000
,
0001
0000
0010
0000
0100
0000
1000
1000
,
1000
0000
0001
0000
0100
0000
0010
0010
,
0010
0100
0001
1000
,
2002
0000
0000
3003
,
1000
0000
0000
0000
0100
0000
0000
0000
1000
0000
0000
1000
0000
0000
0001
0000
,
0000
0100
0010
0100
,
0001
0000
0000
0000
1000
0000
0000
0000
0001
0000
0000
0001
0000
0000
0010
0000
,
0100
1000
0001
0110
,
2000
0000
3200
0000
,
0302
0000
0023
0000
,
1030
0000
0100
0000
1000
0001
1000
0001
,
1000
0001
2002
3003
,
0001
0100
0001
0100
,
1000
0000
0100
0000
0001
1000
0001
0000
,
1000
0100
0010
0001
,
2000
0000
0002
3003
,
0001
1000
0001
0000
0100
0000
0010
0000
,
1000
0001
1000
0000
0100
0000
0010
0000
,
0001
0100
0010
1000
,
2002
0000
0000
3003
,
0002
0000
0000
0000
,
0203
0000
0000
0000
,
0320
0000
0000
0000
,
2030
0000
0000
0000
,
3001
0000
0010
0000
,
0100
1000
0001
0000
,
0100
0010
1000
0100
,
1000
0100
1000
0000
0001
0010
0001
0000
,
1000
0000
0000
0001
0000
0000
0100
0010
,
0100
0000
0000
2002
0000
0000
3003
0000
,
0002
0003
0020
0030
,
0001
1000
0010
0100
,
0002
0003
2000
3000
,
0200
0000
0300
0000
0010
0000
0001
1000
,
0001
1000
0010
0000
,
0100
0001
1000
0000
,
0002
0003
2000
3000
,
0100
0010
0220
0330
,
0001
0000
0000
0001
0000
0000
0001
0000
1000
0000
0000
1000
0000
0000
1000
0000
,
0010
0000
0100
0000
0001
0010
0100
0000
,
0010
0001
1000
0001
,
0100
0010
0220
0330
,
1000
1000
0100
0100
,
0001
0001
0010
0010
,
1000
0001
0010
0000
0001
1000
0010
0000
,
0100
0010
0220
0330
,
1000
0000
0000
0000
1000
0000
0000
0000
0100
0000
0000
1000
0000
0000
0001
0000
,
0000
0000
0000
0000
0100
0000
0000
0000
0010
0000
0000
0100
0000
0000
0001
0000
,
0000
0000
0000
0000
1000
0000
0000
0000
0100
0000
0000
0010
0000
0000
0001
0000
,
1000
0010
0220
0330
,
1001
0000
0000
0000
0000
0000
0000
0000
0001
0000
0000
1000
0000
0000
0010
0000
,
0000
0000
0000
0000
0100
0000
0000
0000
0001
0000
0000
0010
0000
0000
0100
0000
,
1000
0000
0001
0000
0100
0010
0100
0000
,
0001
1000
0100
0010
,
2002
0000
3003
0000
;

//--------------- dance-single - Fred-104 ----------------
#NOTES:
     dance-single:
     Fred-104:
     Medium:
     14:
     :
0000
0000
0000
0000
,
0000
0000
0000
0000
,
0000
0000
0000
0000
,
0000
0000
0000
0000
,
0000
0000
0000
0000
,
0000
0000
0000
0000
,
0001
0000
0100
0000
0001
1000
0001
0000
0010
0000
0000
0100
0000
0000
1100
0000
,
0000
0000
1000
0001
1000
0000
0010
0000
0100
0000
0000
0001
0000
0000
1001
0000
,
0001
0000
0010
0000
0100
1000
0000
1000
0000
1000
0000
1000
0001
0000
0100
0000
,
0001
1000
0000
1000
0000
0100
0000
0100
0020
0000
0000
0000
0030
0000
0000
0000
,
1001
0000
0000
0000
0001
0000
0100
0010
0100
0000
0010
0000
0000
1010
0000
0000
,
1100
0000
0000
0000
0100
0000
0010
0001
0010
0000
0001
0000
0000
0101
0000
0000
,
1001
0000
0000
0000
0001
0000
0010
0100
1000
0000
0010
0000
0000
0110
0000
0000
,
0001
0000
0100
0001
0000
1000
0000
0002
0000
0000
0013
0000
0100
0000
1000
0000
,
0001
0010
0000
0100
0000
1000
0000
0000
0001
0100
0000
0010
0000
1000
0000
0000
,
0001
1000
0000
0100
0000
0010
0000
0000
0001
1000
0000
1000
0002
0000
0000
0000
,
1003
0000
1000
0100
0000
0100
0010
0000
0010
0001
0000
0001
,
2000
0001
3001
1001
,
0002
0000
0103
0010
0100
0001
1000
0100
,
0010
0000
0001
0000
1000
0000
0010
0000
0100
0010
0000
0010
0100
0000
0001
0000
,
2000
0000
3001
0100
1000
0001
0010
1000
,
0001
0000
0100
0010
0100
0000
0001
1000
0000
0001
1000
0000
0200
0000
0000
0000
,
0320
0000
0000
0000
0031
0000
1000
0000
0010
0000
0100
0000
0001
0010
0001
0000
,
1000
0000
0100
0000
0010
0000
0100
0000
1000
0010
0000
0010
0100
0000
0001
0000
,
1000
1000
0001
0001
0100
0010
0100
0001
,
2000
0001
3001
1001
,
0001
0000
0010
0000
0100
0000
1000
0000
0001
0000
0100
0000
0010
1000
0010
0000
,
0100
0000
0001
1000
0000
0100
0000
1000
0001
0000
0010
0000
0100
0000
1000
0000
,
0001
0000
0000
0010
0000
0000
0010
0000
1000
0000
0000
0100
0000
0000
0100
0000
,
0001
0000
0000
0010
0000
0100
0000
2000
0000
0000
0000
0000
3001
0000
1000
0000
,
0001
0000
1000
0010
0000
0100
0001
0000
2000
0000
0000
0000
3100
0000
0010
0000
,
0001
0000
1000
0001
0000
0010
0001
0000
2000
0000
0000
0000
3001
0000
0100
0000
,
0010
1000
0001
0010
0100
1000
0100
0010
,
0002
1000
0013
1001
,
2000
0000
0000
0000
0010
0000
0000
0000
0010
0000
0000
0010
0000
0000
3010
0000
,
0000
0000
1000
0000
0100
0000
1000
0000
0001
0000
0010
0100
0010
0000
0001
0000
,
0200
0000
0000
0000
0010
0000
0000
0000
0010
0000
0000
0010
0000
0000
0310
0000
,
0110
1100
0101
1001
,
0001
0000
0000
0010
0000
0000
1000
0000
0001
0000
0000
0100
0000
0000
1000
0000
,
0001
0000
0000
0100
0000
0000
1000
0000
0001
0000
0000
0010
0000
0000
1000
0000
,
0001
0000
0010
0000
0100
0000
1000
0000
0001
1000
0001
1000
0001
1000
0001
1000
,
0001
0000
0001
0000
0001
1000
1001
0000
,
1000
0001
0010
0001
0100
0010
0100
0001
,
1000
0000
0100
0000
0001
0000
0100
0000
1000
0000
0001
1000
0001
0000
0100
0000
,
0001
0000
1000
0000
0010
0000
0100
0000
0001
0000
1000
0000
0100
0010
0100
0010
,
0100
1000
0100
1000
0001
1000
1001
0000
,
0001
0010
1000
0010
0100
1000
0001
0100
,
0010
1000
0100
1000
0001
0100
0010
0000
,
1000
0001
0010
0001
1000
0010
0100
0001
,
2000
0001
3001
1001
,
2000
0000
3200
0000
,
0320
0000
0032
0003
,
0002
0000
0203
0000
,
0320
0000
2030
3000
,
0001
0100
0010
1000
,
0001
0010
0100
1000
,
0001
0010
0001
1000
0010
0100
0001
0100
,
0010
1000
0001
0010
0100
1000
0100
0010
,
0001
1000
0000
0010
0100
0000
0001
1000
0000
0100
0010
0000
0001
0000
0010
0000
,
0100
0000
0000
1000
0000
0000
0001
0000
2002
0000
0000
0000
3003
0000
0000
0000
,
0001
0000
0100
0010
0000
1000
0010
0000
0100
0000
0001
0000
1000
0000
0100
0000
,
0010
0000
0001
1000
0000
0001
1000
0000
0010
0000
0100
0000
0001
0000
1000
0000
,
0001
0000
0000
0010
0000
0000
0010
0000
1000
0000
0000
0010
0000
0000
0010
0000
,
0001
0000
0000
1000
0000
0000
0001
0000
0200
0000
0000
0000
0310
0000
0010
0000
,
1000
0000
0001
0010
0000
0001
0010
0000
0100
0000
1000
0010
0000
1000
0010
0000
,
0100
0000
0001
1000
0000
0001
1000
0000
0100
0000
0010
0000
0001
0000
1000
0000
,
0001
0000
0100
0010
0100
0000
0001
0000
1000
0100
1000
0000
0001
0000
0100
0000
,
0001
0000
1000
0100
0000
0010
0000
0220
0000
0000
0000
0000
0330
0000
0000
0000
,
0001
0000
0000
0011
0000
0000
0100
0000
1000
0000
0000
1010
0000
0000
0100
0000
,
0001
0000
1000
0000
0001
0000
0100
0000
0010
0000
1000
0100
0010
0000
0002
0000
,
1003
0000
0000
0100
0000
0000
0100
0000
0001
0000
0000
0100
0000
0000
0100
0000
,
1000
0000
0000
0001
0000
0000
0100
0000
0020
0000
0000
0000
0130
0000
0100
0000
,
0001
1000
0001
0100
0010
1000
0010
0100
,
0001
1000
0100
0010
0001
0010
0100
1000
,
0001
0100
1000
0001
0010
1000
0001
0010
,
0200
1000
1300
1001
,
0001
0000
1000
0000
0100
0010
0100
0000
1000
0000
0000
0100
0000
0000
0110
0000
,
0000
0000
0010
0001
0010
0000
0001
0000
1000
0000
0000
0001
0000
0000
0100
0000
,
0001
0000
1000
0000
0001
0010
0001
0000
1000
0000
0000
0010
0000
0000
0100
0000
,
0001
0000
1000
0100
0000
1000
0000
2002
0000
0000
0000
0000
3003
0000
0000
0000
,
1000
0000
0001
0000
0100
0010
0100
0000
0001
0000
0000
0011
0000
0000
1001
0000
,
0000
0000
0001
1000
0001
0000
0100
0000
0010
0000
0000
1010
0000
0000
1000
0000
,
0001
0000
0100
0000
0010
1000
0000
1000
0000
1000
0000
1000
0001
0000
0010
0000
,
0001
1000
0000
1000
0000
0010
0000
0010
0200
0000
0000
0000
0301
0000
0000
0000
,
1001
0110
1001
0000
;

//--------------- dance-single - Fred-104 ----------------
#NOTES:
     dance-single:
     Fred-104:
     Hard:
     17:
     :
0000
0000
0000
0000
,
0000
0000
0000
0000
,
0000
0000
0000
0000
,
0000
0000
0000
0000
,
0000
0000
0000
0000
,
0000
0000
0000
0000
,
1000
0000
0001
0000
1000
0010
0100
0001
0100
0000
0000
0010
0000
0000
0110
0000
,
0000
0000
0001
0010
0100
1000
0001
0010
0100
0000
0000
1000
0000
0000
0110
0000
,
1100
0000
1001
0000
1000
0100
0000
0001
0000
0001
0000
0100
1000
0000
0001
0000
,
0100
1000
0000
1000
0000
1000
0000
0100
0002
0000
0000
0000
0003
0000
0000
0000
,
0110
0000
0000
0000
1000
0000
0100
0010
0001
0000
0011
0000
0000
1010
0000
0000
,
0101
0000
0000
0000
0001
0000
0100
0010
1000
0000
1100
0000
0000
0101
0000
0000
,
0110
0000
0000
0000
1000
0000
0001
1000
0100
0000
0110
0000
0000
0011
0000
0000
,
0001
0000
0100
1000
0000
0001
0000
0020
0000
0000
0230
0000
0302
0000
2003
0000
,
3001
0010
0000
0100
0000
0010
0000
1000
0001
0100
0000
0010
0000
0100
0000
1000
,
0001
0010
0000
1000
0000
0010
0000
0001
1000
0010
0000
0100
0002
0000
0000
0000
,
1003
0001
0100
1000
0100
0010
1000
0100
0010
1000
0010
0001
,
2000
0000
3200
0000
0320
0031
1001
0000
,
0110
0000
0000
0000
1000
0010
1000
0000
0001
0100
0001
0000
1000
0100
0000
0010
,
0001
0000
1000
0010
0100
0001
0000
0001
0100
0010
0000
0010
1000
0001
0010
0100
,
0010
0000
0001
0100
0010
1000
0001
0000
1000
0100
0010
0000
0001
1000
0010
1000
,
0001
0000
0100
1000
0100
0000
0010
0100
0000
1000
0100
0000
0020
0000
0000
0000
,
2030
0000
0000
0000
3001
0000
0010
0000
0100
1000
0001
0000
0100
0010
1000
0001
,
0010
0000
0100
0010
0001
1000
0000
1000
0100
0010
0000
0010
0001
0100
0010
1000
,
0001
0010
0100
0000
0010
0100
1000
0000
0001
1000
0100
0000
1000
0001
0100
0010
,
2000
0001
3100
0110
,
1000
0000
0100
0010
0000
0001
0000
0100
0001
0000
1000
0000
0010
0100
0001
0000
,
1000
0000
0001
0010
0000
0100
0000
1000
0010
0100
0001
0000
1000
0100
0010
0000
,
0001
0000
1000
0100
0000
0100
0001
0000
1000
0000
0001
0100
0000
0100
1000
0000
,
0001
0000
0100
0010
0000
1000
0000
0010
0200
0000
0000
0000
0301
1000
0001
1000
,
0001
0010
0100
1000
0001
0100
0010
1000
,
0001
1000
0100
0010
0100
1000
0001
0100
,
0001
1000
0001
1000
0100
0010
0100
0010
0001
1000
0010
0100
0001
0100
0010
1000
,
0002
0100
1003
1001
,
2000
0000
0000
0000
0100
0000
0000
0000
0010
0000
0000
0010
0000
0000
3001
0000
,
0000
0000
0010
0100
1000
0000
0001
0000
1000
0000
0100
1000
0010
0000
0100
0001
,
2000
0000
0000
0000
0100
0000
0000
0000
0001
0000
0000
0001
0000
0000
3010
0000
,
0110
1010
0101
1100
,
1000
0000
1000
0100
0010
0000
0010
0001
0100
0000
0100
0010
1000
0000
1000
0001
,
0010
0000
0010
0100
1000
0000
1000
0001
0100
0000
0100
0010
1000
0000
1000
0001
,
0010
0100
0010
0100
1000
0001
1000
0001
0100
0010
1000
0010
0100
0001
1000
0100
,
0010
0000
0010
0000
0010
0100
1001
0000
,
0001
0000
0010
0100
1000
0000
0001
0000
0100
0000
0010
1000
0001
0000
0010
0000
,
0100
0000
0010
0001
1000
0000
0010
0000
0100
0000
0001
0100
1000
0000
0100
0000
,
0001
0000
1000
0100
0010
0000
0001
0000
1000
0000
0010
0100
0001
0010
0100
1000
,
0001
0100
1000
0100
0001
1000
1001
0000
,
1000
0010
1000
0010
0100
0000
1000
0000
0100
0010
1000
0001
0010
0100
1000
0000
,
0001
0100
0010
0000
0001
0010
0100
0000
0001
1000
0010
1000
0001
1000
0100
0000
,
0010
0000
0001
0000
1000
0000
0010
0000
0100
0001
1000
0001
0010
0100
0010
0001
,
0200
0010
0301
1001
,
2000
0000
3200
0000
,
0302
0000
0013
1000
,
0002
0000
0203
0000
,
2300
0000
3010
0001
,
1000
1000
0010
0010
,
0100
0000
0100
0000
0001
0001
1000
1000
,
0001
1000
0001
0100
0010
1000
0100
0010
,
0001
1000
0010
1000
0001
0100
0001
1000
0100
0010
0001
1000
0010
0100
0001
1000
,
0001
0010
0000
1000
0010
0000
0100
0001
0000
0100
1000
0000
0001
0000
0100
0000
,
0110
0000
0000
1010
0000
0000
0101
0000
2002
0000
0000
0000
3003
0000
0000
0000
,
1000
0100
0010
0100
0000
0001
0100
0000
1000
0001
0100
0000
1000
0001
0010
0000
,
1000
0000
0001
1000
0000
0010
0100
0001
0100
0000
0010
0000
1010
0000
0101
0000
,
1000
0000
0001
0010
0000
0010
1000
0000
0001
0000
1000
0010
0000
0010
0001
0000
,
1000
0100
0000
0010
0001
0000
1000
0000
0020
0000
0000
0000
0130
0000
0100
0000
,
0001
0000
0010
0001
0000
1000
0001
0100
0010
0000
1000
0100
0000
0010
0100
1000
,
0001
0000
1000
0001
0000
0100
0001
1000
0010
0000
1000
0000
0001
0000
0010
0000
,
0100
0000
1000
0100
0010
0100
1000
0100
0010
0001
1000
0010
0100
0001
1000
0000
,
0001
0000
0010
1000
0000
1000
0000
1000
0000
0010
0001
0000
2002
0000
3003
0000
,
1100
0000
0000
0101
0000
0000
1010
0000
0011
0000
0000
1100
0000
0000
1001
0000
,
0001
0000
0000
0000
0000
0000
0100
0000
0000
0001
0000
0000
1000
0000
0000
0001
0000
0000
0010
0000
0000
0100
0000
0000
1000
0000
0000
0000
0000
0000
0001
0000
0100
0000
0001
0000
0100
0000
0000
0000
0000
0000
0010
0000
1000
0000
0010
0000
,
1000
0000
0001
0100
0000
0100
1000
0000
0001
0000
1000
0010
0000
0010
0001
0000
,
1000
0001
0000
0100
0010
0000
1000
0000
0200
0000
0000
0000
1300
0000
1000
0000
,
0001
0100
0010
0100
0001
1000
0100
0010
,
0001
0100
0010
1000
0010
0100
0001
1000
,
0001
0100
0010
0100
1000
0000
0001
0010
0100
0010
1000
0000
0001
0010
0100
1000
,
0002
0000
0100
0000
1003
0001
1001
0000
,
0001
0000
0100
0000
0001
1000
0010
0100
0001
0000
0000
0011
0000
0000
0110
0000
,
0000
0000
0100
1000
0001
0010
0100
1000
0001
0000
0000
0101
0000
0000
0110
0000
,
0010
0000
1000
0000
0100
0010
0001
1000
0010
0000
0000
0110
0000
0000
1001
0000
,
1000
0000
0100
0001
0000
0001
0000
0001
0000
0100
1000
0000
2002
0000
3003
0000
,
1000
0000
0001
0000
1000
0001
0010
0100
1000
0000
0000
1100
0000
0000
0110
0000
,
0000
0000
1000
0010
0100
0001
1000
0010
0100
0000
0000
0101
0000
0000
1001
0000
,
0011
0000
1001
0000
0001
0100
0000
1000
0000
1000
0000
1000
0100
0000
0001
0000
,
1000
0100
0000
0001
0000
0001
0000
0100
1000
0000
0000
0000
0110
0000
0000
0000
,
1001
0000
0000
0000
1000
0010
0001
0010
1000
0000
0000
0000
0000
0000
0000
0000
;

//--------------- dance-double - Fred-104 ----------------
#NOTES:
     dance-double:
     Fred-104:
     Easy:
     8:
     :
00000000
00000000
00000000
00000000
,
00000000
00000000
00000000
00000000
,
00000000
00000000
00000000
00000000
,
00000000
00000000
00000000
00000000
,
00000000
00000000
00000000
00000000
,
00000000
00000000
00000000
00000000
,
00010000
00000000
00000000
00000000
00000000
00000000
00000000
00000000
00001000
00000000
00000000
00010000
00000000
00000000
00000010
00000000
,
00000000
00000000
00000000
00000000
00001000
00000000
00000000
00000000
00000001
00000000
00000000
00000010
00000000
00000000
00000100
00000000
,
00010000
00001000
00020000
00030000
,
00001000
01000000
01100000
00000000
,
10000000
00000000
00000000
00000000
00000000
00000000
00000000
00000000
00000000
00000000
01000000
00000000
00000000
00100000
00000000
00000000
,
00001000
00000000
00000000
00000000
00000000
00000000
00000000
00000000
00000000
00000000
00010000
00000000
00000000
00000100
00000000
00000000
,
00010000
00000000
00000000
00000000
00000000
00000000
00000000
00000000
00000000
00000000
00000010
00000000
00000000
00010000
00000000
00000000
,
00000010
00010000
00011000
00000000
,
00002000
00000000
00023000
00000000
,
00230000
00000000
02300000
00000000
,
03010000
00100000
01000000
10000000
,
02000000
00100000
03100000
01100000
,
00020000
00030000
10000000
00100000
,
00010000
00001000
00010000
00100000
,
00010000
00001000
00000100
00000010
,
00001000
00000001
00000010
00000000
,
00000002
00000003
00001000
00000001
,
00000010
00000100
00000010
00001000
,
00010000
00001000
00000100
00000001
,
00001000
00000100
00000220
00000330
,
00000001
00000000
00000100
00000000
00000010
00001000
00000010
00000000
,
00010000
00000000
00001000
00000000
00010000
00000010
00010000
00000000
,
00001000
00010000
00100000
10000000
,
00010000
00000000
01100000
00000000
,
10000000
00000000
01000000
00000000
00100000
00000000
00001000
00001000
,
00001000
00000000
00010000
00000000
00000010
00000000
00010000
00010000
,
00010000
00001000
00000100
00000001
,
00002002
00000000
00000000
00003003
,
00000001
00000000
00000000
00000000
00001000
00000000
00000000
00000000
00000100
00000000
00000000
00000100
00000000
00000000
00010000
00000000
,
00000000
00001000
00010000
00100000
,
01000000
00000000
00000000
00000000
00001000
00000000
00000000
00000000
00100000
00000000
00000000
00100000
00000000
00000000
00001000
00000000
,
00010000
00001000
00010000
00011000
,
00020000
00000000
00032000
00000000
,
00003200
00000000
00000302
00000000
,
00001003
00000001
00000010
00001000
,
00010000
01000000
20020000
30030000
,
10000000
01000000
00010000
01000000
,
10000000
00000000
01000000
00000000
00010000
00001000
00010000
00000000
,
00001000
00010000
00000100
00010000
,
00002000
00000000
00020000
00033000
,
00010000
00000010
00010000
00000000
00001000
00000000
00010000
00000000
,
00001000
00100000
00010000
00000000
01000000
00000000
00001000
00000000
,
00010000
00001000
00000100
00000010
,
00002002
00000000
00000000
00003003
,
00000002
00000000
00000000
00000000
,
00002003
00000000
00000000
00000000
,
00003200
00000000
00000000
00000000
,
00020300
00000000
00000000
00000000
,
00031000
00000000
00100000
00000000
,
00010000
10000000
00010000
00000000
,
10000000
01000000
00100000
00010000
,
01000000
00010000
01000000
00000000
00001000
00010000
00001000
00000000
,
00010000
00000000
00000000
00000010
00000000
00000000
00010000
00001000
,
00010000
00000000
00000000
00022000
00000000
00000000
00033000
00000000
,
00002000
00003000
02000000
03000000
,
00001000
00010000
01000000
00100000
,
00020000
00030000
20000000
30000000
,
00200000
00000000
00300000
00000000
00010000
00000000
00001000
00010000
,
00001000
00010000
00000010
00000000
,
00001000
00000001
00000100
00000000
,
00000020
00000030
00020000
00030000
,
00001000
00010000
00022000
00033000
,
00001000
00000000
00000000
00100000
00000000
00000000
00010000
00000000
10000000
00000000
00000000
00100000
00000000
00000000
01000000
00000000
,
00010000
00000000
10000000
00000000
00100000
01000000
00010000
00000000
,
00100000
00000000
00001000
00000000
00010000
00001000
00010000
00000000
,
00000100
00001000
00002002
00003003
,
00000001
00000010
00000100
00010000
,
00001000
00100000
01000000
10000000
,
00010000
10000000
01000000
00000000
00100000
00001000
00010000
00000000
,
00001000
00010000
00022000
00033000
,
00001000
00000000
00000000
00000000
01000000
00000000
00000000
00000000
00001000
00000000
00000000
00100000
00000000
00000000
00010000
00000000
,
00000000
00000000
00000000
00000000
10000000
00000000
00000000
00000000
00100000
00000000
00000000
01000000
00000000
00000000
00010000
00000000
,
00000000
00000000
00000000
00000000
00100000
00000000
00000000
00000000
00001000
00000000
00000000
00010000
00000000
00000000
00000010
00000000
,
00001000
00000001
00002002
00003003
,
00000110
00000000
00000000
00000000
00000000
00000000
00000000
00000000
00000001
00000000
00000000
00000100
00000000
00000000
00001000
00000000
,
00000000
00000000
00000000
00000000
00010000
00000000
00000000
00000000
00100000
00000000
00000000
10000000
00000000
00000000
00010000
00000000
,
10000000
00000000
01000000
00000000
00010000
00001000
00010000
00000000
,
00001000
00000100
00000010
00010000
,
00001000
00001000
00011000
00000000
;

//--------------- dance-double - Fred-104 ----------------
#NOTES:
     dance-double:
     Fred-104:
     Medium:
     14:
     :
00000000
00000000
00000000
00000000
,
00000000
00000000
00000000
00000000
,
00000000
00000000
00000000
00000000
,
00000000
00000000
00000000
00000000
,
00000000
00000000
00000000
00000000
,
00000000
00000000
00000000
00000000
,
00001000
00000000
00010000
00000000
00001000
00100000
00010000
00000000
10000000
00000000
00000000
01000000
00000000
00000000
01100000
00000000
,
00000000
00000000
00100000
00001000
00010000
00000000
00001000
00000000
00000010
00000000
00000000
00000100
00000000
00000000
00001100
00000000
,
00001000
00000000
00000001
00000000
00000100
00000010
00000000
00000010
00000000
00000010
00000000
00000010
00001000
00000000
00000100
00000000
,
00010000
00001000
00000000
00100000
00000000
00010000
00000000
00010000
20000000
00000000
00000000
00000000
30000000
00000000
00000000
00000000
,
10010000
00000000
00000000
00000000
10000000
00000000
00100000
01000000
00010000
00000000
00100000
00000000
00000000
00101000
00000000
00000000
,
00011000
00000000
00000000
00000000
00010000
00000000
00000010
00001000
00000010
00000000
00001000
00000000
00000000
00001001
00000000
00000000
,
00000110
00000000
00000000
00000000
00000001
00000000
00000100
00001000
00010000
00000000
00001000
00000000
00000000
00011000
00000000
00000000
,
00001000
00000000
00010000
00100000
00000000
01000000
00000000
00020000
00000000
00000000
10030000
00000000
01000000
00000000
00100000
00000000
,
00010000
10000000
00000000
01000000
00000000
00100000
00000000
00000000
00001000
00010000
00000000
00000010
00000000
00001000
00000000
00000000
,
00000100
00000010
00000000
00000001
00000000
00001000
00000000
00000000
00000001
00000010
00000000
00000100
00002000
00000000
00000000
00000000
,
00003100
00000000
00000010
00001000
00000000
00010000
01000000
00000000
00100000
00010000
00000000
10000000
,
00200000
00320000
00031000
00011000
,
00020000
00000000
00030010
00010000
00001000
00000100
00000010
00010000
,
00001000
00000000
00000100
00000000
00000001
00000000
00000010
00000000
00000100
00001000
00000000
00001000
00000100
00000000
00010000
00000000
,
00002000
00000000
00013000
00100000
01000000
00010000
10000000
01000000
,
00100000
00000000
00010000
10000000
00010000
00000000
00100000
00001000
00000000
00100000
00001000
00000000
00020000
00000000
00000000
00000000
,
00030020
00000000
00010030
00001000
00000010
00000100
00010000
00001000
,
00000010
00000100
00001000
00010000
00100000
01000000
00010000
00001000
,
00010000
00000010
00001000
00000010
00010000
00001000
00010000
00100000
,
02000000
00000000
03020000
00000000
10030000
01000000
01100000
00000000
,
10000000
00000000
01000000
00000000
00010000
00000000
00001000
00000000
00010000
00000000
00100000
00000000
00010000
00001000
00010000
00000000
,
00001000
00000000
00010000
00000010
00000000
00001000
00000000
00000001
00000100
00000000
00000010
00000000
00001000
00000000
00000001
00000000
,
00000010
00000000
00000000
00000100
00000000
00000000
00010000
00000000
00001000
00000000
00000000
00000100
00000000
00000000
00000010
00000000
,
00001000
00000000
00000000
00000001
00000000
00000010
00000000
00000200
00000000
00000000
00000000
00000000
00010300
00000000
00001000
00000000
,
00010000
00000000
00001000
00100000
00000000
00010000
10000000
00000000
02000000
00000000
00000000
00000000
03100000
00000000
00001000
00000000
,
00010000
00000000
00000010
00001000
00000000
00000001
00001000
00000000
00000200
00000000
00000000
00000000
00000310
00000000
00000001
00000000
,
00000100
00000010
00000100
00001000
00010000
00100000
01000000
00100000
,
20000000
01000000
30010000
10010000
,
02000000
00000000
00000000
00000000
00001000
00000000
00000000
00000000
00001000
00000000
00000000
00001000
00000000
00000000
03001000
00000000
,
00000000
00000000
00010000
00000000
00001000
00000000
00000100
00000000
00000010
00000000
00010000
00001000
00010000
00000000
00001000
00000000
,
00200000
00000000
00000000
00000000
00010000
00000000
00000000
00000000
00010000
00000000
00000000
00010000
00000000
00000000
00310000
00000000
,
10010000
11000000
01010000
00011000
,
00010000
00000000
00000000
00001000
00000000
00000000
00000100
00000000
00000001
00000000
00000000
00000010
00000000
00000000
00001000
00000000
,
00010000
00000000
00000000
01000000
00000000
00000000
10000000
00000000
00100000
00000000
00000000
00010000
00000000
00000000
00001000
00000000
,
00010000
00000000
00001000
00000000
00000100
00000000
00000010
00000000
00001000
00000001
00001000
00000001
00001000
00000001
00001000
00000001
,
00001000
00000000
00001000
00000000
00001000
00000001
00001001
00000000
,
00000001
00001000
00000100
00000010
00001000
00010000
01000000
00100000
,
00010000
00000000
10000000
00000000
00100000
00000000
00010000
00000000
00001000
00000000
00010000
00001000
00010000
00000000
00000010
00000000
,
00000100
00000001
00001000
00000100
00000001
00000100
00001000
00000010
,
00010000
00010000
00001000
00001000
00010000
00001000
00011000
00000000
,
00001000
00010000
01000000
00100000
00010000
10000000
01000000
00100000
,
00001000
00010000
00001000
00000100
00000010
00001000
00000001
00000000
,
00001000
00000001
00000100
00001000
00010000
00100000
01000000
00001000
,
00020000
00001000
00031000
00011000
,
00020000
00000000
00032000
00000000
,
00003020
00000000
00000032
00000003
,
00000200
00000000
00002300
00000000
,
00023000
00000000
00230000
00300000
,
10000000
01000000
00100000
00001000
,
00010000
00000100
00000010
00000001
,
00001000
00000001
00000100
00000010
00001000
00000010
00010000
00001000
,
00100000
00010000
10000000
00100000
01000000
00001000
00010000
00001000
,
00100000
00001000
00000000
00010000
00001000
00000000
01000000
00001000
00000000
00010000
00001000
00000000
00010000
00000000
00000100
00000000
,
00001000
00000000
00000000
00000001
00000000
00000000
00000100
00000000
00000220
00000000
00000000
00000000
00000330
00000000
00000000
00000000
,
00000001
00000010
00001000
00010000
01000000
00100000
10000000
00100000
,
00010000
00000000
10000000
00100000
00000000
01000000
00010000
00000000
01000000
00000000
00001000
00000000
00010000
00000000
00001000
00000000
,
00100000
00000000
00000000
00001000
00000000
00000000
00001000
00000000
00000010
00000000
00000000
00010000
00000000
00000000
00010000
00000000
,
00001000
00000000
00000000
00010000
00000000
00000000
00001000
00000000
00020000
00000000
00000000
00000000
00031000
00000000
00001000
00000000
,
01000000
00000000
00010000
00100000
00000000
00010000
10000000
00000000
01000000
00000000
00100000
00010000
00000000
00100000
00001000
00000000
,
00010000
00000000
00000010
00001000
00000000
00000010
00000100
00000000
00000001
00000000
00000010
00000000
00000100
00000000
00001000
00000000
,
00000100
00000000
00010000
00001000
00010000
00000000
00000010
00000000
00010000
00001000
00010000
00000000
00001000
00000000
00100000
00000000
,
01000000
00000000
10000000
00010000
00000000
01000000
00000000
02200000
00000000
00000000
00000000
00000000
03300000
00000000
00000000
00000000
,
11000000
00000000
00000000
00100000
00000000
00000000
00001000
00000000
00011000
00000000
00000000
00000010
00000000
00000000
00000100
00000000
,
00000001
00000000
00001000
00000000
00000100
00000000
00000010
00000000
00000100
00000000
00010000
00001000
00010000
00000000
00000020
00000000
,
00010030
00001000
00000100
00000001
00001000
00000100
00000010
00000001
,
00001000
00000100
00000000
00010000
00000000
00000000
00000100
00000000
00002000
00000000
00000000
00000000
00003001
00000000
00000001
00000000
,
00001000
00000010
00000100
00000001
00000010
00000100
00000010
00001000
,
00010000
01000000
10000000
00010000
01000000
00100000
10000000
00010000
,
10000000
01000000
00010000
00001000
00010000
01000000
00100000
00001000
,
00020000
00001000
00031000
00011000
,
00010000
00000000
00000100
00000000
00001000
00000001
00000010
00000000
00000100
00000000
00000000
00010000
00000000
00000000
00011000
00000000
,
00000000
00000000
00001000
01000000
00001000
00000000
00010000
00000000
00100000
00000000
00000000
01000000
00000000
00000000
00100000
00000000
,
10000000
00000000
01000000
00000000
00100000
00010000
00100000
00000000
00001000
00000000
00000000
00010000
00000000
00000000
00001000
00000000
,
00000010
00000000
00000100
00001000
00000000
00000001
00000000
00002002
00000000
00000000
00000000
00000000
00003003
00000000
00000000
00000000
,
00000001
00000000
00000100
00000010
00001000
00000000
00000100
00000000
00000010
00000000
00000000
00000011
00000000
00000000
00001010
00000000
,
00000000
00000000
00000001
00001000
00000100
00000000
00010000
00000000
00001000
00000000
00000000
00101000
00000000
00000000
00100000
00000000
,
00010000
00000000
10000000
00000000
01000000
00100000
00000000
00100000
00000000
00001000
00000000
00001000
00010000
00000000
00000100
00000000
,
00001000
00000001
00000000
00000010
00000000
00000100
00000000
00010000
00001000
00000000
00000000
00000000
00011000
00000000
00000000
00000000
,
02200000
03300000
10010000
00000000
;

//--------------- dance-double - Fred-104 ----------------
#NOTES:
     dance-double:
     Fred-104:
     Hard:
     17:
     :
00000000
00000000
00000000
00000000
,
00000000
00000000
00000000
00000000
,
00000000
00000000
00000000
00000000
,
00000000
00000000
00000000
00000000
,
00000000
00000000
00000000
00000000
,
00000000
00000000
00000000
00000000
,
00010000
00000000
00001000
00000000
00010000
00000010
00001000
00000010
00000100
00000000
00000000
00000001
00000000
00000000
00001001
00000000
,
00000000
00000000
00000001
00000010
00000001
00001000
00000100
00010000
00001000
00000000
00000000
00011000
00000000
00000000
00101000
00000000
,
00001000
00000000
00010000
00000000
00100000
10000000
00000000
10000000
00000000
10000000
00000000
10000000
01000000
00000000
00010000
00000000
,
00001000
00000010
00000000
00000010
00000000
00000100
00000000
00001000
00000002
00000000
00000000
00000000
00000003
00000000
00000000
00000000
,
00000110
00000000
00000000
00000000
00000001
00000000
00000100
00000010
00001000
00000000
00001100
00000000
00000000
00010100
00000000
00000000
,
00011000
00000000
00000000
00000000
00010000
00000000
00000010
00010000
00001000
00000000
00101000
00000000
00000000
00011000
00000000
00000000
,
01001000
00000000
00000000
00000000
00001000
00000000
00010000
00100000
01000000
00000000
01010000
00000000
00000000
10010000
00000000
00000000
,
10000000
00000000
01000000
00100000
00000000
00001000
00000000
00020000
00000000
00000000
00030100
00000000
00010000
00000000
00001000
00000000
,
00010000
00001000
00000000
00000010
00000000
00000001
00000000
00001000
00000100
00000010
00000000
00000001
00000000
00000100
00000000
00000010
,
00000100
00001000
00000000
00010000
00000000
00100000
00000000
01000000
00100000
10000000
00000000
00010000
02000000
00000000
00000000
00000000
,
03001000
00010000
00100000
01000000
00010000
10000000
01000000
00010000
00001000
00000010
00000100
00001000
,
00000002
00000000
00000203
00000000
00000310
00001000
00001001
00000000
,
00000110
00000000
00000000
00000000
00001000
00000100
00001000
00000000
00000001
00000100
00000001
00000000
00001000
00000100
00000000
00000100
,
00010000
00000000
00001000
00010000
00001000
01000000
00000000
01000000
00010000
10000000
00000000
10000000
01000000
00100000
00010000
10000000
,
00100000
00000000
10000000
01000000
00100000
00010000
00100000
00000000
00001000
00010000
00001000
00000000
00010000
00000010
00001000
00000001
,
00001000
00000000
00000001
00000100
00001000
00000000
00000100
00000010
00000000
00000100
00001000
00000000
00000200
00000000
00000000
00000000
,
00000320
00000000
00000000
00000000
00001030
00000000
00000001
00000000
00000010
00000100
00001000
00000000
00000100
00010000
00001000
00000000
,
00100000
00000000
00001000
00010000
00001000
00000010
00000000
00000100
00001000
00000001
00000000
00000100
00000010
00001000
00000010
00010000
,
00001000
00010000
00100000
00000000
10000000
00010000
01000000
00000000
10000000
01000000
00100000
00000000
10000000
01000000
00100000
00001000
,
00020000
00001000
00031000
00011000
,
00010000
00000000
00001000
00000010
00000000
00000100
00000000
00001000
00000001
00000000
00000100
00000000
00000010
00000100
00001000
00000000
,
00010000
00000000
00100000
10000000
00000000
00010000
00000000
01000000
00100000
10000000
01000000
00000000
00100000
00001000
00010000
00000000
,
00001000
00000000
00010000
00001000
00000000
00010000
00000010
00000000
00001000
00000000
00000010
00010000
00000000
00001000
00100000
00000000
,
00010000
00000000
10000000
01000000
00000000
00100000
00000000
00001000
00020000
00000000
00000000
00000000
00031000
00010000
00001000
00010000
,
00001000
00000000
00010000
00000010
00000000
00001000
00000010
00000000
00000200
00000000
00000000
00000000
00000301
00000000
00000010
00000000
,
00000100
00000000
00010000
00001000
00000000
00100000
00010000
00000000
20000000
00000000
00000000
00000000
30100000
00000000
10000000
00000000
,
01000000
00100000
00010000
00000000
00100000
00001000
00010000
00000000
00000010
00001000
00000001
00000010
00000100
00001000
00000100
00010000
,
00002000
00010000
00013000
00011000
,
00020000
00000000
00000000
00000000
00001000
00000000
00000000
00000000
00000010
00000000
00000000
00000010
00000000
00000000
00030100
00000000
,
00000000
00000000
00010000
00001000
00000100
00000000
00000001
00000000
00001000
00000000
00000001
00000010
00000100
00000000
00010000
00000000
,
00002000
00000000
00000000
00000000
00010000
00000000
00000000
00000000
01000000
00000000
00000000
01000000
00000000
00000000
00013000
00000000
,
00011000
00010010
01001000
00011000
,
00001000
00000000
00010000
00100000
01000000
00000000
00010000
00100000
01000000
00000000
10000000
01000000
00100000
00000000
10000000
00100000
,
00010000
00000000
01000000
00001000
00010000
00000000
00001000
00000010
00000100
00000000
00001000
00000010
00000100
00000000
00001000
00000100
,
00000010
00001000
00000001
00000000
00000010
00000100
00000010
00000000
00001000
00010000
01000000
00100000
01000000
00000000
10000000
00000000
,
00010000
00000000
01000000
00000000
00001000
00010000
00011000
00000000
,
00010000
00000000
00001000
00000100
00000010
00000000
00001000
00000000
00000001
00000000
00000010
00000100
00000010
00000000
00001000
00000000
,
00010000
00000000
01000000
00100000
00010000
00000000
01000000
00000000
00010000
00000000
10000000
01000000
00100000
00000000
00001000
00000000
,
00010000
00000000
00001000
00000010
00000100
00000000
00001000
00000000
00000010
00000000
00010000
00000000
00001000
00000100
00000010
00001000
,
00000001
00000100
00001000
00010000
00100000
10000000
10010000
00000000
,
00100000
00010000
01000000
00001000
00010000
00000000
00001000
00000000
00100000
00001000
00010000
00001000
01000000
00001000
00010000
00000000
,
00001000
00000100
00000010
00000000
00001000
00000010
00010000
00000000
00001000
00100000
00010000
00100000
01000000
00100000
00010000
00000000
,
00100000
00001000
00010000
00000000
00001000
00010000
00000010
00000000
00001000
00000010
00000100
00001000
00010000
00100000
01000000
00100000
,
20000000
00010000
30010000
10010000
,
20000000
00000000
32000000
00000000
,
03200000
00000000
00302000
00000000
,
00023000
00000000
00030020
00000000
,
00000230
00000000
00000302
00000000
,
00001003
00000100
00000001
00000100
,
00010000
00001000
00000100
00001000
,
00010000
00001000
00100000
00010000
10000000
00100000
01000000
00010000
,
10000000
01000000
00100000
00010000
00100000
00001000
00010000
00000100
00001000
00000100
00000010
00000001
00001000
00000010
00000100
00000001
,
00001000
00000100
00000000
00000001
00000100
00000000
00000010
00001000
00000000
00000010
00000001
00000000
00000100
00000000
00001000
00000000
,
00010000
00000000
00000000
00101000
00000000
00000000
00010010
00000000
00022000
00000000
00000000
00000000
00033000
00000000
00000000
00000000
,
00010000
00001000
00000010
00000000
00000001
00000100
00000010
00000000
00000001
00001000
00000100
00000000
00000001
00001000
00000010
00000000
,
00000001
00000000
00001000
00000100
00000000
00000010
00000100
00001000
00000100
00000000
00010000
00000000
01000000
00000000
00100000
00000000
,
00010000
00000000
10000000
01000000
00000000
00100000
00001000
00000000
00010000
00000000
00001000
01000000
00000000
00010000
10000000
00000000
,
01000000
00100000
00000000
00001000
00010000
00000000
00001000
00000000
00020000
00000000
00000000
00000000
00030010
00000000
00000010
00000000
,
00001000
00000000
00000010
00010000
00000000
00001000
00010000
00001000
00100000
00000000
00001000
01000000
00000000
00001000
00010000
00000100
,
00010000
00000000
00001000
00010000
00000000
00000100
00001000
00000100
00000010
00000000
00000001
00000000
00000100
00000000
00001000
00000000
,
00010000
00000000
00001000
00010000
00001000
00100000
00010000
00000000
10000000
00010000
00100000
01000000
00100000
00010000
10000000
00000000
,
01000000
00000000
00100000
00001000
00000000
00001000
00000000
00001000
00000000
00000010
00000100
00000000
00002200
00000000
00003300
00000000
,
00001010
00000000
00000000
00000101
00000000
00000000
00001100
00000000
00011000
00000000
00000000
00110000
00000000
00000000
10100000
00000000
,
10000000
00000000
00000000
00010000
00000000
00000000
10000000
00000000
00000000
00100000
00000000
00000000
01000000
00000000
00000000
00010000
00000000
00000000
10000000
00000000
00000000
01000000
00000000
00000000
00100000
00000000
00000000
00000000
00000000
00000000
00001000
00000000
00010000
00000000
00001000
00000000
00010000
00000000
00000000
00000000
00000000
00000000
00000010
00000000
00001000
00000000
00000010
00000000
,
00001000
00000000
00000001
00000010
00000000
00000100
00010000
00000000
00001000
00000000
00010000
00000010
00000000
00001000
00000100
00000000
,
00010000
00001000
00000000
01000000
00010000
00000000
00100000
00000000
02000000
00000000
00000000
00000000
13000000
00000000
10000000
00000000
,
00010000
10000000
01000000
00010000
00001000
00010000
00100000
01000000
,
00010000
00001000
00000010
00000100
00000001
00001000
00000001
00000010
,
00000001
00000100
00000010
00000100
00001000
00000000
00010000
00100000
01000000
00100000
10000000
00000000
00010000
00100000
01000000
10000000
,
00020000
10000000
10030000
10010000
,
10000000
00000000
01000000
00000000
10000000
00010000
00100000
00001000
00010000
00000000
00000000
00010010
00000000
00000000
00011000
00000000
,
00000000
00000000
00010000
00001000
00010000
00000010
00001000
00000010
00010000
00000000
00000000
00011000
00000000
00000000
00010100
00000000
,
00010000
00000000
00000100
00000000
00001000
00000100
00000010
00000001
00001000
00000000
00000000
00001010
00000000
00000000
00000101
00000000
,
00000001
00000000
00000100
00001000
00000000
00010000
00000000
00100000
00000000
01000000
00100000
00000000
20020000
00000000
30030000
00000000
,
10000000
00000000
01000000
00000000
00100000
00010000
00100000
00001000
00010000
00000000
00000000
00010010
00000000
00000000
00011000
00000000
,
00000000
00000000
00010000
00000100
00001000
00000100
00010000
00001000
01000000
00000000
00000000
01001000
00000000
00000000
00011000
00000000
,
00010000
00000000
00001000
00000000
00000100
00000010
00000000
00001000
00000000
00000001
00000000
00000010
00000100
00000000
00010000
00000000
,
00001000
00010000
00000000
00100000
00000000
01000000
00000000
00010000
10000000
00000000
00000000
00000000
01100000
00000000
00000000
00000000
,
00011000
00000000
00000000
00000000
00010000
00001000
00000100
00000001
00001000
00000000
00000000
00000000
00000000
00000000
00000000
00000000
;
