#TITLE:Disable Mark;
#ARTIST:RoughSketch REVET D-crew;
#BANNER:Disable Mark.png;
#BACKGROUND:Disable Mark-bg.png;
#CDTITLE:./CDTitles/RB VOLZZA 2.png;
#MUSIC:Disable Mark.ogg;
#SAMPLESTART:86.153;
#SAMPLELENGTH:15;
#BPMS:0=195,39=390,39.5=195,39.75=97.5,40=195,68=97.5,69.5=195,130=390,134=195,135=162.5,135.833333=130,136.5=97.5,137=195,172=292.5,172.375=243.75,172.6875=146.25,172.875=97.5,173=195,206=97.5,222=195,250=97.5,252=195,315=292.5,315.375=243.75,315.6875=146.25,315.875=97.5,316=195;
#STOPS:69.5=0.154,130=0.103,130.666667=0.102,131.333333=0.103,132=0.102,132.666667=0.103,133.333333=0.102,203.5=2.154;
#TIMESIGNATURES:0=4=4,68=2=4,70=4=4,134=3=4,137=4=4,201=5=4,206=4=4,250=2=4,252=4=4;
#BGSTAGE:29;

//--------------- dance-single - Fred-104 ----------------
#NOTES:
     dance-single:
     Fred-104:
     Beginner:
     5:
     :
0000
0000
0000
0000
,
0000
0000
0000
0000
,
0000
0000
0000
0000
,
0000
0000
0000
0000
,
0000
0000
0000
0000
,
0000
0000
0000
0000
,
1000
0000
1000
0000
,
0001
0000
0001
0000
,
1000
0000
1000
0000
,
0001
0000
0001
0000
,
1000
0000
1000
0000
,
0010
0000
0010
0000
,
0001
0000
0001
0000
,
0100
0000
0100
0000
,
1000
0000
1000
0000
,
0001
0000
0001
0000
,
0200
0300
0200
0300
,
0110
0000
0001
0000
,
0010
0000
0001
0000
,
0010
0000
1000
0000
,
0100
0000
1000
0000
,
0100
0000
0001
0000
,
1000
1000
1000
0000
,
0001
0001
0001
0000
,
1000
1000
1000
0000
,
0001
0001
0001
0000
,
0010
0000
0100
0000
,
1000
1000
1000
0000
,
0001
0000
0100
0000
,
0010
0010
0010
0000
,
0100
0000
0001
0000
,
1000
0000
0002
0003
,
0002
0003
2002
0000
,
0000
0000
3003
0000
,
0000
2000
0000
3002
,
0000
1003
0000
0100
,
0000
0100
0000
0001
,
0000
0001
0000
0100
,
0000
0001
0000
0100
,
0000
1000
0000
1000
,
0000
0001
0000
0100
,
0000
1000
0000
1000
,
0000
0100
0000
0001
,
0000
1000
0000
1000
,
0000
0010
0000
0010
,
0000
0001
0000
0001
,
0000
0010
0000
0010
,
0000
1000
0000
1000
,
0000
0001
0000
0001
,
0000
1000
0000
1000
,
0000
0000
2002
0000
0000
0000
0000
3003
,
0000
0000
1000
0000
,
0000
0000
0100
0000
,
0000
0000
0100
0000
,
0000
0000
0100
0000
,
0000
0000
0010
0000
,
0000
0000
0010
0000
,
0000
0000
0010
0000
,
0001
0000
0001
0000
,
0000
0000
1000
0000
,
1000
0000
0010
0000
,
0010
0000
0200
0000
,
0000
0000
0300
0000
,
0100
0000
0100
0000
,
0000
0100
0000
0000
,
0100
0000
0001
0000
,
0000
0001
0000
0000
,
0001
0000
1000
0000
,
0000
1000
0000
0000
,
1000
0000
0001
0000
,
2000
3000
0002
0003
,
1000
0000
1000
0000
,
0100
0000
0100
0000
,
0010
0000
0010
0000
,
0001
0000
0001
0000
,
1000
0000
0000
0010
,
0000
0000
0001
0000
,
0100
0000
1000
0000
,
0002
0003
0002
0003
,
1000
0000
1000
0000
,
0010
0000
0100
0100
,
0100
0000
0010
0000
,
1000
0000
0001
0001
,
0001
0000
0010
0000
,
0100
0000
1000
0000
,
0001
0001
0001
0001
,
2002
0000
0000
0000
0000
0000
0000
3003
;

//--------------- dance-single - Fred-104 ----------------
#NOTES:
     dance-single:
     Fred-104:
     Easy:
     10:
     :
0000
0000
0000
0000
,
0000
0000
0000
0000
,
0000
0000
0000
0000
,
0000
0000
0000
0000
,
0000
0000
0000
0000
,
0000
0000
0000
0000
,
1001
0000
0000
1000
0001
0000
0000
0001
,
0100
0010
0100
0000
,
1001
0000
0000
0001
1000
0000
0000
1000
,
0100
0010
0002
0003
,
1000
1000
0100
0100
,
0001
0001
0010
0010
,
1000
1000
0001
0001
,
0100
0000
0100
0000
0010
1000
0010
0000
,
0100
0100
0001
0001
,
1000
1000
0100
0100
,
0010
0001
0010
0000
0001
1000
0001
0000
,
2002
0000
0000
3003
1000
0000
1000
0000
,
0001
0001
0100
0100
,
0010
1000
0100
0000
0010
0000
0010
0000
,
0001
0001
1000
1000
,
0010
0100
0001
0000
1010
0000
0101
0000
,
1001
0000
0011
1100
,
1001
0000
1001
0110
,
1001
0000
0001
1000
,
0010
1000
0002
0000
,
0013
0000
2000
0000
,
3010
0000
0002
0000
,
0103
0000
2000
0000
,
3100
0000
0001
1000
,
0100
1000
0001
0100
,
0001
0000
1000
0000
0100
0010
0100
0000
,
0010
0000
0000
0001
0000
0000
0010
0000
0000
0000
0000
0000
0001
0000
0000
0000
0001
0000
0000
0000
0001
0000
0000
0000
,
1000
0000
1000
0000
1000
0000
2002
0000
0000
0000
0000
0000
,
0000
3003
0220
0000
0330
0000
2002
0000
,
3003
0001
1000
0002
,
1003
0000
0010
0000
0010
0000
1000
0001
,
1000
0010
0100
0002
,
1003
0000
0100
0000
0100
0000
0010
0001
,
0010
0001
1000
0010
,
0010
0000
0100
0000
0010
0000
1000
0001
,
1000
0001
0010
0010
,
0010
0100
1000
0001
,
1001
1001
0000
0001
,
0100
1000
0100
0001
,
1000
1001
0000
1000
,
0100
0001
0100
1000
,
0001
1000
0010
1000
,
0010
0001
0010
0001
,
0010
1000
0001
0010
,
0100
0000
1000
0000
0001
0100
0000
1001
,
0000
0000
0000
0000
1000
0100
1000
0010
,
0100
0000
0000
0100
0000
0000
0100
0000
0001
0000
1000
0000
0001
0000
0000
0000
,
0010
0000
0100
0000
1000
0000
0000
0000
0001
0000
0000
0100
0000
0000
0001
0000
,
0000
0010
0000
0000
0001
0000
1000
0000
0010
0000
0010
0000
0100
0000
0100
0000
,
0001
0001
1000
0001
1001
0000
0000
0000
,
1000
0000
0000
0000
0010
0000
0000
0100
,
0000
0010
1000
0000
,
0100
0000
0010
0001
,
1000
0000
0001
0000
0100
0000
0000
0001
,
0000
0000
1000
0000
0000
0100
0000
0000
,
0010
0100
1000
0001
,
1000
0000
0000
0000
2002
0000
0000
3003
,
1000
0000
0100
0000
0000
0100
0000
0000
,
0010
0000
0000
0001
0000
0000
1000
0000
,
0010
0000
0100
0000
0000
0001
0000
0000
,
0010
0000
0000
0001
0000
0000
1000
0001
,
1000
0000
0010
0000
0000
0100
0000
0000
,
0010
0000
0000
1000
0000
0000
0001
0010
,
0001
0010
0100
1000
,
0002
2003
3002
2003
,
3010
1000
0010
1000
,
0001
0000
0010
0000
0100
1000
0100
0000
,
1000
0001
1000
0001
,
0100
0000
0001
0000
0010
0100
1000
0000
,
0001
0100
0000
0001
0100
0000
0010
1000
,
0000
0010
1000
0000
0001
1000
0001
0000
,
1000
0100
0010
0001
,
1000
0000
0001
0000
1000
0001
2000
0000
,
3001
0100
0010
0100
,
0001
0000
0010
0000
0100
1000
0100
0000
,
1000
0010
0100
0010
,
1000
0000
0100
0000
0010
0001
0010
0000
,
0001
1000
0010
0100
,
0001
0010
0001
0000
1000
0010
1000
0000
,
0001
0000
1000
0000
0001
1000
0001
1000
,
0000
0000
0001
0000
0000
0010
0000
0000
0100
0000
0000
1000
0000
0000
1100
0000
;

//--------------- dance-single - Fred-104 ----------------
#NOTES:
     dance-single:
     Fred-104:
     Medium:
     13:
     :
0000
0000
0000
0000
,
0000
0000
0000
0000
,
0000
0000
0000
0000
,
0000
0000
0000
0000
,
0000
0000
0000
0000
,
0000
0000
0000
0000
,
1001
0000
0000
0001
0100
0000
0000
0100
,
0010
0100
0000
0100
0001
0000
1000
0000
,
1001
0000
0000
1000
0100
0000
0000
0100
,
0010
0100
0000
0100
0010
0000
0002
0000
,
1003
0010
1000
0010
,
0001
0000
0100
0000
0001
0100
1000
0000
,
0001
0010
0001
0010
,
1000
0000
0100
0000
1000
0100
0001
0000
,
0010
0100
0010
0100
,
1000
0001
0100
0010
,
1000
0100
0010
0000
0001
0100
0010
0000
,
0220
0000
0000
0330
1000
0001
1000
0000
,
0010
1000
0010
0000
0100
0001
0100
0000
,
0001
1000
0001
0000
0010
0100
1000
0000
,
0001
1000
0010
0000
0100
0001
0010
0000
,
0100
1000
0001
0000
1001
0000
0110
0000
,
1000
0100
0010
0000
1001
0000
0110
0000
,
0001
0100
0010
0000
1010
0000
0101
0000
,
1000
0100
0010
0000
0001
0100
1000
0000
,
0001
0000
0000
0010
0000
0000
1000
0000
0000
0000
0000
0000
0100
0000
0000
0000
0100
0000
0010
0000
0000
0000
0000
0000
,
0001
0000
1000
0000
0010
0000
1000
0000
1000
0100
0000
0000
,
0010
0000
0001
0000
1000
0000
0001
0000
0100
0000
0001
0000
,
0010
0000
0100
0000
1000
0000
0001
0000
0001
0100
0000
0100
,
0010
0000
0000
0000
0000
0000
0000
0000
0010
0000
0000
0000
1000
0000
0000
0000
0000
0000
0000
0000
1000
0000
0000
0000
0001
0000
0000
0000
0000
0000
0010
0000
0000
0000
0000
0000
0100
0000
0000
0000
0000
0000
0000
0000
0000
0100
0000
0000
,
1000
0000
0001
0000
1000
0000
0000
1000
0010
0000
0000
0010
0100
0000
0001
0000
,
0010
0100
1000
0001
0101
0000
1001
0000
,
1100
0000
0000
1001
0000
0000
1000
0000
1000
0000
1000
0000
,
0001
0000
0001
0000
0001
0000
2002
0000
0000
0000
0000
0000
,
0000
0000
0000
3003
0000
0000
1000
0000
0000
0000
0100
0000
0000
0000
0001
0000
0000
0000
0100
0000
0000
0000
1000
0000
,
0000
0000
0001
0000
0000
0000
2001
0000
0000
0000
0000
0000
3002
0000
0000
0000
0000
0000
0010
0000
0000
0010
0000
0000
,
0013
0000
0100
1000
0001
0000
0100
0010
,
1000
0000
0200
0000
0320
0000
0001
0001
,
0031
0000
1000
0010
0100
0000
1000
0100
,
0001
0000
2000
0000
3020
0000
0100
0100
,
0130
0000
0010
1000
0100
0000
0001
0100
,
1000
0000
0001
0010
0100
0000
0001
0100
,
1000
1100
1010
0101
,
0011
0000
1001
0000
0001
0010
0100
0000
,
1000
0010
1000
0000
0100
0010
0001
0000
,
1000
0000
1001
0000
1000
0010
0100
0000
,
0001
0010
0001
0000
0100
0010
1000
0000
,
0001
0000
1000
0100
0010
0000
0010
0001
,
0100
0000
0100
0010
1000
0000
1000
0001
,
0010
0000
0010
0100
1000
0001
0100
0010
,
1000
0000
0001
0010
0100
0010
0000
1001
,
0000
0000
0000
0000
0000
0000
0000
0000
1000
0000
0001
0000
1000
0000
0010
1000
,
0001
0000
0010
0100
0000
0100
1000
0000
0001
0000
0100
0000
0001
0000
1000
0001
,
0010
0000
0100
0000
0010
0000
0001
0000
1000
0000
0001
0010
0000
0010
0100
0000
,
0100
1000
0000
1000
0001
0000
0100
0010
0100
0000
0010
1000
0010
1000
0001
1000
,
0100
0010
0001
0000
0100
0010
1000
0001
0010
0000
0000
0000
0010
0000
0000
0000
,
0100
0000
0100
0000
1000
0000
0100
0001
,
0000
0100
0010
0000
0001
0000
0001
0000
,
1000
0000
1000
0000
0010
0100
0010
0000
,
1000
0001
1000
0000
0100
0010
0001
0010
,
0001
1000
0010
0000
0100
0001
1000
0100
,
0010
0100
0010
0000
0001
0000
1000
0010
,
1000
0001
0010
0000
0220
0000
0000
0330
,
1000
0100
1000
0000
0001
0100
0000
1000
,
0100
0000
0010
0001
0000
0010
1000
0000
,
0001
0010
0001
0000
1000
0010
0000
0001
,
0010
0000
0100
1000
0000
0100
0001
1000
,
0001
0010
0001
0000
1000
0100
0000
0001
,
0100
0000
0010
1000
0000
0010
0001
1000
,
0010
0100
1000
0000
0100
0001
0010
0000
,
0110
1100
1010
1001
,
1000
0100
1000
0100
0010
0001
0010
0001
,
1000
0010
0100
0001
1000
0100
0010
0000
,
0001
0100
0001
0100
0010
1000
0010
1000
,
0001
1000
0100
0010
0001
1000
0010
0000
,
1000
0100
1000
0100
0001
0100
0001
1000
,
0010
1000
0010
0001
0010
0001
1000
0000
,
0001
0000
0010
0100
1000
0001
0100
0010
,
0110
0101
1010
1001
,
1000
0100
1000
0100
0001
0100
0001
0100
,
1000
0001
0100
0010
1000
0001
0010
0000
,
0100
0010
0001
1000
0010
1000
0001
0010
,
0100
1000
0001
0100
0010
1000
0001
0000
,
1000
0010
1000
0010
0001
0010
0001
0010
,
0100
1000
0100
1000
0100
0001
1000
0100
,
0010
0001
1000
0010
0100
0001
1000
0100
,
0000
0000
1100
0000
0000
0110
0000
0000
0011
0000
0000
0101
0000
0000
1001
0000
;

//--------------- dance-single - Fred-104 ----------------
#NOTES:
     dance-single:
     Fred-104:
     Hard:
     17:
     :
0000
0000
0000
0000
,
0000
0000
0000
0000
,
0000
0000
0000
0000
,
0000
0000
0000
0000
,
0000
0000
0000
0000
,
0000
0000
0000
0000
,
0110
0000
0000
1000
0100
0000
0000
0100
,
0010
0001
0000
0001
1000
0000
1001
0000
,
1010
0000
0000
0001
1000
0000
0000
1000
,
0100
0010
0000
0010
0100
0000
1001
0000
,
1000
1000
0010
0100
0001
0001
1000
0100
,
0010
0010
0001
1000
0010
0100
0001
0000
,
0010
0010
0100
1000
0001
0001
0100
0010
,
0100
0100
0001
0010
0100
0100
1000
0000
,
0001
0100
0001
0100
0010
1000
0010
1000
,
0001
0010
0001
0010
0100
1000
0100
1000
,
0001
0100
0010
1000
0010
0100
0001
1000
0100
0010
0100
1000
0001
0100
0010
0100
,
0002
0000
0000
0003
1000
0100
1000
0001
,
0100
0010
1000
0001
0010
0100
0001
0100
,
0010
0100
1000
0001
0100
0010
1000
0001
,
0010
0100
0010
0001
1000
0010
1000
0100
,
1000
0010
0100
0001
1001
0000
0110
0000
,
1000
0100
0010
0001
0011
0000
1010
0000
,
0001
0100
0010
1000
0002
0000
0013
0001
,
0100
0000
0001
0000
0010
0000
0100
1000
0100
0000
0100
0000
1000
0000
1000
0000
,
0001
0000
0000
0100
0000
0000
0110
0000
0000
0000
0000
0000
2001
0000
0000
0000
3001
0000
1000
0000
0000
0000
0000
0000
,
0010
0100
1000
0100
0010
0000
1000
0000
0100
0010
0001
0000
,
0100
0010
0001
0010
0100
0000
0001
0010
0100
0010
0001
0000
,
1000
0100
0010
1000
0010
0100
1000
0001
0100
0001
1000
0100
,
0010
0000
0000
0000
0001
0000
0000
0000
0010
0000
0000
0000
0000
0000
0000
0000
1001
0000
0000
0000
0000
0000
0000
0000
1000
0000
0000
0000
0000
0000
0010
0000
0000
0100
0000
0000
0010
0000
0000
0000
0000
0000
0000
0000
0000
0010
0000
0000
,
1000
0000
0100
0000
0010
0000
0000
0010
0001
0000
0000
0001
0100
0000
1000
0000
,
0001
0010
0100
0001
0011
0000
1010
0000
,
1100
0000
0000
0101
0000
0000
1000
0000
0100
0000
0110
0000
,
0001
0000
0100
0000
0110
0000
2002
0000
0000
0000
0000
0000
,
0000
0000
0000
3003
0000
0000
1100
0000
0000
0000
0101
0000
0000
0000
1000
0000
0100
0000
0010
0000
0000
0000
0011
0000
,
0000
0000
0001
0000
1000
0000
0020
0000
0000
0000
0000
0000
0130
0000
0000
0001
0000
0000
0020
0000
0000
0100
0000
0000
,
0130
0000
0000
0000
1000
0000
0001
0000
0100
0000
0010
0000
0100
0001
0010
0000
,
0100
0000
1000
0001
2000
0000
0000
0000
3010
0000
1000
0000
0200
0000
0010
0000
,
0310
0000
0000
0000
0001
0000
0100
0010
0100
0000
1000
0000
0001
0000
0010
0100
,
0010
1000
1002
0000
1003
0001
0020
0100
,
0230
0000
1000
0000
1300
0001
1000
0000
0001
0000
0100
0010
0100
0000
0010
1000
,
0010
0000
1000
0000
0100
0000
0010
0001
0010
0000
0100
0000
2000
0000
3020
0000
,
0230
0000
0302
0000
1003
0000
0100
0010
0001
0000
1000
0100
0010
0000
0001
1000
,
0002
0000
0000
0000
1003
0000
0000
0000
0001
0000
0010
0100
1000
0100
1000
0001
,
0100
0000
0010
1000
0001
0010
0001
0010
0100
0000
0010
0001
1000
0010
1000
0010
,
0100
0000
0001
0000
2001
0000
0000
0000
3100
0000
0010
0001
1000
0010
1000
0001
,
0010
0000
0100
1000
0001
0100
0001
1000
0100
0000
0010
0001
1000
0010
0100
0001
,
1000
0000
0100
0000
0010
0000
0001
1000
0010
0000
1000
0001
0010
0000
0100
1000
,
0001
0000
0100
0000
0010
0000
1000
0001
0100
0000
0001
1000
0100
0000
0010
0100
,
1000
0000
0001
0000
1000
0100
0010
0000
0001
0000
0100
0010
1000
0000
0001
0000
,
0010
0100
1000
0000
0001
0000
0100
0010
0100
0000
1100
0000
0100
0000
0101
0000
,
0000
0000
0000
0000
1001
1000
0100
0010
,
0001
0000
0100
0001
0000
0010
0100
0000
0010
0000
0001
0000
0100
0000
0010
0000
,
1000
0000
0100
0001
0000
0100
1000
0000
0001
0000
1000
0010
0000
0001
0010
0000
,
0100
1000
0000
0100
0001
1000
0100
0000
0010
0000
0001
0010
0100
0001
1000
0010
,
0100
0000
0010
0000
0001
0000
1000
0000
0010
0000
0100
0001
0100
0001
0100
0000
0001
0000
0000
0000
0000
0000
0000
0000
0001
0000
0000
0000
0000
0000
0000
0000
,
0100
0100
1000
1000
,
0010
0010
0001
0001
,
1000
1000
0010
0010
,
0100
0000
0100
0000
0101
0001
1000
0100
,
0010
0001
1000
0010
1000
0001
0010
0100
,
0010
0001
1000
0010
0200
0000
0301
1000
,
0100
0000
0001
0000
1000
0000
0010
0000
0001
0010
0200
0000
1300
0001
2002
3003
,
0001
0000
1000
0010
1000
0000
0001
0000
0010
0100
0010
0000
0001
0000
1000
0100
,
1000
0000
0000
0000
0000
0000
0010
0000
0000
0000
0000
0000
0100
0000
0000
0001
0000
0000
0100
0000
0000
0000
0000
0000
0010
0000
0000
0000
0000
0000
1000
0000
0000
0000
0000
0000
0001
0000
0000
0000
0010
0000
0000
0000
0100
0000
0000
0000
,
1000
0000
0001
0100
0001
0000
1000
0000
0001
0010
0001
0000
1000
0000
0100
0010
,
0100
0000
1000
0000
0001
0100
0001
0000
1000
0000
0100
0010
0001
0000
1000
0000
,
0010
0000
0100
0001
1000
0000
0001
0000
0010
0100
1000
0000
0001
0000
0100
0001
,
0010
0000
0001
0000
1000
0010
0100
0000
0010
0000
1000
0100
0010
0001
0010
0000
,
0001
0000
1000
0010
0100
0000
1000
0000
0001
0010
0100
0000
0001
0000
0000
0000
,
1100
0101
0011
1010
,
1000
0100
1000
0010
0100
0001
1000
0001
,
0010
1000
0010
0100
0001
0100
1000
0001
,
0100
0010
0100
0001
1000
0100
0010
1000
,
0010
0000
0100
0000
0010
0000
0001
0000
0100
0000
0010
0000
1000
0001
1000
0000
,
0001
0100
1000
1000
0100
0001
0001
0010
,
1000
0000
1000
0000
0010
0000
0001
0000
0001
1000
0100
0000
0010
0001
1000
0000
,
0001
0100
0010
0001
0010
0100
0010
1000
,
0001
0000
0010
0100
1000
0000
0001
0010
0100
0000
1000
0001
2000
0000
0000
0000
,
3001
0000
0100
0001
1000
0000
0100
0010
0001
0000
0100
0010
0001
0000
0010
0000
,
1000
0001
0010
0000
0100
0000
1000
0000
1001
0000
0001
1000
0001
0000
0100
0000
,
0010
0000
1000
0100
0010
0000
0001
0100
0010
0000
1000
0010
0100
0000
0001
0010
,
0100
0000
1000
0001
0100
0000
0010
1000
0100
0000
0010
0001
1000
0000
0001
0100
,
0010
0000
1000
0000
0100
0010
0001
0000
0100
0010
0001
0000
1000
0100
0010
0000
,
1000
0100
0010
0000
0001
0100
0010
0000
1000
0001
0010
0000
0100
0000
1000
0000
,
0001
0000
0100
0001
0010
0001
0100
0010
1000
0100
1000
0010
0100
0001
1000
0100
,
0000
0000
1100
0000
0000
1010
0000
0000
0101
0000
0000
0011
0000
0000
1001
0000
;

//--------------- dance-single - Fred-104† ----------------
#NOTES:
     dance-single:
     Fred-104†:
     Challenge:
     18:
     :
0000
0000
0000
0000
,
0000
0000
0000
0000
,
0000
0000
0000
0000
,
0000
0000
0000
0000
,
0000
0000
0000
0000
,
0000
0000
0000
0000
,
0110
0000
0000
1000
0100
0000
0000
0001
,
0100
1000
0000
0001
1000
0000
0001
0000
,
0110
0000
0000
0001
0010
0000
0000
1000
,
1010
0010
0000
0001
0011
0100
2100
0000
,
3002
0013
0001
1000
0200
0310
0100
1000
,
0002
0103
0010
1000
0002
1003
0010
0100
,
0020
1030
0100
0010
0002
1003
0100
1000
,
0002
0000
0103
0000
1000
0000
0100
0000
0002
0003
0001
0000
1001
0000
MMMM
0000
,
2000
3100
1000
0000
0100
0010
0100
0000
0010
0001
0010
0000
0001
1000
0001
0000
,
0200
0301
0100
0000
0010
1000
0010
0000
1000
0100
1000
0000
0001
0010
0001
0000
,
1000
0100
0010
0001
1000
0010
1000
0001
0010
0100
0010
0001
0100
0010
1000
0100
,
0020
0000
0000
0000
0001
0000
0000
0000
0000
0000
0000
0000
0001
0000
0000
0000
0001
0000
0000
0000
0031
0000
0000
0000
2002
3003
0000
0000
0000
0000
0000
0000
1000
0000
0000
0000
0000
0000
0000
0000
0100
0000
0000
0000
0000
0000
0000
0000
0001
0000
0000
0000
0000
0000
0000
0000
1000
0000
0000
0000
0000
0000
0000
0000
,
0010
0100
0010
0001
1000
0010
0001
1000
,
0100
0010
1000
1001
0001
0010
0100
0001
,
1000
0010
0001
1000
0100
0001
0100
0010
,
0100
0000
0001
0100
1000
0000
0001
0000
0101
0000
MMMM
0000
1010
0000
MMMM
0000
,
1001
1000
0100
0010
0011
MMMM
1100
MMMM
,
0101
0001
1000
0100
0110
MMMM
1001
MMMM
,
0001
0000
0100
0000
0010
0000
1000
0001
1000
0000
1010
0000
0001
0000
0011
0000
,
1000
0000
0000
0110
0000
0000
1001
0000
0000
MMMM
0000
0000
0201
0000
0000
0000
0301
0000
1000
0000
0001
0000
0000
0000
,
1000
0100
0001
0100
1000
0000
0001
0000
0100
0010
0100
0000
,
1000
0100
0010
1000
0100
0000
0010
1000
0010
0100
1000
0000
,
0001
0100
1000
0001
0010
1000
0100
0010
0001
0100
0010
0001
,
1000
0000
0000
0000
0100
0000
0000
0000
0010
0000
0000
0000
1000
0000
0000
0000
0100
0000
0000
0000
0010
0000
0000
0000
0001
0000
0000
0100
0000
0000
0001
0000
0000
1000
0000
0000
0100
0000
0000
0000
0000
0000
0000
0000
0000
0100
0000
0000
,
0001
0100
0010
0000
0100
0000
0000
0100
1000
0000
0000
1000
0001
0000
0100
0000
,
0010
1000
1001
0001
2100
3001
2010
3001
,
1020
0000
0000
0031
0000
0000
1200
0000
0000
0301
0000
0000
0011
0000
0000
0000
1010
0000
0000
0000
0101
0000
0000
0000
,
1100
0000
0101
0000
1010
0000
2002
0000
0000
0000
0000
0000
,
0000
0000
0000
3003
0000
0000
1100
0000
0000
0000
0101
0000
0000
0000
0001
0000
0010
0000
1000
0000
0000
0000
1100
0000
,
0000
0000
0010
0000
0001
0000
1001
0000
0000
MMMM
0000
0000
0101
0000
0000
0001
0000
0000
1000
0000
0000
0001
0000
0000
,
0210
0000
0000
0000
0301
0000
1000
0000
0100
0000
1000
0000
0010
1000
0100
0000
,
0010
0000
0001
1000
0010
0000
MMMM
0000
0110
0000
MMMM
0000
1000
0000
0001
0000
,
0201
0000
0000
0000
0301
0000
1000
0001
0010
0000
0100
0000
1000
0000
0010
1000
,
0001
0010
0110
MMMM
0010
0010
0002
2003
,
3020
0000
0230
0000
0301
0100
0010
0000
0001
0000
1000
0100
0010
0000
1000
0001
,
0010
0000
0100
1000
0001
0000
0100
0010
1000
0000
0001
0000
0020
0000
0230
0000
,
0320
0000
0032
0000
1003
0000
0001
0010
0200
0000
1300
0010
0200
0000
0301
0010
,
0200
0000
0000
0000
0000
0000
0000
0300
0110
0000
0000
0000
0000
0000
0000
0000
1001
0000
0000
0000
0001
0000
0010
0000
0100
0000
1000
0000
0001
0000
0100
0000
,
0001
0000
1000
0010
0100
0001
1000
0100
1000
0000
0010
0100
0001
0010
0100
1000
,
0001
0000
1000
0000
1020
0000
0000
0000
0130
0000
0001
0010
0100
1000
0010
0100
,
0001
0000
1000
0100
0010
0001
0100
0010
1000
0000
0001
0010
0001
0100
0010
1000
,
0001
0010
0100
0000
1100
0000
1000
0010
0002
0000
1003
0100
0020
0000
1030
0100
,
0020
0000
0031
0000
1001
0000
1000
0100
0002
0000
1003
0010
0200
0000
0310
0100
,
1000
0001
0100
0010
1000
0001
0020
0000
0230
0000
0310
1000
0020
0000
0032
0000
,
1003
0010
0100
0000
1100
0000
1000
0100
0010
0000
1010
0000
0000
0000
0101
0000
,
MMMM
0000
0000
0000
0000
0000
0000
0000
0000
0000
0000
0000
0000
0000
0000
0000
2001
0000
0000
0000
3001
0000
0100
0000
0010
0000
0001
0000
0010
0000
1000
0001
,
0020
0000
0000
0000
0130
0000
0002
0000
0000
0000
0103
0000
1000
0000
0001
0000
0200
0000
0000
0000
0310
0000
0001
0000
0010
0000
0100
0000
0010
0000
1000
0001
,
0010
0000
0100
0000
0001
0000
1000
0000
0010
0000
0100
0000
1000
0000
0001
0000
0200
0000
0000
0000
1300
0000
0200
0000
0000
0000
0310
0000
0100
0000
0001
1000
,
0100
0010
0000
0010
0001
1000
0010
1000
0002
0000
1003
0100
0001
1000
0010
0001
,
0100
0000
0010
0000
0001
0000
1000
0000
0100
0000
0010
1000
0001
0010
0100
1000
0002
0000
0000
0000
0000
0000
0000
0000
1003
0000
0000
0000
0010
0000
0000
0000
,
0100
1000
0001
0010
1000
MMMM
0100
0001
,
MMMM
0100
1000
MMMM
0002
0000
0103
1000
,
0001
1000
0100
0010
1000
0100
0001
1000
,
0010
0001
1000
MMMM
1001
1000
0010
0010
,
0100
0100
0001
0001
1000
1000
0100
0100
,
0010
0010
0001
0001
2001
0000
3002
0203
,
2300
0000
3002
0000
0023
0000
0230
0000
0301
0010
2000
0000
3001
0100
2100
3001
,
1002
0000
1003
0010
0200
0000
1300
0000
0100
0010
0002
0000
0013
0000
0100
0001
,
2000
0000
0000
0000
0000
0000
3001
0000
0000
0000
0000
0000
0010
0000
0000
1000
0000
0000
0002
0000
0000
0000
0000
0000
0203
0000
0000
0000
0000
0000
0310
0000
0000
0001
0000
0000
1000
0000
0000
0000
0010
0000
0000
0000
1000
0000
0000
0000
,
0002
0000
1003
0100
0020
0000
1030
0000
0010
0100
0020
0000
0031
0000
1000
0010
,
0200
0000
1300
0000
0001
0010
0200
0000
0302
0000
0013
0100
1000
0000
0001
1000
,
0020
0000
0031
0010
0200
0000
1300
0000
0100
0010
0200
0000
1300
0000
0100
0001
,
2000
0000
3100
0000
0010
0100
0002
0000
2003
0000
3010
0001
1000
0010
0100
0001
,
2000
0000
3100
0010
2000
0000
3010
0000
0001
0010
0200
0000
0320
0000
0030
0000
,
0011
MMMM
1010
MMMM
1100
MMMM
0101
MMMM
,
0001
0010
0100
0000
1000
0000
0001
0000
1000
0010
0100
0000
0001
0000
1000
0000
,
0010
0100
0002
0000
0013
0100
0002
0000
1003
0010
0200
0000
1300
0010
0200
0000
,
0301
1000
0100
0000
0010
0000
0001
0000
0100
0010
1000
0000
0001
0000
1000
0000
,
0100
0010
0002
0000
0103
0010
0002
0000
1003
0100
0020
0000
1030
0100
0020
0000
,
0031
1000
0200
0000
0310
0000
0100
0001
0200
0000
1300
0000
0001
1000
0020
0000
,
0130
0000
1000
0100
0020
0000
0031
0000
0010
1000
0002
0000
0013
0100
2000
0000
,
3002
0000
1003
0010
0200
0000
2300
0000
3002
0000
0013
0100
0002
0000
2003
0000
,
3200
0000
1300
0010
0200
0000
0301
0010
0200
0000
1300
0010
0200
0000
0000
0000
,
0301
1000
0010
1000
0001
1000
0100
0010
0001
1000
0010
0100
0001
0000
1000
0000
,
0100
0000
0000
0010
0000
0000
0001
0000
0000
0000
0000
0000
0011
0000
0000
0000
0000
0000
1010
0000
0000
0000
0000
0000
0011
0000
0000
0000
0000
0000
0001
0000
1000
0000
0001
0000
1000
0000
0000
0000
0000
0000
1010
0000
0000
0000
0000
0000
,
1000
0001
0100
0010
1000
0001
0010
0100
1000
0001
1000
0010
0100
0001
1000
0100
,
0020
0000
1030
0001
0200
0000
0301
1000
0020
0000
1030
0001
0200
0000
0301
0100
,
1000
0001
1000
0000
0010
0100
0001
0100
0010
0001
2000
0000
3001
1000
0200
0000
,
1300
0001
0020
0000
0031
1000
0200
0000
0310
1000
0001
0010
0200
0000
2300
0000
,
3001
0000
1000
0100
1000
0010
0100
0001
0010
0001
0100
0010
1000
0100
0010
0001
,
1000
0000
1010
0000
0000
0011
0000
0000
0101
0000
0000
1100
0000
0000
1001
0000
;

//--------------- dance-double - Fred-104 ----------------
#NOTES:
     dance-double:
     Fred-104:
     Easy:
     10:
     :
00000000
00000000
00000000
00000000
,
00000000
00000000
00000000
00000000
,
00000000
00000000
00000000
00000000
,
00000000
00000000
00000000
00000000
,
00000000
00000000
00000000
00000000
,
00000000
00000000
00000000
00000000
,
00001001
00000000
00000000
00000001
00000010
00000000
00000000
00000010
,
00000100
00001000
00000100
00010000
,
00011000
00000000
00000000
00001000
01000000
00000000
00000000
01000000
,
00010000
00100000
00002000
00003000
,
00001000
00000000
00010000
00000000
,
00100000
00000000
10000000
00000000
01000000
00000000
00100000
00001000
,
00010000
00000000
00001000
00000000
,
00000100
00000000
00000010
00000000
00001000
00000000
00000100
00000010
,
00000001
00000000
00001000
00000000
00000010
00010000
00000010
00000000
,
00010000
00000000
00001000
00000000
00100000
00010000
00100000
00000000
,
01000000
10000000
01000000
00000000
00100000
00001000
00010000
00000000
,
00022000
00000000
00000000
00033000
00010000
00000000
00000010
00000000
,
00010000
00000010
00001000
00000010
,
00000100
00000001
00001000
00000000
00000100
00000000
00000010
00000000
,
00000100
00000010
00000001
00000100
,
00001000
00010000
00001000
00000000
00011000
00000000
01001000
00000000
,
00011000
00000000
00011000
00010100
,
00011000
00000000
00011000
00101000
,
00011000
00000000
00010000
00000010
,
00001000
00000010
00020000
00000000
,
00031000
00000000
00000020
00000000
,
00001030
00000000
00020000
00000000
,
00031000
00000000
00000200
00000000
,
00001300
00000000
00010000
00001000
,
01000000
00010000
00100000
01000000
,
10000000
00000000
00100000
00000000
00010000
00001000
00010000
00000000
,
00001000
00000000
00000000
01000000
00000000
00000000
00010000
00000000
00000000
00000000
00000000
00000000
10000000
00000000
00000000
00000000
10000000
00000000
00000000
00000000
10000000
00000000
00000000
00000000
,
00010000
00000000
00010000
00000000
00010000
00000000
20020000
00000000
00000000
00000000
00000000
00000000
,
00000000
30030000
02200000
00000000
03300000
00000000
20020000
00000000
,
30030000
10000000
01000000
00020000
,
00031000
00000000
00010000
00000000
00000100
00000000
00001000
00000100
,
00000010
00000001
00001000
00000020
,
00000130
00000000
00001000
00000000
00010000
00000000
00001000
00100000
,
00010000
01000000
00100000
02000000
,
03010000
00000000
00100000
00000000
01000000
00000000
10000000
00100000
,
01000000
00100000
10000000
01000000
,
00010000
00001000
00001000
00010000
,
00001000
00011000
00010000
00001000
,
00000100
00000001
00000100
00001000
,
00010000
00011000
00001000
00010000
,
01000000
10000000
01000000
00010000
,
00001000
00000000
00010000
00001000
00010000
00000000
00000010
00000000
,
00001000
00000000
00000100
00000010
00000001
00000000
00001000
00000000
,
00000010
00000000
00010000
00001000
00010000
00000000
00100000
00000000
,
01000000
00000000
00010000
00000000
10000000
01000000
00000000
10010000
,
00000000
00000000
00000000
00000000
10000000
01000000
10000000
01000000
,
00100000
00000000
00000000
00001000
00000000
00000000
00010000
00000000
00001000
00000000
00010000
00000000
00001000
00000000
00000010
00000000
,
00000100
00000000
00000010
00000000
00000001
00000000
00001000
00000000
00000001
00000000
00000000
00000100
00000000
00000000
00001000
00000000
,
00000000
00010000
00000000
00000000
00001000
00000000
01000000
00000000
00010000
00000000
00100000
00000000
00001000
00000000
00010000
00000000
,
00000100
00001000
00000010
00000010
00000110
00000000
00000000
00000000
,
00001000
00000000
00000001
00000000
00000100
00000000
00000000
00001000
,
00000000
00010000
00001000
00000000
,
01000000
00010000
00100000
01000000
,
10000000
00000000
00010000
00000000
10000000
00000000
00000000
00100000
,
00000000
00000000
10000000
00000000
00000000
01000000
00000000
00000000
,
00010000
00001000
00010000
00100000
,
01000000
00010000
10000000
00000000
20020000
00000000
00000000
30030000
,
10000000
00000000
01000000
00000000
00000000
00100000
00000000
00000000
,
00001000
00000000
00000000
00010000
00000000
00000000
00001000
00000000
,
00000100
00000000
00000001
00000000
00000000
00000010
00000000
00000000
,
00000100
00000000
00000000
00010000
00000000
00000000
00001000
00010000
,
00001000
00000000
00100000
00000000
00000000
01000000
00000000
00000000
,
10000000
00000000
00000000
00100000
00000000
00000000
10000000
01000000
,
00100000
00001000
00010000
00001000
,
00020000
00032000
00023000
00032000
,
00013000
00001000
00000100
00000001
,
00001000
00000000
00000100
00000000
00000010
00000001
00000010
00000000
,
00000001
00001000
00000010
00000100
,
00001000
00000000
00010000
00000000
00100000
01000000
00100000
00000000
,
10000000
00010000
00000000
10000000
01000000
00000000
10000000
00010000
,
00000000
10000000
01000000
00000000
00100000
00001000
00010000
00000000
,
00001000
01000000
00001000
00010000
,
00001000
00000100
00000010
00000000
00001000
00000001
00000020
00000000
,
00000130
00001000
00000001
00000100
,
00001000
00000000
00010000
00000000
00001000
01000000
00001000
00000000
,
00010000
00100000
01000000
00010000
,
10000000
00000000
01000000
00000000
00010000
00001000
00010000
00000000
,
00000100
00001000
00000100
00000000
00010000
00001000
00010000
00000000
,
00000010
00001000
00000010
00000000
00000100
00000001
00000100
00000000
,
00000001
00000000
00000010
00000000
00000100
00001000
00000100
00010000
,
00000000
00000000
00001000
00000000
00000000
00010000
00000000
00000000
00100000
00000000
00000000
10000000
00000000
00000000
00010000
00000000
;

//--------------- dance-double - Fred-104 ----------------
#NOTES:
     dance-double:
     Fred-104:
     Medium:
     13:
     :
00000000
00000000
00000000
00000000
,
00000000
00000000
00000000
00000000
,
00000000
00000000
00000000
00000000
,
00000000
00000000
00000000
00000000
,
00000000
00000000
00000000
00000000
,
00000000
00000000
00000000
00000000
,
10010000
00000000
00000000
10000000
01000000
00000000
00000000
01000000
,
00100000
00100000
00000000
00001000
00010000
00000000
00000010
00000000
,
00001001
00000000
00000000
00000001
00000100
00000000
00000000
00000100
,
00001000
00010000
00000000
00010000
01000000
10000000
00020000
00000000
,
10030000
01000000
00010000
00001000
,
00010000
00000000
00100000
00000000
00010000
00001000
00010000
00000000
,
00001000
00000010
00001000
00010000
,
00001000
00000000
00000100
00000000
00000001
00001000
00000001
00000000
,
00000010
00000100
00001000
00000000
00000010
00000100
00001000
00000000
,
00010000
00100000
01000000
00000000
00010000
00100000
01000000
00000000
,
00100000
00010000
01000000
00010000
00100000
00001000
00010000
00000000
,
00022000
00000000
00000000
00033000
00001000
00000000
00100000
00000000
,
00010000
00100000
01000000
00000000
10000000
00000000
00010000
00000000
,
01000000
00100000
00010000
00000000
00001000
00000000
00010000
00000000
,
00000100
00000010
00000001
00000000
00001000
00000000
00000010
00000000
,
00000100
00001000
00010000
00000000
00011000
00000000
01001000
00000000
,
01000000
00010000
00100000
00000000
01100000
00000000
11000000
00000000
,
00010000
10000000
00100000
00000000
00110000
00000000
00011000
00000000
,
00010000
00001000
00000010
00000000
00000001
00000100
00000010
00001000
,
00000100
00000000
00000000
00000001
00000000
00000000
00000100
00000000
00000000
00001000
00000000
00000000
00000001
00000000
00000000
00000000
00000001
00000000
00001000
00000000
00000000
00000000
00000000
00000000
,
00000010
00000000
00010000
00000000
00001000
00000000
00010000
00000000
00010000
01000000
00000000
00000000
,
00100000
00000000
00010000
00000000
10000000
00000000
00100000
00000000
00100000
01000000
00000000
00000000
,
00010000
00000000
10000000
00000000
01000000
00000000
00010000
00000000
00001000
00000000
00000010
00000000
,
00000100
00000000
00000000
00000000
00000000
00000000
00000000
00000000
00000001
00000000
00000000
00000000
00000000
00000000
00000000
00000000
00000100
00000000
00000000
00000000
00000000
00000000
00000000
00000000
00001000
00000000
00000000
00000000
00000000
00000000
00000001
00000000
00000000
00000000
00000000
00000000
00000100
00000000
00000000
00000000
00000000
00000000
00000000
00000000
00000000
00000100
00000000
00000000
,
00000010
00000000
00000100
00000000
00001000
00000000
00000000
00001000
00010000
00000000
00000000
00010000
00001000
00000000
01000000
00000000
,
00010000
00100000
01000000
00000000
11000000
00000000
01010000
00000000
,
00110000
00000000
00000000
10100000
00000000
00000000
10000000
00000000
01000000
00000000
00010000
00000000
,
00001000
00000000
00000010
00000000
00000001
00000000
00002002
00000000
00000000
00000000
00000000
00000000
,
00000000
00000000
00000000
00003003
00000000
00000000
00000001
00000000
00000000
00000000
00000010
00000000
00000000
00000000
00000100
00000000
00000000
00000000
00001000
00000000
00000000
00000000
00000010
00000000
,
00000000
00000000
00010000
00000000
00000000
00000000
00012000
00000000
00000000
00000000
00000000
00000000
02003000
00000000
00000000
00000000
00000000
00000000
00010000
00000000
00000000
00010000
00000000
00000000
,
03010000
00000000
00100000
01000000
10000000
00000000
00010000
10000000
,
01000000
00000000
00200000
00000000
00302000
00000000
00010000
00010000
,
00013000
00000000
00001000
00000100
00000010
00000000
00000001
00000010
,
00000100
00000000
00000020
00000000
00002030
00000000
00000001
00000001
,
00003001
00000000
00000100
00000010
00001000
00000000
00000100
00000010
,
00001000
00000000
00010000
01000000
00100000
00000000
00010000
01000000
,
00100000
00000000
10000000
01000000
00010000
00000000
00001000
00010000
,
00002000
00000000
00013000
00000000
00011000
00000000
00010000
00001000
,
00000100
00000000
00000001
00000010
00000100
00000000
00001000
00000010
,
00000100
00001000
00010000
00000000
00011000
00000000
00001000
00100000
,
00010000
00000000
00100000
01000000
10000000
00000000
00010000
01000000
,
00100000
10000000
01000000
00010000
01000000
00000000
10000000
00100000
,
10000000
00000000
00100000
00010000
00001000
00000000
00010000
00001000
,
00000010
00000000
00000001
00000100
00001000
00000000
00000100
00000001
,
00000010
00000000
00000100
00001000
00000100
00010000
00000000
00011000
,
00000000
00000000
00000000
00000000
00000000
00000000
00000000
00000000
00010000
00000000
00001000
00000000
01000000
00000000
00010000
10000000
,
00010000
00000000
01000000
00100000
00000000
00010000
00100000
00000000
10000000
00000000
00010000
00000000
00100000
00000000
01000000
00010000
,
01000000
00000000
10000000
00000000
00010000
10000000
01000000
00000000
00100000
00000000
00001000
00010000
00000000
00000010
00001000
00000000
,
00000001
00000010
00000000
00000100
00001000
00000000
00000001
00000100
00000010
00000000
00001000
00000001
00000010
00000100
00001000
00000100
,
00010000
00001000
01000000
00000000
00010000
10000000
00010000
10000000
00010000
00000000
00000000
00000000
00010000
00000000
00000000
00000000
,
10000000
00000000
10000000
00000000
01000000
00000000
00100000
00001000
,
00000000
00010000
00000010
00000000
00001000
00000000
00001000
00000000
,
00000100
00000100
00000010
00000001
,
00000100
00001000
00010000
00000000
00001000
00000000
01000000
00010000
,
00000000
10000000
00010000
00000000
00100000
01000000
00000000
00100000
,
00001000
00010000
00000100
00000000
00001000
00000000
00000001
00000100
,
00000010
00000100
00001000
00010000
00022000
00000000
00000000
00033000
,
00001000
00010000
00100000
00000000
01000000
00010000
00000000
10000000
,
01000000
00000000
00100000
00001000
00000000
00010000
00000010
00000000
,
00010000
00000100
00001000
00000000
00000100
00000010
00000000
00000001
,
00001000
00000000
00000010
00010000
00000000
00001000
00100000
00010000
,
01000000
00010000
00100000
00000000
01000000
10000000
00000000
00100000
,
01000000
00000000
00100000
10000000
00000000
01000000
00100000
00001000
,
00010000
00001000
00100000
00000000
00010000
01000000
00001000
00000000
,
01001000
00010100
00101000
00010010
,
00010000
00001000
00010000
00001000
00000100
00000001
00001000
00000000
,
00000100
00000010
00000100
00000010
00000001
00001000
00000010
00000000
,
00010000
00001000
00010000
00001000
01000000
00010000
00100000
00000000
,
01000000
10000000
01000000
10000000
00010000
01200000
00300000
00000000
,
10000000
01000000
00000000
00010000
01000000
00000000
00100000
10000000
,
00000000
00100000
00010000
00000000
10000000
01000000
00100000
00000000
,
00001000
00000000
00010000
00000100
00001000
00000100
00000010
00000001
,
00001000
00000010
00000100
00000000
00001000
00010000
00002000
00000000
,
00013000
00000100
00001000
00000000
00000100
00010000
00001000
00000000
,
01000000
00010000
00100000
00000000
01000000
00100000
00010000
00000000
,
10000000
00100000
00010000
00000000
00001000
00010000
00001000
00000000
,
00000100
00000010
00001000
00000000
00000100
00000010
00000001
00000000
,
00001000
00000010
00000100
00000010
00001000
00000010
00000100
00000000
,
00000001
00000010
00000100
00001000
00000100
00010000
00001000
00000000
,
01000000
00010000
10000000
01000000
00100000
00001000
00010000
00001000
,
00000000
00000000
00011000
00000000
00000000
00001000
00000000
00000000
00000010
00000000
00000000
00001000
00000000
00000000
00011000
00000000
;

//--------------- dance-double - Fred-104 ----------------
#NOTES:
     dance-double:
     Fred-104:
     Hard:
     17:
     :
00000000
00000000
00000000
00000000
,
00000000
00000000
00000000
00000000
,
00000000
00000000
00000000
00000000
,
00000000
00000000
00000000
00000000
,
00000000
00000000
00000000
00000000
,
00000000
00000000
00000000
00000000
,
00000110
00000000
00000000
00000001
00000100
00000000
00000000
00001000
,
00010000
00100000
00000000
01000000
00010000
00000000
11000000
00000000
,
10010000
00000000
00000000
10000000
00100000
00000000
00000000
00010000
,
00001000
00000010
00000000
00000001
00000100
00001000
00020000
00000000
,
00031000
00001000
00010000
00100000
01000000
01000000
00010000
10000000
,
01000000
01000000
00100000
00001000
00010000
00010000
00000100
00000000
,
00001000
00001000
00000001
00000010
00000100
00000100
00010000
00001000
,
00010000
00010000
01000000
00100000
00010000
00010000
10000000
00000000
,
00010000
10000000
01000000
00100000
00010000
10000000
00100000
00010000
,
00001000
00010000
00000100
00000001
00000100
00001000
00000010
00010000
,
00001000
01000000
00010000
00000000
10000000
01000000
00100000
00000000
00001000
00010000
00000010
00000000
00001000
00000010
00010000
00000000
,
00022000
00000000
00000000
00033000
00010000
00001000
00000100
00000010
,
00000001
00000010
00001000
00010000
00100000
01000000
00010000
00001000
,
00100000
00010000
01000000
00001000
00000100
00000010
00001000
00010000
,
01000000
00001000
00010000
01000000
00100000
10000000
00100000
00010000
,
01000000
00100000
00010000
00001000
00011000
00000000
00001010
00000000
,
00000010
00000001
00000100
00001000
00011000
00000000
01010000
00000000
,
01000000
10000000
00100000
00010000
00011000
00000000
00010000
00000100
,
00000010
00000000
00000001
00000000
00001000
00000000
00000010
00001000
00000100
00000000
00000010
00000000
00000001
00000000
00000100
00000000
,
00001000
00000000
00000000
00010000
00000000
00000000
00011000
00000000
00000000
00000000
00000000
00000000
00001000
00000000
00000000
00000000
01000000
00000000
00010000
00000000
00000000
00000000
00000000
00000000
,
10000000
01000000
00010000
00001000
00010000
00000000
00001000
00000000
00000100
00000010
00000100
00000000
,
00000001
00001000
00000100
00010000
00001000
00000000
00010000
00100000
01000000
10000000
01000000
00000000
,
00100000
10000000
00010000
10000000
01000000
00010000
00001000
00010000
00000100
00000000
00001000
00000000
,
00000001
00000000
00000000
00000000
00000100
00000000
00000000
00000000
00000001
00000000
00000000
00000000
00000010
00000000
00000000
00000000
00000100
00000000
00000000
00000000
00000000
00000000
00000000
00000000
00010000
00000000
00000000
00001000
00000000
00000000
00100000
00000000
00000000
00000000
00000000
00000000
00010000
00000000
00000000
00000000
00000000
00000000
00100000
00000000
00000000
01000000
00000000
00000000
,
10000000
00000000
00010000
00000000
01000000
00000000
00100000
10000000
01000000
00000000
00100000
00000000
00001000
00000000
00010000
00000100
,
00000010
00000001
00000100
00001000
00011000
00000000
10010000
00000000
,
00011000
00000000
00000000
00001001
00000000
00000000
00011000
00000000
00010000
00000000
00001000
00000000
,
00000001
00000000
00001000
00000000
00010000
00000000
00022000
00000000
00000000
00000000
00000000
00000000
,
00000000
00000000
00000000
00033000
00000000
00000000
00010000
00000000
00000000
00000000
00011000
00000000
00000000
00000000
00001000
00000000
00000100
00000000
00000010
00000000
00000000
00000000
00001010
00000000
,
00000000
00000000
00001000
00000000
00000001
00000000
00000020
00000000
00000000
00000000
00000000
00000000
00000130
00000000
00000000
00001000
00000000
00000000
00000020
00000000
00000000
00001000
00000000
00000000
,
00001030
00000000
00000000
00000000
00000100
00000000
00000010
00000000
00000001
00000000
00000100
00000000
00001000
00010000
00001000
00000000
,
00010000
00000000
00100000
10000000
00200000
00000000
00000000
00000000
10300000
00000000
01000000
00000000
00020000
00000000
00001000
00000000
,
00031000
00000000
00000000
00000000
00010000
00000000
00000010
00001000
00000010
00000000
00010000
00000000
00001000
00000000
00100000
00001000
,
00010000
00001000
00000200
00000000
00000301
00000010
00000200
00010000
,
00020300
00000000
00001000
00000000
00031000
00010000
00001000
00000000
00000010
00000000
00000100
00000010
00000001
00000000
00000100
00000010
,
00000001
00000000
00000010
00000000
00001000
00000000
00000001
00000010
00000100
00000000
00010000
00000000
00002000
00000000
00023000
00000000
,
00032000
00000000
00003020
00000000
00000130
00000000
00010000
00001000
00010000
00000000
00001000
01000000
00010000
00000000
00100000
00000000
,
01000000
00000000
00000000
00000000
10010000
00000000
00000000
00000000
00010000
00000000
10000000
01000000
00100000
00000000
00100000
00001000
,
00010000
00000000
00001000
00000100
00000010
00000000
00000010
00001000
00000100
00000000
00000010
00000001
00001000
00000000
00001000
00000010
,
00000100
00000000
00001000
00000000
00011000
00000000
00000000
00000000
01000000
00000000
00010000
00100000
01000000
00000000
01000000
10000000
,
00010000
00000000
01000000
00100000
00010000
00000000
00010000
00001000
00010000
00000000
00000100
00001000
00000010
00000000
00000010
00001000
,
00000001
00000000
00001000
00000000
00000001
00000000
00000010
00000100
00001000
00000000
00000010
00000100
00001000
00000000
00010000
00100000
,
01000000
00000000
00010000
00000000
10000000
00000000
01000000
00100000
00010000
00000000
01000000
00100000
00010000
00000000
00001000
00000100
,
00000010
00000000
00001000
00000000
00000001
00000100
00000001
00000000
00000010
00000000
00000001
00000100
00000001
00000000
00000010
00000000
,
00000100
00001000
00000100
00000000
00010000
00000000
00001000
01000000
00010000
00000000
00110000
00000000
00000000
00000000
10010000
00000000
,
00000000
00000000
00000000
00000000
00000000
00000000
00000000
00000000
00011000
00000000
00010000
00000000
00001000
00000000
00000100
00000001
,
00000010
00000000
00000100
00001000
00000000
00000010
00000100
00000000
00001000
00000000
00010000
00000000
00001000
00000000
01000000
00010000
,
00100000
00000000
01000000
10000000
00000000
00010000
10000000
00000000
00010000
00000000
10000000
00100000
00000000
00001000
00100000
00000000
,
10000000
00100000
00000000
00010000
00001000
00000000
00010000
00000100
00000010
00000000
00000001
00001000
00000010
00000100
00001000
00010000
,
00001000
00000000
00000100
00000000
00000001
00000000
00001000
00000000
00000100
00000000
00000010
00000001
00000010
00000001
00000010
00000000
00000001
00000000
00000000
00000000
00000000
00000000
00000000
00000000
00000001
00000000
00000000
00000000
00000000
00000000
00000000
00000000
,
00000100
00000100
00001000
00001000
,
00010000
00010000
01000000
01000000
,
10000000
10000000
00100000
00010000
,
00001000
00010000
00011000
00000000
00001000
00010000
00100000
01000000
,
00100000
00001000
00000010
00010000
00001000
00000010
00000100
00000010
,
00010000
00100000
00001000
01000000
00010000
00000000
00100000
01000000
,
00010000
00001000
00000010
00000100
00020000
00000000
00000000
00030000
,
00001000
00000000
01000000
00010000
01000000
00000000
00001000
00000000
00100000
00010000
00100000
00000000
01000000
00000000
10000000
00100000
,
10000000
00000000
00000000
00000000
00000000
00000000
00010000
00000000
00000000
00000000
00000000
00000000
00100000
00000000
00000000
01000000
00000000
00000000
00100000
00000000
00000000
00000000
00000000
00000000
00001000
00000000
00000000
00000000
00000000
00000000
00010000
00000000
00000000
00000000
00000000
00000000
00001000
00000000
00000000
00000000
00000100
00000000
00000000
00000000
00000001
00000000
00000000
00000000
,
00001000
00000000
00000100
00000010
00000100
00000000
00001000
00000000
00000001
00000100
00000001
00000000
00000010
00000000
00000100
00010000
,
00000100
00000000
00010000
00000000
00001000
00100000
00001000
00000000
01000000
00000000
00010000
00100000
00010000
00000000
10000000
00000000
,
01000000
00000000
00100000
00010000
10000000
00000000
00100000
00000000
00010000
00001000
00010000
00000000
00001000
00000000
00010000
00001000
,
00000100
00000000
00000001
00000000
00001000
00000100
00000010
00000000
00000001
00000000
00001000
00000010
00001000
00000010
00010000
00000000
,
00001000
00000000
00010000
00100000
01000000
00000000
00010000
00000000
01000000
00100000
10000000
00000000
00010000
00000000
00000000
00000000
,
00110000
10100000
11000000
01010000
,
00010000
10000000
01000000
00010000
00000100
00000001
00000100
00010000
,
00001000
00010000
00100000
01000000
10000000
00010000
00001000
00000000
,
00100000
00001000
00000010
00001000
00010000
01000000
00100000
00010000
,
01000000
00001000
00000100
00000010
00001000
00100000
00010000
00000000
,
00001000
00010000
01000000
00100000
10000000
00010000
00001000
00000100
,
00000001
00000100
00001000
00010000
01000000
00100000
10000000
00010000
,
00001000
00000000
00010000
00001000
00000100
00000010
00001000
00000100
,
00000010
00000000
00000001
00000100
00000010
00000000
00001000
00000100
00000010
00000000
00001000
00010000
00002000
00000000
00000000
00000000
,
00013000
00000000
00001000
00000100
00000001
00000000
00001000
00000100
00000010
00000000
00000001
00001000
00000010
00000000
00001000
00000000
,
00000001
00000010
00000100
00000000
00010000
00000000
00001000
00000000
00011000
00000000
00010000
00001000
00010000
00000000
00001000
00000000
,
01000000
00000000
00010000
00100000
01000000
00000000
10000000
00100000
01000000
00000000
00010000
01000000
00100000
00000000
10000000
01000000
,
00100000
00000000
00001000
00010000
00000100
00000000
00000010
00000001
00001000
00000000
00000010
00000100
00001000
00000000
00010000
00001000
,
01000000
00000000
00010000
00000000
10000000
01000000
00100000
00000000
00010000
01000000
00100000
00000000
00010000
00001000
00000100
00000000
,
00000010
00001000
00000100
00000000
00000010
00000001
00001000
00000000
00000001
00000100
00000010
00000000
00000100
00000000
00001000
00000000
,
00010000
00000000
00001000
01000000
00010000
00000000
01000000
00010000
00100000
00001000
00010000
00000100
00001000
00000100
00000010
00000001
,
00000000
00000000
00000011
00000000
00000000
00001010
00000000
00000000
00011000
00000000
00000000
01010000
00000000
00000000
11000000
00000000
;

//--------------- dance-double - Fred-104† ----------------
#NOTES:
     dance-double:
     Fred-104†:
     Challenge:
     18:
     :
00000000
00000000
00000000
00000000
,
00000000
00000000
00000000
00000000
,
00000000
00000000
00000000
00000000
,
00000000
00000000
00000000
00000000
,
00000000
00000000
00000000
00000000
,
00000000
00000000
00000000
00000000
,
00011000
00000000
00000000
00010000
00001000
00000000
00000000
00000010
,
00001000
00010000
00000000
00001000
01000000
00000000
00100000
00000000
,
10010000
00000000
00000000
10000000
00100000
00000000
00000000
00010000
,
00000010
00001000
00000000
00000100
00000010
00000001
00002001
00000000
,
MMMM3002
00000103
00000010
00001000
MMMM0002
00000013
00001000
00100000
,
0002MMMM
10030000
00010000
00100000
0200MMMM
03100000
00001000
01000000
,
0020MMMM
10300000
01000000
00100000
0200MMMM
03010000
00001000
00000010
,
MMMM0200
00000310
00000001
00000100
MMMM2000
00013000
00011000
MMMMMMMM
,
00002000
00013000
01000000
00000000
00100000
00010000
10000000
00000000
01000000
00100000
00010000
00000000
01000000
00100000
10000000
00000000
,
02000000
03100000
00010000
00000000
00100000
00001000
00010000
00000000
00000100
00001000
00000010
00000000
00001000
00000100
00000010
00000000
,
00000001
00000010
00000100
00001000
00000001
00001000
00000001
00001000
00000010
00000100
00000001
00001000
00000001
00000010
00000100
00001000
,
00000100
00000000
00000000
00000000
00010000
00000000
00000000
00000000
00000000
00000000
00000000
00000000
00010000
00000000
00000000
00000000
00010000
00000000
00000000
00000000
00001000
00000000
00000000
00000000
00022000
00033000
00000000
00000000
00000000
00000000
00000000
00000000
00001000
00000000
00000000
00000000
00000000
00000000
00000000
00000000
00010000
00000000
00000000
00000000
00000000
00000000
00000000
00000000
01000000
00000000
00000000
00000000
00000000
00000000
00000000
00000000
00100000
00000000
00000000
00000000
00000000
00000000
00000000
00000000
,
00010000
01000000
00001000
00000100
00000010
00001000
00000100
00000010
,
00001000
00010000
00100000
01100000
01000000
00010000
00100000
01000000
,
00010000
00001000
00000010
00000100
00001000
00000010
00000100
00010000
,
00001000
00000000
01000000
00010000
00100000
00000000
00001000
00000000
00010000
00000000
00000010
00000000
00000001
00000000
00001000
00000000
,
00000100
00000001
00000010
00001000
00021000
0000MMMM
00031000
00010000
,
10000000
01000000
00100000
00010000
00012000
MMMM0000
00013000
00001000
,
00000100
00000000
00000001
00000000
00000010
00000000
00000100
00010000
00001000
00000000
00000100
00000000
00010000
00000000
01000000
00000000
,
00001000
00000000
00000000
00000010
00000000
00000000
00010000
00000000
00000000
00100000
00000000
00000000
00002000
00000000
00000000
00000000
00013000
00000000
00001000
00000000
00010000
00000000
00000000
00000000
,
00001000
00010000
01000000
00100000
01000000
00000000
10000000
00000000
00100000
01000000
00100000
00000000
,
00010000
00001000
00000100
00000001
00001000
00000000
00000100
00000001
00000100
00000010
00000100
00000000
,
00001000
00000001
00000100
00001000
00010000
00001000
00000010
00001000
00010000
00100000
00010000
00001000
,
00010000
00000000
00000000
00000000
01000000
00000000
00000000
00000000
10000000
00000000
00000000
00000000
00010000
00000000
00000000
00000000
00100000
00000000
00000000
00000000
01000000
00000000
00000000
00000000
10000000
00000000
00000000
00010000
00000000
00000000
01000000
00000000
00000000
00010000
00000000
00000000
10000000
00000000
00000000
00000000
00000000
00000000
00000000
00000000
00000000
01000000
00000000
00000000
,
00100000
00010000
00100000
00000000
00001000
00000000
00000000
00001000
00010000
00000000
00000000
00010000
00001000
00000000
00000100
00000000
,
00000001
00001000
00000100
MMMMMMMM
00000011
00000001
00000101
00000100
,
00001100
00000000
00000000
00001000
00000000
00000000
00011000
00000000
00000000
00010000
00000000
00000000
00011000
00000000
00000000
00000000
00010000
00000000
00000000
00000000
01000000
00000000
00000000
00000000
,
10000000
00000000
00100000
00000000
00010000
00000000
00022000
00000000
00000000
00000000
00000000
00000000
,
00000000
00000000
00000000
00033000
00000000
00000000
00011000
00000000
00000000
00000000
00001100
00000000
00000000
00000000
00000100
00000000
00000001
00000000
00000010
00000000
00000000
00000000
00001010
00000000
,
00000000
00000000
00001000
00000000
00010000
00000000
00001000
00000000
00000000
MMMMMMMM
00000000
00000000
00010000
00000000
00000000
01000000
00000000
00000000
00100000
00000000
00000000
00010000
00000000
00000000
,
02010000
00000000
00000000
00000000
03100000
00000000
10000000
00000000
01000000
00000000
10000000
00000000
00010000
01000000
00100000
00000000
,
00010000
00000000
00001000
00010000
00001000
00000000
MMMMMMMM
00000000
00010000
00000000
00000100
00000000
00000010
00000000
00000001
00000000
,
00002001
00000000
00000000
00000000
00003001
00000000
00000100
00000010
00000100
00000000
00001000
00000000
00010000
00000000
00100000
01000000
,
00100000
10000000
10010000
MMMMMMMM
10000000
00100000
00020000
00030200
,
00002300
00000000
00003002
00000000
00000103
00000010
00001000
00000000
00000001
00000000
00000010
00000100
00001000
00000000
00000010
00000100
,
00001000
00000000
00010000
00001000
01000000
00000000
00010000
10000000
00100000
00000000
01000000
00000000
00200000
00000000
00320000
00000000
,
00032000
00000000
00003020
00000000
00000230
00000000
00000010
MMMM0301
00000200
00000000
00000010
MMMM1300
00000200
00000000
00000010
MMMM0301
,
00000200
00000000
00000000
00000300
00000110
00000000
00000000
00000000
00001001
00000000
00001000
00000001
00000010
00000100
00000010
00000100
,
00001000
00000000
00000100
00010000
00001000
00010000
00001000
00010000
00100000
00000000
01000000
00010000
10000000
00010000
10000000
01000000
,
00100000
00000000
00001000
00000000
00021000
00000000
00000000
00000000
00031000
00000000
00000100
00000010
00001000
00000001
00001000
00000001
,
00000010
00000000
00000100
00001000
00000001
00000100
00000001
00000100
00000010
00000000
00000100
00001000
00010000
00001000
00010000
00001000
,
01000000
00010000
00100000
00000000
02100000
00000000
10000000
0301MMMM
02000000
00000000
00010000
1300MMMM
02000000
00000000
10000000
0301MMMM
,
02000000
00000000
03002000
00000000
00013000
00000000
00001000
MMMM0100
00000020
00000000
00001000
MMMM0130
00000020
00000000
00000001
MMMM0130
,
00000010
00001000
00000100
00000010
00000001
00000100
00000020
00000000
00000230
00000000
00001300
00010000
00002000
00000000
02003000
00000000
,
03010000
10000000
01000000
00000000
01100000
00000000
00100000
00001000
00010000
00000000
00011000
00000000
00000000
00000000
00000110
00000000
,
MMMMMMMM
00000000
00000000
00000000
00000000
00000000
00000000
00000000
00000000
00000000
00000000
00000000
00000000
00000000
00000000
00000000
02100000
00000000
00000000
00000000
03010000
00000000
10000000
00000000
01000000
00000000
00010000
00000000
00001000
00000000
00010000
00100000
,
02000000
00000000
00000000
00000000
03010000
00000000
02000000
00000000
00000000
00000000
13000000
00000000
01000000
00000000
00010000
00000000
00200000
00000000
00000000
00000000
01300000
00000000
00010000
00000000
00001000
00000000
00000100
00000000
00001000
00000000
00010000
00001000
,
00010000
00000000
00001000
00000000
00000100
00000000
00000010
00000000
00010000
00000000
00001000
00000000
00000100
00000000
00000001
00000000
00000020
00000000
00000000
00000000
00000130
00000000
00002000
00000000
00000000
00000000
00003001
00000000
00000100
00000000
00000010
00001000
,
00000010
00001000
00000000
00001000
00000100
00000010
00001000
00010000
00002000
00000000
01003000
00010000
00100000
00001000
01000000
00001000
,
00100000
00000000
00010000
00000000
10000000
00000000
00100000
00000000
01000000
00000000
00010000
10000000
01000000
00100000
00010000
00100000
00002000
00000000
00000000
00000000
MMMM0000
00000000
00000000
00000000
00013000
00000000
00000000
00000000
00001000
00000000
00000000
00000000
,
00000010
00000100
00001000
00000010
00010000
MMMMMMMM
00001000
00010000
,
MMMMMMMM
01000000
00100000
MMMMMMMM
00020000
0000MMMM
01030000
00100000
,
00010000
10000000
01000000
00010000
00100000
01000000
00010000
00001000
,
00000100
00000001
00000010
MMMMMMMM
00000110
00000100
00001000
00001000
,
00000001
00000001
00000100
00000100
00001000
00001000
00010000
00010000
,
00100000
00100000
10000000
10000000
10020000
00000000
20030000
30200000
,
00320000
00000000
00032000
00000000
00003020
00000000
00000032
00000000
00001003
00000010
00000001
00000000
00000001
00000010
00001010
MMMMMMMM
,
00000002
00000000
00000103
00000001
00002000
00000000
00003001
00000000
00000010
00000100
00000020
00000000
00001030
00000000
00010000
00001000
,
00200000
00000000
00000000
00000000
00000000
00000000
00310000
00000000
00000000
00000000
00000000
00000000
00100000
00000000
00000000
01000000
00000000
00000000
20000000
00000000
00000000
00000000
00000000
00000000
30020000
00000000
00000000
00000000
00000000
00000000
01030000
00000000
00000000
00010000
00000000
00000000
10000000
00000000
00000000
00000000
01000000
00000000
00000000
00000000
00100000
00000000
00000000
00000000
,
00020000
00000000
10030000
00100000
02000000
00000000
03100000
00000000
00010000
00001000
00020000
00000000
00030100
00000000
00001000
00000010
,
00000200
00000000
00000301
00000000
00000010
00000100
00002000
00000000
00003020
00000000
00000130
00001000
00010000
00000000
00001000
00100000
,
00020000
00000000
00130000
01000000
00200000
00000000
00310000
00000000
10000000
00100000
02000000
00000000
03100000
00000000
00010000
00001000
,
00020000
00000000
00030100
00000000
00010000
00001000
00020000
00000000
00230000
00000000
01300000
00010000
10000000
01000000
00100000
01000000
,
00020000
00000000
00031000
00010000
00002000
00000000
00003010
00000000
00000001
00000010
00000200
00000000
00002300
00000000
00003000
00000000
,
00002002
00003003
00022000
00033000
20020000
30030000
00022000
00033000
,
00010000
00001000
00000100
00000001
00000100
00000010
00001000
00000001
,
00000010
00000100
00002000
00000000
00003010
00000100
00002000
00000000
00013000
00100000
02000000
00000000
03010000
00100000
02000000
00000000
,
13000000
00010000
01000000
00100000
00010000
00001000
00000100
00000001
,
00000100
00000010
00002000
00000000
00003100
00000010
00002000
00000000
00013000
01000000
00200000
00000000
00310000
01000000
00200000
00000000
,
10300000
00100000
20000000
00000000
31000000
00000000
00100000
00001000
00020000
00000000
00031000
00000000
00000100
00000010
00000200
00000000
,
00000301
00000000
00000010
00000100
00002000
00000000
00003001
00000000
00000200
00000000
00000320
00000000
00000230
00000000
00002300
00000000
,
00023000
00000000
0000MMMM
00000000
00230000
00000000
01300000
00100000
00010000
00000000
00001000
00010000
02000000
00000000
23000000
00000000
,
30020000
00000000
00130000
00001000
00020000
00000000
00031000
00100000
00020000
00000000
00130000
00001000
00020000
00000000
00000000
00000000
,
00031000
00000000
00010000
00100000
02000000
00000000
03010000
00100000
02000000
00000000
13000000
00100000
00020000
00000000
00031000
00000000
,
00010000
00000000
00000000
00000100
00000000
00000000
00001000
00000000
00000000
00000000
00000000
00000000
00001100
00000000
00000000
00000000
00000000
00000000
00000110
00000000
00000000
00000000
00000000
00000000
00000011
00000000
00000000
00000000
00000000
00000000
00001000
00000000
00000010
00000000
00001000
00000000
00000010
00000000
00000000
00000000
00000000
00000000
00001000
00000000
00000000
00000000
00000000
00000000
,
00000002
00000000
00001003
00000010
00000002
00000000
00000013
00000100
00002000
00000000
00013000
00100000
02000000
00000000
13000000
01000000
,
00200000
00000000
00310000
00001000
00020000
00000000
00130000
01000000
20000000
00000000
31000000
00100000
00020000
00000000
00130000
10000000
,
00010000
10000000
02000000
00000000
13000000
00010000
00100000
01000000
10000000
00010000
02000000
00000000
13000000
01000000
00200000
00000000
,
00310000
00001000
00000200
00000000
00000310
00000001
00000020
00000000
00000130
00000001
00001000
00000100
00000020
00000000
00000032
00000000
,
00001003
00000000
00000001
00000010
00000001
00000100
00000010
00001000
00000100
00010000
00001000
00100000
00010000
01000000
00100000
10000000
,
00010000
00000000
11000000
00000000
00000000
01010000
00000000
00000000
00011000
00000000
00000000
00001010
00000000
00000000
00000011
00000000
;
