#TITLE:Devilz Staircase;
#ARTIST:OSTER project;
#GENRE:SYMPHONIC BREAK BEATS;
#BANNER:Devilz Staircase.png;
#BACKGROUND:Devilz Staircase-bg.png;
#CDTITLE:./CDTitles/bm IIDX 20 tricoro.png;
#MUSIC:Devilz Staircase.ogg;
#SAMPLESTART:23.027;
#SAMPLELENGTH:15;
#BPMS:0=185;
#TIMESIGNATURES:0=4=4,72=6=4,84=4=4,164=6=4,212=4=4;
#LABELS:0=READY,4=HERE WE GO;

//--------------- dance-single - Fred-104 ----------------
#NOTES:
     dance-single:
     Fred-104:
     Beginner:
     3:
     :
0000
0000
0000
0000
,
0000
0000
0000
0000
,
0000
0000
0000
0000
,
1000
0000
0000
0000
,
0000
0000
0000
0000
,
0001
0001
0000
0000
,
0000
0000
0000
0000
,
1000
0000
0000
0000
,
0001
0000
0000
0000
,
0010
0000
0000
0000
,
0100
0000
0000
0000
,
1000
0000
0000
0000
,
0100
0000
0000
0000
,
0010
0000
0000
0000
,
0100
0000
0000
0000
,
1000
0000
0100
0000
,
0010
0000
0001
0000
,
0000
0000
0000
0000
,
2000
0000
3000
0000
,
0001
0000
2000
0000
,
3000
0000
0001
0000
,
1000
0000
0000
0000
,
0010
0000
0000
0000
,
1000
0000
0000
0000
,
0001
0000
0000
0000
,
1000
0000
0000
0000
,
0001
0000
0000
0000
,
0100
0000
0000
0000
,
0010
0000
0010
0000
,
0010
0000
0000
0000
,
0100
0000
0000
0000
,
0001
0000
0000
0000
,
1000
0000
1000
0000
,
0100
0000
0000
0000
,
0010
0000
0000
0000
,
0001
0000
0000
0000
,
1000
0000
0000
0000
,
1000
0000
1000
0000
,
0001
0000
0001
0000
,
1000
0000
1000
0000
,
0001
0000
0001
0000
,
2000
0000
0000
3000
,
0000
0000
0002
0000
,
0000
0003
0000
0000
,
2000
0000
0000
3000
,
0000
0000
0002
0000
,
0000
0003
0000
0000
,
1001
0000
0000
1000
,
0000
0000
1001
0000
,
0000
0001
0000
0000
,
1001
0000
0000
1000
,
0000
0000
0001
0000
,
0001
0000
0010
0000
,
0002
0000
0000
0003
,
2000
0000
3000
0000
,
0001
0000
1000
0000
,
0001
0000
0001
0000
,
0100
0000
0010
0000
,
0100
0000
0000
0000
,
0001
0000
0001
0000
,
1000
0000
1000
0000
,
0100
0000
0010
0000
,
0002
0000
0003
0000
,
1000
0000
0100
0000
,
0001
0000
0000
0000
,
0001
0000
0010
0000
,
2000
0000
3000
0000
,
1001
0000
0001
0000
,
1000
0000
0000
0000
,
1001
0000
1000
0000
,
0001
0000
0000
0000
,
1000
0000
1000
0000
,
0001
0000
0001
0000
,
1000
0000
0000
0000
,
0001
0000
0001
0000
,
2000
0000
0000
0000
,
0000
0000
0000
3000
,
0002
0000
0000
0000
,
0000
0000
0000
0003
,
2000
0000
0000
3000
,
0001
2002
0000
0000
,
0000
0000
0000
0000
,
0000
0000
0000
0000
,
0000
0000
0000
0000
,
3003
0000
0000
0000
;

//--------------- dance-single - Fred-104 ----------------
#NOTES:
     dance-single:
     Fred-104:
     Easy:
     5:
     :
0000
0000
0000
0000
,
0000
0000
0000
0000
,
0000
0000
0000
0000
,
0000
0000
0000
0000
,
0000
0000
0000
0000
,
0000
0000
0000
0000
,
0000
0000
0000
0000
,
0000
0000
0000
0000
,
0000
0000
0000
0000
,
1000
1000
0000
0100
,
0000
0010
0010
0000
,
0001
0001
0000
0010
,
0000
0100
0100
0000
,
1000
1000
0000
0001
,
0000
0100
0100
0000
,
0010
0010
0000
0100
,
0000
0100
0100
0001
,
0000
0000
0000
0000
,
1000
0000
0100
0000
,
0001
0000
0001
0000
,
0100
0000
1000
0000
,
0001
0000
1000
0000
,
0010
0010
1000
0000
,
0010
0000
0100
0000
,
0001
0001
1000
0000
,
0001
0000
1000
0000
,
0100
0100
1000
0000
,
0100
0000
0010
0000
,
0001
0000
0000
1000
0000
0000
0001
0000
,
1000
0000
0100
0000
,
0010
0001
0010
0000
,
0100
0000
1000
0000
,
0001
0001
1000
1000
,
0001
0000
1000
0000
,
0010
0000
0000
0010
0000
0000
0010
0000
,
0100
0000
0100
0000
,
0001
0000
1000
0000
,
0001
0000
0001
0000
,
1000
0000
1000
0000
,
0001
0000
0001
0000
,
1000
0000
1000
0000
,
0002
0000
0000
0023
,
0000
0000
0230
0000
,
0000
2300
0000
0000
,
3200
0000
0000
0320
,
0000
0000
0032
0000
,
0000
2003
0000
0000
,
3001
0000
0000
0100
,
0100
0100
0100
0000
,
0000
0010
0010
0010
,
0010
0000
0000
1000
,
1000
1000
1000
0000
,
0001
0000
1000
0000
,
0002
0000
0000
1003
,
0020
0000
0230
0000
,
0301
0000
0000
0001
0000
0000
0001
0000
,
1000
0000
0000
1000
0000
0000
1000
0000
,
0100
0000
0000
0100
0000
0000
0100
0000
,
0010
0000
0000
0010
0000
0000
0001
0000
,
1000
1000
0001
0000
,
0100
0100
0010
0000
,
0100
0100
0001
0000
,
1000
1000
0100
0000
,
0020
0030
0020
0030
,
0200
0300
0200
0300
,
1000
0000
0001
0000
,
2002
0000
3003
0000
,
1001
0000
0001
0000
,
1000
2002
0000
3003
,
1001
0000
1000
0000
,
0001
2002
0000
3003
,
1000
0000
0100
0000
,
0001
0000
0010
0000
,
2000
0000
3001
0001
,
1000
0000
0001
0000
,
1000
0000
0100
0000
,
0010
0000
0001
0000
,
0010
0000
0100
0000
,
1000
0000
0001
0000
,
2000
0000
0000
0000
,
3001
2002
0000
0000
,
0000
0000
0000
0000
,
0000
0000
0000
0000
,
0000
0000
0000
0000
,
3003
0000
0000
0000
;

//--------------- dance-single - Fred-104 ----------------
#NOTES:
     dance-single:
     Fred-104:
     Medium:
     13:
     :
0000
0000
0000
0000
,
0000
0000
0000
0000
,
0000
0000
0000
0000
,
0000
0000
0000
0000
,
0000
0000
0000
0000
,
0000
0000
0000
0000
,
0000
0000
0000
0000
,
0000
0000
0000
0000
,
0000
0000
0000
0000
,
1000
0000
0010
0000
0000
1000
1000
1000
,
0000
0001
0001
0010
0100
0000
1100
0000
,
0001
0000
1000
0000
0000
0010
0010
0010
,
0000
0100
0100
0001
1000
0000
0110
0000
,
0001
0000
0000
0010
0000
0000
0100
0000
0100
1000
0000
0000
,
0100
0000
0000
0010
0000
0000
0001
0000
0001
1000
0000
0000
,
0001
0000
0000
0010
0000
0000
0100
0000
0100
1000
0000
0000
,
0100
0000
0000
0010
0000
0000
0001
0000
0000
1000
0000
0001
,
0000
0000
0000
0000
,
1000
0000
0010
0000
1000
0000
0010
0000
0000
0000
0000
0000
0100
0000
0000
0100
0000
0000
0000
0000
0000
0001
0000
0000
,
1000
0001
1000
0001
0000
0000
0001
0100
0001
0100
0000
0000
,
0010
0000
0000
0010
0000
0000
0000
0000
0000
1000
0000
0000
0001
0000
1000
0000
0001
0000
1000
0000
0000
0000
0000
0000
,
1000
0100
0010
0000
0001
0010
0100
0000
,
1000
0001
0100
0000
0010
1000
0001
0000
,
0010
0100
1000
0000
0100
0010
0001
0000
,
1000
0010
0100
0000
0001
1000
0100
0000
,
0010
0001
1000
0000
0001
0010
0100
0000
,
1000
0001
0100
0000
0010
1000
0001
0000
,
1000
0100
0010
0000
0001
0010
0100
0000
,
1000
0001
0100
0010
1000
0001
0010
0000
,
0001
0000
0001
1000
0000
0000
0010
0000
0010
0100
0000
0000
,
0001
0000
0001
1000
0000
1000
0100
0000
0100
0010
0000
0000
,
0001
0000
0001
1000
0000
1000
0100
0000
0100
0010
0000
0010
,
0001
0000
0000
0000
0001
0000
0010
0000
0000
0000
0010
0000
0100
0000
0000
1000
0000
0000
0001
0000
0000
0000
0000
0000
,
0110
0000
1000
0100
0010
0000
0001
0100
,
0010
0000
1000
0001
0000
0001
0010
0000
,
0100
1000
0001
0000
0100
0001
1000
0000
,
0100
0010
0001
0010
0000
0010
0100
0000
,
1000
1000
0000
0000
0001
0001
0000
0000
,
0100
0100
0000
0000
0110
0000
1001
0000
,
0001
0001
0100
0000
1000
1000
0100
0000
,
0001
1000
0100
0010
0001
1000
0001
0000
,
1000
0100
1000
0100
0010
0001
0010
0010
,
0100
0100
1000
0000
0001
0100
0001
0100
,
0010
1000
0010
0010
0100
0100
0001
0000
,
1000
0100
1000
0100
0010
0001
0010
0010
,
0100
0100
1000
0000
0001
0100
0001
0100
,
0010
1000
0010
0010
0100
0100
0001
0000
,
1001
0000
1000
0100
0010
0000
0011
0000
,
1100
0000
0101
0000
1001
0000
0001
0100
,
0010
1010
0101
1100
,
0110
0000
0010
0001
1000
0000
1010
0000
,
0101
1001
0011
1010
,
0101
1100
0011
1010
,
0002
0000
0000
0203
,
0320
0000
0000
0000
0130
0100
0100
0000
,
0001
1000
0100
0010
0001
0010
0100
0000
,
1000
0001
0100
0010
1000
0010
0100
0000
,
0001
0000
1000
0100
0001
0000
1000
0010
,
0001
0000
1000
0000
0001
0000
0100
0000
0010
0000
1000
0001
1000
0000
0000
0000
,
1000
0100
1000
0100
0010
0100
0010
0000
,
0001
0010
0001
0010
0100
1000
0001
0000
,
1000
0010
1000
0010
0100
0001
1000
0100
,
0010
0001
0100
0010
0100
0000
0001
0001
,
1000
1000
0100
0100
0010
0010
0001
1000
,
0001
0001
0100
0100
0010
0010
1000
0100
,
0010
0001
0100
0010
1000
0100
0010
0001
,
0011
0000
1001
0000
,
0110
0000
0000
1000
0000
1000
0100
0000
0100
0010
0000
0010
,
0001
2002
0003
3000
,
0110
0000
0000
0001
0000
0001
0010
0000
0010
0100
0000
0100
,
1000
2002
3000
0003
,
1000
0100
0001
0000
0001
0100
1000
0000
,
0001
0100
1000
0000
1000
0100
0001
0000
,
0020
0000
0100
0130
,
1000
0000
1000
0010
0000
0010
0100
0000
0100
0001
0000
0001
,
1000
0100
1000
0100
0010
0001
1000
0000
,
0001
0100
0001
0100
0010
1000
0001
0000
,
0010
0100
1000
0100
0010
0001
0010
0100
,
1000
0001
0100
0010
1000
0001
0010
0100
,
0020
0000
0000
0000
0000
0000
0000
0000
0000
0031
0100
0010
,
0100
2002
0000
0000
,
0000
0000
0000
0000
,
0000
0000
0000
0000
,
0000
0000
0000
0000
,
3003
0000
0000
0000
;

//--------------- dance-single - Fred-104 ----------------
#NOTES:
     dance-single:
     Fred-104:
     Hard:
     15:
     :
0000
0000
0000
0000
,
0000
0000
0000
0000
,
0000
0000
0000
0000
,
0000
0000
0000
0000
,
0000
0000
0000
0000
,
0000
0000
0000
0000
,
0000
0000
0000
0000
,
0000
0000
0000
0000
,
0000
0000
0000
0000
,
0001
0010
0100
1000
0000
0000
0100
0010
0001
0010
0000
0000
,
0100
1000
0100
0010
0000
0000
0001
0010
0100
1000
0000
0000
,
0001
0100
0010
1000
0000
0000
0010
0100
0001
0100
0000
0000
,
0010
1000
0010
0100
0000
0000
0001
0100
0010
1000
0000
0000
,
0001
0010
0100
1000
0000
0000
0100
0010
0100
1000
0000
0000
,
0100
0010
0001
0010
0000
0000
0100
0010
0001
1000
0000
0000
,
0001
0100
0010
1000
0000
0000
0010
0100
0010
1000
0000
0000
,
0010
0100
0001
0100
0000
0000
0010
0100
0001
1000
0010
0100
,
0000
0000
0000
0000
,
0001
0000
1000
0000
0001
0000
1000
0000
0000
0000
0000
0000
0010
0000
0000
1010
0000
0000
0000
0000
0000
0101
0000
0000
,
0001
0000
1000
0000
0100
0000
0010
0000
0000
0001
0000
0000
1000
0000
0001
0000
1000
0000
0001
0000
0000
0000
0000
0000
,
0100
0000
0000
0101
0000
0000
0000
0000
0000
1010
0000
0000
1000
0000
0001
0000
0010
0000
0100
0000
0000
1000
0000
0000
,
0001
0010
0001
0000
0010
0000
0100
0000
1000
0001
1000
0000
0100
0000
0010
0000
,
0001
1000
0001
0000
0100
0000
0010
0000
1000
0001
1000
0000
0010
0000
0100
0000
,
0001
0010
0001
0000
0010
0000
0100
0000
1000
0100
1000
0000
0100
0000
0010
0000
,
0001
0100
0001
0000
0100
0000
0010
0000
1000
0010
1000
0000
0010
0000
0100
0000
,
0001
1000
0001
0000
0010
0000
0100
0000
1000
0001
1000
0000
0100
0000
0010
0000
,
0001
1000
0001
0000
0100
0000
0010
0000
1000
0001
1000
0000
0010
0000
0100
0000
,
0001
1000
0100
0000
0010
0000
0001
0000
0010
0100
1000
0000
0001
0000
0100
0000
,
0010
1000
0010
0000
0100
0000
0001
0010
0001
0000
0100
0000
0110
0000
0000
0000
,
1000
0100
0010
0001
0000
0000
0010
0100
1000
0100
0000
0000
,
0010
0001
0010
0100
0000
0000
1000
0100
0010
0001
0000
0000
,
1000
0010
0100
0001
0100
0010
0100
0001
0100
0010
1000
0001
,
1000
0000
0000
0000
0010
0000
0000
0000
0100
0000
0000
0000
0001
0000
0000
0000
0100
0000
0000
0000
0010
0000
0000
0000
1000
0000
0000
0000
0000
0000
0001
0000
0000
1000
0000
0000
0001
0000
0000
0000
0000
0000
0010
0000
0000
0000
0000
0000
,
0100
0000
1000
0000
1000
0000
0001
1000
0010
0000
1000
0000
1000
0000
0001
1000
,
0001
0100
1000
0001
1000
0100
0001
0000
,
0010
0001
0010
0000
0100
1000
0100
0000
1000
0010
1000
0000
0001
0100
0001
0000
,
1000
0100
1000
0000
0100
0010
0100
0000
0010
0000
0001
0000
1001
0000
0000
0000
,
1010
1010
0000
0000
0011
0011
0000
0000
,
0101
0101
0000
0000
1100
0000
1001
0000
,
1000
1000
0100
0001
0100
0100
0010
0001
,
0100
0000
0100
0000
0010
0000
1000
0000
0001
0010
0001
0000
1000
0100
1000
0000
,
0001
0000
1000
0100
0010
0000
0001
0010
0100
0000
1000
0000
0001
1000
0001
1000
,
0001
0000
0100
0000
0010
0000
1000
0000
0001
0000
0010
0100
1000
0000
0100
0010
,
0001
0000
1000
0000
0001
1000
0001
1000
0001
0000
0100
0000
0010
0000
1000
0000
,
0001
0000
0100
0010
1000
0000
0010
0100
0001
0000
1000
0000
0100
0010
0100
0010
,
0001
0000
0010
0000
0100
0000
1000
0000
0001
0000
0010
0100
1000
0000
0100
0010
,
0001
0000
1000
0000
0010
0100
0010
0100
0001
0000
0100
0000
0010
0000
1000
0000
,
0001
0000
0010
0100
0010
0000
0001
1000
0001
0000
0000
0000
0011
0000
0000
0000
,
1010
0000
0101
0001
1001
1000
0001
0100
,
0010
0000
0011
0000
1010
0000
1100
1000
,
0001
0100
1000
0001
0010
0100
0110
0000
,
0101
0000
1001
1000
1010
0000
0101
0000
,
1100
0011
1010
0101
,
2001
0000
0000
3200
,
0320
0000
0000
0000
0031
0100
0010
1000
,
0001
1000
0100
0001
1000
0001
0100
1000
,
0001
0100
1000
0001
1000
0100
0001
1000
,
0100
0000
0010
0000
0001
0000
1000
0001
1000
0000
0010
0000
0100
0000
0000
0000
,
0001
0000
1000
0000
0100
0000
0010
0001
0010
0000
0100
0000
1000
0000
0000
0000
,
0001
0100
1000
0100
0010
0001
0010
1000
,
0001
0010
0100
1000
0100
0010
0001
1000
,
0001
0100
0010
0001
0010
0100
1000
0100
,
0010
1000
0100
0010
0002
0000
1003
0001
,
0101
0000
1010
0000
1001
0000
1000
0100
,
0110
0000
0011
0000
1001
0000
0001
1000
,
0001
0010
0100
0000
1000
0100
0010
0000
0001
0010
0100
0000
1000
0100
0010
0000
,
0011
0000
1001
0000
,
0110
0000
0000
1000
0100
0010
0001
0000
0000
0010
0100
1000
,
0001
2002
0003
3000
,
0110
0000
0000
0001
0010
0100
1000
0000
0000
0100
0010
0001
,
1000
2002
3000
0003
,
1000
1000
0100
0010
0001
0001
0010
0100
,
1000
1000
0001
0100
0010
0010
1000
0001
,
0020
0000
0100
0130
,
1000
0100
0010
0001
0010
0100
1000
0100
0010
0001
0010
0100
,
1000
0100
0010
0001
1000
0001
0010
0100
,
1000
0010
0100
0001
1000
0001
0100
0010
,
1000
0001
1000
0000
0001
0010
0001
0000
0010
0100
0010
0000
0100
1000
0100
0000
,
0010
0100
0010
0000
0001
0010
0001
0000
1000
0010
1000
0000
0001
0100
0001
0000
,
2000
0000
0000
0000
0000
0000
0000
0000
0000
3001
0010
0100
,
0010
2002
0000
0000
,
0000
0000
0000
0000
,
0000
0000
0000
0000
,
0000
0000
0000
0000
,
3003
0000
0000
0000
;

//--------------- dance-single - Fred-104† ----------------
#NOTES:
     dance-single:
     Fred-104†:
     Challenge:
     17:
     :
0000
0000
0000
0000
,
0000
0000
0000
0000
,
0000
0000
0000
0000
,
0000
0000
0000
0000
,
0000
0000
0000
0000
,
0000
0000
0000
0000
,
0000
0000
0000
0000
,
0000
0000
0000
0000
,
0000
0000
0000
0000
,
1000
0100
0010
0001
0010
0100
1000
0100
0010
0100
1000
0100
,
0010
0001
0010
0100
0010
0001
0010
0100
1000
0100
0010
0001
,
1000
0010
0100
0001
0100
0010
0100
0001
0100
0010
1000
0010
,
0100
0010
1000
0010
0100
0001
0100
0010
1000
0001
0100
0010
,
1000
0001
0010
0100
1000
0100
0010
0001
0010
0100
0010
0001
,
0010
0100
1000
0100
0010
0100
1000
0100
0010
0001
0010
0100
,
1000
0010
0100
0010
1000
0010
0100
0001
0100
0010
0100
0001
,
0100
0010
1000
0010
0100
0001
0100
0010
1000
0010
0100
0001
,
0000
0000
0000
0000
0000
0000
0000
0000
0000
0000
0000
0000
1000
0100
1000
0100
,
0010
0000
0001
0000
0010
0000
0011
0000
0000
0000
0000
0000
1001
0000
0000
1001
0000
0000
0000
0000
0000
0101
0000
0000
,
0001
0000
0100
0000
0010
0000
2010
0000
0000
3001
0000
0000
1000
0000
0100
0000
0010
0000
0110
0000
0000
0000
0000
0000
,
1100
0000
0000
1100
0000
0000
0000
0000
0000
1001
0000
0000
0001
0000
1000
0000
0001
0000
0201
0000
0000
0310
0000
0000
,
1000
0001
1000
0000
0001
0000
0010
0000
0100
1000
0100
0000
0010
0000
0001
0000
,
1000
0010
1000
0000
0001
0000
0100
0000
0010
1000
0010
0000
0100
0000
0001
0000
,
1000
0100
1000
0000
0001
0000
1000
0010
1000
0000
0001
0000
1000
0100
1000
0000
,
0001
0100
0001
0000
1000
0000
0001
0010
0001
0000
1000
0000
0001
0100
0001
0000
,
1000
0001
1000
0000
0100
0000
0010
0001
0010
0000
0100
0000
1000
0001
1000
0000
,
0001
1000
0001
0000
0100
0000
0010
1000
0010
0000
0100
0000
0001
1000
0001
0000
,
1000
0100
1000
0000
0100
0000
0010
0001
0010
0000
0100
0000
1000
0001
1000
0000
,
0001
0100
0001
0000
0100
0000
0010
1000
0010
0000
0100
0000
0001
1000
0001
0000
,
1000
0100
0010
0001
0010
0100
1000
0100
0010
0001
0010
0100
,
0010
0001
0010
0100
1000
0100
0010
0001
0010
0100
1000
0001
,
1000
0010
0100
0001
0100
0010
0100
0001
0100
0010
1000
0010
,
0100
0000
0000
0000
0001
0000
0000
0000
0100
0000
0000
0000
0010
0000
0000
0000
1000
0000
0000
0000
0001
0000
0000
0000
1000
0000
0000
0001
0000
0000
0010
0000
0000
0100
0000
0000
1000
0000
0000
0100
0000
0000
0010
0000
0000
0001
0000
0000
,
0020
0000
0100
0000
0130
0000
1000
0001
0200
0000
0010
0000
0310
0000
1000
0001
,
0020
0130
0001
2000
3010
0001
2000
3001
,
1000
0100
0010
0001
0010
0100
1000
0001
1000
0100
0010
0001
0010
0100
1000
0001
,
0200
0000
0010
0000
0310
0000
1000
0001
0020
0000
0100
0000
0130
1000
0100
1000
,
0001
0101
0000
0000
1010
1010
0000
0000
,
0011
0000
0011
0000
0000
0000
0000
0000
1100
0000
0000
0000
0001
1000
0001
1000
,
0001
1000
0100
0010
1002
1003
0001
1000
,
0120
0000
0031
0000
0210
0000
1300
0000
0001
0010
0100
1000
0100
0010
0001
1000
,
0001
0000
0100
0010
0100
0000
0001
0010
0001
0000
1000
0000
0100
0010
0100
0010
,
0100
0000
0010
0000
0001
0000
1000
0000
0001
0000
0010
0100
0010
0000
0001
0100
,
0001
0000
1000
0000
0010
0100
0010
0100
0010
0000
0100
0000
0001
0000
1000
0000
,
0001
0000
1000
0100
1000
0000
0010
0100
0010
0000
1000
0000
0001
0010
0001
0010
,
0100
0000
0001
0000
0100
0000
0010
0000
0001
0000
1000
0001
1000
0000
0010
0100
,
0010
0000
1000
0000
0100
0010
0100
0010
1000
0000
0010
0000
0001
1000
0001
1000
,
0100
0000
0010
0001
1000
0000
0010
0100
0010
0000
1000
0000
1001
0000
0000
0000
,
0011
0000
0000
0000
0110
0000
0100
0000
1100
0000
1000
0001
0010
0000
0100
1000
,
0001
1000
0100
0000
0101
0000
0000
0000
1100
0000
0000
0000
0011
0000
1001
0000
,
0001
1000
0010
0100
1000
0001
0011
0000
,
1010
0000
1001
0001
0011
0000
1010
0000
,
1100
0000
0101
0001
1001
0000
0110
0010
,
2010
0000
0001
0001
0000
0100
3200
0000
,
0320
0000
0001
0000
0001
0000
0001
0000
0031
1000
0010
0100
0001
1000
0010
0100
,
0001
1000
0001
0000
0010
0000
0100
1000
0001
0000
0100
0000
0010
1000
0010
0100
,
0010
1000
0001
0000
0010
0000
0100
0010
0001
0000
1000
0000
0010
1000
0001
1000
,
0100
0010
0001
0000
1000
0000
0010
0100
0001
0000
1000
0000
0001
0010
0100
0000
,
1000
0001
0100
0000
0010
0000
1000
0001
0010
0000
0100
0000
0010
0001
0010
0001
,
1000
0000
0000
0010
0000
0000
1000
0001
1000
0001
0000
0000
0010
0000
0000
0100
0000
0000
0001
0000
0000
0100
0000
0000
,
1000
0000
0001
0000
0100
0000
0010
0000
0001
0000
1000
0000
0100
0010
0100
0000
,
0001
0000
0000
0010
0000
0000
0100
1000
0100
1000
0000
0000
0001
0000
0000
0100
0000
0000
1000
0000
0000
0001
0000
0000
,
0010
0100
0010
1000
0020
0000
0130
0001
,
2000
0000
3100
0010
0002
0000
1003
0100
0020
0000
0031
1000
0020
0000
0230
0000
,
0302
0000
1003
0001
0020
0000
0130
1000
0002
0000
0103
0010
2000
0000
3002
0000
,
1003
0100
0010
0001
0010
0100
1000
0100
0010
0100
1000
0100
0010
0001
0010
0100
,
0010
0000
1001
0000
,
1001
0000
0000
0001
0010
0100
1000
0000
0000
0010
0100
0010
,
0110
2002
3000
0003
,
0110
0000
0000
1000
0100
0010
0001
0000
0000
0100
0010
0100
,
0110
2002
0003
3000
,
0101
0100
0010
1000
1001
0001
0010
0100
,
1100
1000
0001
0100
0110
0010
0001
0010
,
2020
0000
0030
3000
,
0001
0010
0100
1000
0100
0010
0001
0010
0100
1000
0100
0010
,
0001
0000
1000
0010
1000
0000
0001
0100
0001
0000
1000
0010
1000
0000
0001
0100
,
0001
0000
1000
0100
1000
0000
0001
0010
0001
0010
0100
1000
0100
0010
0001
1000
,
0001
0100
0010
1000
0010
0100
0001
1000
0001
0100
0010
1000
0010
0100
0001
1000
,
0001
0010
0100
1000
0100
0010
0001
1000
0001
0010
0100
1000
0100
0010
0001
1000
,
0001
0000
0000
0010
0000
0000
0100
0000
0000
1000
0000
0000
0100
0000
0000
0010
0000
0000
0001
0000
0000
0010
0000
0000
0100
0000
0000
1000
0000
0000
0100
0000
0000
0010
0000
0000
0001
0000
0000
0000
1000
0000
0000
0000
0010
0000
0000
0000
,
0110
2002
0000
0000
,
0000
0000
0000
0000
,
0000
0000
0000
0000
,
0000
0000
0000
0000
,
3003
0000
0000
0000
;

//--------------- dance-double - Fred-104 ----------------
#NOTES:
     dance-double:
     Fred-104:
     Easy:
     9:
     :
00000000
00000000
00000000
00000000
,
00000000
00000000
00000000
00000000
,
00000000
00000000
00000000
00000000
,
00000000
00000000
00000000
00000000
,
00000000
00000000
00000000
00000000
,
00000000
00000000
00000000
00000000
,
00000000
00000000
00000000
00000000
,
00000000
00000000
00000000
00000000
,
00000000
00000000
00000000
00000000
,
00001000
00000000
00010000
00000000
,
00100000
00100000
10000000
00000000
,
00010000
00000000
10000000
00000000
,
01000000
01000000
00010000
00000000
,
00001000
00000000
00000010
00000000
,
00000001
00000001
00001000
00000000
,
00000001
00000000
00000100
00000000
,
00001000
00001000
00010000
00010000
,
00000000
00000000
00000000
00000000
,
00001000
00000000
00001000
00000000
01000000
01000000
00000000
00100000
,
00100000
01100000
10000000
10000000
,
01000000
01000000
00000000
00100000
00100000
00000000
00101000
00000000
,
00001000
00010000
00000100
00010000
,
00000100
00000000
00001000
00000000
00000100
00000010
00000100
00000000
,
00000010
00000001
00001000
00000001
,
00000100
00000000
00001000
00000000
00010000
00001000
00010000
00000000
,
00001000
00100000
00010000
10000000
,
00010000
00000000
01000000
00000000
00100000
10000000
00100000
00000000
,
01000000
00010000
10000000
01000000
,
00100000
00000000
00000000
00100000
00000000
00000000
00001000
00000000
,
00010000
00010000
00001000
00001000
,
00000100
00000000
00000100
00000000
00000001
00000010
00000100
00000000
,
00001000
00001000
00000100
00000100
,
00010000
00000000
00010000
00000000
00001000
00010000
00001000
00000000
,
00011000
00000000
00010000
00000000
,
00001000
00000000
00000000
01000000
00000000
00000000
00001000
00000000
,
00010000
00000000
00000100
00000000
00001000
00000010
00001000
00000000
,
00000100
00000000
00010000
00001000
00000000
00010000
00001000
00000000
,
01000000
01000000
00000000
00000000
00001000
00001000
00000000
00000000
,
00010000
00010000
00000000
00000000
00000110
00000000
00001001
00000000
,
00000001
00000001
00000100
00000100
,
00001000
00010000
00001000
00000000
00000100
00000010
00000100
00000000
,
00000001
00000010
00001000
00010000
,
01000000
10000000
01000000
00000000
10000000
00000000
00010000
00000000
,
10000000
00000000
01000000
00000000
00010000
00001000
00010000
00000000
,
00100000
00010000
00001000
00000100
,
00000001
00001000
00000001
00000000
00000010
00000000
00000100
00000000
,
00001000
00000000
00000100
00000000
00010000
00001000
00010000
00000000
,
00011000
00001000
01000000
01100000
,
10010000
00010000
10000000
01000000
,
00010000
00011000
00010100
00000100
,
00001000
00000001
00000100
00000110
,
00001001
00000001
00000011
00000010
,
00001010
00001000
00011000
00010000
,
00002000
00000000
00000000
00023000
,
00030200
00000000
00000320
00000000
,
00000031
00000000
00000000
00000001
00000000
00000000
00000100
00000000
,
00000010
00000000
00000000
00000010
00000000
00000000
00000100
00000000
,
00001000
00000000
00010000
00001000
00010000
00000000
00001000
00000000
,
01000000
00000000
00100000
10000000
00100000
00000000
01000000
00000000
,
00010000
00010000
10000000
01000000
,
00010000
00000000
00001000
00000000
00010000
00001000
00010000
00000000
,
00000100
00000010
00000001
00001000
,
00000010
00000000
00000100
00000000
00001000
00000000
00010000
00001000
,
00010000
00000000
00010000
00000000
00001000
00000000
00001000
01000000
,
00010000
00000000
00010000
00000000
00100000
00000000
00100000
01000000
,
10000000
00010000
01000000
00100000
,
01100000
00000000
10010000
00000000
,
10000000
00000000
01000000
00000000
,
00010000
00022000
00000000
00033000
,
00001000
00000000
00000100
00000000
,
00000001
00002002
00000000
00003003
,
00001000
00000100
00000010
00000001
,
00000010
00000100
00001000
00000001
,
00002000
00000000
00003001
00000001
,
00000100
00000100
00001000
00001000
,
00010000
00010000
00100000
00100000
,
10000000
10000000
01000000
01000000
,
00100000
00100000
00001000
00001000
,
00010000
00010000
00000100
00000100
,
00020000
00000000
00000000
00031000
,
01000000
20020000
00000000
00000000
,
00000000
00000000
00000000
00000000
,
00000000
00000000
00000000
00000000
,
00000000
00000000
00000000
00000000
,
30030000
00000000
00000000
00000000
;

//--------------- dance-double - Fred-104 ----------------
#NOTES:
     dance-double:
     Fred-104:
     Medium:
     13:
     :
00000000
00000000
00000000
00000000
,
00000000
00000000
00000000
00000000
,
00000000
00000000
00000000
00000000
,
00000000
00000000
00000000
00000000
,
00000000
00000000
00000000
00000000
,
00000000
00000000
00000000
00000000
,
00000000
00000000
00000000
00000000
,
00000000
00000000
00000000
00000000
,
00000000
00000000
00000000
00000000
,
00001000
00010000
01000000
00010000
,
00001000
00000000
00000000
00010000
00000000
00000000
00100000
00000000
00100000
10000000
00000000
00000000
,
00010000
10000000
01000000
00010000
,
00001000
00000000
00000000
00010000
00000000
00000000
00100000
00000000
00100000
00010000
00000000
00000000
,
00001000
00010000
00001000
00000100
,
00000001
00000000
00000000
00000010
00000000
00000000
00000100
00000000
00000100
00001000
00000000
00000000
,
00000100
00000010
00000001
00001000
,
00000010
00000000
00000000
00000100
00000000
00000000
00000001
00000000
00000000
00000100
00000001
00000100
,
00000000
00000000
00000000
00000000
,
00000100
00000000
00000010
00000000
00000100
00000000
00000010
00000000
00000000
00000000
00000000
00000000
00010000
00000000
00000000
00010000
00000000
00000000
00000000
00000000
00000000
00001000
00000000
00000000
,
00001000
00000000
00100000
00000000
00001000
00000000
00100000
00000000
00000000
00010000
00000000
00000000
10000000
00000000
01000000
00000000
10000000
00000000
01000000
00000000
00000000
00000000
00000000
00000000
,
00100000
00000000
00000000
00100000
00000000
00000000
00000000
00000000
00000000
00001000
00000000
00000000
00010000
00000000
00000100
00000000
00010000
00000000
00000100
00000000
00000000
00001000
00000000
00000000
,
00000010
00010000
00001000
00000000
00010000
00100000
10000000
00000000
,
00010000
00100000
01000000
10000000
00010000
01000000
00100000
00000000
,
10000000
01000000
00100000
00000000
00010000
00100000
00001000
00000000
,
00010000
00001000
00000100
00000010
00000001
00000010
00001000
00000000
,
00000001
00000010
00000100
00000000
00001000
00000100
00000010
00000000
,
00000001
00001000
00000010
00000100
00001000
00010000
00001000
00000000
,
00100000
00010000
10000000
00000000
00100000
01000000
00010000
00000000
,
10000000
01000000
00100000
00010000
00000000
00010000
10000000
00000000
,
00100000
00000000
00100000
01000000
00000000
01000000
00100000
00000000
00100000
10000000
00000000
00000000
,
01000000
00000000
01000000
00100000
00000000
00100000
00010000
00000000
00010000
00100000
00000000
00000000
,
00001000
00000000
00001000
00010000
00000000
00010000
00000010
00000000
00000010
00001000
00000000
00000000
,
00000100
00000000
00000000
00000000
00000100
00000000
00000010
00000000
00000000
00000000
00000010
00000000
00000001
00000000
00000000
00001000
00000000
00000000
00000010
00000000
00000000
00000100
00000000
00000000
,
00000001
00000000
00000010
00001000
00010000
00000000
00001000
00010000
,
00100000
00000000
10000000
00010000
00000000
00100000
01000000
00000000
,
10000000
00010000
01000000
00100000
10000000
00010000
01000000
00100000
,
00010000
00000000
00001000
00001000
00000000
00010000
00001000
00000000
,
00010000
00010000
00000000
00000000
00000010
00000010
00000000
00000000
,
00010000
00010000
00000000
00000000
01001000
00000000
00011000
00000000
,
00001000
00001000
00010000
00000000
00000010
00000010
00001000
00000000
,
00000100
00000010
00000001
00001000
00000010
00000100
00001000
00010000
,
00001000
00100000
00010000
01000000
00100000
10000000
01000000
00000000
,
00100000
00000000
00001000
00000000
00010000
00000010
00001000
00000100
,
00000010
00000001
00000100
00000000
00000010
00000000
00010000
00000000
,
00001000
01000000
00010000
00100000
01000000
10000000
00100000
00000000
,
01000000
00000000
00001000
00000000
00010000
00000100
00001000
00000010
,
00000100
00000001
00000010
00000000
00000100
00000000
00010000
00000000
,
00011000
00000000
00001000
00100000
00010000
00000000
10010000
00000000
,
01100000
00000000
10010000
00000000
11000000
00000000
01000000
00100000
,
00010000
11000000
01010000
00011000
,
00010100
00000000
00000100
00001000
00000010
00000000
00000011
00000000
,
00001010
00001100
00000011
00001010
,
00011000
01010000
00011000
00001100
,
00021000
00000000
00000000
00032000
,
02003000
00000000
00000000
00000000
03010000
00010000
10000000
10000000
,
01000000
00100000
00001000
00010000
00000000
00010000
00000100
00000000
,
00001000
00000001
00000100
00000010
00000000
00000010
00000100
00000000
,
00000001
00000010
00000100
00001000
00000000
00001000
00000010
00000000
,
00000100
00001000
00010000
00001000
01000000
00010000
00100000
00000000
,
01000000
10000000
00010000
01000000
00010000
10000000
01000000
00000000
,
00100000
00001000
00010000
00001000
01000000
00001000
00010000
00000000
,
00001000
00000100
00000010
00000100
00000001
00001000
00000100
00000000
,
00000010
00000001
00001000
00000010
00000100
00000000
00001000
00010000
,
00002000
00000000
00023000
00000000
00230000
00000000
10300000
01000000
,
00200000
00000000
00302000
00000000
00023000
00000000
00030100
00000010
,
00000001
00000010
00000100
00001000
00000100
00000010
00000100
00010000
,
00001000
00000000
00011000
00000000
,
10010000
00000000
00000000
10000000
00000000
10000000
01000000
00000000
01000000
00010000
00000000
00010000
,
00001000
00022000
00030000
00003000
,
00001001
00000000
00000000
00000001
00000000
00000001
00000100
00000000
00000100
00001000
00000000
00001000
,
00010000
00022000
00003000
00030000
,
00001000
00010000
00100000
00000000
00100000
00010000
00001000
00000000
,
00010000
00001000
00000010
00000000
00000010
00001000
00010000
00000000
,
00002000
00000000
00010000
00013000
,
00001000
00010000
00001000
00010000
00000000
00000000
01000000
00100000
01000000
00100000
00000000
00000000
,
00010000
10000000
01000000
00100000
00010000
00100000
00001000
00010000
,
00000100
00001000
00000100
00000010
00000001
00000100
00000010
00001000
,
00000100
00010000
00001000
00100000
00010000
01000000
00100000
10000000
,
01000000
00100000
00010000
00100000
01000000
10000000
00010000
10000000
,
00200000
00000000
00000000
00000000
00000000
00000000
00000000
00000000
00000000
00310000
00001000
00010000
,
00001000
00022000
00000000
00000000
,
00000000
00000000
00000000
00000000
,
00000000
00000000
00000000
00000000
,
00000000
00000000
00000000
00000000
,
00033000
00000000
00000000
00000000
;

//--------------- dance-double - Fred-104 ----------------
#NOTES:
     dance-double:
     Fred-104:
     Hard:
     15:
     :
00000000
00000000
00000000
00000000
,
00000000
00000000
00000000
00000000
,
00000000
00000000
00000000
00000000
,
00000000
00000000
00000000
00000000
,
00000000
00000000
00000000
00000000
,
00000000
00000000
00000000
00000000
,
00000000
00000000
00000000
00000000
,
00000000
00000000
00000000
00000000
,
00000000
00000000
00000000
00000000
,
00010000
00000000
00010000
00001000
00000000
00001000
00000010
00000000
00000010
00000001
00000000
00000001
,
00001000
00000000
00001000
00000001
00000000
00000001
00000010
00000000
00000010
00001000
00000000
00001000
,
00010000
00000000
00010000
00100000
00000000
00100000
10000000
00000000
10000000
00010000
00000000
00010000
,
10000000
00000000
10000000
00100000
00000000
00100000
00010000
00000000
00010000
00001000
00000000
00000000
,
00010000
00001000
00000100
00000010
00000000
00000000
00001000
00000100
00000010
00000001
00000000
00000000
,
00000010
00000100
00001000
00000100
00000000
00000000
00010000
00001000
00100000
00010000
00000000
00000000
,
00100000
01000000
10000000
00010000
00000000
00000000
01000000
00100000
00010000
00001000
00000000
00000000
,
00000100
00000010
00001000
00000100
00000000
00000000
00000010
00000001
00001000
00000001
00000100
00000010
,
00000000
00000000
00000000
00000000
,
00010000
00000000
00001000
00000000
00010000
00000000
00001000
00000000
00000000
00000000
00000000
00000000
00010000
00000000
00000000
00010010
00000000
00000000
00000000
00000000
00000000
00011000
00000000
00000000
,
00010000
00000000
00001000
00000000
00100000
00000000
00001000
00000000
00000000
00010000
00000000
00000000
00001000
00000000
00010000
00000000
00001000
00000000
00010000
00000000
00000000
00000000
00000000
00000000
,
00001000
00000000
00000000
01001000
00000000
00000000
00000000
00000000
00000000
00011000
00000000
00000000
00001000
00000000
00010000
00000000
00000100
00000000
00010000
00000000
00000000
00001000
00000000
00000000
,
00010000
00001000
00000100
00000001
00001000
00000100
00000010
00000001
,
00000010
00000100
00001000
00000001
00000100
00001000
00010000
00001000
,
00010000
00100000
01000000
10000000
01000000
00100000
01000000
00010000
,
10000000
01000000
00100000
00010000
00001000
00000100
00000010
00000001
,
00001000
00000001
00000100
00001000
00010000
00001000
00000010
00001000
,
00010000
01000000
00010000
00001000
00010000
00100000
10000000
00010000
,
10000000
01000000
00010000
00001000
00010000
00100000
00010000
00001000
,
00000100
00000001
00000010
00000100
00001000
00000100
00010100
00000000
,
00010000
00001000
00010000
00001000
00000100
00000010
00000100
00001000
00010000
00001000
00000000
00000000
,
00010000
00001000
00010000
00001000
00000010
00000100
00000010
00001000
00010000
00001000
00000000
00000000
,
00010000
00100000
01000000
00010000
00100000
01000000
10000000
01000000
00100000
00010000
10000000
00010000
,
10000000
00000000
00100000
00000000
01000000
00000000
00010000
00000000
01000000
00000000
00100000
00000000
10000000
00000000
00000000
01000000
00000000
00000000
00010000
00000000
00000000
00001000
00000000
00000000
,
00010000
00000000
00000100
00000000
00000100
00000000
00000010
00000001
00000010
00000000
00000100
00000000
00000100
00000000
00001000
00000001
,
00001000
00000001
00000100
00001000
00010000
00100000
10000000
00000000
,
00010000
00100000
00010000
00000000
00100000
01000000
00100000
00000000
01000000
10000000
01000000
00000000
10000000
00010000
10000000
00000000
,
00100000
00010000
00001000
00000100
00000001
00000010
00000110
00000000
,
00001001
00001001
00000000
00000000
00010010
00010010
00000000
00000000
,
00101000
00101000
00000000
00000000
10010000
00000000
01100000
00000000
,
00010000
00010000
10000000
01000000
00010000
00010000
00001000
00000100
,
00000001
00000000
00000001
00000000
00000010
00000000
00000100
00000000
00001000
00000100
00010000
00000000
00001000
00100000
00010000
00000000
,
10000000
00000000
01000000
00100000
00010000
00000000
00100000
01000000
10000000
00000000
00010000
00000000
01000000
00100000
01000000
00100000
,
00010000
00000000
00001000
00000000
00000100
00000000
00000001
00000000
00001000
00000000
00000100
00000010
00000001
00000000
00000010
00000100
,
00001000
00000000
00000001
00000000
00000100
00000010
00000100
00000010
00000100
00000000
00001000
00000000
00010000
00000000
00100000
00000000
,
10000000
00000000
00100000
01000000
00010000
00000000
01000000
00100000
10000000
00000000
00010000
00000000
00100000
01000000
00100000
01000000
,
00010000
00000000
00001000
00000000
00000010
00000000
00000001
00000000
00001000
00000000
00000010
00000100
00000001
00000000
00000100
00000010
,
00001000
00000000
00000001
00000000
00000010
00000100
00000010
00000100
00000010
00000000
00001000
00000000
00010000
00000000
01000000
00000000
,
10000000
00000000
00010000
01000000
00010000
00000000
10000000
00000000
01000000
00000000
00100000
00000000
00101000
00000000
00000000
00000000
,
00010010
00000000
00001010
00001000
00000001
00000010
00000100
00000001
,
00000100
00000000
00001100
00000000
00000011
00000000
00001001
00000001
,
00000100
00000010
00000100
00001000
00010000
00001000
01001000
00000000
,
01100000
00000000
10010000
10000000
10100000
00000000
01010000
00000000
,
00101000
00010100
00001010
00000101
,
00001002
00000000
00000000
00000023
,
00000230
00000000
00000000
00000000
00010300
00001000
00010000
00001000
,
00010000
00001000
00000100
00000001
00001000
00000001
00000010
00001000
,
00010000
00100000
10000000
00010000
10000000
01000000
00010000
00001000
,
00010000
00001000
00000100
00000001
00000010
00000100
00001000
00000010
,
00000100
00001000
00010000
00100000
01000000
00010000
10000000
00000000
,
00010000
10000000
01000000
00100000
00010000
00100000
01000000
10000000
,
00010000
01000000
00100000
00010000
00001000
00000100
00000010
00001000
,
00000001
00000010
00000100
00001000
00000100
00000010
00000001
00001000
,
00000010
00000100
00001000
00010000
00001000
00000000
00010000
00001000
,
00100000
00010000
00100000
00000000
01000000
10000000
01000000
00000000
00100000
00000000
00001000
00000000
00010000
00000000
00001000
00000000
,
00000100
00000001
00000100
00000000
00000010
00001000
00000010
00000000
00000100
00000000
00000001
00000000
00001000
00000000
00000001
00000000
,
00000010
00000100
00000010
00000000
00000100
00001000
00000100
00000000
00010000
00001000
00010000
00000000
00001000
01000000
00001000
00000000
,
00011000
00000000
00011000
00000000
,
00011000
00000000
00000000
00010000
00001000
00000100
00000001
00000000
00000000
00000001
00000100
00001000
,
00010000
00022000
00003000
00030000
,
00011000
00000000
00000000
00001000
00010000
00100000
10000000
00000000
00000000
10000000
00100000
00010000
,
00001000
00022000
00030000
00003000
,
00010000
00010000
00000100
00001000
00000001
00000001
00000100
00000010
,
00000100
00000100
00001000
00010000
00100000
00100000
10000000
00010000
,
00200000
00000000
01000000
01300000
,
10000000
00010000
00100000
01000000
10000000
01000000
00100000
00010000
00100000
01000000
10000000
00010000
,
01000000
00100000
10000000
00010000
01000000
00001000
00010000
00000010
,
00001000
00000100
00000010
00000001
00000010
00000100
00001000
00000001
,
00000010
00000001
00000010
00000000
00000100
00001000
00000100
00000000
00010000
00001000
00010000
00000000
00001000
00100000
00001000
00000000
,
01000000
00010000
01000000
00000000
00100000
10000000
00100000
00000000
01000000
00001000
00010000
00000000
00000010
00001000
00000001
00000000
,
00000020
00000000
00000000
00000000
00000000
00000000
00000000
00000000
00000000
00000130
00001000
00000001
,
00000100
00002002
00000000
00000000
,
00000000
00000000
00000000
00000000
,
00000000
00000000
00000000
00000000
,
00000000
00000000
00000000
00000000
,
00003003
00000000
00000000
00000000
;

//--------------- dance-double - Fred-104† ----------------
#NOTES:
     dance-double:
     Fred-104†:
     Challenge:
     18:
     :
00000000
00000000
00000000
00000000
,
00000000
00000000
00000000
00000000
,
00000000
00000000
00000000
00000000
,
00000000
00000000
00000000
00000000
,
00000000
00000000
00000000
00000000
,
00000000
00000000
00000000
00000000
,
00000000
00000000
00000000
00000000
,
00000000
00000000
00000000
00000000
,
00000000
00000000
00000000
00000000
,
00010000
00001000
00000100
00000010
00000100
00001000
00010000
00001000
00000100
00000010
00000100
00001000
,
00010000
00001000
00000100
00000001
00000100
00001000
00010000
00001000
00000100
00000001
00000100
00001000
,
00010000
00100000
01000000
00100000
00010000
00001000
00010000
00100000
01000000
00100000
00010000
00001000
,
00010000
01000000
10000000
01000000
00010000
00001000
00010000
01000000
10000000
01000000
00010000
00001000
,
00010000
00001000
00000100
00000010
00000001
00000010
00000100
00001000
00010000
00100000
00010000
00001000
,
00010000
00001000
00000100
00000010
00000001
00000010
00000100
00001000
00010000
00100000
00010000
00001000
,
00010000
00100000
01000000
10000000
01000000
00100000
00010000
00001000
00010000
00100000
00010000
00001000
,
00010000
00001000
00000010
00000100
00000001
00000100
00000010
00001000
00010000
01000000
00100000
00010000
,
00000000
00000000
00000000
00000000
00000000
00000000
00000000
00000000
00000000
00000000
00000000
00000000
10000000
00010000
10000000
00010000
,
01000000
00000000
00100000
00000000
01000000
00000000
01010000
00000000
00000000
00000000
00000000
00000000
01001000
00000000
00000000
01001000
00000000
00000000
00000000
00000000
00000000
00011000
00000000
00000000
,
00010000
00000000
00000100
00000000
00000010
00000000
00000012
00000000
00000000
00001003
00000000
00000000
00000001
00000000
00000100
00000000
00000010
00000000
00001010
00000000
00000000
00000000
00000000
00000000
,
00010010
00000000
00000000
00010010
00000000
00000000
00000000
00000000
00000000
00101000
00000000
00000000
00001000
00000000
00100000
00000000
00010000
00000000
20010000
00000000
00000000
30010000
00000000
00000000
,
01000000
00100000
01000000
00000000
00010000
00000000
10000000
00000000
01000000
00100000
01000000
00000000
00100000
00000000
00001000
00000000
,
00010000
00001000
00010000
00000000
00000100
00000000
00000010
00000001
00000010
00000000
00000100
00000000
00010000
00001000
00010000
00000000
,
00001000
00010000
00001000
00000000
01000000
00000000
00100000
10000000
00100000
00000000
01000000
00000000
00001000
00010000
00001000
00000000
,
00010000
00000100
00010000
00000000
00000010
00000000
00001000
00000001
00001000
00000000
00000100
00000000
00010000
00001000
00010000
00000000
,
00001000
00010000
00001000
00000000
00010000
00000000
01000000
00100000
01000000
00000000
00010000
00000000
00001000
00010000
00001000
00000000
,
00010000
00001000
00010000
00000000
00001000
00000000
00000100
00000010
00000100
00000000
00001000
00000000
00010000
00001000
00010000
00000000
,
00001000
00010000
00001000
00000000
00010000
00000000
00100000
01000000
00100000
00000000
00010000
00000000
00001000
00010000
00001000
00000000
,
00010000
00001000
00010000
00000000
00001000
00000000
00000010
00000100
00000010
00000000
00001000
00000000
00010000
00001000
00010000
00000000
,
00001000
00100000
01000000
10000000
01000000
00100000
00010000
00100000
01000000
10000000
01000000
00100000
,
00001000
00010000
00100000
01000000
10000000
01000000
00100000
01000000
10000000
01000000
00100000
00010000
,
00001000
00010000
01000000
10000000
01000000
00010000
00001000
00010000
01000000
10000000
01000000
00010000
,
00001000
00000000
00000000
00000000
00000100
00000000
00000000
00000000
00000010
00000000
00000000
00000000
00000100
00000000
00000000
00000000
00001000
00000000
00000000
00000000
00010000
00000000
00000000
00000000
00001000
00000000
00000000
00000100
00000000
00000000
00000010
00000000
00000000
00000100
00000000
00000000
00000001
00000000
00000000
00001000
00000000
00000000
00000100
00000000
00000000
00000010
00000000
00000000
,
00000002
00000000
00000100
00000000
00000103
00000000
00001000
00000100
00002000
00000000
00010000
00000000
00013000
00000000
00001000
01000000
,
00020000
00130000
10000000
00020000
01030000
00100000
00002000
00013000
,
00001000
00100000
00010000
00100000
01000000
10000000
01000000
00100000
00010000
00100000
00001000
00010000
00000010
00001000
00000100
00010000
,
00002000
00000000
00010000
00000000
00013000
00000000
00000100
00000010
00000002
00000000
00000100
00000000
00000103
00000001
00001000
00000010
,
00010000
00011000
00000000
00000000
00000010
00010010
00000000
00000000
,
01000000
00000000
01001000
00000000
00000000
00000000
00000000
00000000
00011000
00000000
00000000
00000000
00010000
00001000
00010000
00001000
,
00011000
00010000
00001000
00000100
00000101
00000001
00000010
00000100
,
00010100
00000000
00010000
00000000
00011000
00000000
00001000
00000000
01000000
00010000
00100000
01000000
10000000
00100000
01000000
00010000
,
10000000
00000000
01000000
00100000
01000000
00000000
00010000
00001000
00010000
00000000
00001000
00000000
00000100
00000001
00000100
00000001
,
00000010
00000000
00000100
00000000
00001000
00000000
00000001
00000000
00001000
00000000
00000001
00000100
00000001
00000000
00000010
00000100
,
00000010
00000000
00001000
00000000
00010000
00001000
00010000
00001000
00010000
00000000
00100000
00000000
10000000
00000000
01000000
00000000
,
00100000
00000000
00001000
00010000
00001000
00000000
01000000
00010000
01000000
00000000
00001000
00000000
00010000
00001000
00010000
00001000
,
00010000
00000000
00001000
00000000
00000010
00000000
00000001
00000000
00001000
00000000
00000001
00000100
00000001
00000000
00000010
00000100
,
00000010
00000000
00001000
00000000
00010000
00001000
00010000
00001000
01000000
00000000
00100000
00000000
01000000
00010000
10000000
01000000
,
00100000
00000000
00010000
10000000
00100000
00000000
00010000
00001000
00000100
00000000
00000001
00000000
00000011
00000000
00000000
00000000
,
00000110
00000000
00000000
00000000
00001100
00000000
00001000
00000000
00001001
00000000
00000001
00000100
00000010
00000000
00001000
00000001
,
00000010
00000100
00010000
00000000
00011000
00000000
00000000
00000000
01001000
00000000
00000000
00000000
01100000
00000000
01100000
00000000
,
10010000
00010000
10000000
01000000
00010000
00001000
00011000
00000000
,
00001100
00000000
00000101
00000001
00000011
00000000
00010100
00000000
,
01001000
00000000
10100000
10000000
10010000
10000000
11000000
01000000
,
01200000
00000000
10000000
10000000
00000000
01000000
01000000
00000000
,
00320000
00000000
10000000
00000000
10000000
00000000
10030000
00000000
00100000
10000000
01000000
00100000
00010000
01000000
00100000
00010000
,
00001000
00010000
00001000
00000000
01000000
00000000
00100000
10000000
01000000
00000000
00100000
00000000
00001000
00010000
00001000
00000000
,
00010000
00000100
00001000
00000000
00000001
00000000
00000100
00000010
00001000
00000000
00000001
00000000
00000010
00000100
00001000
00000000
,
00000010
00000100
00001000
00000000
00010000
00000000
00100000
01000000
00010000
00000000
00100000
00000000
01000000
10000000
00010000
00000000
,
10000000
01000000
00100000
00000000
00010000
00000000
01000000
00100000
00010000
00000000
00001000
00000000
00000100
00000010
00000100
00000010
,
00001000
00000000
00000100
00000000
00000010
00000001
00001000
00000000
00000001
00000000
00000010
00000000
00001000
00000000
00010000
00000000
,
00001000
00000000
00000100
00000000
00001000
00000000
00010000
00000000
00100000
00000000
10000000
00000000
01000000
00100000
00010000
00000000
,
10000000
00000000
00100000
00000000
00010000
00001000
00010000
00000000
01000000
00000000
00010000
00000000
00001000
00000000
00000010
00000000
,
00001000
00010000
00001000
00000100
00000002
00000000
00000013
00000010
,
00000001
00000010
00000200
00000000
00001300
00000100
00000020
00000000
00000031
00000010
00000200
00000000
00020300
00000000
00032000
00000000
,
00013000
00100000
02000000
00000000
13000000
01000000
00200000
00000000
00310000
00100000
02000000
00000000
23000000
00000000
32000000
00000000
,
03100000
10000000
01000000
00100000
00010000
01000000
00100000
00010000
00001000
00000100
00000010
00001000
00000100
00000010
00000001
00000100
,
00000010
00000000
00001001
00000000
,
00001001
00000000
00000000
00000001
00000010
00000100
00001000
00000000
00000000
00010000
00100000
01000000
,
11000000
20020000
30000000
00030000
,
10010000
00000000
00000000
10000000
01000000
00100000
00010000
00000000
00000000
00001000
00000100
00000010
,
00000011
00002002
00000003
00003000
,
00000101
00000001
00001000
00000100
00000110
00000010
00001000
00010000
,
00011000
00001000
00010000
00100000
10100000
10000000
01000000
00100000
,
00202000
00000000
00300000
00003000
,
00010000
00001000
00000100
00000010
00000100
00001000
00010000
00001000
00000100
00000010
00000001
00000010
,
00001000
00000000
00000001
00000010
00000100
00000000
00001000
00010000
00100000
00000000
01000000
10000000
01000000
00000000
00100000
00010000
,
00001000
00000000
00000100
00000010
00000100
00000000
00001000
00000001
00001000
00000010
00010000
00001000
01000000
00010000
10000000
00010000
,
10000000
01000000
00100000
00010000
00100000
00001000
00010000
00000100
00001000
00000100
00000010
00000001
00001000
00000001
00000100
00000010
,
00001000
00000100
00010000
00001000
00100000
00010000
01000000
00100000
10000000
01000000
00100000
00010000
00100000
01000000
10000000
00010000
,
10000000
00000000
00000000
00100000
00000000
00000000
01000000
00000000
00000000
00100000
00000000
00000000
00010000
00000000
00000000
00001000
00000000
00000000
00000100
00000000
00000000
00000010
00000000
00000000
00000100
00000000
00000000
00000001
00000000
00000000
00001000
00000000
00000000
00000100
00000000
00000000
00000010
00000000
00000000
00000000
00001000
00000000
00000000
00000000
00010000
00000000
00000000
00000000
,
00011000
00022000
00000000
00000000
,
00000000
00000000
00000000
00000000
,
00000000
00000000
00000000
00000000
,
00000000
00000000
00000000
00000000
,
00033000
00000000
00000000
00000000
;
