#VERSION:0.83;
#TITLE:Deus ex Machina;
#ARTIST:青龍×BlackY;
#ARTISTTRANSLIT:Seiryu×BlackY;
#CREDIT:AO-∞ (2017);
#BANNER:Deus ex Machina.png;
#BACKGROUND:Deus ex Machina-bg.png;
#CDTITLE:./CDTitles/AO-INFINITY.png;
#MUSIC:Deus ex Machina.ogg;
#SAMPLESTART:89.998;
#SAMPLELENGTH:15;
#BPMS:0=208;
#BGSTAGE:30;

//--------------- dance-single - Fred-104 ----------------
#NOTEDATA:;
#STEPSTYPE:dance-single;
#DESCRIPTION:Fred-104;
#DIFFICULTY:Beginner;
#METER:6;
#CREDIT:Fred-104;
#NOTES:
0000
0000
0000
0000
,
0000
0000
0000
0000
,
0000
0000
0000
0000
,
0000
0000
0000
0000
,
0001
0000
0000
0000
,
0000
0000
0000
0000
,
1000
0000
0000
0001
0000
0000
0001
0000
,
1000
0000
1000
0000
,
0001
0000
0000
0001
0000
0000
1000
0000
,
0002
0000
0003
0000
,
1000
0000
1000
0000
,
0001
0000
0001
0000
,
0010
0000
0010
0000
,
0100
0000
0100
0000
,
1000
0000
1000
0000
,
0001
0000
0001
0000
,
0100
0000
0010
0000
,
0200
0000
0000
0300
,
1001
0000
0000
0000
,
0000
0000
0000
0000
,
0002
0003
2000
3000
,
0002
0003
2000
3000
,
0001
0000
0010
0000
,
0200
0000
0000
0300
,
0100
0000
1000
0000
,
0002
0000
0000
0003
,
0001
0000
1000
0000
,
0020
0000
0000
0030
,
0010
0000
0100
0000
,
0001
0000
0001
0000
,
1000
0000
1000
0000
,
0100
0000
0100
0000
,
0001
0000
0001
0000
,
0100
0000
1000
0000
,
1000
0000
0001
0000
,
0100
0000
0010
0000
,
0110
0000
0000
0100
0000
0000
0000
0100
,
0000
0001
1000
0000
,
0001
0000
0000
0001
0000
0000
0000
0001
,
0000
0001
0001
0000
,
1000
0000
0000
1000
0000
0000
0000
1000
,
0000
1000
1000
0000
,
0010
0000
0000
0010
0000
0000
0000
0010
,
0000
0000
0010
0000
,
0100
0000
0000
0100
0000
0000
0100
0000
,
0100
0000
0200
0300
,
0001
0000
0000
0001
0000
0000
0001
0000
,
0000
0001
0000
0000
0002
0000
0003
0000
,
1000
0000
0000
1000
0000
0000
1000
0000
,
0000
1000
0000
0000
2000
0000
3000
0000
,
0001
0000
0000
0001
0000
0000
0001
0000
,
0000
0001
0000
0000
0001
0000
0000
0000
,
0100
0000
0010
0000
,
0200
0000
0300
0000
,
0001
0000
0001
0000
,
1000
0000
0100
0000
,
0001
0000
0010
0000
,
2000
0000
3000
0000
,
0001
0000
0001
0000
,
1000
0000
1000
0000
,
0001
0000
0001
0000
,
1000
1000
1000
1000
,
1001
0000
0000
0000
,
0000
0000
0000
0000
,
0000
0000
0000
0000
,
0000
0000
0000
0000
,
0002
0000
0000
0000
,
2003
0000
0000
0000
,
3002
0000
0000
0000
,
2000
0000
3003
0000
,
0001
0000
0010
0000
,
0100
0100
0010
0000
,
0001
0000
1000
0000
,
0010
0010
0100
0000
,
0001
0001
0010
0000
,
0100
0100
1000
0000
,
0001
0001
1000
1000
,
1001
0000
0000
0000
,
1000
0000
0010
0000
,
1000
1000
0001
0000
,
0010
0010
0100
0000
,
0010
0010
0001
0000
,
1000
0000
0001
0000
,
0100
0000
0010
0000
,
1000
0000
0001
0000
,
0010
0010
0100
0100
,
0010
0000
0001
0000
,
1000
1000
0001
0000
,
0100
0100
0010
0000
,
0100
0100
0001
0000
,
1000
0000
0001
0000
,
0010
0000
0100
0000
,
1000
0000
0001
0000
,
1000
1000
0001
0001
,
2000
0000
3002
0000
,
2003
0000
3001
0000
,
0010
0010
0100
0100
,
1000
0000
0001
0000
,
0200
0000
0320
0000
,
0230
0000
0310
0000
,
0100
0100
0001
0001
,
1000
0100
0020
0030
,
0002
0000
0000
0000
,
0000
0000
0000
0000
,
0000
0000
0000
0000
,
0000
0000
2003
0000
,
3001
0010
1000
0000
,
1000
0010
0001
0000
,
1000
0010
0001
0100
,
2000
0000
0002
0000
,
3003
0000
0000
0000
;

//--------------- dance-single - Fred-104 ----------------
#NOTEDATA:;
#STEPSTYPE:dance-single;
#DESCRIPTION:Fred-104;
#DIFFICULTY:Easy;
#METER:10;
#CREDIT:Fred-104;
#NOTES:
0000
0000
0000
0000
,
0000
0000
0000
0000
,
0000
0000
0000
0000
,
0000
0000
0000
0000
,
0000
0000
0000
0000
,
0000
0000
0000
0000
,
1000
0000
0000
1000
0000
0000
0100
0100
,
0000
0010
0011
0000
,
0001
0000
0000
1000
0000
0000
0001
0000
,
0100
0010
0220
0330
,
1000
1000
0100
0100
,
0010
0010
0001
0001
,
1000
1000
0001
0001
,
0100
0010
0110
0000
,
0001
0001
0010
0010
,
0100
0100
1000
1000
,
0001
0100
0001
0000
1000
0010
1000
0000
,
0001
0000
0000
1000
0000
0000
0001
0000
,
0020
0000
0230
0000
,
2300
0000
3002
0000
,
2003
0000
3002
0000
,
0200
0000
0303
0000
,
0001
0000
0000
0010
0000
0000
0100
0000
,
1000
0000
0000
0001
0000
0000
1000
0000
,
0010
0000
0000
0100
0000
0000
0001
0000
,
1000
0000
0000
0100
0000
0000
0010
0000
,
0001
0000
0000
0100
0000
0000
0010
0000
,
1000
0000
0000
0001
0000
0000
0010
0000
,
0100
0000
0000
0010
0000
0000
0001
0000
,
0100
0110
2002
3003
,
1000
0000
0100
0000
0010
0000
0010
0001
,
0010
0000
0001
0000
1000
0000
0010
0100
,
0010
0000
0010
0000
0100
0000
0001
1000
,
0001
0000
0010
0000
0100
1000
0100
0000
,
1000
0000
0001
0000
0100
0000
0001
0010
,
0001
0100
0010
0100
,
0001
0000
0000
1000
0000
1000
0000
0001
,
0000
0100
0100
0000
2002
0000
3003
0000
,
1100
0000
0000
1001
0000
0000
0001
0001
,
0000
0010
0010
0000
1001
0000
0000
0000
,
1010
0000
0000
1001
0000
0000
1000
1000
,
0000
0100
0000
0010
0000
0001
0001
0000
,
0011
0000
0000
1001
0000
1000
0000
0001
,
0000
0100
0000
0010
0010
0000
0100
0000
,
0001
0000
0000
1001
0000
0000
1000
0000
,
0001
1000
2002
3003
,
1000
0000
0000
0100
0000
0000
0001
0000
,
0000
0010
0000
0000
1000
0000
1000
0000
,
0001
0000
0000
0100
0000
0000
1000
0000
,
0000
0010
0000
0000
0001
0000
0001
0000
,
1000
0000
0000
0100
0000
0000
0010
0000
,
0001
0000
1000
0000
,
0001
0100
0010
1000
,
2002
0000
3003
0000
,
0011
0000
1001
0000
,
1010
0000
1001
0000
,
0101
0000
0100
0100
,
0010
0010
2002
3003
,
1000
1000
0001
0001
,
0100
0100
0010
0010
,
1000
0010
1000
0000
0001
0100
0001
0000
,
1000
0100
1000
0000
0001
0010
0001
0000
,
2002
0000
0000
0000
,
0000
0000
0000
0000
,
0000
0000
0000
0000
,
0000
0000
0000
3003
,
2000
0000
0000
0000
,
3002
0000
0000
0000
,
2003
0000
0000
0000
,
0002
0000
3003
0000
,
1000
0000
0001
0100
,
0010
0010
0100
0100
,
1000
1000
0100
0100
,
0001
1000
0001
0000
,
1000
0100
0001
0000
,
1000
0010
0001
0000
,
1000
1000
0001
0001
,
2002
0000
0000
3003
,
0001
0000
0010
0000
,
0100
0100
1000
0001
,
0100
0100
0010
0100
,
0001
1000
0001
0000
1000
0010
1000
0000
,
0001
0000
1000
0000
,
0100
0100
0010
0000
,
0001
0001
1000
1000
,
0001
0100
0110
0000
,
1000
0000
0001
0000
,
0100
0100
0010
0010
,
0100
0100
0001
0001
,
1000
0100
0010
0001
,
1000
0000
0000
0001
0000
0001
0000
0001
,
0000
0100
0100
0000
0010
0000
0100
0000
,
0002
0003
2000
3000
,
0001
0001
0001
0001
,
2000
0000
3200
0000
,
0320
0000
0031
0001
,
1000
0000
0001
0000
0100
0000
0000
0010
,
0000
0000
0100
0000
0001
1000
0001
0000
,
0020
0000
0230
0000
,
2300
0000
3001
1000
,
0001
0000
0001
0000
1000
0000
0000
0100
,
0000
0000
1000
0000
0001
1000
0001
0000
,
0020
0000
0000
0000
,
0000
0000
0000
0000
,
0000
0000
0000
0000
,
0000
0000
0230
0000
,
1300
1000
0001
0001
,
0100
0100
0010
0010
,
1000
0001
1000
0001
1000
0001
1000
0001
,
2000
0000
0002
0000
,
3003
0000
0000
0000
;

//--------------- dance-single - Fred-104 ----------------
#NOTEDATA:;
#STEPSTYPE:dance-single;
#DESCRIPTION:Fred-104;
#DIFFICULTY:Medium;
#METER:13;
#BPMS:0=104,20=208,52=104,60=208,154=156,154.375=130,154.688=78,154.875=52,155=208,182=104,184=208,216=104,240=208,252=104,253.5=208,378=104,380=208;
#STOPS:161.5=0.144,169.5=0.144,253.5=0.145;
#TIMESIGNATURES:0=4=4,152=3=4,155=4=4,159=3=4,162=4=4,178=6=4,184=4=4,248=6=4,254=4=4,378=2=4,380=4=4;
#CREDIT:Fred-104;
#NOTES:
0000
0000
0000
0000
,
0000
0000
0000
0000
,
0000
0000
0000
0000
,
1100
0000
0000
0011
0000
0000
0001
0100
0000
0000
0010
0000
0110
0000
0100
0001
,
1000
0000
0000
0000
0000
0000
0100
0000
0000
0000
0000
0000
0010
0000
0001
0000
0100
0000
0000
0010
0000
0000
0100
0000
0110
0000
0000
0000
0000
0000
0000
0000
,
0002
0003
0000
0000
0000
0000
0000
0000
0000
0000
0000
0000
0000
0000
0000
0000
0001
0000
0000
0000
0000
0000
0000
0000
0000
0000
0000
0000
0000
0000
0000
0000
1000
0000
0000
0000
0000
0000
0000
0000
0000
0000
0000
0000
0000
0000
0000
0000
1000
0000
0000
0000
0000
0000
0000
0000
0000
0000
0000
0000
0000
0000
0000
0000
,
0100
0100
0010
0010
,
0001
0001
1000
1000
,
0010
0000
0000
0000
0100
0000
0000
0000
0001
0000
0000
1000
0000
0000
0001
0000
,
0010
0100
1000
0100
1000
0100
1000
0000
,
0001
0100
0010
0100
0010
0100
0010
0000
,
0100
0001
1000
0100
0010
0001
0010
0100
,
1000
0000
0000
1000
0000
0000
0001
0000
0000
0001
0000
0000
0100
0000
0000
0000
,
2002
3003
0000
0000
0000
0000
0000
0000
0000
0000
0000
0000
0000
0000
0000
0000
0002
0000
0000
0000
0000
0000
0000
0000
0000
0000
0000
0000
0000
0000
0000
0000
2003
0000
0000
0000
0000
0000
0000
0000
0000
0000
0000
0000
0000
0000
0000
0000
3200
0000
0000
0000
0000
0000
0000
0000
0000
0000
0000
0000
0000
0000
0000
0000
,
0320
0032
2000
3003
,
2000
3000
0000
0000
0000
0000
0000
0000
0000
0000
0000
0000
0000
0000
0000
0000
0001
0000
0000
0000
0000
0000
0000
0000
0100
0000
0000
0000
0000
0000
0000
0000
0000
0000
0000
0000
0000
0000
0000
0000
0100
0000
0000
0000
0000
0000
0000
0000
0010
0000
0000
0000
0000
0000
0000
0000
0100
0000
0000
0000
0000
0000
0000
0000
,
0001
1000
0000
0100
0000
0010
0011
0000
,
0001
1000
0010
1000
0000
0001
1000
0010
,
0100
0001
0000
1000
0000
0100
0110
0000
,
0010
0001
1000
0001
0000
0100
0010
1000
,
0001
0010
0000
0100
0000
0010
0011
0000
,
0001
1000
0010
0100
0000
0001
1000
0001
,
0100
0110
1000
1001
,
0001
0000
0010
0100
1000
0000
0010
0100
,
0001
0000
1100
0000
0101
0000
0100
1000
,
0001
0000
0100
0010
1000
0010
0100
0001
,
1000
0000
0100
0010
0001
0000
1001
0000
,
0001
0000
0010
0001
0100
0000
0010
1000
,
0100
0010
0100
0000
1000
0001
1000
0000
,
0110
0000
0001
0100
0000
0110
0000
1010
,
0000
0001
1000
0000
0100
0010
0001
0000
,
1001
0000
0001
0001
0000
0100
0010
0010
,
0000
0100
0100
0000
0001
1000
0001
0000
,
1000
0000
0100
0100
0000
0010
0100
0100
,
0000
0010
0001
1000
0001
0100
0010
0000
,
0100
0100
0001
1000
0000
0001
0010
0010
,
0000
0100
0010
0001
1000
1000
0000
0001
,
0001
0100
0010
0010
0000
0100
0001
1000
,
0100
0000
0000
0000
0000
0000
0000
0000
0000
0000
0000
0000
0000
0000
0000
0000
0010
0000
0000
0000
0000
0000
0000
0000
0000
0000
0000
0000
0000
0000
0000
0000
2002
0000
0000
0000
0000
0000
0000
0000
0000
0000
0000
3003
0000
0000
0000
0000
0002
0003
0000
0000
0000
0000
0000
0000
0010
0000
0000
0000
0000
0000
0000
0000
,
0000
0100
1000
0000
0001
0100
0000
0010
,
1000
0000
0000
0000
0000
0000
0000
0000
0001
0000
0000
0000
0000
0000
0000
0000
1000
0000
0000
0000
0000
0000
0000
0000
0200
0300
0000
0000
0000
0000
0000
0000
0100
0000
0000
0000
0000
0000
0000
0000
0010
0000
0000
0000
0000
0000
0000
0000
0001
0000
0000
0000
0000
0000
0000
0000
0000
0000
0000
0000
0000
0000
0000
0000
,
1000
0010
0000
1000
0001
0000
0100
0010
,
1000
0000
0000
0000
0000
0000
0000
0000
0001
0000
0000
0000
0000
0000
0000
0000
0010
0000
0000
0000
0000
0000
0000
0000
0200
0300
0000
0000
0000
0000
0000
0000
0100
0000
0000
0000
0000
0000
0000
0000
1000
0000
0000
0000
0000
0000
0000
0000
0000
0000
0000
0000
0000
0000
0000
0000
0001
0000
0000
0000
0000
0000
0000
0000
,
1000
0000
0010
1000
0000
0001
1000
0100
,
0010
0001
1000
0000
0001
0100
0010
0000
,
1000
0100
0010
0000
2002
0000
3003
0000
,
0220
0330
0000
0000
0000
0000
0000
0000
0000
0000
0000
0000
0000
0000
0000
0000
1000
0000
0000
0000
0000
0000
0000
0000
0100
0000
0000
0000
0000
0000
0000
0000
0010
0000
0000
0000
0000
0000
0000
0000
0000
0000
0000
0000
0000
0000
0000
0000
0001
0000
0000
0000
0000
0000
0000
0000
0100
0000
0000
0000
0000
0000
0000
0000
,
0010
0000
0110
0000
0101
0000
0001
1000
,
0001
0000
0000
0000
0010
0000
0100
0000
1000
0000
0000
1000
0000
0000
1000
0000
,
0001
0000
0000
0001
0000
0000
0001
0000
2000
0000
0000
0000
3000
0000
0000
0000
,
0001
0100
0010
1000
0010
1000
0001
0000
,
1000
0100
0010
0001
0010
0001
1000
0000
,
0001
0100
1000
0000
1000
0100
0001
0000
,
1000
0100
0010
0001
0010
0100
1000
0000
,
1002
0000
0000
0000
,
2003
0000
0000
0000
,
3002
0000
0000
0000
,
2003
0000
0002
3003
,
0001
0000
0100
0000
0110
0000
0010
1000
0001
1000
0100
0000
0010
0001
1000
0000
,
0001
0100
0010
0000
1000
0010
0100
0000
0001
1000
0001
1000
0100
0010
0002
0000
,
2003
3000
0000
0000
0000
0000
0000
0000
0010
0000
0000
0000
0000
0000
0000
0000
0100
0000
0000
0000
0000
0000
0000
0000
0000
0000
0000
0000
0000
0000
0000
0000
0010
0000
0000
0000
0000
0000
0000
0000
1000
0000
0000
0000
0000
0000
0000
0000
0001
0000
0000
0000
0000
0000
0000
0000
0000
0000
0000
0000
0000
0000
0000
0000
,
1000
0100
0010
0000
0100
1000
0001
0000
,
1000
0100
0010
0001
0100
0010
1000
0000
,
2002
0000
0000
3003
0001
0000
0100
0000
,
0010
0000
0100
0001
0100
0010
1000
0000
,
0001
0010
0100
0000
1000
0100
1000
0000
,
0010
0100
0010
0000
0100
0001
0100
0000
,
0001
1000
0001
0000
0010
0100
1000
0000
,
0010
0100
0001
0000
0100
0010
1000
0000
,
0100
0010
0001
0000
1000
0010
1000
0000
,
0001
0100
0001
0000
1000
0100
0010
0001
,
1000
1001
0001
1000
,
0100
0000
1000
0001
0100
0010
1000
0000
,
0001
0010
0100
0000
1000
0001
0100
0000
,
0010
1000
0001
0000
0010
0100
0010
0000
,
0011
0000
1001
0000
0001
0000
0100
0010
,
0000
1000
0000
1001
0000
0001
0001
0000
,
0100
0010
0100
0000
0001
1000
0100
0000
,
0010
0001
1000
0000
0010
0100
0010
1000
,
0001
0000
0010
0000
0100
0000
0000
0000
1000
0000
0000
1000
0000
0000
0001
0000
,
0100
0000
0000
0100
0000
0000
0010
0000
1000
0000
0000
1000
0000
0000
0001
0000
,
0010
0000
0000
0010
0000
0000
0010
0000
0100
0000
1000
0000
0100
0000
0000
0000
,
1000
0000
0000
0001
0000
0000
1000
0000
0000
0010
0000
0000
0100
0000
0001
0000
,
1000
0000
0100
0000
0010
0000
0000
0000
0001
0000
0000
0001
0000
0000
1000
0000
,
0010
0000
0000
0010
0000
0000
0100
0000
0001
0000
0000
0001
0000
0000
1000
0000
,
0100
0000
0000
0100
0000
0000
0100
0000
0010
0000
0100
0000
1000
0000
0000
0000
,
0010
0100
0001
1000
0100
0000
0010
0000
,
0011
1001
2000
0000
,
0000
0000
0000
0000
,
0000
0000
0000
0000
,
0000
0000
0000
0000
,
3002
0000
0000
0000
0103
0010
1000
0001
,
0100
0010
1000
0000
0001
0010
0100
1000
,
0001
0010
0100
0000
1000
0001
1000
0010
,
0100
0001
1000
0100
0220
0000
0300
0000
,
0030
0000
0000
0000
;

//--------------- dance-single - Fred-104 ----------------
#NOTEDATA:;
#STEPSTYPE:dance-single;
#DESCRIPTION:Fred-104;
#DIFFICULTY:Hard;
#METER:16;
#BPMS:0=104,20=208,52=104,60=208,154=156,154.375=130,154.688=78,154.875=52,155=208,182=104,184=208,216=104,240=208,252=104,253.5=208,378=104,380=208;
#STOPS:161.5=0.144,169.5=0.144,253.5=0.145;
#TIMESIGNATURES:0=4=4,152=3=4,155=4=4,159=3=4,162=4=4,178=6=4,184=4=4,248=6=4,254=4=4,378=2=4,380=4=4;
#CREDIT:Fred-104;
#NOTES:
0000
0000
0000
0000
,
0000
0000
0000
0000
,
0000
0000
0000
0000
,
1001
0000
0001
0100
0010
0000
1000
0100
0110
0000
0001
0000
1010
0000
1000
0001
,
0010
0000
0000
0000
0000
0000
0110
0000
0000
0000
0000
0000
0100
0000
1000
0000
0001
0000
0000
1000
0000
0000
0001
0000
2002
0000
0000
0000
3003
0000
0000
0000
,
2000
3000
0000
0000
0000
0000
0000
0000
0000
0000
0000
0000
0000
0000
0000
0000
1000
0000
0000
0000
0000
0000
0000
0000
0000
0000
0000
0000
0000
0000
0000
0000
0100
0000
0000
0000
0000
0000
0000
0000
0000
0000
0000
0000
0000
0000
0000
0000
0100
0000
0000
0000
0000
0000
0000
0000
0010
0000
0000
0000
0000
0000
0000
0000
,
0001
0000
0001
0000
0100
0000
0100
0010
,
1000
0000
1000
0000
0001
0000
0001
0010
,
0100
0000
0000
0000
0100
0000
1000
0000
0001
0000
0000
0001
0000
0000
0001
0000
,
1000
0010
1000
0001
0100
0010
1000
0001
,
0010
0100
1000
0001
1000
0100
1000
0001
,
0100
0010
0100
0000
0001
0000
1000
0000
0100
0010
0100
0000
1000
0000
0001
0000
,
0101
0000
0000
0110
0000
0000
1010
0000
0000
1001
0000
0000
1100
0000
0100
0000
,
0020
0000
0000
0030
,
0001
1000
0001
1000
0010
0100
0010
0100
0001
0010
0100
1000
0002
0000
0003
0000
,
2002
3003
0000
0000
0000
0000
0000
0000
0000
0000
0000
0000
0000
0000
0000
0000
1000
0000
0000
0000
0000
0000
0000
0000
0010
0000
0000
0000
0000
0000
0000
0000
0000
0000
0000
0000
0000
0000
0000
0000
0010
0000
0000
0000
0000
0000
0000
0000
0100
0000
0000
0000
0000
0000
0000
0000
0001
0000
0000
0000
0000
0000
0000
0000
,
0020
0000
1000
0000
0000
0000
0100
0000
0000
0000
0031
0000
1000
0010
0000
0010
,
1000
0001
0010
0100
0000
0100
0001
0100
,
2000
0000
0010
0000
0000
0000
0001
0000
0000
0000
3100
0000
0010
0001
0000
0001
,
1000
0001
0010
1000
0000
1000
0010
0001
,
0200
0000
0010
0000
0000
0000
1000
0000
0000
0000
0301
0000
1000
0100
0000
0100
,
0010
0001
1000
0010
0000
0010
0001
0010
,
1000
0110
0001
1001
,
0001
1000
0001
1000
0100
0010
0100
1000
,
0001
0000
0100
0000
0010
0000
1000
0000
0001
1000
0001
0000
1000
0000
0100
0000
,
0110
0000
0010
0001
1000
0010
0100
0001
,
1000
0000
0100
0000
0010
0000
0100
0000
1000
0001
1000
0000
0001
0100
0001
0000
,
1001
0000
0000
0000
0001
0000
0100
0000
1000
0000
0001
0000
0010
0000
1000
0001
,
1000
0000
0001
0010
0001
0000
0000
0000
1100
0000
0000
0000
0101
0000
0000
0000
,
1001
0000
0001
0011
0000
1010
0000
0101
,
0000
0000
1100
0000
1100
0000
0000
0000
0001
1000
0001
1000
0001
0000
0000
0000
,
0110
0000
1000
1001
0000
0001
0100
0110
,
0000
0010
1010
0000
1000
0001
1000
0100
,
0110
0000
0010
0011
0000
0001
0100
0110
,
0000
0000
0010
0000
1010
0000
1000
0001
1000
0000
0100
0000
0010
0100
0010
0000
,
0100
1000
0001
1001
0000
0001
0100
0110
,
0000
0000
0010
0000
1010
0000
1000
0001
0010
0000
0011
0000
0000
0000
0001
0000
,
1001
0000
1000
0000
0001
0000
0101
0000
0000
0000
1010
0000
0000
0000
1000
0001
,
1000
0000
0000
0000
0000
0000
0000
0000
0001
0000
0000
0000
0000
0000
0000
0000
0010
0000
0000
0000
0000
0000
0000
0000
0100
0000
0000
0000
1000
0000
0000
0000
0002
0000
0000
0000
0000
0000
0000
0000
0000
0000
0000
0000
0000
0000
0000
0000
2003
3000
0000
0000
0000
0000
0000
0000
0100
0000
0000
0000
0000
0000
0000
0000
,
0100
0001
0100
0100
1000
0010
0010
0001
,
0010
0000
0000
0000
0000
0000
0000
0000
0010
0000
0000
0000
0000
0000
0000
0000
1000
0000
0000
0000
0000
0000
0000
0000
2002
3003
0000
0000
0000
0000
0000
0000
0001
0000
0000
0000
0000
0000
0000
0000
1000
0000
0000
0000
0000
0000
0000
0000
0010
0000
0000
0000
0000
0000
0000
0000
0010
0000
0000
0000
0000
0000
0000
0000
,
0001
0010
0010
1000
0100
0100
0001
0100
,
0100
0000
0000
0000
0000
0000
0000
0000
1000
0000
0000
0000
0000
0000
0000
0000
0001
0000
0000
0000
0000
0000
0000
0000
2002
3003
0000
0000
0000
0000
0000
0000
0001
0000
0000
0000
0000
0000
0000
0000
0010
0000
0000
0000
0000
0000
0000
0000
1000
0000
0000
0000
0000
0000
0000
0000
0001
0000
0000
0000
0000
0000
0000
0000
,
0100
1000
0001
0100
1000
0001
0010
1000
,
0100
0010
0002
0000
0103
0010
2000
0000
3001
0010
0001
0000
1000
0100
1000
0000
,
0001
0000
0100
0010
0100
0010
0100
0010
0200
0000
0000
0000
0020
0000
0330
0000
,
2002
3003
0000
0000
0000
0000
0000
0000
0000
0000
0000
0000
0000
0000
0000
0000
0001
0000
0000
0000
0000
0000
0000
0000
0100
0000
0000
0000
0000
0000
0000
0000
1000
0000
0000
0000
0000
0000
0000
0000
0000
0000
0000
0000
0000
0000
0000
0000
1000
0000
0000
0000
0000
0000
0000
0000
0100
0000
0000
0000
0000
0000
0000
0000
,
0101
0000
0011
0000
1001
0000
1000
0010
,
0110
0000
0000
0000
0100
0000
1000
0000
0100
0000
0000
0100
0000
0000
0001
0000
,
0010
0000
0000
0010
0000
0000
0010
0000
0100
0000
0100
0000
1001
0000
0000
0000
,
0001
0010
0001
0000
0010
0000
0100
0000
1000
0100
1000
0000
0001
0000
1000
0000
,
0001
0100
0001
0000
0100
0000
0010
0000
1000
0010
1000
0000
0001
0000
1000
0000
,
0100
0010
0100
0000
0010
0001
0010
0000
0001
1000
0001
0000
0100
0010
0100
0000
,
0001
0100
0001
0000
1000
0010
1000
0000
0001
1000
0001
1000
0001
0000
0000
0000
,
2002
3003
0000
0000
0000
0000
0000
0000
0000
0000
0000
0000
0000
0000
0000
0000
0000
0000
0000
0000
0000
0000
0000
0000
0000
0000
0000
0000
0000
0000
0000
0000
0000
0000
0000
0000
0000
0000
0000
0000
0000
0000
0000
0000
0000
0000
0000
0000
0000
0000
0000
0000
0000
0000
0000
0000
0000
0000
0000
0000
0000
0000
0000
0000
,
0000
0000
0000
0000
,
0000
0000
0000
0000
,
0000
0000
0000
0000
,
1000
0000
0001
0000
0101
0000
0100
0010
0100
0010
0100
1000
0100
0010
0100
0001
,
1000
0100
0010
0100
0001
0100
0010
0100
1000
0001
0100
0010
1000
0100
0020
0000
,
0032
0003
0000
0000
0000
0000
0000
0000
0010
0000
0000
0000
0000
0000
0000
0000
1000
0000
0000
0000
0000
0000
0000
0000
0001
0000
0000
0000
0000
0000
0000
0000
0100
0000
0000
0000
0000
0000
0000
0000
1000
0000
0000
0000
0000
0000
0000
0000
0010
0000
0000
0000
0000
0000
0000
0000
0000
0000
0000
0000
0000
0000
0000
0000
,
1000
0100
0001
1000
0010
0001
0100
0000
,
0010
1000
0010
0000
0100
0001
0100
0000
0001
1000
0001
1000
0001
1000
0001
1000
,
0002
0000
0000
0003
1000
0100
1000
0001
,
0100
0001
1000
0100
0010
0100
0001
0100
,
0010
0001
1000
0001
0100
0010
0100
1000
,
0100
0010
0001
1000
0100
0010
1000
0001
,
0010
0100
0010
0000
0001
0000
1000
0000
0001
0000
0010
0000
0100
0000
1000
0000
,
0010
0100
0001
1000
0100
0010
0100
1000
,
0010
1000
0001
1000
0010
0100
0110
0000
,
1001
0000
0001
0000
0100
0000
0010
1000
0010
0000
0100
0001
0100
0000
0001
0000
,
1000
0100
0000
0100
0010
0000
0001
1000
0001
0000
1000
0000
0100
0000
0010
0000
,
0001
1000
0010
0100
1000
0100
0010
0001
,
1000
0100
0001
1000
0100
0001
1000
0010
,
0001
0010
0100
1000
0001
0100
0010
1000
,
0001
1000
0001
0000
0010
0000
0100
0000
0010
0000
0001
0000
1000
0000
0001
0000
,
0100
0010
1000
1001
0000
0001
0100
0010
,
1000
0001
1000
0000
1001
0000
0000
0000
0001
0000
0100
0000
0010
0000
1000
0000
,
0001
0000
0010
0000
0100
0000
1000
0000
0001
0100
0001
0100
0010
1000
0010
1000
,
0001
1000
0100
0010
0002
0000
0100
0000
,
2003
0010
3002
0010
,
0103
0010
0000
0100
0010
0000
1000
0000
0001
0000
0010
0000
0100
0000
1000
0000
,
0001
0100
0000
0010
1000
0000
0001
1000
0000
0001
1000
0000
0100
0000
0010
0001
,
0010
0001
0010
0000
0001
1000
0001
0000
0200
0000
0000
0000
1000
0000
0000
0000
,
0302
0010
0203
0010
,
0301
1000
0000
0100
1000
0000
0001
0000
0100
0000
0010
0000
1000
0000
0001
0000
,
0010
0000
0100
0000
0010
0000
0001
1000
0001
0000
0100
0010
0100
0000
0000
0100
,
0010
1000
1001
0000
1000
0000
1000
0000
,
0100
0100
0010
0010
,
0001
0000
0000
0000
0001
0000
1000
0001
1000
0000
0000
0000
1000
0000
0000
0000
,
0010
0000
0000
0000
0010
0000
0100
0010
0100
0000
0010
0000
0100
0000
0001
1000
,
0010
0100
0001
0000
1000
0001
1000
0000
0001
0000
1000
0000
0100
0000
0010
0000
,
0001
0000
0010
0000
0100
0000
1000
0001
1000
0000
0001
0000
0100
0000
0010
0000
,
0100
0000
0001
0000
1000
0000
0001
0000
1000
0100
1000
0100
1000
0100
1000
0100
,
0010
0000
0001
0000
0010
0000
0001
0000
0010
0000
0001
0000
0010
0000
0001
0000
2000
0000
0000
0000
0000
0000
0000
0000
3001
1000
0001
1000
0001
1000
0001
2000
,
3000
0000
0000
0000
;

//--------------- dance-single - Fred-104† ----------------
#NOTEDATA:;
#STEPSTYPE:dance-single;
#DESCRIPTION:Fred-104†;
#DIFFICULTY:Challenge;
#METER:18;
#BPMS:0=104,20=208,52=104,60=208,154=156,154.375=130,154.688=78,154.875=52,155=208,182=104,184=208,216=104,240=208,252=104,253.5=208,378=104,380=208;
#STOPS:161.5=0.144,169.5=0.144,253.5=0.145;
#TIMESIGNATURES:0=4=4,152=3=4,155=4=4,159=3=4,162=4=4,178=6=4,184=4=4,248=6=4,254=4=4,378=2=4,380=4=4;
#CREDIT:Fred-104†;
#NOTES:
0000
0000
0000
0000
,
0000
0000
0000
0000
,
0000
0000
0000
0000
,
0110
0000
0000
0000
0000
0000
1001
0000
0000
0000
0000
0000
1000
0000
1010
0000
MMMM
0000
0000
0000
MMMM
0000
0000
0000
MMMM
0000
0000
0000
0001
1000
0001
1000
,
0001
0000
0000
0000
0000
0000
0110
0000
0000
0000
0000
0000
1000
0000
0100
0010
0100
0000
0000
0100
0000
0000
0100
0000
2002
0000
0000
0000
3003
0000
0000
0000
,
0022
0033
0000
0000
0000
0000
0000
0000
0000
0000
0000
0000
0000
0000
0000
0000
0001
0000
0000
0000
0000
0000
0000
0000
0000
0000
0000
0000
0000
0000
0000
0000
0010
0000
0000
0000
0000
0000
0000
0000
0000
0000
0000
0000
0000
0000
0000
0000
0010
0000
0000
0000
0000
0000
0000
0000
0000
0000
0000
0000
0000
0000
0000
0000
,
1010
1000
0001
0001
,
0101
0100
1000
1000
,
1010
0000
0000
0000
0010
0000
0100
0000
0001
0000
0000
0001
0000
0000
0001
0000
,
1000
0100
1000
0100
0010
0001
1000
0001
,
1000
0010
1000
0010
0100
0001
1000
0001
,
0010
0100
1000
0001
0010
0100
1000
0001
1000
0010
0100
0001
0100
0010
1000
0001
,
0100
0000
0000
0101
0000
0000
0110
0000
0000
1010
0000
0000
1100
0000
0001
0000
,
1001
0000
0000
0000
0000
0000
0000
0000
0010
0100
0010
0100
0010
0100
0010
0100
0001
1000
0001
1000
0001
1000
0001
1000
0010
0100
0010
0100
0010
0100
0010
0100
,
0001
1000
0100
0010
0001
1000
0100
0010
0001
1000
0010
0100
0001
1000
0010
0100
0001
1000
0100
0010
0001
0010
0100
1000
0002
0000
0000
0000
0000
0000
0000
0000
,
2003
3000
0000
0000
0000
0000
0000
0000
0100
0000
0000
0000
0000
0000
0000
0000
0010
0000
0000
0000
0000
0000
0000
0000
0100
0000
0000
0000
0000
0000
0000
0000
1000
0000
0000
0000
0000
0000
0000
0000
0001
0000
0000
0000
0000
0000
0000
0000
0100
0000
0000
0000
0000
0000
0000
0000
0010
0000
0000
0000
0000
0000
0000
0000
,
0200
0000
1000
0000
0000
0000
0010
0000
0000
0000
0301
0000
1000
0100
0000
0010
,
0100
1000
0001
1000
0010
1000
0001
0010
,
0200
0000
0001
0000
0000
0000
0010
0000
0000
0000
1300
0000
0001
1000
0000
0010
,
1000
0001
0010
1000
0001
0100
1000
0001
,
0200
0000
0010
0000
0000
0000
1000
0000
0000
0000
0301
0000
0100
0001
0000
1000
,
0001
0010
1000
0001
0100
0010
0001
1000
,
1100
0000
0010
0001
0010
0000
MMMM
0000
0101
0000
0010
1000
0010
0000
MMMM
0000
,
1000
0100
1000
0010
0100
0001
1000
0001
,
0200
0000
0000
0000
1000
0000
0000
0000
0310
0100
0010
0100
0001
0000
0010
0000
,
0110
0000
0000
0000
1000
0000
0001
0100
0010
0100
0001
0010
0100
0000
1000
0001
,
1000
0000
0010
0000
0100
0000
0001
0000
1000
0100
0010
0001
1000
0100
0010
0001
,
0010
0000
0001
0000
1000
0000
0010
0000
0001
0000
1000
0000
0100
0000
0001
1000
,
0001
0000
0100
0001
0100
0000
0000
0000
0110
0000
0000
0000
1010
0000
0000
0000
,
1001
0000
1100
1100
0000
0011
0000
1010
,
0000
0000
0101
0000
0101
0000
0000
0000
0001
1000
0010
0100
0001
0010
0100
1000
,
0010
0000
0100
0101
0000
0001
1000
1100
,
0000
0000
0100
0000
0110
0000
0000
0000
0010
0001
1000
0000
0010
0100
0010
0000
,
0110
0000
0100
1100
0000
1000
0100
0101
,
0000
0000
0001
0000
0011
0000
0010
0100
0010
0000
0001
0000
1000
0100
1000
0000
,
0001
0100
0001
1001
0000
1000
0100
0110
,
0000
0000
0001
0000
1001
0000
1000
0001
0100
0000
0110
0000
0010
0000
0100
0000
,
1001
0000
0001
0000
0100
0000
0110
0000
0000
0000
1010
0000
0010
0000
1000
0001
,
1000
0000
0000
0000
0000
0000
0000
0000
0100
0000
0000
0000
0000
0000
0000
0000
0010
0000
0000
0000
0001
0000
0000
0000
0010
0000
0000
0000
0001
0000
0000
0000
1000
0000
0000
0000
0000
0000
0000
0000
0000
0000
0000
MMMM
0000
0000
0000
0000
2000
3000
0000
0000
0010
0000
0000
0000
0100
0000
0000
0000
0010
0000
0000
0000
,
1000
0000
0001
0010
0100
0010
0001
0000
1000
0010
0100
0001
1000
0000
0001
0000
,
0100
0000
0000
0000
0001
0000
0000
0000
1000
0000
0000
0000
0001
0000
0000
0000
0010
0000
0000
0000
0000
0000
0000
0000
0220
0330
0000
0000
0000
0000
0000
0000
0110
0000
0000
0000
0000
0000
0000
0000
0100
0000
0000
0000
1000
0000
0000
0000
0001
0000
0000
0000
1000
0000
0000
0000
0100
0000
0000
0000
0000
0000
0000
0000
,
0010
0001
1000
0001
0100
0010
1000
0100
0010
0001
0010
0100
1000
0000
0010
0100
,
0010
0000
0000
0000
1000
0000
0000
0000
0001
0000
0000
0000
0100
0000
0000
0000
0010
0000
0000
0000
0000
0000
0000
0000
2002
3003
0000
0000
0000
0000
0000
0000
1000
0000
0000
0000
0100
0000
0000
0000
0010
0000
0000
0000
0100
0000
0000
0000
1000
0000
0000
0000
0000
0000
0000
0000
0001
0000
0000
0000
0100
0000
0000
0000
,
0010
0100
0001
0000
1000
0001
0100
0010
1000
0000
0001
0000
0010
0000
0001
1000
,
0001
0010
0200
0000
1300
0010
0200
0000
0301
0100
0010
1000
0001
0100
0010
1000
,
0001
0000
0000
0000
0000
0000
0000
0000
1000
0000
0000
0000
0100
0000
0000
0000
0010
0000
0000
0000
0001
0000
0000
0000
0010
0000
0000
0000
0100
0000
0000
0000
2000
3000
0001
0000
0100
0000
0010
0000
1000
0000
0001
0000
0100
0000
0010
0000
1000
0000
0000
0000
0000
0000
0000
0000
MMMM
0000
0000
0000
0000
0000
0000
0000
,
2200
3300
0000
0000
0000
0000
0000
0000
0000
0000
0000
0000
0000
0000
0000
0000
0001
0000
0000
0000
0000
0000
0000
0000
0000
0000
0000
0000
0000
0000
0000
0000
0101
0000
0000
0000
0000
0000
0000
0000
0000
0000
0000
0000
0000
0000
0000
0000
1000
0000
0000
0000
0000
0000
0000
0000
0100
0000
0000
0000
0000
0000
0000
0000
,
0110
0000
0001
0000
1001
0000
1000
0001
,
0101
0000
0000
0000
0100
0000
0010
0000
0100
0000
0000
0100
0000
0000
0001
0000
,
1000
0000
0000
1000
0000
0000
1000
0000
0100
0000
0010
0000
0011
0000
0000
0000
,
1000
0010
1000
0001
1000
0100
1000
0001
,
0100
0010
1000
0010
0100
0001
1000
0001
,
1000
0100
1000
0100
0010
0001
0010
0001
1000
0010
1000
0010
0100
0001
1000
0001
,
0010
0100
1000
0001
0100
0010
0100
0001
1000
0100
0010
0001
1000
0000
0000
0000
,
1002
0000
0000
0000
,
2003
0000
0000
0000
,
3002
0000
0000
0000
,
2000
0000
0000
0000
0000
0000
0000
0000
3003
0000
0000
0000
MMMM
MMMM
MMMM
MMMM
,
0001
0010
0100
1000
0001
0010
0100
1000
0010
1000
0010
1000
0100
0010
0001
1000
,
0001
0100
0010
0100
0010
1000
0100
0010
0001
0100
0010
1000
0100
0010
0100
1000
,
0002
0003
0000
0000
0000
0000
0000
0000
0100
0000
0000
0000
0000
0000
0000
0000
1000
0000
0000
0000
0000
0000
0000
0000
0001
0000
0000
0000
0000
0000
0000
0000
0010
0000
0000
0000
0000
0000
0000
0000
1000
0000
0000
0000
0000
0000
0000
0000
0100
0000
0000
0000
0010
0000
0000
0000
0001
0000
0000
0000
0000
0000
0000
0000
,
1000
0000
0010
0000
0001
0000
1000
0000
0100
0000
0001
0000
0010
0100
1000
0000
,
0010
1000
0001
1000
0100
1000
0001
0100
0010
1000
0100
0010
0001
1000
0010
0100
,
0002
0000
0000
0000
0000
0003
MMMM
0000
0001
0000
0100
0000
0010
0000
1000
0000
,
0001
1000
0100
0001
0100
0010
1000
0001
,
0100
0010
0100
0010
0001
0000
1000
0000
0010
0000
0100
0000
0001
0000
1000
0000
,
0100
0010
0100
0000
1000
0000
0001
0000
0100
0010
0100
0000
0101
0000
0000
0000
,
1000
0100
1000
0000
1001
0000
1000
0000
1001
0000
0001
0000
1000
0000
0010
0000
,
0100
0010
0001
1000
0100
0001
1000
0100
,
0001
1000
0001
1000
0001
0000
0100
0000
0010
0000
0001
0000
1001
0000
1000
0000
,
0010
0000
0100
0000
0001
0000
1000
0100
1000
0000
1000
0100
0010
0000
0001
0000
,
0100
0010
0000
0100
0010
0000
0010
1000
0001
0000
0010
0000
0100
0000
0010
0000
,
0100
1000
0001
0100
0010
0001
1000
0001
,
0010
0100
0010
0100
0001
0000
1000
0000
0010
0000
0100
0000
1000
0000
0100
0000
,
0010
0000
0001
0000
1000
0000
0100
0000
0001
1000
0001
0000
1001
0000
0001
0000
,
1000
0100
1000
0100
1000
0000
1000
0000
0001
0000
0100
0000
0001
0000
0010
0000
,
0001
0100
0010
1010
0000
1000
0100
0110
,
0010
0001
0010
0000
1001
0000
0000
0000
1001
0000
0001
0000
0100
0000
0010
0000
,
0110
0000
0100
0000
0001
0000
1000
0000
0100
0010
0001
0010
0100
0010
0001
0010
,
0100
1000
0001
0100
0010
0100
0001
1000
0200
0000
0000
0302
0000
0000
0203
0000
,
2300
0000
0000
3002
0000
0000
0203
0000
2300
0000
0000
3200
0000
0000
0302
0000
,
1003
0100
0000
0010
0001
0000
1000
0000
0001
0000
0100
0000
0010
0000
0100
0000
,
0001
0010
0000
0001
1000
0000
0010
1000
0000
0001
1000
0000
0010
0000
0100
0001
,
1000
0010
0100
0001
0010
0100
0010
0001
1000
0000
0010
0001
0010
0000
0100
0000
,
1000
0000
0100
0001
0000
1000
0001
0000
0010
0000
1000
0010
0000
1000
0001
0000
,
0100
0010
0000
0100
1000
0000
0001
0000
0100
0000
0100
0000
0010
0000
0010
0000
,
0100
0000
0001
0000
1001
0000
1000
0100
0010
0000
0010
0001
0100
0000
0010
1000
,
0000
0010
0100
0000
0001
1000
0001
1000
0001
0000
0000
0000
0001
0000
0000
0000
,
0100
0000
0100
0000
0010
0000
0010
1000
,
1000
0001
0000
0001
1000
0100
1000
0100
0010
0000
0001
0000
0010
0000
0010
0000
,
0001
1000
0010
1000
0001
0000
1000
0001
1000
0000
0001
0000
1000
0000
0001
0100
,
0010
1000
0001
0010
0100
0010
0001
0000
1000
0000
0100
0000
1000
0000
0001
0000
,
0100
0000
0100
0010
1000
0000
1000
0001
0010
0000
0100
0000
0010
0000
0001
1000
,
0001
1000
0010
0100
0010
1000
0001
0000
1000
0100
1000
0001
0100
0010
1000
0001
,
0010
0000
0100
0000
1000
0000
0010
0000
0100
0000
0001
0000
0010
0000
0001
0000
2000
0000
0002
0000
0000
3000
1003
0001
0010
0100
1000
0010
0100
0001
0010
0200
,
0300
0000
0000
0000
;

//--------------- dance-double - Fred-104 ----------------
#NOTEDATA:;
#STEPSTYPE:dance-double;
#DESCRIPTION:Fred-104;
#DIFFICULTY:Easy;
#METER:11;
#CREDIT:Fred-104;
#NOTES:
00000000
00000000
00000000
00000000
,
00000000
00000000
00000000
00000000
,
00000000
00000000
00000000
00000000
,
00000000
00000000
00000000
00000000
,
00000000
00000000
00000000
00000000
,
00000000
00000000
00000000
00000000
,
00011000
00000000
00000000
00010000
00000000
00000000
00000100
00000100
,
00000000
00000010
00000001
00001000
,
00001001
00000000
00000000
00000001
00000000
00000000
00000100
00000100
,
00001000
00010000
00022000
00033000
,
00010000
00010000
00001000
00001000
,
01000000
01000000
00010000
00010000
,
10000000
10000000
01000000
01000000
,
00010000
00001000
00022000
00033000
,
00010000
00000100
00000010
00000001
,
00001000
00000001
00000100
00001000
,
00010000
00001000
00010000
00000000
00001000
01000000
00001000
00000000
,
00010000
00000000
00000000
00001000
00000000
00000000
00010000
00000000
,
00002000
00000000
00023000
00000000
,
00032000
00000000
00023000
00000000
,
00032000
00000000
00023000
00000000
,
00002000
00000000
00033000
00000000
,
00010000
00000000
00000000
00000010
00000000
00000000
00001000
00000000
,
00000100
00000000
00000000
00000010
00000000
00000000
00000001
00000000
,
00001000
00000000
00000000
00000010
00000000
00000000
00010000
00000000
,
00001000
00000000
00000000
00100000
00000000
00000000
00010000
00000000
,
01000000
00000000
00100000
10000000
00000000
00100000
01000000
00000000
,
00010000
00000000
00000000
10000000
00000000
00000000
01000000
00000000
,
00010000
00000000
00001000
00010000
00000000
00000100
00001000
00000000
,
00000100
00000010
00000100
00000000
00002002
00000000
00003003
00000000
,
00000001
00000000
00001000
00000000
00000010
00000000
00010000
00001000
,
00010000
00000000
00001000
00000000
00100000
01000000
00100000
00000000
,
00010000
00000000
10000000
00100000
10000000
00000000
00010000
10000000
,
00010000
00000000
00100000
00010000
00100000
00001000
00100000
00000000
,
00001000
00000000
00010000
00000000
00000100
00000000
00000010
00000001
,
00000010
00000001
00000100
00001000
,
00011000
00000000
00000000
00001000
00000000
01000000
00000000
00010000
,
00000000
01000000
01000000
00000000
02200000
00000000
03300000
00000000
,
10010000
00000000
10000000
10000000
00000000
11000000
00000000
01100000
,
00000000
00001000
00001000
00000000
00010000
00000000
00000100
00000000
,
00000010
00000000
00000000
00001001
00000000
00001000
00000010
00001000
,
00000000
00000010
00000000
00010000
00000000
00001000
00001000
00000000
,
00011000
00000000
00000000
00010000
00000000
00000100
00000000
00000010
,
00000000
00001000
00000000
00010000
00010000
00000000
00001000
00000000
,
01000000
00000000
00100000
01000000
00000000
00010000
01000000
00000000
,
00001000
00010000
00022000
00033000
,
00010000
00000000
00000000
00001000
00000000
00000000
00000100
00000000
,
00000000
00000001
00000000
00000000
00000010
00000000
00000100
00000000
,
00010000
00000000
00000000
00001000
00000000
00000000
01000000
00000000
,
00000000
00010000
00000000
00000000
00100000
00000000
00100000
00000000
,
01000000
00000000
00000000
10000000
00000000
00000000
00010000
00000000
,
01000000
00100000
00010000
00001000
,
00010000
00001000
00010000
00000000
00001000
00100000
00010000
00000000
,
20020000
00000000
30030000
00000000
,
11000000
00000000
11000000
00000000
,
00110000
00000000
00101000
00000000
,
00011000
00000000
00010000
00000010
,
00010000
00010000
00022000
00033000
,
00001000
00001000
00010000
00010000
,
00100000
00100000
10000000
10000000
,
01000000
00100000
01000000
00000000
00100000
00010000
00100000
00000000
,
00001000
00010000
00001000
00010000
00001000
00010000
00001000
00000000
,
00022000
00000000
00000000
00000000
,
00000000
00000000
00000000
00000000
,
00000000
00000000
00000000
00000000
,
00000000
00000000
00000000
00033000
,
00020000
00000000
00032000
00000000
,
00023000
00000000
00030020
00000000
,
00020030
00000000
00032000
00000000
,
02003000
00000000
00200000
03300000
,
10010000
00000000
10000000
01000000
,
01000000
00010000
00001000
00010000
,
00000100
00000100
00000010
00000001
,
00000100
00000100
00001000
00010000
,
00001000
00001000
00010000
00010000
,
00100000
00100000
10000000
10000000
,
00010000
00100000
00010000
00000000
00100000
00001000
00010000
00000000
,
00022000
00000000
00000000
00033000
,
00010000
00001000
00000100
00000001
,
00001000
00000000
00000100
00000000
00000010
00000001
00000010
00000000
,
00000100
00000000
00010000
00000000
00001000
00100000
00001000
00000000
,
01000000
00100000
01000000
00000000
00100000
10000000
00100000
00000000
,
10000000
01000000
00010000
00001000
,
00010000
00000000
00100000
00000000
00010000
00001000
00010000
00000000
,
00000010
00001000
00000010
00000000
00000100
00000001
00001000
00000000
,
00000010
00010000
00011000
00000000
,
00010000
00001000
00010000
00000100
,
00000010
00000000
00000100
00000000
00001000
00000100
00001000
00000000
,
00000010
00000000
00010000
00000000
00001000
00100000
00001000
00000000
,
00100000
00010000
00100000
00000000
01000000
10000000
01000000
00000000
,
01100000
00000000
00000000
00100000
00000000
00001000
00000000
00010000
,
00000000
00000100
00000100
00000000
00000010
00000000
00000001
00000000
,
00001000
00000001
00001000
00000000
00000010
00010000
00000010
00000000
,
00010000
00001000
00022000
00033000
,
00020000
00000000
00032000
00000000
,
00203000
00000000
00310000
10000000
,
00010000
00000000
01000000
00000000
00100000
00000000
00000000
00100000
,
00000000
00010000
00001000
00010000
,
00000200
00000000
00000320
00000000
,
00000032
00000000
00001003
00000001
,
00000100
00000000
00001000
00000000
00010000
00000000
00000000
00001000
,
00000000
00100000
00010000
00100000
,
00002000
00000000
00000000
00000000
,
00000000
00000000
00000000
00000000
,
00000000
00000000
00000000
00000000
,
00000000
00000000
00023000
00000000
,
00031000
00001000
00010000
00010000
,
00100000
00100000
10000000
10000000
,
01000000
00100000
00001000
00000000
00010000
00001000
00010000
00000000
,
00022000
00000000
00000000
00000000
,
00033000
00000000
00000000
00000000
;

//--------------- dance-double - Fred-104 ----------------
#NOTEDATA:;
#STEPSTYPE:dance-double;
#DESCRIPTION:Fred-104;
#DIFFICULTY:Medium;
#METER:14;
#BPMS:0=104,20=208,52=104,60=208,154=156,154.375=130,154.688=78,154.875=52,155=208,182=104,184=208,216=104,240=208,252=104,253.5=208,378=104,380=208;
#STOPS:161.5=0.144,169.5=0.144,253.5=0.145;
#TIMESIGNATURES:0=4=4,152=3=4,155=4=4,159=3=4,162=4=4,178=6=4,184=4=4,248=6=4,254=4=4,378=2=4,380=4=4;
#CREDIT:Fred-104;
#NOTES:
00000000
00000000
00000000
00000000
,
00000000
00000000
00000000
00000000
,
00000000
00000000
00000000
00000000
,
00011000
00000000
00000000
00101000
00000000
00000000
00100000
00100000
00000000
00010000
10000000
00100000
01000000
00000000
01001000
00000000
,
00011000
00000000
00000000
00000000
00000000
00000000
00011000
00000000
00000000
00000000
00000000
00000000
00010000
00000000
00001000
00000000
00100000
00000000
00000000
01000000
00000000
00000000
00100000
00000000
01100000
00000000
00000000
00000000
00000000
00000000
00000000
00000000
,
00020000
00030000
00000000
00000000
00000000
00000000
00000000
00000000
00000000
00000000
00000000
00000000
00000000
00000000
00000000
00000000
00010000
00000000
00000000
00000000
00000000
00000000
00000000
00000000
00000000
00000000
00000000
00000000
00000000
00000000
00000000
00000000
10000000
00000000
00000000
00000000
00000000
00000000
00000000
00000000
00000000
00000000
00000000
00000000
00000000
00000000
00000000
00000000
10000000
00000000
00000000
00000000
00000000
00000000
00000000
00000000
00000000
00000000
00000000
00000000
00000000
00000000
00000000
00000000
,
00100000
00100000
00010000
00010000
,
00001000
00001000
00000100
00000100
,
00000001
00000000
00000000
00000000
00000001
00000000
00000000
00000000
00001000
00000000
00000000
00001000
00000000
00000000
00001000
00000000
,
00000001
00000010
00000100
00010000
00001000
00100000
01000000
10000000
,
00010000
10000000
00100000
01000000
00001000
00010000
00000010
00000100
,
00000001
00001000
00000100
00000010
00001000
00010000
01000000
00100000
,
00001000
00000000
00000000
00010000
00000000
00000000
00000100
00000000
00000000
00000010
00000000
00000000
00000001
00000000
00000000
00000000
,
00002002
00003003
00000000
00000000
00000000
00000000
00000000
00000000
00000000
00000000
00000000
00000000
00000000
00000000
00000000
00000000
00000002
00000000
00000000
00000000
00000000
00000000
00000000
00000000
00000000
00000000
00000000
00000000
00000000
00000000
00000000
00000000
00000203
00000000
00000000
00000000
00000000
00000000
00000000
00000000
00000000
00000000
00000000
00000000
00000000
00000000
00000000
00000000
00002300
00000000
00000000
00000000
00000000
00000000
00000000
00000000
00000000
00000000
00000000
00000000
00000000
00000000
00000000
00000000
,
00023000
00230000
20000000
30300000
,
00020000
00030000
00000000
00000000
00000000
00000000
00000000
00000000
00000000
00000000
00000000
00000000
00000000
00000000
00000000
00000000
10000000
00000000
00000000
00000000
00000000
00000000
00000000
00000000
01000000
00000000
00000000
00000000
00000000
00000000
00000000
00000000
00000000
00000000
00000000
00000000
00000000
00000000
00000000
00000000
01000000
00000000
00000000
00000000
00000000
00000000
00000000
00000000
00010000
00000000
00000000
00000000
00000000
00000000
00000000
00000000
00001000
00000000
00000000
00000000
00000000
00000000
00000000
00000000
,
00010000
00000100
00000010
00000100
00000000
00000100
00001000
00000000
,
00000001
00000100
00000010
00000100
00000000
00000100
00001000
00010000
,
00001000
01000000
00010000
01000000
00000000
01000000
00100000
00000000
,
10000000
00010000
00100000
01000000
00000000
01000000
00010000
00001000
,
00010000
00000010
00000100
00001000
00000000
00001000
00010000
00000000
,
00001000
00010000
00000100
00000010
00000000
00000010
00000001
00001000
,
00000010
00011000
00000100
00001001
,
00000001
00000100
00001000
00010000
00001000
00100000
00010000
10000000
,
00100000
01000000
00010000
00000000
10000000
01000000
00010000
00000000
,
00001000
00010000
00000100
00001000
00000010
00010000
00001000
00100000
,
00010000
01000000
00001000
00010000
00000100
00000010
00000001
00000000
,
00001000
00000001
00000100
00001000
00010000
00001000
00000010
00001000
,
00010000
00001000
00100000
00000000
00010000
00001000
00000100
00000000
,
00011000
00000000
00001000
00000100
00000000
00000101
00000000
00000011
,
00000000
00000010
00000100
00000000
00001000
00000001
00001000
00000000
,
00001001
00000000
00000001
00000101
00000000
00000100
00001000
00001000
,
00000000
00010000
00011000
00000000
00001000
00100000
00010000
10000000
,
00100000
01000000
00010000
10010000
00000000
10000000
01000000
01000000
,
00000000
00010000
00001000
00010000
00000100
00000010
00000100
00000000
,
00001000
00000001
00000100
00000110
00000000
00000010
00010000
00010000
,
00000000
00001000
00100000
00010000
10000000
10000000
00000000
00100000
,
00100000
00010000
00001000
00010000
00000000
00010000
00001000
00000100
,
00000001
00000000
00000000
00000000
00000000
00000000
00000000
00000000
00001000
00000000
00000000
00000000
00000000
00000000
00000000
00000000
00000100
00000000
00000000
00000000
00000000
00000000
00000000
00000000
00000010
00000000
00000000
00000000
00000000
00000000
00000000
00000000
00002000
00000000
00000000
00000000
00000000
00000000
00000000
00000000
00000000
00000000
00000000
00000000
00000000
00000000
00000000
00000000
00023000
00030000
00000000
00000000
00000000
00000000
00000000
00000000
00001000
00000000
00000000
00000000
00000000
00000000
00000000
00000000
,
00000000
01000000
00010000
00000000
00001000
00000010
00000000
00010000
,
00001000
00000000
00000000
00000000
00000000
00000000
00000000
00000000
00000000
00000000
00000000
00000000
00000000
00000000
00000000
00000000
00100000
00000000
00000000
00000000
00000000
00000000
00000000
00000000
00200000
00300000
00000000
00000000
00000000
00000000
00000000
00000000
00010000
00000000
00000000
00000000
00000000
00000000
00000000
00000000
10000000
00000000
00000000
00000000
00000000
00000000
00000000
00000000
00100000
00000000
00000000
00000000
00000000
00000000
00000000
00000000
00000000
00000000
00000000
00000000
00000000
00000000
00000000
00000000
,
00010000
00001000
00000000
00000100
00000001
00000000
00000010
00001000
,
00010000
00000000
00000000
00000000
00000000
00000000
00000000
00000000
00001000
00000000
00000000
00000000
00000000
00000000
00000000
00000000
00100000
00000000
00000000
00000000
00000000
00000000
00000000
00000000
02000000
03000000
00000000
00000000
00000000
00000000
00000000
00000000
01000000
00000000
00000000
00000000
00000000
00000000
00000000
00000000
10000000
00000000
00000000
00000000
00000000
00000000
00000000
00000000
00000000
00000000
00000000
00000000
00000000
00000000
00000000
00000000
00100000
00000000
00000000
00000000
00000000
00000000
00000000
00000000
,
00010000
00000000
00001000
00000100
00000001
00000010
00000100
00001000
,
00000100
00010000
00001000
00000000
01000000
00100000
10000000
01000000
,
00100000
00001000
00010000
00000010
00020000
00000000
00002000
00033000
,
00022000
00033000
00000000
00000000
00000000
00000000
00000000
00000000
00000000
00000000
00000000
00000000
00000000
00000000
00000000
00000000
00010000
00000000
00000000
00000000
00000000
00000000
00000000
00000000
00001000
00000000
00000000
00000000
00000000
00000000
00000000
00000000
00000100
00000000
00000000
00000000
00000000
00000000
00000000
00000000
00000010
00000000
00000000
00000000
00000000
00000000
00000000
00000000
00000100
00000000
00000000
00000000
00000000
00000000
00000000
00000000
00000001
00000000
00000000
00000000
00000000
00000000
00000000
00000000
,
00002000
00000000
00000010
00000000
00000001
00000000
00003100
00010000
,
00001000
00000000
00000000
00000000
00010000
00000000
00100000
00000000
10000000
00000000
00000000
01000000
00000000
00000000
00100000
00000000
,
00001000
00000000
00000000
00010000
00000000
00000000
00000010
00000000
00000100
00000000
00000000
00000000
00001001
00000000
00000000
00000000
,
00000001
00000010
00000100
00001000
00000100
00010000
00001000
00100000
,
01000000
10000000
00010000
01000000
00100000
10000000
01000000
00010000
,
00001000
00000100
00000001
00001000
00000001
00000010
00001000
00010000
,
00100000
10000000
00010000
00100000
01000000
00100000
00010000
00000000
,
20010000
00000000
00000000
00000000
,
30020000
00000000
00000000
00000000
,
00230000
00000000
00000000
00000000
,
00302000
00000000
00020000
00033000
,
00001000
00000000
00100000
00000000
00110000
00000000
00010000
10000000
00100000
01000000
00010000
00000000
10000000
01000000
00100000
00010000
,
00100000
00001000
00010000
00001000
00000100
00000010
00001000
00000001
00001000
00000100
00000010
00001000
00010000
00001000
00000200
00000000
,
00000302
00000003
00000000
00000000
00000000
00000000
00000000
00000000
00000010
00000000
00000000
00000000
00000000
00000000
00000000
00000000
00001000
00000000
00000000
00000000
00000000
00000000
00000000
00000000
00010000
00000000
00000000
00000000
00000000
00000000
00000000
00000000
01000000
00000000
00000000
00000000
00000000
00000000
00000000
00000000
10000000
00000000
00000000
00000000
00000000
00000000
00000000
00000000
00010000
00000000
00000000
00000000
00000000
00000000
00000000
00000000
00000000
00000000
00000000
00000000
00000000
00000000
00000000
00000000
,
10000000
00100000
00010000
00001000
00000100
00000001
00001000
00000000
,
00000001
00000010
00001000
00010000
00000100
00010000
00001000
00000010
,
00000002
00000000
00000000
00000000
00000000
00000000
00000000
00000000
00000000
00000000
00000000
00000000
00000000
00000000
00000000
00000000
00000000
00000000
00000000
00000000
00000003
00000000
00000000
00000000
00002002
00003003
00000000
00000000
00000000
00000000
00000000
00000000
00001000
00000000
00000000
00000000
00000000
00000000
00000000
00000000
00000001
00000000
00000000
00000000
00000000
00000000
00000000
00000000
00000010
00000000
00000000
00000000
00000000
00000000
00000000
00000000
00000100
00000000
00000000
00000000
00000000
00000000
00000000
00000000
,
00010000
00001000
00100000
01000000
00100000
10000000
00100000
00010000
,
00100000
01000000
10000000
00000000
00010000
01000000
00100000
10000000
,
01000000
00010000
00001000
00000000
00010000
00000100
00000010
00000100
,
00000001
00000100
00001000
00000000
00000001
00000100
00000010
00000100
,
00001000
00010000
00000010
00001000
00000100
00010000
01000000
00100000
,
00010000
10000000
00100000
10000000
00010000
10000000
01000000
00010000
,
00001000
00100000
00001000
00000010
00001000
00010000
00001000
00000100
,
00000001
00001000
00000000
00001000
00000001
00000000
00000000
00000000
00000110
00000000
00000000
00000000
00010000
00000000
00001000
00000000
,
00100000
00000000
00010000
10000000
00100000
01000000
00100000
00010000
,
00001000
00000100
00000001
00001000
00000100
00000010
00000001
00001000
,
00000010
00000100
00001000
00010000
00001000
00000010
00001000
00010000
,
00001000
00100000
01000000
00000000
10010000
00000000
10000000
01000000
,
00000000
01010000
00000000
00011000
00000000
00010000
00001000
00010000
,
00000100
00000010
00000001
00000001
00001000
00000001
00001000
00000001
,
00000010
00000100
00000010
00000100
00010000
00001000
01000000
00100000
,
10000000
00000000
00010000
00000000
00100000
00000000
00000000
00000000
01000000
00000000
00000000
10000000
00000000
00000000
00010000
00000000
,
01000000
00000000
00000000
00001000
00000000
00000000
00010000
00000000
00000010
00000000
00000000
00010000
00000000
00000000
00001000
00000000
,
00010000
00000000
00000000
00010000
00000000
00000000
00010000
00000000
00001000
00000000
00000100
00000000
00000001
00000000
00001000
00000000
,
00000100
00000000
00000000
00000010
00000000
00000000
00000001
00000000
00000000
00001000
00000000
00000000
00000010
00000000
00000100
00000000
,
00001000
00000000
00010000
00000000
00001000
00000000
00000000
00000000
00010000
00000000
00000000
00001000
00000000
00000000
00000100
00000000
,
00000010
00000000
00000000
00010000
00000000
00000000
00001000
00000000
00100000
00000000
00000000
01000000
00000000
00000000
10000000
00000000
,
00010000
00000000
00000000
00010000
00000000
00000000
00010000
00000000
01000000
00000000
00100000
00000000
00010000
00000000
00001000
00000000
,
00010000
00000000
00000100
00000000
00010000
00000000
00001000
00000000
00010000
00000000
00100000
00000000
01000000
00000000
00000000
01000000
,
00100000
10000000
00010000
10000000
02000000
00000000
00000000
00000000
,
00000000
00000000
00000000
00000000
,
00000000
00000000
00000000
00000000
,
00000000
00000000
00000000
00000000
,
03200000
00000000
00000000
00000000
00301000
00010000
00001000
00010000
,
00000010
00001000
00000001
00000000
00001000
00000100
00001000
00000100
,
00000010
00000001
00001000
00000000
00000010
00010000
00000010
00001000
,
00100000
01000000
00100000
00010000
00022000
00000000
00030000
00000000
,
00003000
00000000
00000000
00000000
;

//--------------- dance-double - Fred-104 ----------------
#NOTEDATA:;
#STEPSTYPE:dance-double;
#DESCRIPTION:Fred-104;
#DIFFICULTY:Hard;
#METER:17;
#BPMS:0=104,20=208,52=104,60=208,154=156,154.375=130,154.688=78,154.875=52,155=208,182=104,184=208,216=104,240=208,252=104,253.5=208,378=104,380=208;
#STOPS:161.5=0.144,169.5=0.144,253.5=0.145;
#TIMESIGNATURES:0=4=4,152=3=4,155=4=4,159=3=4,162=4=4,178=6=4,184=4=4,248=6=4,254=4=4,378=2=4,380=4=4;
#CREDIT:Fred-104;
#NOTES:
00000000
00000000
00000000
00000000
,
00000000
00000000
00000000
00000000
,
00000000
00000000
00000000
00000000
,
00001000
00000000
00010000
00000010
00001000
00000000
00000100
00000010
00000001
00000000
00000101
00000000
00001100
00000000
00001000
00010000
,
00001000
00000000
00000000
00000000
00100000
00000000
01000000
00000000
10000000
00000000
00010000
00000000
01000000
00000000
00100000
00000000
00010000
00000000
00000000
00001000
00000000
00000000
00000100
00000000
00000101
00000000
00000001
00000000
00002000
00000000
00000000
00000000
,
00003200
00000300
00000000
00000000
00000000
00000000
00000000
00000000
00000000
00000000
00000000
00000000
00000000
00000000
00000000
00000000
00000100
00000000
00000000
00000000
00000000
00000000
00000000
00000000
00000000
00000000
00000000
00000000
00000000
00000000
00000000
00000000
00000010
00000000
00000000
00000000
00000000
00000000
00000000
00000000
00000000
00000000
00000000
00000000
00000000
00000000
00000000
00000000
00000010
00000000
00000000
00000000
00000000
00000000
00000000
00000000
00000000
00000000
00000000
00000000
00000000
00000000
00000000
00000000
,
00001000
00000000
00001000
00000000
00010000
00000000
00010000
00001000
,
00100000
00000000
00100000
00000000
01000000
00000000
01000000
10000000
,
00010000
00000000
00000000
00000000
00010000
00000000
01000000
00000000
00100000
00000000
00000000
00100000
00000000
00000000
00100000
00000000
,
00010000
00001000
00010000
00001000
00000100
00000001
00000100
00000001
,
00000010
00001000
00000010
00001000
00010000
01000000
00010000
01000000
,
10000000
00010000
10000000
00000000
00100000
00000000
00010000
00000000
00001000
00010000
00001000
00000000
00000100
00000000
00000001
00000000
,
00000011
00000000
00000000
00010100
00000000
00000000
00011000
00000000
00000000
01001000
00000000
00000000
10100000
00000000
10000000
00000000
,
00020000
00000000
00000000
00030000
,
10000000
01000000
00100000
00010000
00001000
00000100
00000010
00000001
00001000
00000010
00000100
00001000
00020000
00000000
00030000
00000000
,
00022000
00033000
00000000
00000000
00000000
00000000
00000000
00000000
00000000
00000000
00000000
00000000
00000000
00000000
00000000
00000000
00010000
00000000
00000000
00000000
00000000
00000000
00000000
00000000
01000000
00000000
00000000
00000000
00000000
00000000
00000000
00000000
00000000
00000000
00000000
00000000
00000000
00000000
00000000
00000000
01000000
00000000
00000000
00000000
00000000
00000000
00000000
00000000
10000000
00000000
00000000
00000000
00000000
00000000
00000000
00000000
00010000
00000000
00000000
00000000
00000000
00000000
00000000
00000000
,
10000000
00000000
00100000
00000000
00010000
00000000
00001000
00000000
00000100
00000000
00000001
00000000
00000010
00000100
00000000
00000100
,
00001000
00000001
00000100
00001000
00000000
00001000
00010000
00001000
,
00100000
00000000
00001000
00000000
00000010
00000000
00001000
00000000
00010000
00000000
00001000
00000000
00100000
01000000
00000000
01000000
,
00100000
00010000
01000000
00100000
00000000
00100000
00010000
00100000
,
10000000
00000000
01000000
00000000
00010000
00000000
00001000
00000000
00000010
00000000
00000001
00000000
00000100
00000010
00000000
00000010
,
00010000
00001000
00000100
00000010
00000000
00000010
00001000
00000001
,
00000010
00000100
00001100
00000000
00000100
00010000
00011000
00000000
,
00001000
00010000
01000000
00100000
00001000
00000010
00000100
00010000
,
00002000
00000000
00000000
00000000
01000000
00000000
00000000
00000000
00013000
00001000
00010000
00000000
00000010
00000000
00010000
00000000
,
00011000
00000000
00001000
00010000
00100000
01000000
00001000
00010000
,
00000100
00000000
00010000
00000000
00001000
00000000
00010000
00000000
00000010
00001000
00000010
00000000
00010000
00001000
00010000
00000000
,
00011000
00000000
00000000
00000000
00001000
00000000
00100000
00000000
01000000
00000000
00010000
00000000
00001000
00000000
01000000
00100000
,
01000000
00000000
00100000
00010000
00001000
00000000
00000000
00000000
00011000
00000000
00000000
00000000
00001010
00000000
00000000
00000000
,
00011000
00000000
00010000
00010100
00000000
01001000
00000000
00010010
,
00000000
00000000
00101000
00000000
00101000
00000000
00000000
00000000
00001000
00010000
00001000
00010000
00001000
00000000
00000000
00000000
,
00011000
00000000
00001000
00011000
00000000
00010000
00100000
10100000
,
00000000
10000000
11000000
00000000
01000000
00100000
00001000
00010000
,
00010100
00000000
00000100
00000110
00000000
00000010
00000001
00001001
,
00000000
00000000
00001000
00000000
00001010
00000000
00000010
00010000
00001000
00000000
01000000
00000000
00001000
00010000
00001000
00000000
,
00100000
00010000
10000000
10010000
00000000
10000000
00100000
00110000
,
00000000
00000000
00010000
00000000
00011000
00000000
00001000
00010000
00000010
00000000
00001000
00000000
00000100
00000000
00000000
00000000
,
00000110
00000000
00000010
00000000
00000001
00000000
00001001
00000000
00000000
00000000
00000101
00000000
00000000
00000000
00000100
00001000
,
00000100
00000000
00000000
00000000
00000000
00000000
00000000
00000000
00001000
00000000
00000000
00000000
00000000
00000000
00000000
00000000
00010000
00000000
00000000
00000000
00000000
00000000
00000000
00000000
00001000
00000000
00000000
00000000
00010000
00000000
00000000
00000000
00002000
00000000
00000000
00000000
00000000
00000000
00000000
00000000
00000000
00000000
00000000
00000000
00000000
00000000
00000000
00000000
00023000
00030000
00000000
00000000
00000000
00000000
00000000
00000000
00001000
00000000
00000000
00000000
00000000
00000000
00000000
00000000
,
00000010
00000100
00001000
00000010
00000100
00001000
00010000
00100000
,
01000000
00000000
00000000
00000000
00000000
00000000
00000000
00000000
00010000
00000000
00000000
00000000
00000000
00000000
00000000
00000000
10000000
00000000
00000000
00000000
00000000
00000000
00000000
00000000
20020000
30030000
00000000
00000000
00000000
00000000
00000000
00000000
00010000
00000000
00000000
00000000
00000000
00000000
00000000
00000000
00100000
00000000
00000000
00000000
00000000
00000000
00000000
00000000
01000000
00000000
00000000
00000000
00000000
00000000
00000000
00000000
00010000
00000000
00000000
00000000
00000000
00000000
00000000
00000000
,
00001000
00000010
00000100
00001000
00000010
00000100
00001000
00010000
,
00100000
00000000
00000000
00000000
00000000
00000000
00000000
00000000
10000000
00000000
00000000
00000000
00000000
00000000
00000000
00000000
01000000
00000000
00000000
00000000
00000000
00000000
00000000
00000000
02200000
03300000
00000000
00000000
00000000
00000000
00000000
00000000
00001000
00000000
00000000
00000000
00000000
00000000
00000000
00000000
00100000
00000000
00000000
00000000
00000000
00000000
00000000
00000000
10000000
00000000
00000000
00000000
00000000
00000000
00000000
00000000
00010000
00000000
00000000
00000000
00000000
00000000
00000000
00000000
,
01000000
10000000
00100000
00010000
10000000
01000000
00001000
00010000
,
00000100
00000001
00001000
00000010
00000001
00001000
00000100
00010000
,
00001000
00000000
00100000
00010000
00100000
00001000
00010000
00000000
00022000
00000000
00000000
00000000
00033000
00000000
00000000
00000000
,
00022000
00033000
00000000
00000000
00000000
00000000
00000000
00000000
00000000
00000000
00000000
00000000
00000000
00000000
00000000
00000000
00010000
00000000
00000000
00000000
00000000
00000000
00000000
00000000
00001000
00000000
00000000
00000000
00000000
00000000
00000000
00000000
00100000
00000000
00000000
00000000
00000000
00000000
00000000
00000000
01000000
00000000
00000000
00000000
00000000
00000000
00000000
00000000
10000000
00000000
00000000
00000000
00000000
00000000
00000000
00000000
00100000
00000000
00000000
00000000
00000000
00000000
00000000
00000000
,
00010000
00001000
01000000
00010000
00000100
00000010
00001000
00000100
,
00000010
00000000
00001000
00000000
00000001
00000000
00000100
00000000
00010000
00000000
00000000
00001000
00000000
00000000
00010000
00000000
,
00100000
00000000
00000000
10000000
00000000
00000000
01000000
00000000
00100000
00000000
00000000
00000000
10010000
00000000
00000000
00000000
,
10000000
00100000
10000000
00000000
00010000
00000000
01000000
00000000
00001000
00010000
00001000
00000000
00000100
00000000
00000001
00000000
,
00001000
00000001
00001000
00000000
00000100
00000000
00000010
00000000
00001000
00010000
00001000
00000000
00100000
00000000
01000000
00000000
,
10000000
00010000
10000000
00000000
00010000
00100000
00010000
00000000
10000000
01000000
10000000
00000000
00010000
10000000
00010000
00000000
,
00100000
00001000
00100000
00001000
00010000
00000010
00010000
00000010
00010000
00000000
00001000
00000000
00010000
00000000
00000000
00000000
,
00022000
00033000
00000000
00000000
00000000
00000000
00000000
00000000
00000000
00000000
00000000
00000000
00000000
00000000
00000000
00000000
00000000
00000000
00000000
00000000
00000000
00000000
00000000
00000000
00000000
00000000
00000000
00000000
00000000
00000000
00000000
00000000
00000000
00000000
00000000
00000000
00000000
00000000
00000000
00000000
00000000
00000000
00000000
00000000
00000000
00000000
00000000
00000000
00000000
00000000
00000000
00000000
00000000
00000000
00000000
00000000
00000000
00000000
00000000
00000000
00000000
00000000
00000000
00000000
,
00000000
00000000
00000000
00000000
,
00000000
00000000
00000000
00000000
,
00000000
00000000
00000000
00000000
,
00010000
00000000
00001000
00000000
00001010
00000000
00000010
00000001
00000100
00010000
00001000
00100000
10000000
01000000
00100000
00010000
,
01000000
00100000
00001000
00010000
00000100
00000010
00001000
00000001
00000010
00010000
00001000
01000000
00100000
00010000
02000000
00000000
,
03020000
00030000
00000000
00000000
00000000
00000000
00000000
00000000
00100000
00000000
00000000
00000000
00000000
00000000
00000000
00000000
01000000
00000000
00000000
00000000
00000000
00000000
00000000
00000000
00010000
00000000
00000000
00000000
00000000
00000000
00000000
00000000
00000100
00000000
00000000
00000000
00000000
00000000
00000000
00000000
00001000
00000000
00000000
00000000
00000000
00000000
00000000
00000000
00000010
00000000
00000000
00000000
00000000
00000000
00000000
00000000
00000000
00000000
00000000
00000000
00000000
00000000
00000000
00000000
,
00001000
00000100
00000010
00001000
00100000
00010000
01000000
00000000
,
00100000
01000000
00100000
01000000
00001000
00010000
00001000
00010000
00000010
00001000
00000010
00001000
00000010
00010000
00001000
00010000
,
00002000
00000000
00000000
00000000
00000000
00000000
00000000
00000000
00000000
00000000
00000000
00000000
00000000
00000000
00000000
00000000
00000000
00000000
00000000
00000000
00003000
00000000
00000000
00000000
00022000
00033000
00000000
00000000
00000000
00000000
00000000
00000000
00001000
00000000
00000000
00000000
00000000
00000000
00000000
00000000
00010000
00000000
00000000
00000000
00000000
00000000
00000000
00000000
01000000
00000000
00000000
00000000
00000000
00000000
00000000
00000000
00100000
00000000
00000000
00000000
00000000
00000000
00000000
00000000
,
00010000
10000000
00010000
01000000
00100000
00010000
00001000
00000100
,
00000010
00000001
00000010
00001000
00000001
00000010
00000100
00000010
,
00001000
00010000
01000000
00100000
00010000
01000000
00100000
00010000
,
00001000
00010000
00001000
00010000
00001000
00000000
00100000
00000000
01000000
00000000
10000000
00000000
00010000
00000000
01000000
00000000
,
00001000
01000000
00010000
00001000
00000010
00010000
00001000
00000010
,
00000100
00001000
00000001
00000000
00000100
00000000
00001000
00000000
00010000
00000000
00001000
00000000
00011000
00000000
00010000
00000000
,
00100000
00000000
01000000
00000000
00100000
00000000
10000000
00100000
01000000
00000000
00010000
10000000
00010000
00000000
10000000
00000000
,
01000000
00100000
00000000
00100000
00001000
00000000
00010000
00001000
00010000
00000000
00000010
00000000
00000100
00000000
00001000
00000000
,
00000001
00000010
00001000
00000001
00000010
00000100
00000010
00001000
,
00010000
01000000
00100000
00010000
10000000
00100000
00010000
00001000
,
00010000
01000000
00010000
00001000
00000010
00001000
00010000
00001000
,
00000100
00000001
00001000
00000001
00000010
00000000
00000100
00000000
00010000
00000000
00001000
00000000
00000010
00000000
00000001
00000000
,
00000100
00001000
00010000
00011000
00000000
00001000
00010000
01000000
,
00100000
00010000
00100000
00000000
10010000
00000000
00000000
00000000
00010000
00000000
01000000
00000000
10000000
00000000
01000000
00000000
,
00100000
00000000
00010000
00000000
00001000
00000000
00010000
00000000
00000100
00001000
00000100
00000000
00000010
00000001
00000010
00000000
,
00000001
00001000
00000001
00000000
00000100
00000010
00000100
00000000
00002000
00000000
00000000
00000000
00010000
00000000
00000000
00000000
,
02003000
00100000
03020000
00100000
,
10030000
00100000
00000000
00100000
00010000
00000000
00001000
00000000
00010000
00000000
00001000
00000000
00100000
00000000
01000000
00000000
,
10000000
00010000
00000000
10000000
00100000
00000000
01000000
00100000
00000000
00010000
00001000
00000000
00010000
00000000
00001000
00010000
,
00000010
00001000
00000010
00000000
00000100
00000001
00001000
00000000
00000002
00000000
00000000
00000000
00000010
00000000
00000000
00000000
,
00000203
00000001
00002300
00010000
,
00103000
01000000
00000000
01000000
00100000
00000000
00001000
00000000
00010000
00000000
00100000
00000000
10000000
00000000
00010000
00000000
,
00100000
00000000
01000000
00000000
00010000
00000000
00001000
00010000
00001000
00000000
00010000
00000100
00010000
00000000
00000000
00000100
,
00000010
00000001
00001001
00000000
00000001
00000000
00000100
00000000
,
00001000
00010000
00100000
10000000
,
01000000
00010000
00000000
00010000
00001000
00000000
00010000
00000000
00000100
00000000
00000000
00000000
00000010
00000000
00000000
00000000
,
00000001
00000000
00000000
00000000
00000100
00000000
00001000
00010000
00001000
00000000
00100000
00000000
00010000
00000000
10000000
00100000
,
10000000
00010000
10000000
00000000
01000000
00100000
00010000
00000000
10000000
00000000
00100000
00000000
00010000
00000000
00001000
00000000
,
00000100
00000000
00000001
00000000
00001000
00000000
00000001
00001000
00000001
00000000
00000010
00000000
00001000
00000000
00010000
00000000
,
01000000
00000000
10000000
00000000
00010000
00000000
10000000
00000000
00010000
01000000
00010000
01000000
00001000
00010000
00001000
00010000
,
00000010
00000000
00001000
00000000
00000010
00000000
00001000
00000000
00000001
00000000
00000100
00000000
00000010
00000000
00000000
00000000
00002002
00000000
00000000
00000000
00000000
00000000
00003003
00000000
00000001
00000010
00000001
00000010
00000100
00001000
00000100
00020000
,
00030000
00000000
00000000
00000000
;

//--------------- dance-double - Fred-104† ----------------
#NOTEDATA:;
#STEPSTYPE:dance-double;
#DESCRIPTION:Fred-104†;
#DIFFICULTY:Challenge;
#METER:18;
#BPMS:0=104,20=208,52=104,60=208,154=156,154.375=130,154.688=78,154.875=52,155=208,182=104,184=208,216=104,240=208,252=104,253.5=208,378=104,380=208;
#STOPS:161.5=0.144,169.5=0.144,253.5=0.145;
#TIMESIGNATURES:0=4=4,152=3=4,155=4=4,159=3=4,162=4=4,178=6=4,184=4=4,248=6=4,254=4=4,378=2=4,380=4=4;
#CREDIT:Fred-104†;
#NOTES:
00000000
00000000
00000000
00000000
,
00000000
00000000
00000000
00000000
,
00000000
00000000
00000000
00000000
,
00011000
00000000
00000000
00000000
00000000
00000000
00110000
00000000
00000000
00000000
00000000
00000000
00100000
00000000
10100000
00000000
MMMMMMMM
00000000
00000000
00000000
MMMMMMMM
00000000
00000000
00000000
MMMMMMMM
00000000
00000000
00000000
10000000
01000000
10000000
01000000
,
00100000
00000000
00000000
00000000
00000000
00000000
00101000
00000000
00000000
00000000
00000000
00000000
00001000
00000000
00010000
00001000
00010000
00000000
00000000
00010000
00000000
00000000
00010000
00000000
00022000
00000000
00000000
00000000
00033000
00000000
00000000
00000000
,
00022000
00033000
00000000
00000000
00000000
00000000
00000000
00000000
00000000
00000000
00000000
00000000
00000000
00000000
00000000
00000000
00010000
00000000
00000000
00000000
00000000
00000000
00000000
00000000
00000000
00000000
00000000
00000000
00000000
00000000
00000000
00000000
00001000
00000000
00000000
00000000
00000000
00000000
00000000
00000000
00000000
00000000
00000000
00000000
00000000
00000000
00000000
00000000
00001000
00000000
00000000
00000000
00000000
00000000
00000000
00000000
00000000
00000000
00000000
00000000
00000000
00000000
00000000
00000000
,
00001100
00000100
00000001
00000001
,
00000011
00000010
00001000
00001000
,
00011000
00000000
00000000
00000000
00010000
00000000
00001000
00000000
00010000
00000000
00000000
00010000
00000000
00000000
00010000
00000000
,
00001000
00010000
01000000
00001000
01000000
00010000
00001000
00010000
,
00001000
00000010
00010000
00000010
00001000
00010000
00001000
00010000
,
00001000
00100000
00001000
00100000
00010000
10000000
00010000
01000000
00001000
00010000
00001000
00010000
00000100
00001000
00000001
00001000
,
00000010
00000000
00000000
00010010
00000000
00000000
00001000
00000000
00000000
01001000
00000000
00000000
00010000
00000000
00001000
00000000
,
00011000
00000000
00000000
00000000
00000000
00000000
00000000
00000000
00010000
00001000
00010000
00001000
00010000
00001000
00010000
00001000
00010000
00000010
00010000
00000010
00010000
00000010
00010000
00000010
00010000
00001000
00010000
00001000
00010000
00001000
00010000
00001000
,
00010000
00000100
00010000
00000100
00010000
00000100
00010000
00000100
00001000
00000100
00001000
00000100
00001000
00000100
00001000
00000100
00000010
00000001
00000010
00000001
00000010
00000001
00000010
00000001
00002000
00000000
00000000
00000000
00003000
00000000
00000000
00000000
,
00002000
00003000
00000000
00000000
00000000
00000000
00000000
00000000
00000100
00000000
00000000
00000000
00000000
00000000
00000000
00000000
00000010
00000000
00000000
00000000
00000000
00000000
00000000
00000000
00001000
00000000
00000000
00000000
00000000
00000000
00000000
00000000
00000001
00000000
00000000
00000000
00000000
00000000
00000000
00000000
00000100
00000000
00000000
00000000
00000000
00000000
00000000
00000000
00001000
00000000
00000000
00000000
00000000
00000000
00000000
00000000
00000001
00000000
00000000
00000000
00000000
00000000
00000000
00000000
,
00000200
00000000
00001000
00000000
MMMM0000
00000000
00000010
00000000
MMMM0000
00000000
00001300
00000000
00000100
00000001
00000000
00001000
,
00000010
00000100
00010000
01000000
00001000
00010000
00100000
10000000
,
00020000
00000000
00100000
00000000
0000MMMM
00000000
10000000
00000000
0000MMMM
00000000
01030000
00000000
00010000
00100000
00000000
01000000
,
10000000
00100000
00010000
00001000
01000000
00010000
00000100
00000010
,
00020000
00000000
00001000
00000000
0000MMMM
00000000
00100000
00000000
0000MMMM
00000000
00031000
00000000
00010000
00001000
00000000
00000100
,
00000010
00000100
00000001
00001000
00000100
00000001
00001000
00000010
,
00000011
00000000
00000001
00000100
00001000
00000000
0000MMMM
00000000
00011000
00000000
00010000
00100000
10000000
00000000
MMMM0000
00000000
,
10010000
00010000
00100000
01000000
00010000
00000100
00001000
00000200
,
00000001
00000000
MMMM0000
00000000
00000010
00000000
MMMM0000
00000000
00001300
00000001
00000100
00000010
00001000
00000000
00000010
00000000
,
00010000
00000000
00001000
00000000
00100000
00000000
01000000
00100000
00010000
00100000
01000000
00100000
01000000
00000000
10000000
00010000
,
01000000
00000000
00100000
00000000
00010000
00000000
00001000
00000000
00010000
00000010
00001000
00000001
00000100
00000010
00000100
00000001
,
00001000
00000000
00000100
00000000
00000010
00000000
00001000
00000000
00000010
00000000
00000100
00000000
00010000
00000000
00001000
00010000
,
00000100
00000000
00001000
00000001
00000100
00000000
00000000
00000000
00000110
00000000
00000000
00000000
00010010
00000000
00000000
00000000
,
00001001
00000000
00000011
00000011
00000000
00001010
00000000
00011000
,
00000000
00000000
01001000
00000000
01010000
00000000
00000000
00000000
00010000
10000000
01000000
00100000
00010000
00100000
00001000
00100000
,
00010000
00000000
10000000
10010000
00000000
00010000
10000000
11000000
,
00000000
01000000
01010000
00000000
00010000
00001000
00010000
00000100
,
00000110
00000000
00000010
00000011
00000000
00000001
00000100
00000110
,
00000000
00000000
00001000
00000000
00011000
00000000
00010000
00001000
00010000
00000000
00000100
00000000
00010000
00001000
00010000
00000000
,
00001000
00000100
00000010
00001010
00000000
00001000
00000001
00000011
,
00000000
00000000
00000001
00000000
00001001
00000000
00001000
00000010
00010000
00000000
00010010
00000000
00000010
00000000
00010000
00000000
,
00011000
00000000
00001000
00000000
01000000
00000000
01010000
00000000
00000000
00000000
10010000
00000000
10000000
00000000
00010000
10000000
,
01000000
00000000
00000000
00000000
00000000
00000000
00000000
00000000
00100000
00000000
00000000
00000000
00000000
00000000
00000000
00000000
00001000
00000000
00000000
00000000
00010000
00000000
00000000
00000000
00001000
00000000
00000000
00000000
00010000
00000000
00000000
00000000
00002000
00000000
00000000
00000000
00000000
00000000
00000000
00000000
00000000
00000000
00000000
MMMM3000
00000000
00000000
00000000
00000000
00002000
00003000
00000000
00000000
01000000
00000000
00000000
00000000
00010000
00000000
00000000
00000000
01000000
00000000
00000000
00000000
,
00001000
00000000
00010000
00000010
00001000
00000010
00010000
00000000
00001000
00100000
00010000
00100000
00001000
00000000
00010000
00000000
,
00000100
00000000
00000000
00000000
00001000
00000000
00000000
00000000
00000100
00000000
00000000
00000000
00010000
00000000
00000000
00000000
00001000
00000000
00000000
00000000
00000000
00000000
00000000
00000000
00022000
00033000
00000000
00000000
00000000
00000000
00000000
00000000
00011000
00000000
00000000
00000000
00000000
00000000
00000000
00000000
00001000
00000000
00000000
00000000
01000000
00000000
00000000
00000000
00010000
00000000
00000000
00000000
10000000
00000000
00000000
00000000
01000000
00000000
00000000
00000000
00000000
00000000
00000000
00000000
,
00100000
00001000
00010000
00001000
00010000
00000010
00001000
00000010
00001000
00000001
00000010
00000000
00000100
00000000
00001000
00000000
,
00000001
00000000
00000000
00000000
00000100
00000000
00000000
00000000
00000010
00000000
00000000
00000000
00001000
00000000
00000000
00000000
00000001
00000000
00000000
00000000
00000000
00000000
00000000
00000000
00002002
00003003
00000000
00000000
00000000
00000000
00000000
00000000
00000001
00000000
00000000
00000000
00000100
00000000
00000000
00000000
00000010
00000000
00000000
00000000
00001000
00000000
00000000
00000000
00000010
00000000
00000000
00000000
00000000
00000000
00000000
00000000
00010000
00000000
00000000
00000000
00001000
00000000
00000000
00000000
,
01000000
00010000
01000000
00000000
00100000
10000000
00010000
00100000
01000000
00000000
10000000
00000000
00010000
00000000
01000000
00000000
,
00001000
00010000
00000020
00000000
00001030
00000010
00020000
00000000
00031000
00100000
00001000
00010000
00001000
01000000
00001000
00010000
,
00001000
00000000
00000000
00000000
00000000
00000000
00000000
00000000
00010000
00000000
00000000
00000000
00001000
00000000
00000000
00000000
00000010
00000000
00000000
00000000
00000100
00000000
00000000
00000000
00000010
00000000
00000000
00000000
00000001
00000000
00000000
00000000
00002000
00003000
00000100
00000000
00000010
00000000
00000001
00000000
00001000
00000000
00000100
00000000
00000010
00000000
00000001
00000000
00001000
00000000
00000000
00000000
00000000
00000000
00000000
00000000
MMMMMMMM
00000000
00000000
00000000
00000000
00000000
00000000
00000000
,
00002002
00003003
00000000
00000000
00000000
00000000
00000000
00000000
00000001
00000000
00000000
00000000
00000000
00000000
00000000
00000000
00000010
00000000
00000000
00000000
00000000
00000000
00000000
00000000
00010000
00000000
00000000
00000000
00000000
00000000
00000000
00000000
00001000
00000000
00000000
00000000
00000000
00000000
00000000
00000000
01000000
00000000
00000000
00000000
00000000
00000000
00000000
00000000
10000000
00000000
00000000
00000000
00000000
00000000
00000000
00000000
00100000
00000000
00000000
00000000
00000000
00000000
00000000
00000000
,
01100000
01000000
00010000
00000100
00000001
00000010
00001000
00010000
,
00011000
00000000
00001000
00000000
00000100
00000000
00000001
00000000
00000010
00000000
00000000
00010000
00000000
00000000
00001000
00000000
,
01000000
00000000
00000000
10000000
00000000
00000000
00100000
00000000
00010000
00000000
00001000
00000000
00011000
00000000
MMMMMMMM
00000000
,
00010000
00000100
00000001
00001000
00000010
00000001
00001000
00000010
,
00010000
00100000
10000000
00010000
00100000
01000000
00010000
00001000
,
00010000
00000100
00001000
00000100
00010000
00000100
00001000
00000100
00010000
00001000
00100000
00010000
00100000
00001000
00010000
00001000
,
01000000
00010000
10000000
01000000
00100000
00001000
00010000
00000010
00001000
00000001
00000010
00000100
00000010
00000000
00000000
00000000
,
00001002
00000000
00000000
00000000
,
00002003
00000000
00000000
00000000
,
00003002
00000000
00000023
00000000
,
00002030
00000000
00000000
00000000
00000000
00000000
00000000
00000000
00020000
00000000
00033000
00000000
MMMMMMMM
MMMMMMMM
MMMMMMMM
MMMMMMMM
,
00001000
00010000
00001000
00010000
00100000
10000000
00100000
10000000
01000000
00010000
01000000
00010000
00001000
00000010
00000001
00001000
,
00000010
00000100
00000010
00000100
00001000
00010000
00001000
00010000
00100000
10000000
01000000
00010000
00001000
00000010
00001000
00000000
,
00022000
00033000
00000000
00000000
00000000
00000000
00000000
00000000
00001000
00000000
00000000
00000000
00000000
00000000
00000000
00000000
00010000
00000000
00000000
00000000
00000000
00000000
00000000
00000000
00100000
00000000
00000000
00000000
00000000
00000000
00000000
00000000
10000000
00000000
00000000
00000000
00000000
00000000
00000000
00000000
00010000
00000000
00000000
00000000
00000000
00000000
00000000
00000000
00100000
00000000
00000000
00000000
00000000
00000000
00000000
00000000
00001000
00000000
00000000
00000000
00000000
00000000
00000000
00000000
,
00000010
00000100
00010000
00001000
00000100
00000001
00001000
00000010
,
00010000
00001000
00010000
00001000
00100000
00010000
00100000
00010000
10000000
00100000
10000000
00010000
00100000
00001000
00010000
00000100
,
00020000
00000000
00000000
00000000
00000000
00030000
MMMMMMMM
00000000
00010000
00000000
00000010
00000000
00000001
00000000
00001000
00000000
,
00000100
00000010
00001000
00000001
00000100
00001000
00010000
00100000
,
00010000
00001000
00010000
00000000
00000010
00000000
00001000
00000000
00000100
00000000
00000010
00000000
00001000
00000000
00000001
00000000
,
00000100
00001000
00000100
00000000
00010000
00000000
00001000
00000000
00100000
00000000
00010000
00000000
00001000
00000000
00000100
00000000
,
00010000
00001000
00010000
00001000
00010000
00000000
00000010
00000000
00001010
00000000
00001000
00000000
00000001
00000000
00000010
00000000
,
00001000
00100000
00010000
10000000
00100000
00010000
00000010
00001000
,
00000001
00000010
00000100
00000000
00001000
00000000
00000100
00010000
00001000
00000000
01000000
00000000
01100000
00000000
00100000
00000000
,
10000000
00000000
00010000
00000000
01000000
00000000
00100000
10000000
00010000
00000000
00010000
00100000
00001000
00000000
00010000
00000000
,
00000100
00001000
00000000
00001000
00000001
00000000
00000100
00000001
00001000
00000000
00000100
00000000
00000001
00000000
00001000
00000000
,
00000010
00000100
00001000
00000001
00000100
00001000
01000000
00010000
,
10000000
00010000
00100000
00000000
01000000
00000000
10000000
00000000
00010000
00000000
10000000
00000000
00100000
00000000
00010000
00000000
,
00000010
00001000
00000001
00000010
00001000
00100000
00010000
10000000
,
00100000
01000000
00010000
01000000
00100000
00000000
00010000
00000000
00001000
00000000
00010000
00000000
00000100
00000000
00000010
00000000
,
00001000
00000001
00000100
00001100
0000MMMM
00010010
00010000
00011000
,
00001000
00100000
00010000
00000000
10010000
00000000
MMMM0000
00000000
11000000
00000000
01000000
00000000
00010000
00000000
00001000
00000000
,
00011000
00000000
00010000
00000000
00001000
00000000
00000100
00000000
00000001
00000010
00000100
00001000
00000100
00010000
00001000
01000000
,
00010000
10000000
00100000
01000000
00010000
01000000
00001000
00010000
00002000
00000000
00000000
00010000
00000000
00000000
00010000
00000000
,
00003200
00000000
00000000
00000001
00000000
00000000
00000001
00000000
00000320
00000000
00000000
00000100
00000000
00000000
00000100
00000000
,
00001030
00000001
00000000
00000010
00000100
00000000
00010000
00000000
00001000
00000000
00100000
00000000
10000000
00000000
00100000
00000000
,
00010000
00100000
00000000
00001000
00010000
00000000
00001000
00100000
00000000
00010000
10000000
00000000
00010000
00000000
01000000
00001000
,
00010000
00000100
00001000
00000100
00010000
00001000
00010000
00000010
00020000
00000000
00001000
00000000
00001000
00000000
00000000
00000000
,
00230000
00000000
00000000
01000000
00000000
00000000
01000000
00000000
20300000
00000000
00000000
00010000
00000000
00000000
00010000
00000000
,
31000000
00100000
00000000
01000000
00010000
00000000
00001000
00000000
00010000
00000000
00010000
00000000
00001000
00000000
00001000
00000000
,
00010000
00000000
00000100
00000000
00000110
00000000
00000010
00000001
00001000
00000000
00001000
00000001
00000100
00000000
00000010
00000100
,
00000000
00001000
00010000
00000000
00001000
00100000
00001000
00100000
00002000
00000000
00000000
00000000
00010000
00000000
MMMM0000
00000000
,
00003020
00000000
00000100
MMMM0000
00000032
00000000
00001000
MMMM0000
,
00000103
00001000
00000000
00001000
00010000
00000000
00001000
00010000
00001000
00000000
00100000
00000000
01000000
00000000
00010000
00000000
,
10000000
00000000
00100000
00000000
00010000
00000000
00100000
00001000
00010000
00001000
00010000
00000000
00001000
00000000
00000100
00000010
,
00000100
00000001
00001000
00000100
00000010
00000001
00001000
00000000
00000001
00000000
00000100
00000000
00001000
00000000
00010000
00000000
,
00100000
00000000
10000000
00010000
00100000
00000000
01000000
10000000
00010000
00000000
10000000
00000000
00100000
00000000
00010000
00001000
,
00010000
00000100
00001000
00000000
00000001
00000000
00000100
00000000
00000010
00010000
00001000
01000000
00100000
10000000
00010000
00100000
,
00001000
00000000
00010000
00000000
00001000
00000000
00000010
00000000
00000001
00000000
00001000
00000000
00000010
00000000
00000100
00000000
00000002
00000000
00002000
00000000
MMMM0000
00000003
00003001
00000010
00000100
00010000
00001000
00100000
01000000
10000000
00010000
10000000
,
0000MMMM
00000000
00000000
00000000
;
