#TITLE:Desert Journey(Fred-Special);
#ARTIST:dj TAKA;
#BANNER:Desert Journey(Fred-Special).png;
#BACKGROUND:Desert Journey(Fred-Special)-bg.png;
#CDTITLE:./CDTitles/DDR HOTTEST PARTY2.png;
#MUSIC:Desert Journey(Fred-Special).ogg;
#SAMPLESTART:15.429;
#SAMPLELENGTH:15;
#BPMS:0=140;
#BGSTAGE:14;

//--------------- dance-single - Fred-104 ----------------
#NOTES:
     dance-single:
     Fred-104:
     Challenge:
     15:
     :
0000
0000
0000
0000
,
0000
0000
0000
0000
,
0000
0000
0000
0000
,
0000
0000
0000
0000
,
0000
0000
0000
0000
,
1000
0000
0100
0010
0001
0000
1000
0000
0001
0000
0100
0010
1000
0000
0001
0000
,
1000
0000
0010
0100
0001
0000
1000
0000
0001
0000
0010
0100
1000
0000
0001
0000
,
0100
0000
0001
1000
0100
0000
0010
0000
0001
0000
1000
0010
0100
0000
0001
0000
,
0000
0000
0000
0000
0000
2002
0000
3003
,
1000
0100
0010
0001
1000
0100
0010
0001
0000
0001
0000
0100
0010
1000
0001
0000
,
1000
0010
0100
0001
1000
0100
0000
0100
0010
0100
1000
0001
0100
0010
0100
0000
,
0001
0010
0001
1000
0001
0010
0001
1000
0000
1000
0000
0010
0100
0010
1000
0000
,
0001
0010
0100
0010
0000
0001
0000
1000
0010
0100
0001
1000
0001
0010
0100
0000
,
1000
0010
1000
0010
0100
0001
0100
0001
0000
0100
0010
1000
0001
0010
0100
1000
,
0001
0010
0001
0000
0010
1000
0000
0010
1000
0010
1000
0000
0010
0000
0001
0000
,
0100
0010
1000
0001
1000
0100
0010
0000
0001
1000
0010
0100
0001
0000
1000
0000
,
0001
0000
0100
0000
0110
0000
0000
0000
0010
1000
0000
0001
1000
0000
0100
0000
,
1000
0001
0100
0001
0000
0001
0000
0010
0001
0010
0100
1000
0001
0100
0010
0100
,
0001
1000
0010
0100
0000
0001
0010
0100
1000
0001
1000
0010
0100
0001
1000
0000
,
0001
0000
0000
0000
0000
0000
0000
0000
0000
0000
0000
0000
0100
0000
0000
0000
0000
0000
0000
0000
0000
0000
0000
0000
0010
0000
0000
0000
0000
0000
0000
0000
0000
0000
0000
0000
1000
0000
0000
0000
0000
0000
0000
0000
0000
0000
0000
0000
0001
0000
0000
0000
0000
0000
0000
0000
0000
0000
0000
0000
0010
0000
0000
0000
0000
0000
0000
0000
0000
0000
0000
0000
0100
0000
0000
0000
0000
0000
0000
0000
0000
0000
0000
0000
1000
0000
0000
0000
0000
0000
0000
0000
0000
0000
0000
0000
0001
0000
0000
0000
0000
0000
0000
0000
0000
0000
0000
0000
0000
0000
0000
0000
0000
0000
0000
0000
0000
0000
0000
0000
0200
0300
0000
0000
0000
0000
0000
0000
0000
0000
0000
0000
0200
0300
0000
0000
0000
0000
0000
0000
0000
0000
0000
0000
1000
0000
0000
0000
0000
0000
0000
0000
0000
0000
0000
0000
0010
0000
0000
0000
0000
0000
0000
0000
0000
0000
0000
0000
0100
0000
0000
0000
0000
0000
0000
0000
0000
0000
0000
0000
0010
0000
0000
0000
0000
0000
0000
0000
0000
0000
0000
0000
,
1000
0100
0010
0001
0000
1000
0000
0010
0100
0010
1000
0100
1000
0001
0100
0000
,
0001
0010
0001
1000
0001
0010
0001
1000
0000
0010
0000
0100
0001
1000
0001
0010
,
0100
1000
0100
0010
0000
0010
0001
1000
0010
0100
0010
0000
1000
0100
1000
0000
,
0001
0100
0010
0100
1000
0100
0010
1000
0000
0001
0000
0100
0010
0100
0001
0000
,
1000
0100
0010
0001
1000
0010
0100
0001
1000
0100
1000
0100
1000
0001
0100
0010
,
1000
0000
1001
0000
1000
0010
0001
0100
,
1000
0000
0001
0000
0010
0000
0100
0000
0001
1000
0010
0000
0001
0000
0100
0000
,
0110
0000
0000
0000
1010
0000
0000
0000
0010
0100
0000
0100
0001
0000
1000
0000
,
0100
0000
1000
0000
0010
0000
0100
0000
1000
0001
0010
0000
1000
0000
0100
0000
,
0110
0000
0011
0000
0001
1000
0100
0001
,
0200
0000
1000
0000
0000
0000
1300
0000
0001
0100
0000
0010
1000
0000
0100
0000
,
1100
1000
0001
0101
0000
0110
0010
1010
,
1000
0000
0100
0000
0001
0000
0100
0000
1000
0100
0000
0100
0010
0001
1000
0001
,
0100
0000
0000
0000
1001
0000
1000
0000
0010
0100
1000
0000
0100
0000
0010
0000
,
0110
0000
0000
0000
1001
0000
0001
0000
0010
0100
0001
0000
0100
0000
0010
0000
,
0001
0000
0000
0100
0010
0000
1000
0000
0100
0000
0010
0000
0001
0000
0100
1000
,
0100
0000
0000
0001
0010
0000
0100
0000
1000
0100
0001
0000
1000
0000
0010
0001
,
1000
0000
1001
0000
0011
0010
0100
1000
,
1001
0000
1000
0010
0100
0000
1000
0000
0001
0010
0100
0000
0001
0000
1000
0000
,
1010
0010
0100
0100
0101
0001
1000
1000
,
0001
0000
1000
0000
0001
0010
0000
0010
0100
1000
0010
0100
0001
1000
0001
0000
,
1001
0000
0000
0000
,
0102
0000
0000
0000
0013
0000
0100
1000
0000
1000
0010
0000
0100
0000
0001
0010
,
1000
0000
0010
0001
0100
0000
0001
0010
0100
0000
1000
0000
0110
0000
0001
0000
,
2000
0000
0100
0000
3100
0000
1000
0001
0000
0100
0010
0000
1000
0000
0010
0000
,
0100
0000
1000
0100
0001
0010
0000
0010
0100
1000
0000
1000
0002
0000
0000
0000
,
1003
0000
0000
0000
0000
0000
0100
0000
0000
0000
0000
0000
0010
0000
0000
0001
0000
0000
1000
0000
0000
0010
0000
0000
0100
0000
0000
0000
0000
0000
0102
0000
0000
0000
0000
0000
0000
0000
0000
0000
0000
0000
1003
0000
0100
0000
1000
0000
,
0001
0000
0000
0000
0000
0000
0000
0000
0000
0000
0000
0000
0000
0000
0000
0000
0000
0000
0000
0000
0000
0000
0000
0000
0010
0000
0000
0000
0000
0000
0000
0000
0000
0000
0000
0000
0000
0000
0000
0000
0000
0000
0000
0000
0000
0000
0000
0000
0001
0000
0000
0000
0000
0000
0000
0000
0000
0000
0000
0000
0000
0000
0000
0000
0000
0000
0000
0000
0000
0000
0000
0000
0200
0300
0000
0000
0000
0000
0000
0000
0000
0000
0000
0000
0200
0300
0000
0000
0000
0000
0000
0000
0000
0000
0000
0000
0000
0000
0000
0000
0000
0000
0000
0000
0000
0000
0000
0000
0000
0000
0000
0000
0000
0000
0000
0000
0000
0000
0000
0000
1000
0000
0000
0000
0000
0000
0000
0000
0000
0000
0000
0000
0000
0000
0000
0000
0000
0000
0000
0000
0000
0000
0000
0000
0001
0000
0000
0000
0000
0000
0000
0000
0000
0000
0000
0000
0000
0000
0000
0000
0000
0000
0000
0000
0000
0000
0000
0000
1000
0000
0000
0000
0000
0000
0000
0000
0000
0000
0000
0000
0000
0000
0000
0000
0000
0000
0000
0000
0000
0000
0000
0000
,
0001
0100
0010
0100
1000
0000
0001
0010
0100
0010
1000
0000
0001
0010
0100
1000
,
0001
0000
0000
0100
0000
0000
0010
0000
0000
1000
0000
0000
0010
0000
0000
0100
0000
0000
0001
0000
0000
1000
0000
0000
0001
0000
0000
0000
0000
0000
1000
0000
0100
0000
1000
0000
0001
0000
0100
0000
0001
0000
1000
0000
0000
0000
0000
0000
,
1100
0100
0110
0010
0011
0001
1001
1000
,
0001
0000
1000
0001
0100
0000
1000
0000
0100
0010
1000
0000
0100
0010
0001
0000
,
0101
0000
0100
0000
0110
0000
0010
0000
1000
0010
0100
0010
1000
0000
0001
1000
,
0100
0010
0100
0010
0001
0000
0100
0010
1000
0000
0001
0000
2001
0000
0000
0000
,
3001
0000
0100
0010
0100
0000
0001
0000
1000
0000
0100
0010
0100
0000
1000
0001
,
0200
0001
1000
0020
0000
0000
0000
0330
,
2000
0100
0010
0002
0000
0000
0000
3003
,
0002
1000
0010
0200
0000
0000
0000
0303
,
0001
0100
0010
0000
1000
0100
0010
0000
0001
0100
0010
1000
0100
0010
0001
0100
,
0020
0000
0000
0000
0000
0000
0000
0000
0130
0010
0100
0010
0100
0010
0100
0000
,
1001
0000
0000
0000
;

//--------------- dance-double - Fred-104 ----------------
#NOTES:
     dance-double:
     Fred-104:
     Challenge:
     16:
     :
00000000
00000000
00000000
00000000
,
00000000
00000000
00000000
00000000
,
00000000
00000000
00000000
00000000
,
00000000
00000000
00000000
00000000
,
00000000
00000000
00000000
00000000
,
00010000
00001000
00100000
00000000
00010000
00000000
10000000
00000000
00100000
10000000
00010000
00000000
01000000
00000000
00001000
00000000
,
00010000
00001000
00000010
00000000
00000100
00000000
00001000
00000000
00000001
00000100
00000010
00000000
00000100
00000000
00001000
00000000
,
00010000
00100000
01000000
00000000
00010000
10000000
01000000
00000000
00010000
00001000
00000010
00000000
00000001
00001000
00000100
00000000
,
00000000
00000000
00000000
00000000
00000000
00022000
00000000
00033000
,
00001000
00100000
00010000
10000000
00010000
01000000
00100000
10000000
00000000
01000000
00000000
00100000
00001000
00010000
00001000
00000000
,
00010000
00000100
00001000
00000100
00010000
00000100
00000000
00000100
00001000
00000010
00000100
00000001
00001000
00000001
00000100
00000000
,
00000001
00000010
00000001
00001000
00000001
00000100
00000010
00001000
00000000
00000100
00000000
00010000
00001000
00010000
01000000
00000000
,
00100000
00010000
10000000
00100000
01000000
00010000
00000000
00010000
10000000
00100000
01000000
00000000
00100000
10000000
00010000
00000000
,
00100000
00001000
00010000
00001000
00000010
00000100
00001000
00000001
00000000
00000100
00000010
00000100
00001000
00010000
00100000
01000000
,
00010000
10000000
00010000
00000000
00100000
00001000
00000000
00001000
00010000
00000010
00001000
00000000
00000001
00001000
00000100
00000000
,
00000010
00000001
00001000
00000001
00000100
00000010
00001000
00000000
00000001
00000010
00000100
00000000
00001000
00000000
00000010
00000000
,
00001010
00000000
00010000
00000000
00011000
00000000
00000000
00000000
01000000
00100000
00000000
10000000
00010000
00000000
01000000
00000000
,
00001000
00100000
00010000
00100000
00000000
00010000
00000000
00010000
10000000
01000000
00100000
00010000
10000000
00100000
01000000
00010000
,
00100000
00001000
00010000
00001000
00000000
00001000
00010000
00000010
00001000
00000001
00000010
00000000
00000100
00001000
00000001
00000000
,
00001000
00000100
00001000
00000001
00000100
00000001
00001000
00000100
00000010
00000000
00001000
00000000
00010000
01000000
00100000
00010000
,
01000000
00100000
10000000
00100000
00000000
10000000
00000000
00010000
01000000
00100000
10000000
00000000
00100000
00010000
00001000
00000000
,
00010000
00001000
00000010
00000100
00001000
00000100
00000010
00000001
00000000
00000100
00000000
00001000
00010000
00100000
01000000
00000000
,
00010000
00100000
01000000
10000000
00010000
01000000
00001000
00010000
00001000
00000010
00000001
00000000
00001000
00000100
00000010
00000000
,
00000001
00000100
00000010
00010000
00001000
00000100
00000001
00001000
00000000
00000001
00000000
00000100
00001000
00010000
00001000
00000000
,
00011000
00000000
00101000
00000000
00010010
00000000
00010000
00000000
00001000
00010000
00100000
10000000
00100000
00010000
00001000
00000000
,
00011000
00000000
00000110
00000000
00010000
00000100
00000010
00000100
,
00001000
00000000
00000001
00000100
00001000
00000000
00000100
00000000
00000001
00000100
00000010
00000000
00001000
00000000
00000100
00000000
,
00000110
00000000
00000000
00000000
00011000
00000000
00000000
00000000
01000000
00100000
00000000
00100000
01000000
00000000
00010000
00000000
,
10000000
00000000
00010000
10000000
01000000
00000000
00100000
00000000
01000000
10000000
00010000
00000000
01000000
00000000
00100000
00000000
,
01100000
00000000
00011000
00000000
00001100
00000100
00000010
00000001
,
00002000
00000000
00000010
00000000
00000000
00000000
00003010
00000000
00000100
00000010
00000000
00010000
00001000
00000000
00100000
00000000
,
00101000
00000000
00001000
00010010
00000000
00011000
00010000
00000010
,
00000110
00000000
00000100
00000000
00000001
00000000
00001000
00000000
00000001
00000010
00000000
00000010
00001000
00000100
00000010
00000001
,
00001000
00000000
00000000
00000000
00000001
00000000
00000010
00000000
00001000
00010000
01000000
00000000
00100000
00000000
00010000
00000000
,
10000000
00000000
00000000
00000000
00100000
00000000
00010000
00000000
00001000
00000100
00000010
00000000
00001000
00000000
00000100
00000000
,
00000010
00000000
00001001
00000000
00000001
00000100
00001000
00010000
,
00001000
00010000
01000000
00100000
00010000
00000000
10000000
01000000
00010000
00001000
00010000
00000000
00000100
00000000
00001000
00000000
,
00001001
00000000
00000000
00000000
00011000
00000000
00000000
00000000
00001000
00010000
01000000
00000000
10000000
00010000
01000000
00000000
,
01100000
00000000
00000000
00000000
00011000
00000000
00010000
00000000
00000100
00001000
00000001
00000000
00001000
00000000
00000010
00000000
,
00000100
00001000
00010000
00100000
01000000
00100000
10000000
00010000
,
00100000
00000000
01000000
00000000
10000000
00100000
00000000
01000000
00100000
00010000
00001000
00000100
00000010
00001000
00000001
00000000
,
00001001
00000000
00000000
00000000
,
00001001
00000000
00000000
00000000
00000120
00000000
00000000
00000130
00000000
00000000
00010000
00000000
00001000
00000000
00010000
00001000
,
00000100
00000000
00001000
00010000
01000000
00000000
00010000
00001000
00010000
00000000
00000100
00000000
00001000
00000000
00000001
00000000
,
00001001
00000000
00000000
00000000
00021000
00000000
00000000
00031000
00000000
00000000
01000000
00000000
00100000
00000000
10000000
01000000
,
00100000
00000000
00010000
01000000
10000000
01000000
00000000
00010000
00100000
00001000
00000000
00010000
00000020
00000000
00000000
00000000
,
00001030
00000000
00000000
00000000
00000000
00000000
00000010
00000000
00000000
00000000
00000000
00000000
00000100
00000000
00000000
00000010
00000000
00000000
00000100
00000000
00000000
00000001
00000000
00000000
00001000
00000000
00000000
00000000
00000000
00000000
00000200
00000000
00000000
00000000
00000000
00000000
00000000
00000000
00000000
00000000
00000000
00000000
00001300
00000000
00000001
00000000
00000010
00000000
,
00000001
00000000
00001000
00000000
00000001
00000000
00001000
00000100
00000000
00000000
00000001
00000000
00000100
00000000
00001000
00000000
,
00000001
00000010
00001000
00010000
01000000
00000000
10000000
00100000
00010000
00001000
00000100
00000000
00000001
00000010
00000100
00000010
,
00001000
00000000
00000000
00010000
00000000
00000000
01000000
00000000
00000000
00100000
00000000
00000000
00010000
00000000
00000000
01000000
00000000
00000000
00100000
00000000
00000000
00010000
00000000
00000000
00001000
00000000
00000000
00000000
00000000
00000000
00010000
00000000
00000010
00000000
00001000
00000000
00000010
00000000
00000000
00000100
00000000
00000000
00000001
00000000
00000000
00000000
00000000
00000000
,
00000101
00000100
00000110
00000010
00010010
00010000
00011000
00001000
,
00010000
00000000
00001000
00010000
01000000
00000000
00010000
00000000
00001000
00010000
00100000
00000000
00010000
00000000
00001000
00000000
,
00011000
00000000
00010000
00000000
00010010
00000000
00000010
00000000
00001000
00000010
00000100
00000001
00000100
00000000
00000001
00000000
,
00001000
00000100
00000010
00001000
00010000
00000000
01000000
00100000
00010000
01000000
00001000
00010000
00001000
00000000
00000000
00000000
,
00010000
00001000
00000100
00000001
00000010
00000100
00010000
00001000
,
00020000
00001000
00100000
00002000
00000000
00000000
00000000
00033000
,
00002000
00010000
00000010
00020000
00000000
00000000
00000000
00033000
,
00020000
00001000
01000000
00002000
00000000
00000000
00000000
00033000
,
00010000
00001000
00000100
00000000
00000001
00000010
00000100
00000000
00010000
00001000
01000000
00010000
00100000
10000000
00100000
00010000
,
20000000
00000000
00000000
00000000
00000000
00000000
00000000
00000000
30010000
10000000
01000000
00000000
00100000
00001000
00010000
00000000
,
00011000
00000000
00000000
00000000
;
