#VERSION:0.83;
#TITLE:Deep Vibes;
#ARTIST:Carpainter;
#BANNER:Deep Vibes.png;
#BACKGROUND:Deep Vibes-bg.png;
#CDTITLE:./CDTitles/DANCERUSH STARDOM.png;
#MUSIC:Deep Vibes.ogg;
#SAMPLESTART:40.645;
#SAMPLELENGTH:15;
#BPMS:0=124;
#BGSTAGE:2;

//--------------- dance-single - Fred-104 ----------------
#NOTEDATA:;
#STEPSTYPE:dance-single;
#DESCRIPTION:Fred-104;
#DIFFICULTY:Beginner;
#METER:1;
#CREDIT:Fred-104;
#NOTES:
0000
0000
0000
0000
,
0000
0000
0000
0000
,
0000
0000
0000
0000
,
0000
0000
0000
0000
,
0000
0000
0000
0000
,
1000
0000
0000
0000
,
0000
0000
0000
0000
,
0001
0000
0000
0000
,
0000
0000
0000
0000
,
1000
0000
0000
0000
,
0001
0000
0000
0000
,
1000
0000
0000
0000
,
0001
0000
0000
0000
,
1000
0000
0000
0000
,
0100
0000
0000
0000
,
0010
0000
0000
0000
,
0001
0000
0000
0000
,
1000
0000
0000
0000
,
0001
0000
0000
0000
,
1000
0000
0000
0000
,
0000
0000
0000
0000
,
0001
0000
0000
0000
,
1000
0000
0000
0000
,
0001
0000
0000
0000
,
0100
0000
0000
0000
,
0001
0000
0000
0000
,
1000
0000
0000
0000
,
0001
0000
0000
0000
,
0000
0000
0000
0000
,
1000
0000
0000
0000
,
0001
0000
0000
0000
,
1000
0000
0000
0000
,
0010
0000
0000
0000
,
1000
0000
0000
0000
,
0001
0000
0000
0000
,
0010
0000
0000
0000
,
0100
0000
0000
0000
,
1000
0000
0000
0000
,
0001
0000
0000
0000
,
1000
0000
0000
0000
,
0001
0000
0000
0000
,
0100
0000
0000
0000
,
0010
0000
0000
0000
,
1000
0000
0000
0000
,
1000
0000
0000
0000
,
0001
0000
0000
0000
;

//--------------- dance-single - Fred-104 ----------------
#NOTEDATA:;
#STEPSTYPE:dance-single;
#DESCRIPTION:Fred-104;
#DIFFICULTY:Easy;
#METER:3;
#CREDIT:Fred-104;
#NOTES:
0000
0000
0000
0000
,
0000
0000
0000
0000
,
0000
0000
0000
0000
,
0000
0000
0000
0000
,
0000
0000
0000
0000
,
1000
0000
0000
0000
,
0100
0000
0000
0000
,
0010
0000
0000
0000
,
0001
0000
1000
0000
,
0020
0000
0000
0030
,
0200
0000
0000
0300
,
0002
0000
0000
0003
,
2000
0000
0000
3000
,
0001
0000
0001
0000
,
0010
0000
0010
0000
,
0100
0000
0100
0000
,
1000
0000
1000
0000
,
0001
0000
1000
0000
,
0010
0000
0100
0000
,
0001
0001
0001
0001
,
1000
1000
1000
1000
,
2002
0000
0000
3003
,
0001
0000
1000
0000
,
0010
0000
0100
0000
,
0010
0000
1000
1000
,
1000
0000
0100
0000
,
0010
0000
0001
0000
,
1000
0000
0001
0000
,
0100
0000
0010
0010
,
1001
0000
1000
0000
,
0100
0010
0001
0000
,
1000
0000
0001
0000
,
0100
0010
1000
0000
,
0001
0000
0010
0100
,
1000
0000
0010
1000
,
0001
0000
1000
0001
,
0100
0100
0100
0100
,
0020
0000
1030
0001
,
0020
0000
0130
1000
,
0020
0000
0130
0010
,
2000
0000
3001
1000
,
0100
0100
0010
0000
,
0001
1000
0010
0000
,
0100
0100
0001
0001
,
1000
1000
0001
0001
,
1001
0000
0000
0000
;

//--------------- dance-single - Fred-104 ----------------
#NOTEDATA:;
#STEPSTYPE:dance-single;
#DESCRIPTION:Fred-104;
#DIFFICULTY:Medium;
#METER:7;
#CREDIT:Fred-104;
#NOTES:
0000
0000
0000
0000
,
0000
0000
0000
0000
,
0000
0000
0000
0000
,
0000
0000
0000
0000
,
0000
0000
0000
0000
,
2000
0001
0001
3001
,
0002
1000
1000
1003
,
0200
0010
0010
0310
,
0020
0100
0100
0130
,
1000
0010
0001
0100
,
1000
0010
0001
0100
,
1000
0100
0001
0010
,
1000
0100
0001
0010
,
1000
0000
0100
0000
0010
0010
0001
0000
,
1000
0000
0001
0000
0100
0100
0010
0000
,
0100
0000
0001
0000
1000
1000
0100
0000
,
0010
0000
0100
0000
1000
1000
0001
0000
,
0100
0010
0100
0000
0010
0100
0010
0000
,
1000
0100
1000
0000
0001
1000
0001
0000
,
0010
0100
1000
0010
0100
0001
0010
0000
,
0100
0100
0100
0110
,
2002
0000
0000
3003
,
1000
0000
0100
0000
0010
0001
1000
0000
,
0010
0000
0100
0000
0001
1000
0001
0000
,
0010
0100
1000
1100
,
1000
0000
0010
0000
0100
0001
0100
0000
,
0001
0010
0100
0010
,
0001
0000
1000
0000
0010
0100
0001
0000
,
1000
0100
0110
1001
,
0001
0000
0010
0000
0100
0100
1000
0000
,
0001
0000
0100
0000
0010
0010
1000
0000
,
0100
0000
0010
0000
0100
0100
1000
0000
,
0010
0000
0100
0000
0001
0001
1000
0000
,
0100
0000
0010
0000
0001
1000
0010
0000
,
0100
0000
0010
0000
1000
0001
0010
0000
,
0100
1000
0100
0000
0010
0001
0010
0000
,
0001
0100
0010
0000
1000
0100
0010
0000
,
0002
0000
0100
0000
0100
0000
0013
0100
,
2000
0000
0010
0000
0010
0000
3010
0100
,
0020
0000
1000
0000
0100
0000
1030
0001
,
2000
0000
0100
0000
0100
0000
3100
0010
,
0100
0000
1000
0000
0010
1000
0001
0000
,
0100
0000
0010
0000
1000
0001
0010
0000
,
0100
1000
0100
0000
0010
0001
0010
0000
,
0001
1000
0010
0100
0001
1000
0100
0000
,
0110
0000
0000
0000
;

//--------------- dance-single - Fred-104 ----------------
#NOTEDATA:;
#STEPSTYPE:dance-single;
#DESCRIPTION:Fred-104;
#DIFFICULTY:Hard;
#METER:11;
#CREDIT:Fred-104;
#NOTES:
0000
0000
0000
0000
,
0000
0000
0000
0000
,
0000
0000
0000
0000
,
0000
0000
0000
0000
,
0000
0000
0000
0000
,
1000
0000
1000
0000
0000
0001
0000
0000
1000
0000
0000
0010
0000
0000
0100
0000
,
0001
0000
0001
0000
0000
1000
0000
0000
0100
0000
0000
0010
0000
0000
0001
0000
,
1000
0000
1000
0000
0000
0100
0000
0000
0010
0000
0000
0100
0000
0000
1000
0000
,
0000
0010
0000
0000
0100
0000
0000
0001
0000
0000
1000
0000
0000
0100
0000
0000
,
0010
0000
0010
0000
0000
0001
0000
0000
1000
0000
0000
0001
0000
0000
0100
0000
,
0010
0000
0010
0000
0000
1000
0000
0000
0001
0000
0000
0010
0000
0000
0100
0000
,
1000
0000
1000
0000
0000
0001
0000
0000
1000
0000
0000
0010
0000
0000
0100
0000
,
0000
0001
0000
0000
0010
0000
0000
0100
0000
0000
1000
0000
0000
0010
0000
0000
,
0100
0001
1000
0000
0100
0010
0001
0000
,
0100
0001
1000
0000
0001
0010
0100
0000
,
1000
0100
0001
0000
1000
0010
0001
0000
,
1000
0010
0001
0000
1000
0100
0001
0000
,
1000
0100
1000
0100
0010
0001
0010
0001
,
1000
0010
1000
0010
0100
0001
0100
0001
,
1000
0100
1000
0000
0001
0100
0001
0000
1000
0010
1000
0000
0001
0010
0001
0000
,
1000
1000
1000
1001
,
0002
0010
0000
0010
0000
0013
0011
0000
,
1000
0000
0010
0000
1000
0000
0100
0000
0010
0000
0001
1000
0000
0001
1000
0000
,
0010
0000
0100
0000
0001
0000
0100
0000
0010
0000
1000
0100
0000
1000
0100
0000
,
0010
0000
0001
0000
1000
0000
0001
0000
0100
0000
0010
1000
0000
1000
0001
0000
,
1000
0000
0001
0000
0100
0000
0001
0000
1000
0000
0001
0010
0000
0100
0010
0000
,
0100
0000
1000
0000
0001
0000
0100
0000
0010
0000
1000
0001
0000
1000
0100
0000
,
0010
0000
0100
0000
1000
0000
0001
0000
0100
0000
0010
1000
0000
0010
0100
0000
,
0001
0000
0000
0100
0000
0000
0000
1000
0000
0010
0000
0000
1001
0000
0000
0000
,
0001
0000
0000
0010
0000
0000
0000
0100
0000
0000
1000
0000
0000
0001
0000
0000
,
1000
0000
0010
0000
0100
0000
0000
0001
0000
0000
1000
0000
0000
0100
0000
0000
,
0010
0000
0000
0001
0000
0000
0000
1000
0000
0000
0010
0000
0000
0001
0000
0000
,
0010
0000
0000
1000
0000
0000
0000
0001
0000
0000
1000
0000
0000
0100
0000
0000
,
0010
0000
0001
0000
1000
0000
0001
0100
0001
0000
1000
0100
0000
0100
0010
0000
,
0001
0000
1000
0000
0010
0000
0100
0001
0100
0000
0010
1000
0000
1000
0001
0000
,
0010
0000
0100
0000
1000
0000
0010
0100
0010
0000
1000
0001
0000
0001
0010
0000
,
0100
1000
0000
1000
0001
0000
0000
1000
0001
0100
0001
0000
1001
0000
0000
0000
,
1000
0200
0010
0000
1000
0000
0310
0001
,
1000
0020
0100
0000
1000
0000
0130
0001
,
1000
0200
0001
0000
1000
0000
0310
0001
,
1000
0020
0001
0000
0100
0000
1030
0001
,
0010
0000
0100
0000
1000
0000
0001
0100
0001
0000
1000
0100
0000
0010
0001
0000
,
1000
0000
0001
0000
0100
0000
0010
1000
0010
0000
0100
0001
0000
1000
0100
0000
,
0010
0010
0100
0100
1000
1000
0001
0001
,
1000
0100
1000
0000
0001
0100
0001
0000
1000
0100
1000
0100
0010
0000
0001
0000
,
1001
0000
0000
0000
;

//--------------- dance-single - Fred-104 ----------------
#NOTEDATA:;
#STEPSTYPE:dance-single;
#DESCRIPTION:Fred-104;
#DIFFICULTY:Challenge;
#METER:8;
#CREDIT:Fred-104;
#NOTES:
0000
0000
0000
0000
,
0000
0000
0000
0000
,
0000
0000
0000
0000
,
0000
0000
0000
0000
,
0000
0000
0000
0000
,
0001
0001
0001
0001
,
1000
1000
1000
1000
,
0001
0001
1000
0001
,
1000
1000
0001
1000
,
0002
0100
2003
0010
,
3002
0100
2003
0010
,
3200
0000
0000
0000
0000
0000
0000
0000
0010
0000
0000
0000
0000
0000
0000
0000
0001
0000
0000
0000
0000
0000
0000
0300
0010
0000
0000
0000
0000
0000
0000
0000
,
0020
0000
0000
0000
0000
0000
0000
0000
0001
0000
0000
0000
0000
0000
0000
0000
0100
0000
0000
0000
0000
0000
0000
0030
0001
0000
0000
0000
0000
0000
0000
0000
,
0002
2003
0001
3002
,
2003
3002
1000
2003
,
3002
0203
0010
1000
,
0001
1000
1300
0001
,
2000
3000
MMMM
0000
0002
0003
MMMM
0000
,
2000
3000
MMMM
0000
0002
0003
MMMM
0000
,
0001
0010
0100
1000
0100
0010
0001
0010
,
0001
MMMM
0001
MMMM
0001
MMMM
1001
0000
,
1000
0000
0001
0000
1000
MMMM
0001
0000
,
2000
0100
0010
3001
,
0001
MMMM
0010
MMMM
0100
MMMM
1000
MMMM
,
0002
1000
0100
0013
,
0110
0000
1000
0000
0001
MMMM
1000
0000
,
0002
0010
0100
1003
,
1000
MMMM
0010
MMMM
0100
MMMM
0001
MMMM
,
0020
0100
0001
0130
,
1001
0000
0001
0000
2000
0001
0001
0000
,
3200
0010
0001
0010
,
1300
MMMM
0020
0000
0100
0000
0100
0000
,
0001
0000
1030
0000
0001
MMMM
1000
MMMM
,
0001
0000
1000
0000
1000
0200
0010
0000
,
0320
0001
1000
0031
,
1000
MMMM
0001
MMMM
1000
MMMM
0001
MMMM
,
0100
MMMM
0100
MMMM
0100
0010
0110
MMMM
,
1000
0000
0001
0000
1000
MMMM
0001
MMMM
,
0200
0010
1000
0010
,
0301
MMMM
0010
MMMM
0001
MMMM
0010
MMMM
,
0020
0000
0001
0000
0100
0000
0002
0033
,
1001
0000
1000
0000
0001
MMMM
1000
MMMM
,
0020
0100
0100
1030
,
1000
MMMM
0001
MMMM
1000
MMMM
0001
MMMM
,
1000
0100
0010
0001
2000
3001
MMMM
0000
,
1001
0000
0000
0000
;

//--------------- dance-double - Fred-104 ----------------
#NOTEDATA:;
#STEPSTYPE:dance-double;
#DESCRIPTION:Fred-104;
#DIFFICULTY:Easy;
#METER:3;
#CREDIT:Fred-104;
#NOTES:
00000000
00000000
00000000
00000000
,
00000000
00000000
00000000
00000000
,
00000000
00000000
00000000
00000000
,
00000000
00000000
00000000
00000000
,
00000000
00000000
00000000
00000000
,
00001000
00000000
00000000
00000000
,
00010000
00000000
00000000
00000000
,
00001000
00000000
00000000
00000000
,
00010000
00000000
00100000
00000000
,
20000000
00000000
00000000
30000000
,
00020000
00000000
00000000
00030000
,
20000000
00000000
00000000
30000000
,
00020000
00000000
00000000
00030000
,
10000000
00000000
10000000
00000000
,
01000000
00000000
01000000
00000000
,
00010000
00000000
00010000
00000000
,
00001000
00000000
00001000
00000000
,
00010000
00000000
00001000
00000000
,
00000100
00000000
00000010
00000000
,
00001000
00001000
00001000
00000000
,
00000001
00000001
00000001
00000000
,
00002002
00000000
00000000
00003003
,
00000001
00000000
00001000
00000000
,
00000001
00000000
00001000
00000000
,
00000010
00000000
00010000
00010000
,
00010000
00000000
00001000
00000000
,
00100000
00000000
00001000
00000000
,
00010000
00000000
00001000
00000000
,
01000000
00000000
01000000
01000000
,
10010000
00000000
10000000
00000000
,
01000000
00100000
01000000
00000000
,
00100000
00000000
00001000
00000000
,
00100000
00001000
00010000
00000000
,
00000010
00000000
00010000
00000010
,
00001000
00000000
00000010
00000100
,
00000010
00000000
00001000
00000000
,
00000001
00000001
00000001
00000001
,
00002000
00000000
00003001
00000100
,
00002000
00000000
00013000
01000000
,
20000000
00000000
30010000
10000000
,
00020000
00000000
10030000
01000000
,
00100000
00000000
00001000
00000000
,
00010000
00001000
00010000
00000000
,
00001000
00001000
00010000
00010000
,
00001000
00001000
00001000
00001000
,
00011000
00000000
00000000
00000000
;

//--------------- dance-double - Fred-104 ----------------
#NOTEDATA:;
#STEPSTYPE:dance-double;
#DESCRIPTION:Fred-104;
#DIFFICULTY:Medium;
#METER:7;
#CREDIT:Fred-104;
#NOTES:
00000000
00000000
00000000
00000000
,
00000000
00000000
00000000
00000000
,
00000000
00000000
00000000
00000000
,
00000000
00000000
00000000
00000000
,
00000000
00000000
00000000
00000000
,
00010000
00001000
00000010
00000001
,
00000100
00001000
00010000
00100000
,
10000000
01000000
00010000
00001000
,
00000010
00000001
00000100
00001000
,
00010000
01000000
10000000
00100000
,
00010000
00001000
00000100
00000001
,
00000010
00001000
00010000
01000000
,
10000000
00100000
00010000
00001000
,
00010000
00000000
00001000
00000000
00000100
00000001
00001000
00000000
,
00000100
00000000
00000010
00000000
00000001
00001000
00000010
00000000
,
00010000
00000000
00001000
00000000
00100000
00010000
10000000
00000000
,
01000000
00000000
00100000
00000000
00001000
00010000
00001000
00000000
,
01000000
00010000
10000000
00000000
01000000
00100000
00001000
00000000
,
00010000
00000100
00001000
00000000
00000100
00000010
00000001
00000000
,
00001000
00000010
00000100
00001000
00010000
00100000
01000000
00000000
,
00010000
10000000
01000000
01100000
,
00022000
00000000
00000000
00033000
,
00010000
00000000
00001000
00000000
00000100
00000001
00001000
00000000
,
00000100
00000000
00000010
00000000
00000001
00001000
00000010
00000000
,
00010000
00001000
01000000
01100000
,
10000000
00000000
00010000
00000000
00100000
01000000
10000000
00000000
,
00010000
01000000
00100000
10000000
,
01000000
00000000
00100000
00000000
00001000
00010000
00001000
00000000
,
01000000
00001000
00011000
00010100
,
00010000
00000000
00001000
00000000
00000100
00000100
00000010
00000000
,
00001000
00000000
00000001
00000000
00000100
00000100
00001000
00000000
,
00010000
00000000
01000000
00000000
10000000
10000000
00010000
00000000
,
10000000
00000000
00100000
00000000
00010000
00010000
00001000
00000000
,
00010000
00000000
00001000
00000000
00000010
00000100
00000010
00000000
,
00000001
00000000
00001000
00000000
00000010
00010000
00001000
00000000
,
00010000
00001000
00100000
00000000
00001000
00010000
01000000
00000000
,
00100000
01000000
10000000
00000000
01000000
00100000
00001000
00000000
,
00020000
00001000
00100000
00031000
,
00020000
00001000
01000000
00031000
,
00020000
00001000
00000010
00031000
,
00020000
00001000
00000100
00031000
,
00010000
00000000
00001000
00000000
00010000
00001000
01000000
00000000
,
00010000
00000000
00100000
00000000
01000000
10000000
00100000
00000000
,
00010000
00001000
00000100
00000000
00000010
00001000
00000001
00000000
,
00000010
00000100
00010000
00001000
01000000
00010000
10000000
01000000
,
01100000
00000000
00000000
00000000
;

//--------------- dance-double - Fred-104 ----------------
#NOTEDATA:;
#STEPSTYPE:dance-double;
#DESCRIPTION:Fred-104;
#DIFFICULTY:Hard;
#METER:11;
#CREDIT:Fred-104;
#NOTES:
00000000
00000000
00000000
00000000
,
00000000
00000000
00000000
00000000
,
00000000
00000000
00000000
00000000
,
00000000
00000000
00000000
00000000
,
00000000
00000000
00000000
00000000
,
00010000
00000000
00010000
00000000
00000000
00001000
00000000
00000000
00000100
00000000
00000000
00000001
00000000
00000000
00001000
00000000
,
00000001
00000000
00000001
00000000
00000000
00000010
00000000
00000000
00001000
00000000
00000000
00010000
00000000
00000000
00100000
00000000
,
10000000
00000000
10000000
00000000
00000000
00010000
00000000
00000000
00100000
00000000
00000000
01000000
00000000
00000000
00100000
00000000
,
00000000
00001000
00000000
00000000
00000010
00000000
00000000
00000100
00000000
00000000
00001000
00000000
00000000
00000010
00000000
00000000
,
00010000
00000000
00010000
00000000
00000000
00001000
00000000
00000000
01000000
00000000
00000000
00010000
00000000
00000000
00100000
00000000
,
01000000
00000000
01000000
00000000
00000000
10000000
00000000
00000000
00100000
00000000
00000000
00010000
00000000
00000000
00001000
00000000
,
00010000
00000000
00010000
00000000
00000000
00001000
00000000
00000000
00000100
00000000
00000000
00000010
00000000
00000000
00001000
00000000
,
00000000
00000001
00000000
00000000
00000010
00000000
00000000
00000100
00000000
00000000
00010000
00000000
00000000
00001000
00000000
00000000
,
00010000
00001000
00000100
00000000
00000010
00001000
00000001
00000000
,
00000010
00000100
00000010
00000000
00001000
00010000
00100000
00000000
,
01000000
00010000
10000000
00000000
01000000
00100000
00001000
00000000
,
00010000
00100000
01000000
00000000
00100000
10000000
00010000
00000000
,
10000000
01000000
00100000
00001000
00010000
00001000
01000000
00001000
,
00010000
00000100
00001000
00000100
00000010
00000001
00001000
00000001
,
00000100
00000010
00000100
00000000
00000010
00001000
00000010
00000000
00010000
00001000
00010000
00000000
00001000
01000000
00001000
00000000
,
00010000
00010000
00010000
00011000
,
00001000
00010000
00100000
10000000
01000000
00100000
00110000
00000000
,
00010000
00000000
10000000
00000000
00100000
00000000
01000000
00000000
00010000
00000000
10000000
01000000
00000000
00100000
00001000
00000000
,
00010000
00000000
00000010
00000000
00001000
00000000
00000010
00000000
00010000
00000000
00000010
00001000
00000000
00000010
00000100
00000000
,
00000010
00000000
00001000
00000000
00000001
00000000
00000010
00000000
00001000
00000000
00010000
00001000
00000000
00001000
00010000
00000000
,
00001000
00000000
00010000
00000000
01000000
00000000
00100000
00000000
00010000
00000000
01000000
00010000
00000000
00010000
10000000
00000000
,
01000000
00000000
00100000
00000000
00001000
00000000
00010000
00000000
01000000
00000000
00100000
00010000
00000000
00010000
10000000
00000000
,
00100000
00000000
01000000
00000000
00001000
00000000
00010000
00000000
00000010
00000000
00001000
00000100
00000000
00000100
00000010
00000000
,
00000001
00000000
00000000
00000100
00000000
00000000
00000000
00001000
00000000
00010000
00000000
00000000
00011000
00000000
00000000
00000000
,
00001000
00000000
00000000
00010000
00000000
00000000
00000000
01000000
00000000
00000000
00100000
00000000
00000000
00010000
00000000
00000000
,
01000000
00000000
00100000
00000000
00010000
00000000
00000000
00001000
00000000
00000000
00000100
00000000
00000000
00000010
00000000
00000000
,
00010000
00000000
00000000
00001000
00000000
00000000
00000000
00000010
00000000
00000000
00000100
00000000
00000000
00010000
00000000
00000000
,
00001000
00000000
00000000
00010000
00000000
00000000
00000000
00100000
00000000
00000000
01000000
00000000
00000000
00100000
00000000
00000000
,
00010000
00000000
00001000
00000000
01000000
00000000
00010000
10000000
01000000
00000000
00100000
00001000
00000000
00010000
00001000
00000000
,
01000000
00000000
00001000
00000000
00010000
00000000
00001000
00000100
00000010
00000000
00001000
00000001
00000000
00000010
00000100
00000000
,
00001000
00000000
00000010
00000000
00000100
00000000
00001000
00010000
00001000
00000000
00010000
01000000
00000000
00100000
00010000
00000000
,
00100000
01000000
00000000
01000000
10000000
00000000
00000000
10000000
01000000
00100000
00001000
00000000
00011000
00000000
00000000
00000000
,
00010000
00002000
00000010
00000000
00010000
00000000
00103000
00010000
,
01000000
00020000
10000000
00000000
00100000
00000000
01030000
00001000
,
00010000
00200000
01000000
00000000
10000000
00000000
01300000
00100000
,
10000000
01000000
00010000
00001000
00000100
00000001
00001000
00000000
,
00000100
00000000
00000010
00000000
00000001
00000000
00001000
00000100
00001000
00000000
00000001
00000100
00000000
00001000
00010000
00000000
,
01000000
00000000
00100000
00000000
00010000
00000000
10000000
00100000
10000000
00000000
01000000
00100000
00000000
00001000
00010000
00000000
,
00100000
01000000
00010000
10000000
01000000
00100000
00001000
00010000
,
00000010
00001000
00000010
00000000
00000100
00000001
00000100
00000000
00000001
00000010
00000001
00000010
00000100
00000000
00010000
00000000
,
00011000
00000000
00000000
00000000
;

//--------------- dance-double - Fred-104 ----------------
#NOTEDATA:;
#STEPSTYPE:dance-double;
#DESCRIPTION:Fred-104;
#DIFFICULTY:Challenge;
#METER:8;
#CREDIT:Fred-104;
#NOTES:
00000000
00000000
00000000
00000000
,
00000000
00000000
00000000
00000000
,
00000000
00000000
00000000
00000000
,
00000000
00000000
00000000
00000000
,
00000000
00000000
00000000
00000000
,
00001000
00001000
00001000
00001000
,
00010000
00010000
00010000
00010000
,
00001000
00001000
00010000
00001000
,
00010000
00010000
00001000
00010000
,
00002000
00100000
00023000
00000010
,
00032000
01000000
00023000
00030100
,
00020000
00001000
00000100
00031000
,
00002000
00010000
01000000
00013000
,
00002000
00023000
00001000
00032000
,
00023000
00032000
00010000
00023000
,
00032000
00023000
00000010
00100000
,
00000010
00130000
00001000
MMMMMMMM
,
20000000
30000000
MMMM0000
00000000
00020000
00030000
MMMM0000
00000000
,
20000000
30000000
MMMM0000
00000000
00020000
00030000
MMMM0000
00000000
,
00010000
00100000
01000000
10000000
01000000
00100000
00001000
00010000
,
00001000
MMMMMMMM
00001000
MMMMMMMM
00001000
MMMMMMMM
00011000
00000000
,
00010000
00000000
00001000
00000000
00010000
MMMMMMMM
00001000
00000000
,
00020000
00000000
00001000
00000000
00000010
00000000
00030100
00001000
,
00000001
0000MMMM
00000100
0000MMMM
00000010
0000MMMM
00001000
0000MMMM
,
00000002
00001000
00000100
00000013
,
00000110
00000000
00010000
00000000
00001000
MMMMMMMM
00010000
00000000
,
00002000
01000000
00010000
01003000
,
01000000
MMMM0000
00100000
MMMM0000
10000000
MMMM0000
00010000
MMMM0000
,
00200000
01000000
00010000
01300000
,
10010000
00000000
00010000
00000000
20000000
01000000
01000000
00000000
,
30200000
10000000
00010000
01300000
,
00010000
MMMMMMMM
00020000
00000000
01000000
00000000
01000000
00000000
,
00001000
00000000
01030000
00000000
00001000
MMMMMMMM
00010000
MMMMMMMM
,
00001000
00000000
00001000
00000000
00010000
00001000
00000200
00000000
,
00000320
00001000
00000001
00001030
,
00001000
0000MMMM
00000001
0000MMMM
00001000
0000MMMM
00000001
0000MMMM
,
00000100
0000MMMM
00000100
0000MMMM
00000100
00000010
00000110
MMMMMMMM
,
00010000
00000000
00001000
00000000
00010000
MMMMMMMM
00001000
MMMMMMMM
,
00020000
00001000
01000000
00001000
,
00130000
MMMM0000
01000000
MMMM0000
00100000
MMMM0000
01000000
MMMM0000
,
02000000
00000000
00010000
00000000
10000000
00000000
00020000
03030000
,
10010000
00000000
00001000
00000000
00010000
MMMMMMMM
00001000
MMMMMMMM
,
00002000
00010000
00100000
00013000
,
00001000
MMMMMMMM
00010000
MMMMMMMM
00001000
MMMMMMMM
00010000
MMMMMMMM
,
00001000
00010000
00001000
00000100
00000002
00001003
0000MMMM
00000000
,
00001001
00000000
00000000
00000000
;
