#TITLE:December Breeze;
#ARTIST:dj silverberg;
#BANNER:December Breeze.png;
#BACKGROUND:December Breeze-bg.png;
#CDTITLE:./CDTitles/RB colette -Winter-.png;
#MUSIC:December Breeze.ogg;
#SAMPLESTART:7.913;
#SAMPLELENGTH:15;
#BPMS:0=182;
#BGSTAGE:16;

//--------------- dance-single - Fred-104 ----------------
#NOTES:
     dance-single:
     Fred-104:
     Beginner:
     2:
     :
0000
0000
0000
0000
,
0000
0000
0000
0000
,
0000
0000
0000
0000
,
1000
0000
0000
0000
,
0001
0000
0000
0000
,
1001
0000
0000
0000
,
1000
0000
0000
0000
,
0001
0000
0000
0000
,
1000
0000
0000
0000
,
0001
0000
0000
0000
,
0100
0000
0000
0000
,
0001
0000
0000
0000
,
1000
0000
0000
0000
,
0001
0000
0000
0000
,
1000
0000
0000
0000
,
0010
0000
0000
0000
,
1000
0000
0000
0000
,
0001
0000
0000
0000
,
1000
0000
0000
0000
,
0001
0000
0000
0000
,
0010
0000
0000
0000
,
1001
0000
0000
0000
,
0000
0000
0000
0000
,
2000
0000
0000
0000
,
3000
0000
0000
0000
,
0002
0000
0000
0000
,
0003
0000
0000
0000
,
0200
0000
0000
0000
,
0300
0000
0000
0000
,
0020
0000
0000
0000
,
0030
0000
0000
0000
,
1000
0000
0000
0000
,
0001
0000
0000
0000
,
1000
0000
0000
0000
,
0010
0000
0000
0000
,
0100
0000
0000
0000
,
0001
0000
0000
0000
,
1000
0000
0000
0000
,
1001
0000
0000
0000
,
0000
0000
0000
0000
,
0001
0000
0000
0000
,
1000
0000
0000
0000
,
0001
0000
0000
0000
,
1000
0000
0000
0000
,
0100
0000
0000
0000
,
1000
0000
0000
0000
,
0001
0000
0000
0000
,
1000
0000
0000
0000
,
0001
0000
0000
0000
,
0010
0000
0000
0000
,
0001
0000
0000
0000
,
1000
0000
0000
0000
,
0001
0000
0000
0000
,
1000
0000
0000
0000
,
0010
0000
0000
0000
,
1000
0000
0000
0000
,
0001
0000
0000
0000
,
2002
0000
0000
0000
,
3003
0000
0000
0000
,
1000
0000
0000
0000
,
0001
0000
0000
0000
,
1000
0000
0000
0000
,
0001
0000
0000
0000
,
0010
0000
0000
0000
,
0001
0000
0000
0000
,
1000
0000
0000
0000
,
0001
0000
0000
0000
,
1000
0000
0000
0000
,
0100
0000
0000
0000
,
1000
0000
0000
0000
,
0001
0000
0000
0000
,
1000
0000
0000
0000
,
0001
0000
0000
0000
,
0100
0000
0000
0000
,
0001
0000
0000
0000
,
1000
0000
0000
0000
,
0001
0000
0000
0000
,
2002
0000
0000
0000
,
3003
0000
0000
0000
,
2002
0000
0000
0000
,
0000
0000
0000
0000
,
3003
0000
0000
0000
;

//--------------- dance-single - Fred-104 ----------------
#NOTES:
     dance-single:
     Fred-104:
     Easy:
     7:
     :
0000
0000
0000
0000
,
0000
0000
0000
0000
,
0000
0000
0000
0000
,
1001
0000
0110
0000
,
1000
1000
0001
0001
,
2002
0000
0000
3003
,
0001
0000
0000
0001
0000
0000
0100
0000
,
0001
0000
0000
0001
0000
0000
1000
0000
,
0010
0000
0000
0010
0000
0000
0100
0000
,
0010
0010
1001
0000
,
0001
0000
0000
1000
0000
0000
0001
0000
,
0100
0010
0100
0100
,
0001
0000
0000
1000
0000
0000
0001
0000
,
0100
0010
0220
0330
,
1000
0000
0000
0100
0000
0000
0100
0000
,
0010
0000
0000
0001
0000
0000
1000
0000
,
0001
0100
0001
0001
,
0100
0010
1001
0000
,
0001
0000
0000
0010
0000
0000
0001
0000
,
0100
0100
0010
0100
,
0001
0000
0000
1000
0000
0000
0001
0000
,
1000
0000
0000
0001
0000
0000
2002
0000
,
0000
0000
3003
0000
,
1000
1000
0001
0001
,
0100
0010
0110
0000
,
0001
0001
1000
1000
,
0100
0010
0110
0000
,
0001
0100
1000
0100
,
0001
1000
0001
0100
,
0020
0000
0000
1030
,
0002
0103
0010
1000
,
0001
0000
0000
0100
0000
0000
0001
0000
,
0000
0010
0000
0000
0001
0000
0000
0000
,
1000
0000
0000
0100
0000
0000
1000
0000
,
0000
0010
0000
0000
1000
0000
0000
0000
,
0001
0001
0010
0010
,
0100
0100
1000
1000
,
0001
0001
1000
1000
,
0001
0000
0001
0000
1000
0000
0000
1001
,
0000
0100
0110
0000
,
1000
0000
0000
1000
0000
0000
0100
0000
,
1000
0000
0000
1000
0000
0000
0001
0000
,
0010
0000
0000
0010
0000
0000
0100
0000
,
0010
0010
1001
0000
,
1000
0000
0000
0001
0000
0000
1000
0000
,
0100
0010
0100
0100
,
1000
0000
0000
0001
0000
0000
1000
0000
,
0100
0010
0220
0330
,
0001
0000
0000
0100
0000
0000
0100
0000
,
0010
0000
0000
1000
0000
0000
0001
0000
,
1000
0100
1000
1000
,
0100
0010
1001
0000
,
1000
0000
0000
0010
0000
0000
1000
0000
,
0100
0100
0010
0100
,
1000
0000
0000
0001
0000
0000
1000
0000
,
0001
0010
0011
0000
,
1000
0010
1010
0000
,
0001
0001
1000
1000
,
2002
0000
0000
3003
,
0001
0000
0000
0100
0000
0000
0001
0000
,
0010
0000
0000
0100
0000
0000
1000
0000
,
0010
0100
0100
0001
,
1000
0001
1001
0000
,
0001
0000
0000
1000
0000
0000
0010
0000
,
0100
0000
0100
0000
0001
1000
0001
0000
,
1000
0000
0000
0010
0000
0000
0100
0000
,
0001
0010
0110
0000
,
1000
0000
0000
0010
0000
0000
0100
0000
,
0010
0000
0000
1000
0000
0000
0100
0000
,
0010
0000
0001
0000
1000
0001
1000
0000
,
0010
0100
0010
0000
1001
0000
0000
0000
,
0001
0000
0000
0100
0000
0000
0010
0000
,
0100
0000
0001
0000
1000
0100
1000
0000
,
0001
0000
0100
0000
0010
1000
0010
0000
,
1000
1000
0100
0100
,
0001
0001
0010
0010
,
1000
0100
0001
0010
,
2002
0000
0000
3003
,
0220
0000
0000
0330
,
1000
0010
0100
0000
0001
0000
0000
2002
,
0000
0000
0000
0000
,
3003
0000
0000
0000
;

//--------------- dance-single - Fred-104 ----------------
#NOTES:
     dance-single:
     Fred-104:
     Medium:
     12:
     :
0000
0000
0000
0000
,
0000
0000
0000
0000
,
0000
0000
0000
0000
,
1100
0010
0101
0010
,
1000
0100
1000
0001
0100
0010
0100
0001
,
2002
0000
0000
3003
,
0001
0010
0100
1000
0000
0001
0100
0000
,
0001
1000
0010
1000
0000
0100
0010
0000
,
0100
1000
0001
1000
0000
0010
0100
0000
,
0001
0000
0010
0000
0001
0000
1000
0000
0001
0000
0000
0100
0000
0000
0010
0000
,
0100
0001
0100
0010
0000
0100
0001
0000
,
1000
0100
0010
0001
0000
1000
0001
0000
,
0100
0010
1000
0010
0000
0100
0001
0000
,
1000
0000
0100
0000
0010
0001
1001
0000
,
0001
1000
0100
1000
0000
0001
1000
0000
,
0010
1000
0001
1000
0000
0100
0010
0000
,
0001
0100
0010
0100
0000
0001
1000
0001
,
0010
0000
0100
0000
1000
0000
0001
0000
0100
0000
0000
0010
0000
0000
0100
0000
,
0001
1000
0001
0010
0000
0100
1000
0000
,
0001
0100
0010
1000
0010
0100
0001
0000
,
1000
0100
0010
0001
0000
0100
0010
1000
,
0001
0001
0000
1000
1000
0000
0001
1001
,
0000
1000
0100
0010
0001
1000
0001
0000
,
1000
0000
0000
1000
0000
0000
0100
0000
0010
0000
0000
0010
0000
0000
0001
0000
,
0100
0010
0100
0000
0001
1000
0010
0000
,
0100
0000
0000
0100
0000
0000
0001
0000
0010
0000
0000
0010
0000
0000
0001
0000
,
1000
0010
0100
0000
0001
1000
0100
0000
,
1000
0000
0000
0010
0000
0000
1000
0000
0001
0000
0000
0100
0000
0000
0001
0000
,
0010
0100
1000
0010
0100
0001
1000
0100
,
0120
0001
1000
0031
,
0100
0000
0000
0010
1000
0001
1000
0000
0000
1001
0000
0000
,
0001
0100
0000
0100
0010
0000
0010
1000
,
0000
1000
0100
0000
1000
0001
0100
0010
,
1000
0010
0000
0010
0100
0000
0100
0001
,
0000
0001
0010
0000
0100
0010
0001
1000
,
0001
0010
0000
0001
1000
0000
0001
0100
,
0000
0010
1000
0000
0001
0010
0100
1000
,
0001
0100
0010
0100
0001
1000
0100
0010
,
0100
0000
0110
0000
0010
0001
1000
0001
,
0000
0100
0010
0000
0100
0100
1001
0000
,
1000
0010
0100
0001
0000
1000
0100
0000
,
1000
0001
0010
0001
0000
0100
0010
0000
,
0100
0001
1000
0001
0000
0010
0100
0000
,
1000
0000
0010
0000
1000
0000
0001
0000
1000
0000
0000
0100
0000
0000
0010
0000
,
0100
1000
0100
0010
0000
0100
1000
0000
,
0001
0100
0010
1000
0000
0001
1000
0000
,
0100
0010
0001
0010
0000
0100
1000
0000
,
0001
0000
0100
0000
0010
1000
1001
0000
,
1000
0001
0100
0001
0000
1000
0001
0000
,
0010
0001
1000
0001
0000
0100
0010
0000
,
1000
0100
0010
0100
0000
1000
0001
1000
,
0010
0000
0100
0000
0001
0000
1000
0000
0100
0000
0000
0010
0000
0000
0100
0000
,
1000
0001
1000
0010
0000
0100
0001
0000
,
1000
0100
0010
0001
0010
0100
1000
0000
,
0001
0100
0010
1000
0000
0100
0010
0001
,
1000
0100
0010
1000
0010
0100
1000
0000
,
0001
0100
0010
0001
0010
0100
0001
0000
,
1000
0100
1000
0100
0010
0001
0010
0001
,
2002
0000
0000
3003
,
1000
0001
1000
0100
0000
0010
0100
1000
,
0001
1000
0010
0100
0000
0010
1000
0001
,
0010
0100
0010
0001
0100
0100
0010
1000
,
0001
0000
0010
0000
0100
0000
1000
0000
0001
0000
0000
1000
0000
0000
0010
0000
,
1000
0100
1000
0001
0000
0100
0010
1000
,
0010
0100
0001
1000
0100
0010
0001
1000
,
0001
0010
0100
1000
0000
0001
1000
0010
,
1000
0001
0010
0100
1000
0001
1001
0000
,
0001
0010
0100
0010
0000
0001
0010
0100
,
1000
0010
0100
0010
0000
1000
0010
0100
,
0001
1000
0100
0010
0001
0001
0100
0010
,
0100
0000
0001
0000
1000
0000
0001
0000
0010
0000
0000
0100
0000
0000
1000
0000
,
0001
0010
0100
0001
0000
0100
0010
0001
,
1000
0010
0100
0001
1000
1000
0100
0100
,
0010
0001
1000
0001
0000
0100
0010
1000
,
1100
0101
1100
0101
,
1010
0011
1010
0011
,
1100
0101
1100
0110
,
2002
0000
0000
3003
,
0220
0000
0000
0330
,
1000
1000
0001
0001
0100
0100
0010
0220
,
0000
0000
0000
0000
,
0330
0000
0000
0000
;

//--------------- dance-single - Fred-104 ----------------
#NOTES:
     dance-single:
     Fred-104:
     Hard:
     17:
     :
0000
0000
0000
0000
,
0000
0000
0000
0000
,
0000
0000
0000
0000
,
1100
0100
0010
0001
0101
0100
0010
1000
,
0001
0010
0100
1000
0001
0100
0010
1000
0010
0100
0001
1000
0100
0010
0001
1000
,
0020
0000
0000
0000
0130
0100
1001
0000
,
0001
0000
0010
0000
0001
0000
1002
0000
0000
0000
0103
0010
1000
0010
0000
0100
,
0001
0000
1000
0000
0100
0000
0010
0000
0002
0000
0103
0001
1000
0001
0000
0010
,
0100
0000
0010
0000
0001
0000
1000
0000
0002
0000
0103
0010
1000
0010
0000
0100
,
0001
1000
0001
1000
0010
0100
0010
0100
0002
0000
0000
2003
0000
0000
3200
0000
,
1300
0000
0001
0000
0010
0000
0021
0000
0000
0000
0031
1000
0010
1000
0000
0001
,
0100
0000
0010
0000
1000
0000
0010
0000
0100
0001
1000
0001
0010
0100
0010
0001
,
1000
0100
0010
0012
0000
1003
0010
0100
,
0010
0000
0001
0000
0010
1000
0001
1000
0100
0000
0010
0000
0011
0000
0000
0000
,
0001
0000
0100
0010
0100
0000
0001
0000
1000
0100
1000
0000
0001
0100
0010
1000
,
0001
0000
0010
0000
0100
0000
0010
0000
0001
1000
0100
0000
0010
0001
1000
0010
,
0100
0000
0001
0000
1000
0000
0010
0000
0100
0001
1000
0000
0001
1000
0100
1000
,
0001
0010
0001
1000
0010
1000
0001
0010
0200
0000
0000
2300
0000
0000
3002
0000
,
0103
0000
0010
0000
1000
0000
0001
0000
0010
0100
1000
0000
0001
1000
0100
1000
,
0001
0000
0100
0000
0010
0000
1000
0000
0100
1000
0001
0100
0010
1000
0001
0010
,
0100
0000
1000
0000
0001
0000
0201
0000
0000
0000
0310
1000
0001
0000
1000
0000
,
1100
1001
0000
0101
1001
0000
0110
1001
,
0000
0002
0023
0230
2300
3002
0203
0320
,
2030
0000
0000
3200
0000
0000
0320
0000
2030
0000
0000
3020
0000
0000
0032
0000
,
0013
0000
0100
0000
1000
0000
0001
0000
0100
0000
1000
0100
0010
1000
0001
0010
,
0200
0000
0000
2300
0000
0000
3020
0000
0230
0000
0000
2300
0000
0000
3200
0000
,
0301
0000
0000
0100
0000
0000
0010
0000
0000
1000
0000
0000
0001
0000
0000
0010
0100
0010
0100
0000
0000
1000
0000
0000
,
0002
0000
0000
0203
0000
0000
0320
0000
0032
0000
0000
0023
0000
0000
2030
0000
,
3010
0000
0100
0000
0001
0000
1000
0000
0100
0000
0010
0001
1000
0001
0100
0010
,
0200
0001
0010
0302
,
1003
0000
0000
0001
0100
0010
1000
0000
0000
1001
0000
0000
,
2000
3020
0130
2000
3002
0013
2000
3200
,
0310
2000
3002
0203
2300
3020
0230
0302
,
2003
0000
3200
0000
0301
0000
2000
0000
3020
0000
0130
0000
1000
0010
0002
0000
,
1003
0000
0200
0000
0320
0000
2030
0000
3001
0000
0100
0010
0100
0000
0001
0000
,
1000
0010
0100
0001
1000
0000
0001
0010
0100
1000
0001
0000
1000
0001
0100
0010
,
1000
0000
0001
1000
0100
0010
0001
0000
1000
0010
0100
0001
1000
0010
0100
0001
,
1000
0001
0010
0001
1000
0001
0100
0001
1000
0001
0010
0100
1000
0010
0100
0001
,
1000
0000
1100
0000
0101
0100
0010
1001
,
0000
0000
1000
0000
0100
0000
0000
0000
1000
0000
0001
0000
1000
0010
0100
0001
,
1000
0000
0010
0000
1000
0000
2001
0000
0000
0000
3001
1000
0001
0010
0000
0100
,
1000
0000
0001
0000
0100
0000
0010
0000
2000
0000
3100
1000
0001
1000
0000
0010
,
0100
0000
0010
0000
1000
0000
0001
0000
2000
0000
3100
0010
0001
0010
0000
0100
,
1000
0100
1000
0001
0100
0001
1000
0100
0020
0000
0000
0032
0000
0000
2003
0000
,
3001
0000
1000
0000
0010
0000
0120
0000
0000
0000
1030
0001
0010
0001
0000
1000
,
0100
0000
0010
0000
0001
0000
0010
0000
0100
1000
0001
1000
0010
0100
0010
1000
,
0001
0100
0010
2010
0000
3001
0010
0100
,
0010
0000
1000
0000
0010
0001
1000
0001
0100
0010
0000
0010
1000
0000
0001
0000
,
1000
0000
0100
0010
0100
0000
1000
0000
0001
0100
0001
0000
1000
0100
0010
0001
,
1000
0000
0010
0000
0100
0000
0010
0000
1000
0001
0100
0000
0010
1000
0001
0010
,
0100
0000
1000
0000
0001
0000
0010
0000
0100
1000
0001
0000
1000
0001
0100
0001
,
1000
0010
1000
0001
0100
0001
1000
0100
0020
0000
0000
0032
0000
0000
2003
0000
,
3100
0000
0010
0000
0001
0000
1000
0000
0010
0100
0001
0000
1000
0001
0100
0001
,
1000
0000
0100
0000
0010
0000
0001
0000
0100
0001
1000
0100
0010
0001
1000
0010
,
0100
0000
0001
0000
1000
0000
1200
0000
0000
0000
0310
0100
0010
0000
0001
0000
,
1000
0000
0010
0000
0100
0001
1000
0001
0010
0100
0000
0100
1000
0000
0001
0000
,
1000
0010
0100
0010
1000
0001
0010
0100
0010
0001
1000
0001
0100
0010
1000
0001
,
0010
0100
1000
0001
0100
0010
1000
0100
,
0110
0000
0010
0000
0010
0000
0010
0000
0000
0000
0001
0000
1000
0001
1000
0001
,
1000
0000
0100
0000
0010
0000
0012
0000
0000
0000
1003
0001
0100
0001
1000
0001
,
0010
0000
0100
0000
1000
0000
0010
0000
2000
0000
3002
0000
0013
0100
1000
0100
,
0010
0000
0001
0000
1000
0000
0010
0000
0100
0000
0001
1000
0010
1000
0001
1000
,
0100
0010
0001
1000
0010
0100
0010
1000
0002
0000
0000
2003
0000
0000
3200
0000
,
1300
0000
0001
0000
0100
0000
0120
0000
0000
0000
0130
0001
1000
0100
0010
0001
,
0010
0000
0001
0000
1000
0000
0010
0000
0100
0001
1000
0001
0010
0001
1000
0010
,
0100
0001
1000
1200
0000
0310
0001
1000
,
0010
0000
0100
0000
0001
1000
0001
1000
0001
0000
1000
0000
1001
0000
0000
0000
,
1000
0000
0001
0000
0010
0000
0100
0000
1000
0001
0100
0000
0010
1000
0001
0010
,
0100
0000
0010
0000
0001
0000
1000
0000
0010
1000
0001
1000
0100
0010
0001
0010
,
0100
0000
1000
0000
0001
0000
0100
0000
0001
0010
0100
0000
0010
0001
1000
0001
,
0100
0010
1000
0001
0100
0001
1000
0010
1000
0000
0001
0010
0000
0100
1000
0000
,
1001
0000
0001
0000
0100
0000
0010
0000
1000
0001
0100
0000
0010
1000
0001
0010
,
0100
0000
0010
0000
0001
0000
1000
0000
0010
0100
0001
0100
0010
1000
0100
0010
,
0001
1000
0100
0120
0000
0130
1000
0001
,
0101
1100
1010
0011
,
1100
0000
0101
0000
1010
0000
0011
0001
,
1001
0110
1100
0101
,
2002
0000
0000
3003
,
0220
0000
0000
0330
,
0001
0000
0000
1000
0100
0010
0001
0000
0000
1000
0010
0100
0001
0000
0000
1000
0000
0000
0001
0000
0000
2002
0000
0000
,
0000
0000
0000
0000
,
3003
0000
0000
0000
;

//--------------- dance-double - Fred-104 ----------------
#NOTES:
     dance-double:
     Fred-104:
     Easy:
     8:
     :
00000000
00000000
00000000
00000000
,
00000000
00000000
00000000
00000000
,
00000000
00000000
00000000
00000000
,
00011000
00000000
00010010
00000000
,
00010000
00001000
00010000
00000100
,
00022000
00000000
00000000
00033000
,
00001000
00010000
01000000
10000000
,
00010000
00000000
10000000
00000000
00100000
01000000
00100000
00000000
,
10000000
00000000
00000000
01000000
00000000
00000000
00100000
00000000
,
00001000
00010000
00001000
00000000
00011000
00000000
00000000
00000000
,
00010000
00000000
00000000
00001000
00000000
00000000
00000010
00000000
,
00000001
00001000
00000010
00000100
,
00000001
00000000
00000000
00001000
00000000
00000000
00000100
00000000
,
00010000
00001000
00011000
00000000
,
00010000
00001000
00000010
00000100
,
00010000
00000000
00001000
00000000
00010000
00001000
00100000
00000000
,
00010000
00000000
00000000
10000000
00000000
00000000
00010000
00000000
,
01000000
00100000
01000000
00000000
01100000
00000000
00000000
00000000
,
00100000
00000000
00000000
10000000
00000000
00000000
00010000
00000000
,
10000000
00000000
01000000
00000000
00100000
00001000
00100000
00000000
,
00001000
00000000
00000000
00010000
00000000
00000000
00001000
00000000
,
00010000
00000000
00000000
00001000
00000000
00000000
00022000
00000000
,
00000000
00000000
00033000
00000000
,
00010000
00001000
00000010
00000001
,
00000100
00001000
00010000
00000000
,
00001000
00010000
01000000
10000000
,
00100000
00010000
00001000
00000000
,
00010000
00001000
00000100
00000001
,
00001000
00000000
00000100
00000000
00000010
00000001
00000010
00000000
,
00000002
00000000
00000000
00002003
,
00003100
00010000
00011000
00000000
,
00001000
00010000
00000000
00001000
01000000
00000000
00001000
00010000
,
00000000
00001000
01000000
00000000
00001000
00000000
00000000
00000000
,
00010000
00001000
00000000
00010000
00000010
00000000
00010000
00001000
,
00000000
00010000
00000010
00000000
00010000
00000000
00000000
00000000
,
00001000
00100000
00001000
00000000
00010000
00000000
00001000
00000000
,
00100000
00010000
00100000
00000000
00001000
00000000
00010000
00000000
,
00000010
00001000
00000010
00000000
00000100
00000001
00000100
00000000
,
00000010
00000000
00000010
00000000
00010000
00000000
00000000
00011000
,
00000000
00001000
00011000
00000000
,
00010000
00001000
00000100
00000001
,
00001000
00000000
00000001
00000000
00000010
00000100
00000010
00000000
,
00000001
00000000
00000000
00000100
00000000
00000000
00000010
00000000
,
00010000
00001000
00010000
00000000
00011000
00000000
00000000
00000000
,
00001000
00000000
00000000
00010000
00000000
00000000
00100000
00000000
,
10000000
00010000
00100000
01000000
,
10000000
00000000
00000000
00010000
00000000
00000000
01000000
00000000
,
00001000
00010000
00011000
00000000
,
00001000
00010000
00100000
01000000
,
00001000
00000000
00010000
00000000
00001000
00010000
00000010
00000000
,
00001000
00000000
00000000
00000001
00000000
00000000
00001000
00000000
,
00000100
00000010
00000100
00000000
00000110
00000000
00000000
00000000
,
00000010
00000000
00000000
00000001
00000000
00000000
00001000
00000000
,
00000001
00000000
00000100
00000000
00000010
00010000
00000010
00000000
,
00010000
00000000
00000000
00001000
00000000
00000000
00010000
00000000
,
00001000
00010000
00010100
00000000
,
00010000
00001000
01001000
00000000
,
00010000
00010000
00001000
00001000
,
00022000
00000000
00000000
00033000
,
00010000
00000000
00000000
00001000
00000000
00000000
00000010
00000000
,
00001000
00000000
00000000
00010000
00000000
00000000
00001000
00000000
,
00010000
00000000
00000000
00001000
00000000
00000000
00100000
00000000
,
00001000
00010000
00001000
00000000
01001000
00000000
00000000
00000000
,
00010000
00000000
00000000
00001000
00000000
00000000
00000010
00000000
,
00000100
00010000
00011000
00000000
,
00010000
00000000
00000000
00001000
00000000
00000000
00000010
00000000
,
00000001
00001000
00001001
00000000
,
00000001
00000100
00001000
00010000
,
00100000
00000000
01000000
00000000
00010000
10000000
00010000
00000000
,
01000000
00000000
00000000
00100000
00000000
00000000
10000000
00000000
,
01000000
00100000
00110000
00000000
,
00010000
00000000
00000000
00001000
00000000
00000000
00010000
00000000
,
00000010
00000000
00001000
00000000
00000010
00000100
00000010
00000000
,
00001000
00000000
00000000
00000100
00000000
00000000
00000010
00000000
,
00000001
00000001
00000100
00000100
,
00001000
00001000
00010000
00010000
,
01000000
01000000
10000000
10000000
,
20020000
00000000
00000000
30030000
,
02200000
00000000
00000000
03300000
,
00010000
00000000
10000000
00000000
00010000
00000000
00000000
20020000
,
00000000
00000000
00000000
00000000
,
30030000
00000000
00000000
00000000
;

//--------------- dance-double - Fred-104 ----------------
#NOTES:
     dance-double:
     Fred-104:
     Medium:
     12:
     :
00000000
00000000
00000000
00000000
,
00000000
00000000
00000000
00000000
,
00000000
00000000
00000000
00000000
,
00011000
00010000
00101000
00001000
,
00010000
00001000
00000010
00000001
00001000
00000100
00000010
00000000
,
00002002
00000000
00000000
00003003
,
00000001
00000100
00001000
00010000
00000000
00100000
01000000
00000000
,
00010000
10000000
00010000
01000000
00000000
00100000
10000000
00000000
,
00010000
10000000
01000000
00100000
00001000
00010000
00001000
00000000
,
00010000
00000000
00001000
00000000
00000010
00000000
00000100
00000000
00010000
00000000
00000000
00001000
00000000
00000000
00000100
00000000
,
00000001
00001000
00000100
00000010
00000000
00000100
00000001
00000000
,
00000100
00001000
00000001
00000010
00000100
00010000
00001000
00000000
,
00010000
00001000
00010000
00000010
00000000
00010000
00001000
00100000
,
00010000
10000000
00010000
01000000
00100000
10000000
10010000
00000000
,
10000000
00100000
01000000
00010000
00000000
00100000
00001000
00000000
,
00010000
00001000
00000100
00000010
00000000
00001000
00000010
00000000
,
00000100
00000001
00001000
00000001
00000000
00000010
00000100
00000000
,
00000010
00000000
00000001
00000000
00000100
00000000
00001000
00000000
00010000
00000000
00000000
00100000
00000000
00000000
01000000
00000000
,
00010000
01000000
00100000
01000000
00000000
00010000
10000000
00000000
,
00100000
10000000
01000000
00100000
00001000
00010000
00001000
00000000
,
00010000
00001000
00000100
00000001
00000000
00001000
00000100
00000010
,
00000001
00000100
00000000
00001000
00000100
00000000
00000001
00001001
,
00000000
00000001
00000010
00000100
00010000
00001000
00010000
00000000
,
00001000
00000000
00000000
00001000
00000000
00000000
00100000
00000000
00010000
00000000
00000000
00010000
00000000
00000000
10000000
00000000
,
00010000
00100000
01000000
00000000
10000000
00010000
01000000
00000000
,
00100000
00000000
00000000
10000000
00000000
00000000
01000000
00000000
00010000
00000000
00000000
00001000
00000000
00000000
00000010
00000000
,
00000100
00001000
00000010
00000000
00000100
00000001
00001000
00000000
,
00000001
00000000
00000000
00000100
00000000
00000000
00000010
00000000
00001000
00000000
00000000
00000100
00000000
00000000
00010000
00000000
,
00001000
00010000
00000010
00000000
00010000
00001000
00100000
00000000
,
00020000
01000000
10000000
01030000
,
00010000
00000000
00000000
10000000
01000000
00100000
00001000
00000000
00000000
00011000
00000000
00000000
,
00010000
00001000
00000000
00010000
00000010
00000000
00010000
00001000
,
00000000
00010000
00000100
00000000
00010000
00001000
00010000
00000000
,
00001000
01000000
00000000
00001000
00010000
00000000
00001000
00100000
,
00000000
00001000
00010000
00000000
00001000
00100000
00010000
00000000
,
01000000
00010000
00100000
00000000
00010000
10000000
00100000
00000000
,
10000000
01000000
00100000
00010000
00100000
00001000
00010000
00000000
,
00000010
00001000
00000010
00000100
00000010
00001000
00000001
00000010
,
00000100
00000000
00000100
00000000
00010000
00001000
00010000
00011000
,
00000000
01000000
00100000
00000000
01000000
01000000
10010000
00000000
,
10000000
01000000
00010000
00001000
00000000
00000010
00000100
00000000
,
00001000
00000001
00001000
00000100
00000000
00000010
00000001
00000000
,
00001000
00000001
00000100
00000010
00010000
00001000
00010000
00000000
,
00001000
00000000
00010000
00000000
00100000
00000000
01000000
00000000
00001000
00000000
00000000
00010000
00000000
00000000
01000000
00000000
,
10000000
00010000
01000000
00100000
00000000
01000000
10000000
00000000
,
01000000
00010000
10000000
00100000
01000000
00001000
00010000
00000000
,
00001000
00010000
00001000
00100000
00000000
00001000
00010000
00000010
,
00001000
00000001
00001000
00000100
00000010
00000001
00001001
00000000
,
00000001
00000010
00000100
00001000
00000000
00000010
00010000
00000000
,
00001000
00010000
01000000
00100000
00000000
00010000
00100000
00000000
,
01000000
10000000
00010000
10000000
00000000
00100000
01000000
00000000
,
00100000
00000000
10000000
00000000
01000000
00000000
00010000
00000000
00001000
00000000
00000000
00000010
00000000
00000000
00000100
00000000
,
00001000
00000100
00000010
00000100
00000000
00001000
00000001
00000000
,
00000010
00000001
00000100
00000010
00010000
00001000
00010000
00000000
,
00001000
00010000
01000000
10000000
00000000
00010000
01000000
00100000
,
10000000
01000000
00100000
00001000
00010000
00010000
00011000
00000000
,
00010000
00001000
00000100
00000001
00001000
00001000
00001001
00000000
,
00000001
00000010
00000100
00000010
00000001
00000010
00000100
00001000
,
00002002
00000000
00000000
00003003
,
00000001
00000010
00000100
00010000
00000000
00001000
00010000
00000000
,
00000010
00010000
00001000
00010000
00000000
00001000
00100000
00000000
,
00010000
10000000
00010000
01000000
00100000
10000000
00100000
00000000
,
10000000
00000000
00100000
00000000
01000000
00000000
00001000
00000000
00010000
00000000
00000000
00001000
00000000
00000000
00100000
00000000
,
00001000
00010000
00001000
00000010
00000000
00000001
00001000
00000001
,
00000100
00000010
00001000
00000001
00000010
00000100
00000010
00000000
,
00000001
00001000
00000010
00001000
00000000
00000100
00010000
00001000
,
00100000
00010000
10000000
00010000
01000000
01000000
01100000
00000000
,
00100000
10000000
00010000
10000000
00000000
00100000
10000000
01000000
,
00100000
00010000
01000000
00001000
00010000
00001000
00000100
00000000
,
00000010
00001000
00000010
00000100
00000001
00001000
00000100
00000000
,
00010000
00000000
00000010
00000000
00001000
00000000
00000010
00000000
00010000
00000000
00000000
00001000
00000000
00000000
00100000
00000000
,
00001000
00010000
00000100
00010000
00000000
00001000
00100000
00010000
,
10000000
00010000
00100000
01000000
00100000
00010000
10000000
00000000
,
01000000
00100000
00001000
00010000
00000100
00000010
00000001
00001000
,
00001100
00000010
00000101
00000010
,
00011000
00000010
00011000
00100000
,
00011000
00000100
00011000
01000000
,
00022000
00000000
00000000
00033000
,
02200000
00000000
00000000
03300000
,
10000000
01000000
00010000
00001000
00000100
00000001
00001000
00002002
,
00000000
00000000
00000000
00000000
,
00003003
00000000
00000000
00000000
;

//--------------- dance-double - Fred-104 ----------------
#NOTES:
     dance-double:
     Fred-104:
     Hard:
     17:
     :
00000000
00000000
00000000
00000000
,
00000000
00000000
00000000
00000000
,
00000000
00000000
00000000
00000000
,
00011000
00010000
00000010
00001000
00001100
00000100
00000010
00000001
,
00001000
00000001
00000100
00000000
00000010
00001000
00000100
00000000
00010000
00001000
00100000
00001000
00100000
00010000
10000000
00100000
,
02000000
00000000
00000000
00000000
03001000
00010000
00011000
00000000
,
00001000
00000000
00010000
00000000
00100000
00000000
20000000
00000000
00000000
00000000
30010000
01000000
00100000
10000000
00000000
01000000
,
00100000
00000000
00001000
00000000
00010000
00000000
00001000
00000000
00000020
00000000
00000130
00001000
00000001
00001000
00000000
00000100
,
00001000
00000000
00000010
00000000
00000100
00000000
00001000
00000000
00020000
00000000
00130000
01000000
00010000
10000000
00000000
00100000
,
01000000
00010000
10000000
00010000
00100000
00010000
10000000
01000000
00200000
00000000
00000000
00302000
00000000
00000000
00023000
00000000
,
00031000
00000000
01000000
00000000
00001000
00000000
00020000
00000000
00000000
00000000
00031000
00010000
00000100
00001000
00000000
00000001
,
00001000
00000000
00000100
00000000
00000010
00000000
00000001
00000000
00000100
00000010
00001000
00000001
00000010
00000100
00000010
00000001
,
00001000
00000001
00000100
00002000
00000000
00013000
00100000
01000000
,
00010000
00000000
10000000
00000000
01000000
10000000
01000000
00100000
00001000
00000000
00010000
00000000
00011000
00000000
00000000
00000000
,
00010000
00000000
00001000
00000000
00000100
00000000
00000001
00000000
00000010
00000000
00001000
00000000
00010000
00001000
00010000
00001000
,
00100000
00000000
00010000
00000000
00100000
00000000
01000000
00000000
10000000
00000000
00100000
00000000
00010000
00001000
00000100
00000010
,
00001000
00000000
00000010
00000000
00000100
00000000
00000001
00000000
00001000
00000100
00000010
00000000
00000001
00000010
00000100
00001000
,
00000001
00000100
00000001
00001000
00000010
00000100
00000010
00010000
00002000
00000000
00000000
00023000
00000000
00000000
02030000
00000000
,
03100000
00000000
00010000
00000000
01000000
00000000
00001000
00000000
00010000
00000000
00001000
00000000
00000010
00000100
00001000
00000100
,
00001000
00000000
00000010
00000000
00010000
00000000
00001000
00000000
00010000
00000100
00001000
00000010
00010000
00001000
00100000
00001000
,
00010000
00001000
01000000
00020000
00000000
00130000
00001000
00010000
,
00011000
00010010
00000000
00011000
01001000
00000000
00011000
00010100
,
00000000
00020000
00032000
00003020
00000032
00002003
00003200
00000320
,
00000032
00000000
00000000
00000203
00000000
00000000
00002300
00000000
00023000
00000000
00000000
00230000
00000000
00000000
02300000
00000000
,
03010000
00000000
10000000
00000000
01000000
00000000
00100000
00000000
00010000
00000000
01000000
00100000
01000000
00010000
10000000
01000000
,
00200000
00000000
00000000
00302000
00000000
00000000
00023000
00000000
00230000
00000000
00000000
20300000
00000000
00000000
32000000
00000000
,
03010000
00000000
00000000
00001000
00000000
00000000
00000010
00000000
00000000
00000100
00000000
00000000
00001000
00000000
00000000
00000001
00000100
00000001
00000100
00000000
00000000
00000010
00000000
00000000
,
00002000
00000000
00000000
00003002
00000000
00000000
00000023
00000000
00000230
00000000
00000000
00000320
00000000
00000000
00002030
00000000
,
00013000
00000000
01000000
00000000
00100000
00000000
00010000
00000000
01000000
00000000
00100000
10000000
01000000
00100000
00001000
00000000
,
00020000
00000010
00100000
00030020
,
00010030
00000000
00000000
00001000
00010000
00000100
00001000
00000000
00000000
00001001
00000000
00000000
,
00000002
00000023
00001030
00020000
02030000
13000000
00200000
00320000
,
00031000
00000200
00000302
00002003
00003200
00000320
00000032
00002003
,
00003002
00000000
00000203
00000000
00001300
00000000
00020000
00000000
00230000
00000000
01300000
00000000
00010000
01000000
00200000
00000000
,
10300000
00000000
02000000
00000000
03020000
00000000
00032000
00000000
00013000
00000000
01000000
10000000
00010000
00000000
10000000
00000000
,
00010000
10000000
00100000
01000000
00010000
00000000
10000000
01000000
00100000
00010000
00100000
00000000
00001000
00010000
00000010
00001000
,
00000100
00000000
00010000
00000010
00001000
00000001
00000010
00000000
00000100
00000010
00000001
00000000
00000100
00000010
00001000
00000000
,
00000001
00000010
00000100
00001000
00000100
00010000
00001000
00000000
00100000
00010000
00100000
01000000
10000000
00100000
01000000
00000000
,
00010000
00000000
10010000
00000000
10000000
01000000
00100000
00101000
,
00000000
00000000
00001000
00000000
00010010
00000000
00000000
00000000
00010000
00000000
00001000
00000000
00010000
00001000
00010000
00001000
,
00010000
00000000
00001000
00000000
00000010
00000000
00000002
00000000
00000000
00000000
00001003
00000100
00000010
00000001
00000000
00000100
,
00000010
00000000
00010000
00000000
00001000
00000000
00010000
00000000
00200000
00000000
01300000
00010000
10000000
00010000
00000000
01000000
,
00010000
00000000
00100000
00000000
01000000
00000000
00010000
00000000
00002000
00000000
00003010
00000100
00001000
00000001
00000000
00000010
,
00000100
00001000
00000001
00001000
00000010
00001000
00000001
00000100
00000020
00000000
00000000
00020030
00000000
00000000
00032000
00000000
,
00013000
00000000
00000100
00000000
00010000
00000000
00002000
00000000
00000000
00000000
00013000
00001000
01000000
00010000
00000000
10000000
,
00010000
00000000
01000000
00000000
00100000
00000000
10000000
00000000
01000000
00100000
00010000
10000000
00100000
01000000
00100000
10000000
,
00010000
10000000
01000000
00020000
00000000
00031000
00000010
00000100
,
00001000
00000000
00000001
00000000
00000100
00000001
00000100
00000010
00010000
00001000
00010000
00000000
00011000
00000000
00000000
00000000
,
00001000
00000000
00010000
00000000
01000000
00000000
10000000
00000000
00100000
00000000
00010000
00000000
00001000
00010000
00001000
00010000
,
00000010
00000000
00001000
00000000
00000010
00000000
00000100
00000000
00000001
00000000
00000010
00000000
00001000
00010000
01000000
00100000
,
00010000
00000000
00100000
00000000
01000000
00000000
10000000
00000000
00010000
01000000
00100000
00000000
10000000
00100000
01000000
00010000
,
10000000
01000000
10000000
00010000
00100000
01000000
00100000
00001000
00020000
00000000
00000000
00032000
00000000
00000000
00003200
00000000
,
00000310
00000000
00001000
00000000
00000100
00000000
00010000
00000000
00001000
00000000
00010000
00000000
00100000
01000000
00010000
01000000
,
00010000
00000000
00100000
00000000
00001000
00000000
00010000
00000000
00001000
01000000
00010000
00100000
00001000
00010000
00000010
00010000
,
00001000
00010000
00000100
00002000
00000000
00003010
00010000
00001000
,
00100000
00000000
00001000
00000000
00010000
00000100
00001000
00000100
00000010
00000001
00000000
00000001
00001000
00000000
00000001
00000000
,
00000100
00000010
00001000
00000000
00000100
00010000
00001000
00000000
00100000
00010000
10000000
00100000
01000000
00000000
00010000
00000000
,
10000000
00010000
01000000
00100000
00010000
00001000
00000100
00000010
,
00001010
00000000
00001000
00000000
00001000
00000000
00001000
00000000
00000000
00000000
00000001
00000000
00001000
00000001
00001000
00000001
,
00001000
00000000
00000001
00000000
00000010
00000000
00000210
00000000
00000000
00000000
00001300
00000100
00001000
00000100
00000000
00010000
,
00001000
00000000
01000000
00000000
00001000
00000000
00010000
00000000
00001000
00000000
00100000
00000000
00010000
10000000
01000000
10000000
,
00010000
00000000
01000000
00000000
00100000
00000000
10000000
00000000
01000000
00000000
10000000
00100000
01000000
00010000
10000000
01000000
,
00100000
00010000
00100000
00001000
00010000
00000100
00001000
00000100
00000020
00000000
00000000
00000032
00000000
00000000
00002003
00000000
,
00003001
00000000
00001000
00000000
00000100
00000000
00000120
00000000
00000000
00000000
00000031
00000100
00000010
00001000
00000000
00000100
,
00010000
00000000
00000010
00000000
00001000
00000000
00000100
00000000
00010000
00001000
00010000
00000010
00010000
00001000
00100000
00001000
,
00010000
00001000
00100000
00120000
00000000
10030000
00100000
01000000
,
00010000
00000000
10000000
00000000
01000000
10000000
01000000
00100000
00001000
00000000
00010000
00000000
00011000
00000000
00000000
00000000
,
00010000
00000000
00001000
00000000
00000100
00000000
00000010
00000000
00001000
00000001
00000010
00000000
00000001
00001000
00000010
00000100
,
00000001
00000000
00000010
00000000
00000100
00000000
00010000
00000000
00001000
00100000
00010000
10000000
00010000
01000000
00100000
10000000
,
00100000
00000000
01000000
00000000
00010000
00000000
10000000
00000000
01000000
00100000
00001000
00000000
00010000
00000010
00001000
00000010
,
00010000
00000100
00001000
00000100
00000010
00000001
00001000
00000010
00000200
00000000
00000000
00000302
00000000
00000000
00002003
00003000
,
00001100
00000000
00000100
00000000
00000010
00000000
00000001
00000000
00001000
00000010
00000100
00000000
00000001
00001000
00000100
00010000
,
00001000
00000000
00010000
00000000
00000010
00000000
00001000
00000000
00000010
00010000
00001000
00010000
00100000
01000000
00010000
10000000
,
01000000
10000000
01000000
00010000
00000000
00001000
00000010
00000100
,
00001100
00000011
00001010
00011000
,
01010000
00000000
11000000
00000000
10100000
00000000
00100000
00010000
,
00011000
00001010
00000011
00000101
,
00002002
00000000
00000000
00003003
,
00000220
00000000
00000000
00000330
,
00000001
00000000
00000000
00001000
00000010
00000100
00000001
00000000
00000000
00001000
00000100
00010000
00001000
00000000
00000000
00010000
00000000
00000000
00001000
00000000
00000000
00022000
00000000
00000000
,
00000000
00000000
00000000
00000000
,
00033000
00000000
00000000
00000000
;
