#VERSION:0.83;
#TITLE:男々道;
#ARTIST:Des-ROW・組;
#TITLETRANSLIT:Dandandou;
#ARTISTTRANSLIT:Des-ROW・UNITED;
#GENRE:HIP ROCK 2;
#BANNER:Dandandou.png;
#BACKGROUND:Dandandou-bg.png;
#CDTITLE:./CDTitles/pnm 9.png;
#MUSIC:Dandandou.ogg;
#SAMPLESTART:13.22;
#SAMPLELENGTH:15;
#DISPLAYBPM:156:160;
#BPMS:0=158,20=160,204=156,235.5=157.5,236=156,299.5=162,300=160;
#STOPS:299.5=0.385;
#STAGE:30;

//--------------- dance-single - Fred-104 ----------------
#NOTEDATA:;
#STEPSTYPE:dance-single;
#DESCRIPTION:Fred-104;
#DIFFICULTY:Beginner;
#METER:4;
#CREDIT:Fred-104;
#NOTES:
0000
0000
0000
0000
,
0000
0000
0000
0000
,
0000
0000
0000
0000
,
0000
0000
0000
0000
,
0000
0000
0000
0000
,
1000
0000
0000
0000
,
0001
0000
0000
0000
,
1000
0000
0000
0000
,
0001
0000
0000
1000
,
1000
0000
0001
0000
,
0100
0000
0100
0000
,
0010
0000
1000
0000
,
0001
0000
0000
0000
,
0001
0000
1000
0000
,
0001
0000
0100
0000
,
0100
0000
0010
0000
,
0100
0000
0001
0000
,
2000
0000
3000
0000
,
0002
0000
0003
0000
,
2000
0000
3000
0000
,
0002
0000
0003
0000
,
1000
0000
0010
0000
,
1000
0000
1000
0000
,
0001
0000
0010
0000
,
0001
0000
1000
1000
,
1000
0000
0001
0000
,
1000
0000
0010
0000
,
1001
0000
0000
0000
,
1001
0000
0000
0000
,
0002
0000
0003
0000
,
2000
0000
3000
0000
,
0001
0000
0100
0000
,
0001
0000
0100
0000
,
1000
0000
0100
0000
,
1000
0000
0100
0000
,
0001
0000
0010
0000
,
0001
0000
0010
0000
,
1000
0000
0010
0000
,
1000
0000
0010
0000
,
0001
0000
0001
0000
,
1000
0000
0010
0000
,
1000
0000
0100
0000
,
1000
0000
0001
0000
,
1000
0000
1000
0000
,
0001
0000
0100
0000
,
0010
0000
0100
0000
,
0001
0000
1000
0000
,
0002
0000
0003
0000
,
2000
0000
3000
0000
,
0002
0000
0003
0000
,
2000
0000
3000
0000
,
0001
0000
0000
0000
,
1000
0000
0000
0000
,
0001
0000
0100
0000
,
0010
0000
1000
0000
,
1000
0000
0000
0000
,
0001
0000
0000
0000
,
1000
0000
0001
0000
,
0100
0000
0100
0000
,
0010
0000
0010
0000
,
1000
0000
1000
0000
,
0001
0001
0001
0000
,
1000
1000
1000
0000
,
0001
0000
1000
0000
,
0010
0000
0100
0000
,
0001
0001
0001
0000
,
1000
1000
1000
0000
,
0001
0000
1000
0000
,
0001
0000
0100
0000
,
0001
0001
0001
0000
,
0100
0100
0100
0000
,
0010
0010
0010
0000
,
1000
1000
1000
0000
,
0001
0001
0001
0001
,
1000
1000
1000
0000
,
2000
0000
0000
3000
,
0002
0000
0000
0003
,
2000
0000
0000
3000
,
0001
0000
0000
1001
0000
0000
0000
0000
;

//--------------- dance-single - Fred-104 ----------------
#NOTEDATA:;
#STEPSTYPE:dance-single;
#DESCRIPTION:Fred-104;
#DIFFICULTY:Easy;
#METER:7;
#CREDIT:Fred-104;
#NOTES:
0000
0000
0000
0000
,
0000
0000
0000
0000
,
0000
0000
0000
0000
,
0000
0000
0000
0000
,
0000
0000
0000
0000
,
1000
0000
0000
1000
0000
0000
0010
0000
,
1000
0000
0000
0100
0000
0000
1000
0000
,
0001
0000
0000
0100
0000
0000
0010
0000
,
0100
0000
0000
0100
0000
0000
0001
0000
,
1000
0010
1000
1000
,
0001
0100
0010
1000
,
0100
0010
0001
1000
,
0001
0100
0110
0000
,
0010
1000
0100
1000
,
1000
0001
0200
0310
,
0100
0100
0001
0001
,
1000
1000
0001
1000
,
1001
0000
0000
0000
0000
0000
0000
0001
,
1000
0000
0000
0000
0000
0000
0000
1000
,
0001
0000
0000
0000
0000
0000
0000
0001
,
1000
0000
0000
0000
,
0010
1000
0001
0100
,
0001
1000
1001
0000
,
0001
0100
0001
0100
,
0010
0100
0010
1000
,
0001
0001
1000
1000
,
0010
0100
0001
1000
,
0001
0000
0000
1001
0000
0000
0000
0000
,
1000
0000
0000
1001
0000
0000
0000
0000
,
0001
0000
0000
0100
0000
0000
0010
0000
,
1000
0000
0000
0100
0000
0000
0010
0000
,
0001
0000
1000
0000
,
0010
0000
1000
0000
,
0100
0100
1000
1000
,
0002
2003
3002
2003
,
3001
0000
0001
0000
0000
0000
1000
0000
1000
0000
0000
0000
,
0010
0000
0010
0000
0000
0000
0100
0000
0000
0001
0000
0000
,
1000
0100
0010
0001
,
1000
0010
0100
0001
,
1001
0000
1000
0010
,
0100
0000
0001
0010
,
0100
0000
1000
0001
,
1000
0000
0001
0100
,
0010
0100
0100
0010
,
1000
0100
1000
1000
,
0001
0001
1000
0010
,
0100
0001
1000
0001
,
1000
0000
0000
0100
0000
0000
0010
0000
,
0001
0000
0000
0100
0000
0000
0010
0000
,
1000
0000
0000
0001
0000
0000
0100
0000
,
0001
0000
0000
1000
0000
0000
0100
0000
,
1000
0000
0000
1100
0000
0000
0000
0000
,
0001
0000
0000
0101
0000
0000
0000
0000
,
1000
0100
0010
0001
,
1000
0010
0100
0100
,
0001
0000
0000
0011
0000
0000
0000
0000
,
1000
0000
0000
1010
0000
0000
0000
0000
,
0001
0001
1000
1000
,
0010
0100
0001
1000
,
0001
0000
0000
1000
0000
0000
0010
0000
,
1000
0000
0000
0100
0000
0000
0010
0000
,
0001
0001
1000
1000
,
0010
0010
0100
0001
,
1000
0000
0000
0100
0000
0000
0010
0000
,
0001
0000
0000
0010
0000
0000
0100
0000
,
1000
1000
0010
1000
,
0100
1000
0001
0100
,
0010
0010
0100
0100
,
0001
0001
1000
1000
,
0001
0010
0100
1000
,
0001
0100
0010
1000
,
0001
0001
1000
1000
,
0010
0010
0100
0100
,
0001
0001
1000
1000
,
0001
0000
1000
0000
0001
0000
2002
3003
,
1000
0000
0000
0010
0000
0000
0001
0000
,
1000
0000
0000
0100
0000
0000
0001
0000
,
1000
0000
0000
0010
0000
0000
0001
0000
,
1000
0000
0000
0001
0000
0000
1001
0000
0000
0000
0000
0000
0000
0000
0000
0000
;

//--------------- dance-single - Fred-104 ----------------
#NOTEDATA:;
#STEPSTYPE:dance-single;
#DESCRIPTION:Fred-104;
#DIFFICULTY:Medium;
#METER:12;
#CREDIT:Fred-104;
#NOTES:
0000
0000
0000
0000
,
0000
0000
0000
0000
,
0000
0000
0000
0000
,
0000
0000
0000
0000
,
0000
0000
0000
0000
,
1000
0000
0000
0010
0000
0000
1000
0000
0000
0100
0000
0000
1000
0000
0001
0000
,
0100
0000
0000
0010
0000
0000
0100
0000
0000
0001
0000
0000
1000
0000
0100
0000
,
0010
0000
0000
0001
0000
0000
1000
0000
0000
0001
0000
0000
0100
0000
0010
0000
,
0100
0000
0000
0001
0000
0000
0010
0000
0100
0000
1000
0000
0001
0000
0001
0000
,
1000
0000
0001
0100
0010
1000
0020
0000
,
1030
0100
0001
0100
1000
0010
0200
0000
,
0301
0010
0001
0010
1000
0010
1000
0010
,
0001
1000
0010
0100
0001
1000
1010
0000
,
1000
0100
0010
0001
1000
1000
0001
0000
,
0100
0010
0100
0001
0000
1000
0100
0010
,
0012
0103
2010
3100
,
0001
0010
0100
1000
0001
0100
0010
1000
,
0001
0000
0000
0011
0000
0000
1000
0000
0000
1010
0000
0000
0010
0000
0100
0000
,
0001
0000
0000
0101
0000
0000
1000
0000
0000
1100
0000
0000
0100
0000
0010
0000
,
0001
0000
0000
1001
0000
0000
1000
0000
0000
1010
0000
0000
0010
0000
0100
0000
,
0001
0000
0000
0101
0000
0000
0100
0000
0000
0110
0000
0000
0010
0000
1000
0000
,
0001
0010
0001
0100
0001
0010
0001
0000
,
1000
0010
1000
0100
1000
0001
0100
0000
,
0001
0010
0100
1000
0010
0100
0001
0000
,
1000
0100
0001
0100
1000
0010
0100
0000
,
0001
0100
0001
0100
0010
1000
0100
1000
,
0100
0010
0001
1000
0001
1000
1000
0000
,
0001
0000
0000
0010
0000
0000
0110
0000
0000
0000
0000
0000
0000
0000
0000
0000
,
1000
0000
0000
0010
0000
0000
0110
0000
0000
0000
0000
0000
0000
0000
0000
0000
,
0001
0000
0000
0101
0000
0000
0001
0000
0000
0011
0000
0000
0001
0000
0001
0000
,
1000
0000
0000
1010
0000
0000
1000
0000
0000
1100
0000
0000
1000
0000
0010
0000
,
0100
0001
0100
0000
0100
0010
0100
0000
,
0100
1000
0100
0000
0100
0010
0100
0000
,
0001
0010
0001
1000
0001
0100
0010
0000
,
1010
0101
1100
0011
,
0001
0000
0010
0000
1000
0000
0001
0000
0100
0000
1000
0000
,
0001
0000
0000
0000
0100
0000
0000
0000
0010
0000
0000
0000
1000
0000
0000
0001
0000
0000
1000
0000
0000
0000
0000
0000
,
0001
0000
0010
0000
0100
0000
1000
0000
0010
0000
1000
0000
,
0001
0100
0010
0100
0001
0000
1001
0000
,
1000
0000
1000
0010
0000
0010
0100
0000
0100
0001
0000
0001
,
0010
0000
0010
0100
0000
0100
1000
0000
0000
1010
0000
0000
,
1000
0000
1000
0100
0000
0100
0010
0000
0010
0001
0000
0001
,
0100
0000
0100
1000
0000
0100
0001
0000
0000
1001
0000
0000
,
1000
0100
1000
0000
0001
0100
0001
0000
,
0100
0010
0100
0010
0000
0000
0100
0000
0000
0110
0000
0000
,
0010
0000
0010
1000
0000
1000
0001
0000
0001
0010
0000
0010
,
0100
0000
0100
1000
0000
1000
0001
0000
0000
0000
0000
0000
,
1000
0000
0000
1100
0000
0000
0100
0000
0000
0110
0000
0000
0010
0000
0001
0000
,
1000
0000
0000
1010
0000
0000
0001
0000
0000
0101
0000
0000
0100
0000
0010
0000
,
1000
0000
0000
1010
0000
0000
1100
0000
0000
1010
0000
0000
1000
0000
0010
0000
,
0100
0000
0000
0101
0000
0000
0011
0000
0000
1001
0000
0000
0001
0000
0100
0000
,
0010
0000
0000
1010
0000
0000
1000
0100
,
0010
0000
0000
1001
0000
0000
0000
0000
,
0001
0100
0001
0000
0100
1000
0100
0000
,
1000
0010
1000
0000
0010
0001
0010
0000
,
1001
0000
0000
0110
0000
0000
0010
1000
,
1100
0000
0000
0101
0000
0000
1001
0000
,
0001
0100
1000
0000
0001
0010
1000
0000
,
0001
0100
1000
0100
0001
1000
0001
0000
,
1000
0100
1000
0010
0000
0100
0001
0000
,
1000
0100
0010
0001
0000
0010
0100
0000
,
1000
0010
1000
0100
1000
0010
0100
0001
,
0010
0001
1000
0001
0100
0010
1000
0000
,
0001
0100
0100
0001
0000
0100
0010
1000
,
0010
0100
0100
0010
0000
1000
0100
1000
,
0001
0010
0100
1000
0010
0100
0010
1000
,
0100
0010
0001
1000
0001
1000
1001
0000
,
1000
0100
0010
0000
1000
0100
0010
0000
,
1000
0010
0100
0000
1000
0010
0100
0000
,
0001
0100
0010
0000
0001
0100
0010
0000
,
0001
0010
0100
0000
0001
0010
0100
0000
,
1100
1010
1100
1010
,
0101
0011
0101
0011
,
0101
1001
1100
1001
,
0001
0100
0001
0000
1000
0010
2000
3000
,
0001
0000
0000
0100
0000
0000
1000
0000
0000
0100
0000
0000
0001
0000
1000
0000
,
0001
0000
0000
0010
0000
0000
1000
0000
0000
0010
0000
0000
0001
0000
1000
0000
,
0001
0000
0000
0100
0000
0000
0010
0000
0000
1000
0000
0000
0100
0000
0010
0000
,
0011
0000
0000
1001
0000
0000
1010
0000
0000
0000
0000
0000
0000
0000
0000
0000
;

//--------------- dance-single - Fred-104 ----------------
#NOTEDATA:;
#STEPSTYPE:dance-single;
#DESCRIPTION:Fred-104;
#DIFFICULTY:Hard;
#METER:15;
#CREDIT:Fred-104;
#NOTES:
0000
0000
0000
0000
,
0000
0000
0000
0000
,
0000
0000
0000
0000
,
0000
0000
0000
0000
,
0000
0000
0000
0000
,
0001
0010
0000
0001
0010
0000
0100
1000
0000
0100
1000
0000
0001
0100
0010
0000
,
1000
0100
0000
1000
0100
0000
0010
0001
0000
0010
0001
0000
1000
0001
0100
0000
,
0001
0010
0000
0100
1000
0000
0001
0100
0000
0010
1000
0000
0001
1000
0100
0000
,
0010
0000
0100
1000
0100
1000
0100
0000
0010
0001
1000
0000
0001
1000
0100
0010
,
0002
0000
0000
0000
0013
0000
1000
0010
1000
0000
0010
0000
0002
0000
0000
0000
,
1003
0100
0010
0000
0100
0010
0001
0000
1000
0000
0100
0000
2000
0000
0000
0000
,
3001
0100
0010
0000
1000
0000
0100
0000
1000
0100
0010
0000
0001
0000
0100
0000
,
0001
0000
1000
0100
1000
0000
0100
0000
0010
0000
0001
0000
1001
0000
0000
0000
,
0001
0000
0000
0000
0100
0000
0000
0000
0001
0000
0000
0000
0000
0000
0000
0000
0100
0000
0000
0000
0010
0000
0000
0000
0100
0000
0000
0000
0000
0000
0000
0000
0010
0000
0000
0000
0000
0000
0000
0000
1000
0000
0000
0000
0000
0000
0000
0000
0200
0300
0000
0000
0000
0000
0000
0000
0200
0300
0000
0000
0000
0000
0000
0000
,
0001
0000
0000
0000
0000
0000
1000
0000
0000
0001
0000
0000
1000
0000
0000
0000
0000
0000
0100
0000
0000
0000
0000
0000
0010
0000
0000
0000
0000
0000
0100
0000
0000
0000
0000
0000
1000
0000
0000
0000
0100
0000
0000
0000
0010
0000
0000
0000
,
0002
0000
0203
0000
2300
0000
3200
0000
0301
0100
0001
0100
0001
0000
1000
0000
,
0001
1000
0001
1000
0100
0000
0010
0001
0000
1000
0001
0000
0100
0010
0100
0000
,
0001
0010
0000
0010
0100
0000
0100
1000
0000
1000
0010
0000
0100
0000
0001
0000
,
1000
0100
0000
0100
0010
0000
0010
0001
0000
0001
1000
0000
0010
0000
0100
0000
,
0001
1000
0000
0010
0100
0000
0001
1000
0000
0100
0010
0000
0001
0000
1000
0000
,
0001
0100
0000
0010
0100
0000
0001
1000
0000
0100
1000
0000
0100
0010
0001
1000
,
0001
0000
0000
0000
0000
0000
0000
0000
0020
0030
0000
0000
0000
0000
0000
0000
0020
0030
0000
0000
0000
0000
0000
0000
1000
0000
0000
0000
0100
0000
0000
0000
1000
0000
0000
0000
0000
0000
0000
0000
0100
0000
0000
0000
0000
0000
0000
0000
0010
0000
0000
0000
0001
0000
0000
0000
0010
0000
0000
0000
0000
0000
0000
0000
,
0001
0000
0100
0000
0010
0100
0010
0000
1000
0000
0100
0000
1100
0000
0000
0000
,
1000
0010
0100
0000
0010
0000
1000
0000
0001
0000
0100
0000
0010
0100
0001
0000
,
1000
0000
0001
0000
0100
0010
1000
0000
1010
0000
0000
0000
0101
0000
0001
0000
,
1000
0000
0010
1000
0100
0000
0010
0000
0001
0000
0100
0010
1000
0000
0001
0000
,
1000
0100
1000
0000
0001
0100
0001
0000
0100
0010
0100
0010
1000
0000
0000
0000
,
1010
0000
0000
0101
0000
0000
1100
0000
0000
0000
0000
0000
0110
0000
0000
0000
,
0011
0000
0000
1010
0000
0000
0101
0000
0000
0000
0000
0000
1001
0000
0000
0000
,
1000
0100
0000
0100
0010
0000
0010
0100
0000
0100
1000
0000
0001
0100
0001
0000
,
0100
0010
0000
0010
1000
0000
1000
0010
0000
0010
0100
0000
0001
1000
0001
0000
,
1000
0100
0110
0000
0001
0100
0010
0010
,
1000
0000
0000
0100
0000
0000
0010
0000
0000
0001
0000
0000
0100
0000
0010
0000
0100
0000
0001
0000
0000
1000
0000
0000
,
0001
0010
0001
0100
0001
0100
0010
1000
0010
1000
0100
0010
,
0001
0000
0011
0000
1010
0000
1001
0001
,
1000
0000
0100
0000
1000
0100
0001
0000
0100
0000
0001
0100
,
1000
0000
0000
0000
0010
0000
0000
0000
0100
0000
0001
0000
1000
0000
0000
0100
0000
0000
0110
0000
0000
0000
0000
0000
,
0001
0000
0100
0000
0001
0100
1000
0000
0100
0000
1000
0100
,
0001
0000
0100
0000
0010
0000
1000
0000
0000
0001
0000
0000
0100
0000
0000
0000
0000
0000
0110
0000
0000
0000
0000
0000
,
0010
1000
0001
1000
0100
0010
0001
0100
0010
0100
0000
0001
,
0100
0000
0010
0000
1000
0000
0100
0000
0010
0000
0001
0000
1000
0000
0000
0000
0000
0000
1001
0000
0000
0001
0000
0000
,
1000
0010
1000
0100
1000
0010
0100
0001
0010
0001
0100
0001
,
0100
0000
0010
0000
1000
0000
0001
0000
0000
1000
0000
0000
1001
0000
0000
0000
0000
0000
0001
0000
0000
1000
0000
0000
,
0100
0010
0001
1000
0010
1000
0100
1000
,
0001
0100
0001
1000
0100
1000
0001
0000
0000
1001
0000
0000
,
1000
0000
1000
0100
0000
0100
0010
0000
0010
0001
0000
0001
,
1000
0100
0010
0001
0010
0100
1000
0000
0000
1001
0000
0000
,
1100
0000
0000
1010
0000
0000
1100
0000
0000
1010
0000
0000
0010
0000
0100
0000
,
0101
0000
0000
0011
0000
0000
0101
0000
0000
0011
0000
0000
0001
0000
0100
0000
,
0010
1000
0000
0010
0100
0000
0010
1000
0000
0001
1000
0000
0100
0000
0010
0000
,
0001
0010
0000
0010
0100
0000
0100
1000
0000
1000
0001
0000
0100
0010
0100
0010
,
1000
0000
0000
1010
0000
0000
0001
0100
,
0110
0000
0000
1001
0000
0000
0000
0000
,
1000
0100
0001
0100
1000
0100
0001
0100
,
1000
0100
0001
0100
1000
0010
0100
0000
,
0101
0000
0000
1010
0000
0000
0001
0010
,
0011
0000
0000
1100
0000
0000
1001
0000
,
0001
0100
1000
0100
0001
0100
1000
0100
,
0001
0100
1000
0100
0001
0100
0010
1000
,
1001
0000
0001
0102
0000
0103
0010
1000
,
1100
0000
0010
2010
0000
3010
1000
0001
,
1000
0100
0010
0100
1000
0010
0100
0010
,
1000
0000
0100
0000
0010
0000
0001
0000
1000
0000
0001
0100
0001
0000
0100
0000
,
0110
0010
1000
1100
1000
0001
0100
0010
,
1010
1000
0001
0101
0001
0100
0120
0000
,
1030
1000
0010
0010
0100
0100
0001
0001
,
1000
1000
0100
0100
0001
0100
2100
0000
,
3001
0001
0010
0010
1000
1000
0010
0010
,
0001
0001
0100
0100
0010
1000
1002
0000
,
1003
0000
0000
0000
0000
0000
0000
0000
0001
0000
0000
0000
0000
0000
0000
0000
0200
0300
0000
0000
0000
0000
0000
0000
0200
0300
0000
0000
0000
0000
0000
0000
0001
0000
0000
0000
0000
0000
0000
0000
1000
0000
0000
0000
0000
0000
0000
0000
0020
0030
0000
0000
0000
0000
0000
0000
0020
0030
0000
0000
0000
0000
0000
0000
,
1000
0000
0000
0000
0000
0000
0000
0000
0100
0000
0000
0000
0000
0000
0000
0000
0020
0030
0000
0000
0000
0000
0000
0000
0020
0030
0000
0000
0000
0000
0000
0000
1000
0000
0000
0000
0000
0000
0000
0000
0001
0000
0000
0000
0000
0000
0000
0000
0100
0000
0000
0000
0000
0000
0000
0000
0000
0000
0000
0000
0000
0000
0000
0000
,
1001
0110
1010
0101
,
1100
0011
1010
0101
,
1100
0100
0010
0000
0101
0100
0010
0000
,
1000
0100
0001
1000
0010
0001
2002
3003
,
0001
0100
0001
0100
0001
0000
1000
0100
0000
0010
0001
0000
1000
0010
0100
0000
,
0001
1000
0100
1000
0001
0000
1000
0010
0000
0100
0001
0000
1000
0100
0010
0000
,
0001
0010
0100
1000
0001
0000
0100
0010
0000
1000
0010
0000
0100
0001
1000
0000
,
1100
0000
0000
0101
0000
0000
1001
0000
0000
0000
0000
0000
0000
0000
0000
0000
;

//--------------- dance-single - Fred-104 (BPM 156-240) ----------------
#NOTEDATA:;
#STEPSTYPE:dance-single;
#DESCRIPTION:Fred-104 (BPM 156-240);
#DIFFICULTY:Challenge;
#METER:17;
#DISPLAYBPM:156:240;
#BPMS:0=158,20=240,44=160,76=240,100=160,132=240,144=160,208=240,232=156,263.5=157.5,264=156,327.5=162,328=240;
#STOPS:327.5=0.385;
#TIMESIGNATURES:0=4=4,20=6=4,44=4=4,76=6=4,100=4=4,132=6=4,144=4=4,208=6=4,232=4=4,328=6=4;
#CREDIT:Fred-104 (BPM 156-240);
#NOTES:
0000
0000
0000
0000
,
0000
0000
0000
0000
,
0000
0000
0000
0000
,
0000
0000
0000
0000
,
0000
0000
0000
0000
,
0001
0000
0000
0100
0000
0000
0010
0000
0000
1000
0000
0000
0001
0000
0000
0000
0000
0000
1000
0000
0000
0100
0000
0000
0000
0000
0000
0001
0000
0000
0100
0000
,
0000
0000
0000
0000
1000
0000
0000
0010
0000
0000
0100
0000
0000
0000
0000
0000
0001
0000
0000
0010
0000
0000
0100
0000
0000
0010
0000
0000
0001
0000
0000
0000
,
0000
0000
1000
0000
0000
0001
0000
0000
0000
0000
0000
0100
0000
0000
0010
0000
0000
0000
0000
0000
1000
0000
0000
0010
0000
0000
0100
0000
0000
0000
0000
0000
,
0001
0000
0000
0010
0000
0000
0100
0000
0000
0010
0000
0000
0001
0000
0000
0000
0000
0000
0100
0000
0000
1000
0000
0000
0000
0000
0000
0100
0000
0000
0001
0000
,
0000
0000
0000
0000
1000
0000
0000
0010
0000
0000
0100
0000
0000
0000
0000
0000
0001
0000
0000
0100
0000
0000
0001
0000
0000
1000
0000
0000
0010
0000
0000
0100
,
0000
0000
0010
0000
0000
0000
0000
0000
1000
0000
0000
0100
0000
0000
0010
0000
0000
0100
0000
0000
1000
0000
0000
0010
0000
0000
0100
0000
0000
0001
0000
0000
,
1000
0000
0000
0000
0001
0010
0100
1000
0001
0000
0100
0010
0200
0000
0000
0000
,
0301
0100
0001
0100
1000
0100
1000
0100
0001
0000
1000
0001
2000
0000
0000
0000
,
3001
0010
0001
0100
0001
0000
1001
0000
1000
0100
1000
0010
1000
0100
1000
0000
,
1001
0000
0000
1000
0010
0100
0010
0000
1000
0001
1000
0100
0010
0001
0000
0001
,
1000
0000
0100
0010
0001
0100
0010
1000
0001
0000
0010
0000
0110
0000
0100
0000
,
1000
0000
0000
0000
0000
0000
0010
0000
0000
1000
0000
0000
0001
0000
0000
0000
0000
0000
0011
0000
0000
0000
0000
0000
0010
0000
0000
0000
0000
0000
0100
0000
0000
0000
0000
0000
1000
0000
0000
0000
0100
0000
0000
0000
0100
0000
0000
0000
,
0002
0000
0203
0000
2300
0000
3200
0000
0301
0100
1000
0100
0001
0000
1000
0000
,
0100
1000
0010
1000
0001
0000
0100
1000
0000
0100
0001
0000
1000
0010
0100
0001
,
1000
0000
0000
0100
0000
0000
0010
0000
0000
0001
0000
0000
1000
0000
0000
0000
0000
0000
0010
0000
0000
0100
0000
0000
0000
0000
0000
0010
0000
0000
1000
0000
,
0000
0000
0000
0000
0001
0000
0000
0100
0000
0000
0010
0000
0000
0100
0000
0000
0001
0000
0000
1000
0000
0000
0100
0000
0000
1000
0000
0000
0010
0000
0000
0000
,
0000
0000
0100
0000
0000
0001
0000
0000
0000
0000
0000
1000
0000
0000
0100
0000
0000
0000
0000
0000
0010
0000
0000
0100
0000
0000
1000
0000
0000
0001
0000
0000
,
1000
0000
0000
0100
0000
0000
0001
0000
0000
0100
0000
0000
1000
0000
0000
0000
0000
0000
0010
0000
0000
0100
0000
0000
0000
0000
0000
0001
0000
0000
0100
0000
,
0000
0000
0000
0000
0010
0000
0000
1000
0000
0000
0100
0000
0000
0010
0000
0000
0001
0000
0000
0010
0000
0000
1000
0000
0000
0010
0000
0000
0001
0000
0000
0000
,
0000
0000
0100
0000
0000
0010
0000
0000
0000
0000
0000
1000
0000
0000
0100
0000
0000
0000
0000
0000
1000
0000
0000
0010
0000
0000
0100
0000
0000
0001
0000
0000
,
2000
0000
3200
0000
0320
0000
0031
0100
0020
0000
0230
0000
0301
0100
2000
0000
,
3200
0000
0000
0000
0000
0000
0000
0000
0302
0000
0000
0000
0000
0000
0000
0000
0023
0000
0000
0000
0000
0000
0000
0000
0130
0000
0000
0000
1000
0000
0000
0000
0001
0000
0000
0000
0000
0000
0000
0000
0100
0000
0000
0000
0000
0000
0000
0000
0020
0030
0000
0000
0000
0000
0000
0000
0020
0030
0000
0000
0000
0000
0000
0000
,
0002
0103
0020
0130
2000
3100
0020
0130
,
0002
0000
0023
0000
1030
0010
0100
0000
1000
0000
0100
0000
0001
0100
1000
0000
,
0010
0000
0100
0010
0100
0001
1000
0001
1000
0010
1000
0001
1000
0100
0010
0001
,
0100
0010
0100
0001
0010
0001
0100
0001
0010
0100
1000
0001
1000
0000
0000
0000
,
1100
0000
0000
0011
0000
0000
1010
0000
0000
0000
0000
0000
0110
0000
0000
0000
,
0101
0000
0000
1010
0000
0000
0011
0000
0000
0000
0000
0000
1001
0000
0000
0000
,
0001
0000
0000
0100
0000
0000
0001
0000
0000
1000
0000
0000
0100
0000
0000
1000
0000
0000
0001
0000
0000
0100
0000
0000
0001
0000
0000
1000
0000
0000
0100
0000
,
0000
1000
0000
0000
0001
0000
0000
0010
0000
0000
0100
0000
0000
1000
0000
0000
0001
0000
0000
0010
0000
0000
0001
0000
0000
1000
0000
0000
0010
0000
0000
1000
,
0000
0000
0001
0000
0000
0010
0000
0000
0001
0000
0000
1000
0000
0000
0010
0000
0000
1000
0000
0000
0001
0000
0000
0100
0000
0000
0010
0000
0000
1000
0000
0000
,
0001
0000
0000
0010
0000
0000
0011
0000
0000
0000
0001
0000
1000
0000
0010
0000
0100
0000
0001
0000
0000
1000
0000
0000
,
0001
0000
0000
0100
0000
0000
1000
0000
0000
0100
0000
0000
0001
0000
0100
0000
1000
0000
0100
0000
0000
0001
0000
0000
,
1000
0010
1000
0100
1000
0010
0100
0001
0100
0100
1000
0001
,
1000
0000
0000
0000
1001
0000
0001
1000
0010
1000
0100
0000
0010
0001
0100
0000
,
0011
0000
0000
0000
0001
0000
0000
0000
0100
0000
0010
0000
1000
0000
0000
0000
1000
0000
0100
0000
0000
0010
0000
0000
,
0011
0000
0000
0000
0001
0000
0000
0000
1000
0000
0000
0000
0010
0000
0000
0100
0000
0000
0110
0000
0000
0000
0000
0000
,
1001
0000
0100
0000
0001
0100
1000
0000
0010
0000
0001
0010
,
1000
0000
0000
0000
0100
0000
0000
0000
0100
0000
0000
0000
0001
0000
0000
0000
0000
0000
1000
0000
0000
0000
0000
0000
0010
0000
0000
0000
0000
0000
0100
0000
0000
0000
0000
0000
0001
0000
0000
1000
0000
0000
0001
0000
0000
0000
0000
0000
,
1000
0100
0100
0001
0100
0100
1000
0100
0010
0001
0000
1000
,
0001
0000
0010
0000
0010
0000
1000
0000
0010
0000
0010
0000
0001
0000
0000
0000
0000
0000
1001
0000
0000
0001
0000
0000
,
1000
0100
0010
0100
1000
0001
0100
0100
1000
0100
0100
0001
,
1000
0000
0100
0000
0001
0000
1000
0000
0010
0000
0001
0000
2000
0000
0000
0000
0000
0000
3001
0000
0000
0100
0000
0000
,
0010
0000
1000
0100
0010
0000
0001
0000
1000
0000
0001
1000
0010
0000
0100
0000
,
0010
1000
0100
0010
0001
0100
0010
0000
0000
1001
0000
0000
,
1000
0000
0100
0010
0000
0001
0100
0000
0010
1000
0000
1000
,
0001
0100
1000
0001
0010
1000
0001
0000
0000
1001
0000
0000
,
1000
0000
0000
0010
0000
0000
1000
0000
0000
0010
0000
0000
0100
0000
0000
0010
0000
0000
1000
0000
0000
0010
0000
0000
1000
0000
0000
0010
0000
0000
0100
0000
,
0000
0010
0000
0000
1000
0000
0000
0001
0000
0000
0100
0000
0000
0000
0000
0000
0001
0000
0000
0010
0000
0000
0001
0000
0000
0100
0000
0000
0001
0000
0000
0100
,
0000
0000
0001
0000
0000
0010
0000
0000
0001
0000
0000
0100
0000
0000
0001
0000
0000
0100
0000
0000
0001
0000
0000
1000
0000
0000
0100
0000
0000
0000
0000
0000
,
0010
0000
0000
0001
0000
0000
1000
0000
0000
0001
0000
0000
1000
0000
0000
0100
0000
0000
0010
0000
0000
0001
0000
0000
1000
0000
0000
0001
0000
0000
1000
0000
,
0000
0100
0000
0000
0010
0000
0000
0100
0000
0000
1000
0000
0000
0000
0000
0000
0001
0000
0000
0010
0000
0000
0100
0000
0000
1000
0000
0000
0010
0000
0000
0100
,
0000
0000
0001
0000
0000
0010
0000
0000
0100
0000
0000
1000
0000
0000
0010
0000
0000
0100
0000
0000
0001
0000
0000
0010
0000
0000
0100
0000
0000
1000
0000
0000
,
0001
0000
0000
1001
0000
0000
0001
0100
,
0110
0000
0000
1010
0000
0000
0000
0000
,
1000
0000
0010
1000
0100
0000
0010
0001
0100
0000
0010
1000
0100
0000
0010
0001
,
0100
0000
0010
1000
0100
0000
0010
0000
0110
0000
0110
0000
1001
0000
1001
0000
,
1010
0000
0000
0000
0000
0000
0101
0000
0000
0000
0000
0000
1000
0100
1000
0100
,
1000
0000
0000
0000
0000
0000
1010
0000
0000
0000
0000
0000
1000
0100
0010
0001
,
1000
0000
0001
0010
0100
0000
1000
0010
0100
0000
0001
0010
0100
0000
1000
0010
,
0100
0000
0001
0010
0100
0000
0010
0000
0110
0000
0110
0000
1001
0000
1001
0000
,
1100
0000
0100
0000
0010
0000
0101
0000
0100
0000
0010
0000
1000
0100
0010
0000
,
0011
0000
0010
0000
0100
0000
1010
0000
0010
0000
0100
0000
0001
0100
0010
0000
,
1000
0000
0100
1000
0010
0000
1010
0000
0001
0000
0100
0001
0010
0000
0011
0000
,
0001
0000
0000
0000
0000
0000
1000
0000
0000
0001
0000
0000
0100
0000
0000
0000
0000
0000
0110
0000
0000
0000
0000
0000
0010
0000
0000
0000
0000
0000
1000
0000
0001
0000
0100
0000
0001
0000
0000
0000
0000
0000
1001
0000
0000
0000
0000
0000
,
1100
0010
0001
0101
0010
1000
0100
1000
,
1001
0000
0001
0000
0100
0000
0110
0000
0010
0000
1000
0000
0001
1000
0001
0000
,
0101
0100
0110
0010
1010
1000
1100
0100
,
0110
0010
0011
0001
0101
0001
1001
0000
,
1010
1000
1100
1000
0011
0001
0101
0001
,
1100
0100
0110
0100
1100
1000
1001
0000
,
0011
0000
0001
0000
0100
0000
0001
0010
0100
0000
1000
0000
0001
0000
0100
0010
,
1000
0000
0100
0000
0010
0000
0100
0010
0001
0000
1000
0100
0010
0100
1000
0000
,
1100
0011
1010
0101
,
0011
1100
0101
1010
,
0101
0100
0010
0000
1100
0100
0010
0000
,
0101
0100
0010
1100
0100
0010
2002
3003
,
0001
0000
0000
0100
0000
0000
0001
0000
0000
1000
0000
0000
0100
0000
0000
0000
0000
0000
0010
0000
0000
0001
0000
0000
0000
0000
0000
1000
0000
0000
0001
0000
,
0000
0000
0000
0000
1000
0000
0000
0010
0000
0000
0100
0000
0000
0000
0000
0000
0001
0000
0000
0010
0000
0000
0100
0000
0000
1000
0000
0000
0010
0000
0000
0000
,
0000
0000
1000
0000
0000
0100
0000
0000
0000
0000
0000
0010
0000
0000
0001
0000
0000
0000
0000
0000
1000
0000
0000
0001
0000
0000
0100
0000
0000
0000
0000
0000
,
0001
0000
0000
0010
0000
0000
1000
0000
0000
0010
0000
0000
0001
0000
0000
0000
0000
0000
1000
0000
0000
0100
0000
0000
0000
0000
0000
0001
0000
0000
0100
0000
,
0000
0000
0000
0000
1000
0000
0000
0010
0000
0000
0100
0000
0000
0000
0000
0000
0101
0000
0000
0000
0000
0000
0000
0000
0000
1010
0000
0000
0000
0000
0000
0000
,
0000
1001
0000
0000
0000
0000
0000
0000
0000
0000
0000
0000
0000
0000
0000
0000
;

//--------------- dance-double - Fred-104 ----------------
#NOTEDATA:;
#STEPSTYPE:dance-double;
#DESCRIPTION:Fred-104;
#DIFFICULTY:Easy;
#METER:7;
#CREDIT:Fred-104;
#NOTES:
00000000
00000000
00000000
00000000
,
00000000
00000000
00000000
00000000
,
00000000
00000000
00000000
00000000
,
00000000
00000000
00000000
00000000
,
00000000
00000000
00000000
00000000
,
00001000
00000000
00100000
00000000
,
00010000
00000000
01000000
00000000
,
00010000
00000000
10000000
00000000
,
00010000
00000000
01000000
00100000
,
01000000
00000000
00010000
01000000
,
00010000
01000000
00001000
00010000
,
00001000
00010000
00001000
00010000
,
00000100
00010000
00011000
00000000
,
00010000
00000000
00001000
00000100
,
00000001
00000000
00002000
00003010
,
00000100
00000001
00000100
00000001
,
00001000
00000010
00010000
00001000
,
00011000
00000000
00000000
00000000
00000000
00000000
00000000
00001000
,
00010000
00000000
00000000
00000000
00000000
00000000
00000000
00010000
,
00001000
00000000
00000000
00000000
00000000
00000000
00000000
00001000
,
00010000
00000000
00000000
00000000
,
00001000
00000000
00010000
00000100
,
00010000
00001000
00011000
00000000
,
00001000
00100000
00010000
10000000
,
00100000
01000000
00010000
00000000
,
10000000
00010000
10000000
01000000
,
00100000
00001000
00010000
00001000
,
00010000
00000000
00000000
00011000
00000000
00000000
00000000
00000000
,
00001000
00000000
00000000
00011000
00000000
00000000
00000000
00000000
,
00010000
00000000
00001000
00000100
,
00000010
00000000
00000001
00001000
,
00000010
00000000
00001000
00000000
,
00000100
00000000
00010000
00000000
,
00001000
00010000
00001000
00100000
,
00002000
00023000
00032000
00023000
,
00031000
00000000
00001000
00000000
00000000
00000000
00100000
00000000
00100000
00000000
00000000
00000000
,
01000000
00000000
01000000
00000000
00000000
00000000
10000000
00000000
00000000
00010000
00000000
00000000
,
01000000
00100000
01000000
00010000
,
10000000
01000000
00100000
00000000
,
00011000
00000000
00001000
00010000
,
00001000
00000000
00010000
00000100
,
00001000
00000000
00000010
00000100
,
00000001
00000000
00000100
00000010
,
00000100
00000010
00001000
00000010
,
00001000
00000100
00010000
00000000
,
00010000
00001000
00010000
00001000
,
00010000
00000010
00001000
00000010
,
00002000
00000000
00003100
00000010
,
00000002
00000000
00000103
00000010
,
00002000
00000000
00003100
00010000
,
00002000
00000000
00013000
00001000
,
00010000
00000000
00000000
00011000
00000000
00000000
00000000
00000000
,
00001000
00000000
00000000
00011000
00000000
00000000
00000000
00000000
,
00001000
00001000
00100000
00100000
,
00010000
01000000
00100000
10000000
,
00010000
00000000
00000000
10010000
00000000
00000000
00000000
00000000
,
01000000
00000000
00000000
01100000
00000000
00000000
00000000
00000000
,
00010000
10000000
01000000
00100000
,
00001000
00010000
00010000
00001000
,
00010000
00000000
00000000
00000100
00000000
00000000
00010000
00000000
,
00001000
00000000
00000000
00010000
00000000
00000000
00000010
00000000
,
00001000
00000100
00010000
00000010
,
00001000
00000100
00010000
00000010
,
00001000
00000000
00000000
00000100
00000000
00000000
00000010
00000000
,
00000001
00000000
00000000
00000100
00000000
00000000
00001000
00000000
,
00010000
00001000
00010000
01000000
,
10000000
00010000
01000000
00100000
,
01000000
01000000
00100000
00100000
,
10000000
10000000
01000000
01000000
,
00100000
00001000
00010000
00100000
,
10000000
01000000
00100000
00001000
,
00010000
00000100
00000010
00000001
,
00000100
00000100
00000010
00000010
,
00001000
00001000
00000100
00000100
,
00010000
00000000
00001000
00000000
00010000
00000000
00022000
00033000
,
00001000
00000000
00000000
00010000
00000000
00000000
00100000
00000000
,
10000000
00000000
00000000
01000000
00000000
00000000
00100000
00000000
,
00001000
00000000
00000000
00010000
00000000
00000000
00000100
00000000
,
00001000
00000000
00000000
00000001
00000000
00000000
00001001
00000000
00000000
00000000
00000000
00000000
00000000
00000000
00000000
00000000
;

//--------------- dance-double - Fred-104 ----------------
#NOTEDATA:;
#STEPSTYPE:dance-double;
#DESCRIPTION:Fred-104;
#DIFFICULTY:Medium;
#METER:11;
#CREDIT:Fred-104;
#NOTES:
00000000
00000000
00000000
00000000
,
00000000
00000000
00000000
00000000
,
00000000
00000000
00000000
00000000
,
00000000
00000000
00000000
00000000
,
00000000
00000000
00000000
00000000
,
00010000
00000000
00000000
00010000
00000000
00000000
00001000
00000000
00000000
00001000
00000000
00000000
00010000
00000000
00000010
00000000
,
00001000
00000000
00000000
00001000
00000000
00000000
00000010
00000000
00000000
00000100
00000000
00000000
00000001
00000000
00000010
00000000
,
00000100
00000000
00000000
00000100
00000000
00000000
00001000
00000000
00000000
00010000
00000000
00000000
01000000
00000000
00100000
00000000
,
10000000
00000000
00000000
01000000
00000000
00000000
00100000
00000000
00000000
00001000
00000000
00000000
00010000
00000000
00001000
00000000
,
00010000
00000000
00000100
00001000
00000100
00000000
00010000
00000000
,
00000010
00001000
00000010
00000000
00001000
00000001
00000100
00000000
,
00000001
00000010
00000100
00000000
00010000
00001000
00010000
00000000
,
00000010
00001000
00000001
00000000
00001001
00000000
00000000
00000000
,
00000001
00000100
00001000
00000000
00010000
01000000
10000000
00000000
,
00010000
01000000
00100000
01000000
00020000
00000000
10030000
00010000
,
10000000
00100000
00010000
00000000
00001000
00000010
00000001
00000000
,
00001000
00000010
00000100
00000001
00001000
00000000
00000001
00000100
,
00000010
00000000
00000000
00001000
00000000
00000000
00000001
00000000
00000000
00000010
00000000
00000000
00000100
00000000
00000100
00000000
,
00010000
00000000
00000000
00001000
00000000
00000000
00010000
00000000
00000000
00100000
00000000
00000000
01000000
00000000
01000000
00000000
,
10000000
00000000
00000000
00010000
00000000
00000000
10000000
00000000
00000000
01000000
00000000
00000000
00100000
00000000
00100000
00000000
,
00001000
00000000
00000000
00010000
00000000
00000000
00000010
00000000
00000000
00001000
00000000
00000000
00000001
00000000
00000010
00000000
,
00000100
00001000
00000001
00000100
00000010
00001000
00000100
00000000
,
00010000
00000010
00001000
00000100
00010000
00001000
00100000
00000000
,
00001000
00010000
00000010
00001000
00000100
00010000
00001000
00100000
,
00010000
00100000
01000000
10000000
00010000
01000000
00100000
00000000
,
10000000
01000000
00010000
00001000
00000100
00000001
00001000
00000000
,
00000001
00000100
00001000
00010000
01000000
10000000
00010000
00000000
,
11000000
00000000
00000000
11000000
00000000
00000000
10010000
00000000
00000000
00000000
00000000
00000000
00101000
00000000
00000000
00000000
,
00011000
00000000
00000000
00011000
00000000
00000000
00010010
00000000
00000000
00000000
00000000
00000000
00001000
00000000
00000000
00000000
,
00000010
00000000
00000000
00000110
00000000
00000000
00000100
00000000
00000000
00000101
00000000
00000000
00000001
00000000
00000010
00000000
,
00000100
00000000
00000000
00010100
00000000
00000000
00010000
00000000
00000000
00011000
00000000
00000000
00001000
00000000
00100000
00000000
,
00001000
00010000
00001000
00000000
00001000
00000010
00001000
00000000
,
00001000
00100000
00001000
00000000
00001000
00000100
00001000
00000000
,
00000001
00000100
00000010
00000000
00001000
00000100
00010000
00000000
,
00011000
00010010
00011000
00101000
,
00001000
00000000
00100000
00000000
00010000
00000000
10000000
00000000
00010000
00000000
00100000
00000000
,
00010000
00000000
00000000
00000000
10000000
00000000
00000000
00000000
01000000
00000000
00000000
00000000
00100000
00000000
00000000
00001000
00000000
00000000
00010000
00000000
00000000
00000000
00000000
00000000
,
00001000
00000000
00010000
00000000
00000100
00000000
00010000
00000000
00001000
00000000
00010000
00000000
,
00000010
00001000
00000100
00010000
00001000
00000000
00012000
00000000
,
00013000
00000000
00010000
00001000
00000000
00001000
00000100
00000000
00000100
00000001
00000000
00000001
,
00001000
00000000
00001000
00000001
00000000
00000001
00000100
00000000
00000000
00021000
00000000
00000000
,
00031000
00000000
00001000
00010000
00000000
00010000
01000000
00000000
01000000
10000000
00000000
10000000
,
00010000
00000000
01000000
10000000
00000000
01000000
00010000
00000000
00000000
00012000
00000000
00000000
,
00013000
00001000
00010000
00000000
00000010
00001000
00000010
00000000
,
00010000
00001000
00100000
00002000
00000000
00000000
00013000
00000000
00000000
00011000
00000000
00000000
,
00001000
00000000
00001000
00010000
00000000
00010000
00100000
00000000
00100000
10000000
00000000
10000000
,
00010000
00000000
10000000
00100000
00000000
00010000
00002000
00000000
00000000
00023000
00000000
00000000
,
00031000
00000000
00000000
00101000
00000000
00000000
00001000
00000000
00000000
00011000
00000000
00000000
00001000
00000000
00001000
00000000
,
00010000
00000000
00000000
00010100
00000000
00000000
00010000
00000000
00000000
00010010
00000000
00000000
00010000
00000000
00010000
00000000
,
00001000
00000000
00000000
00101000
00000000
00000000
00001000
00000000
00000000
01001000
00000000
00000000
00001000
00000000
00001000
00000000
,
00010000
00000000
00000000
00010100
00000000
00000000
00010000
00000000
00000000
00011000
00000000
00000000
00001000
00000000
00001000
00000000
,
00010000
00000000
00000000
01100000
00000000
00000000
10000000
01000000
,
00100000
00000000
00000000
00011000
00000000
00000000
00000000
00000000
,
00001000
00000100
00000001
00000000
00000100
00001000
00010000
00000000
,
01000000
10000000
00010000
01000000
00100000
00000000
10010000
00000000
,
10100000
00000000
00000000
01010000
00000000
00000000
00001000
00010000
,
00001000
00000000
00000000
00010010
00000000
00000000
00001010
00000000
,
00000010
00001000
00000001
00000000
00000010
00000100
00001000
00000000
,
00010000
00001000
00010000
00001000
01000000
00001000
00010000
00000000
,
00001000
00000000
00010000
00001000
00000000
00001000
00000100
00000010
,
00000001
00000000
00001000
00000010
00000000
00000010
00000100
00000001
,
00000010
00000100
00010000
00000000
00001000
00100000
01000000
00000000
,
00100000
00001000
00010000
00000100
00000010
00000001
00001000
00000000
,
00000001
00000100
00001000
00010000
00000000
01000000
10000000
00000000
,
00010000
10000000
00100000
00010000
00000000
00001000
00000010
00000000
,
00000001
00001000
00000010
00000100
00000001
00001000
00000100
00000000
,
00010000
00000010
00001000
00000100
00010000
00001000
00100000
00000000
,
00001000
00010000
00100000
00000000
00001000
00010000
00000010
00000000
,
00010000
00001000
01000000
00000000
00001000
00010000
00000100
00000000
,
00010000
00001000
00100000
00000000
00010000
10000000
00100000
00000000
,
10000000
01000000
00100000
00000000
00001000
00010000
00000100
00000000
,
00001100
00000101
00001100
00000101
,
00001010
00000011
00001010
00011000
,
00110000
10100000
01010000
10010000
,
10000000
01000000
00020000
00000000
00031000
00000100
00000002
00000003
,
00001000
00000000
00000000
00001010
00000000
00000000
00000010
00000000
00000000
00000110
00000000
00000000
00000100
00000000
00000001
00000000
,
00000010
00000000
00000000
00000110
00000000
00000000
00001000
00000000
00000000
00011000
00000000
00000000
00010000
00000000
00001000
00000000
,
01000000
00000000
00000000
01100000
00000000
00000000
00100000
00000000
00000000
10100000
00000000
00000000
10000000
00000000
01000000
00000000
,
00100000
00000000
00000000
00101000
00000000
00000000
00011000
00000000
00000000
00000000
00000000
00000000
00000000
00000000
00000000
00000000
;

//--------------- dance-double - Fred-104 ----------------
#NOTEDATA:;
#STEPSTYPE:dance-double;
#DESCRIPTION:Fred-104;
#DIFFICULTY:Hard;
#METER:15;
#CREDIT:Fred-104;
#NOTES:
00000000
00000000
00000000
00000000
,
00000000
00000000
00000000
00000000
,
00000000
00000000
00000000
00000000
,
00000000
00000000
00000000
00000000
,
00000000
00000000
00000000
00000000
,
00001000
00100000
00000000
00100000
00010000
00000000
00010000
10000000
00000000
10000000
01000000
00000000
00100000
00010000
00100000
00000000
,
00001000
00010000
00000000
00010000
00000100
00000000
00000100
00001000
00000000
00001000
00000010
00000000
00000100
00000010
00000100
00000000
,
00000001
00000100
00000000
00000010
00001000
00000000
00000100
00010000
00000000
00001000
00010000
00000000
00000010
00001000
00000100
00000000
,
00010000
00000000
00001000
00100000
00010000
10000000
00100000
00000000
01000000
00100000
01000000
00000000
00010000
10000000
00010000
10000000
,
00020000
00000000
00000000
00000000
10030000
00000000
01000000
00100000
00001000
00000000
00010000
00000000
00002000
00000000
00000000
00000000
,
00013000
00000100
00001000
00000000
00000100
00010000
00001000
00000000
00010000
00000000
00000010
00000000
00002000
00000000
00000000
00000000
,
00003010
00001000
00000010
00000000
00000100
00000000
00000001
00000000
00000010
00000100
00000010
00000000
00000100
00000000
00010000
00000000
,
00001000
00000000
00010000
00000100
00010000
00000000
00001000
00000000
01000000
00000000
00001000
00000000
00011000
00000000
00000000
00000000
,
00001000
00000000
00000000
00000000
00100000
00000000
00000000
00000000
00001000
00000000
00000000
00000000
00000000
00000000
00000000
00000000
00100000
00000000
00000000
00000000
00010000
00000000
00000000
00000000
00100000
00000000
00000000
00000000
00000000
00000000
00000000
00000000
00010000
00000000
00000000
00000000
00000000
00000000
00000000
00000000
10000000
00000000
00000000
00000000
00000000
00000000
00000000
00000000
02000000
03000000
00000000
00000000
00000000
00000000
00000000
00000000
02000000
03000000
00000000
00000000
00000000
00000000
00000000
00000000
,
00010000
00000000
00000000
00000000
00000000
00000000
01000000
00000000
00000000
10000000
00000000
00000000
01000000
00000000
00000000
00000000
00000000
00000000
00010000
00000000
00000000
00000000
00000000
00000000
00100000
00000000
00000000
00000000
00000000
00000000
01000000
00000000
00000000
00000000
00000000
00000000
10000000
00000000
00000000
00000000
00100000
00000000
00000000
00000000
01000000
00000000
00000000
00000000
,
00020000
00000000
02030000
00000000
03002000
00000000
00023000
00000000
00031000
00010000
00001000
00010000
00001000
00000000
00010000
00000000
,
00000100
00001000
00000001
00000100
00000010
00000000
00001000
00000100
00000000
00010000
00001000
00000000
00100000
00010000
10000000
00010000
,
01000000
00000000
00000000
10100000
00000000
00000000
01010000
00000000
00000000
11000000
00000000
00000000
01000000
00100000
00001000
00010000
,
00001000
00000000
00000000
00011000
00000000
00000000
00010100
00000000
00000000
00001100
00000000
00000000
00001000
00000100
00000010
00000001
,
00001000
00000010
00000000
00001000
00000100
00000000
00000010
00000001
00000000
00001000
00000001
00000000
00000100
00000010
00001000
00000000
,
00000100
00010000
00000000
00001000
01000000
00000000
00001000
00010000
00000000
00001000
00100000
00000000
00010000
10000000
00100000
01000000
,
00010000
00000000
00000000
00000000
00000000
00000000
00000000
00000000
10000000
00000000
00000000
00000000
00000000
00000000
00000000
00000000
00200000
00300000
00000000
00000000
00000000
00000000
00000000
00000000
00200000
00300000
00000000
00000000
00010000
00000000
00000000
00000000
01000000
00000000
00000000
00000000
00000000
00000000
00000000
00000000
00002000
00003000
00000000
00000000
00000000
00000000
00000000
00000000
00002000
00003000
00000000
00000000
00000100
00000000
00000000
00000000
00010000
00000000
00000000
00000000
00000000
00000000
00000000
00000000
,
00000100
00000000
00001000
00000000
00000010
00001000
00000001
00000000
00000100
00000000
00000010
00000000
00000110
00000000
00000000
00000000
,
00000001
00001000
00000010
00000000
00001000
00000000
00000100
00000000
00000010
00000000
00000001
00000000
00000100
00000000
00001000
00000000
,
00010000
01000000
10000000
00010000
10010000
00000000
01100000
00100000
,
10000000
00000000
01000000
00100000
00010000
00000000
10000000
00000000
00100000
01000000
00010000
00000000
00100000
00000000
00001000
00000000
,
00010000
00001000
00010000
00000000
00000010
00001000
00000010
00000000
00010000
00001000
00010000
00001000
00010000
00000000
00000000
00000000
,
00011000
00000000
00000000
01001000
00000000
00000000
00011000
00000000
00000000
00000000
00000000
00000000
00011000
00000000
00000000
00000000
,
00011000
00000000
00000000
00010010
00000000
00000000
00011000
00000000
00000000
00000000
00000000
00000000
00011000
00000000
00000000
00000000
,
00001000
00100000
00000000
00001000
00010000
00000000
00001000
01000000
00000000
00010000
00100000
00000000
00010000
10000000
01000000
00000000
,
00100000
00001000
00000000
00010000
00001000
00000000
00010000
00000100
00000000
00001000
00000010
00000000
00001000
00000001
00000100
00000000
,
00000010
00001000
00001001
00000000
00000001
00000100
00001000
00010000
,
00001000
00000000
00000000
00010000
00000000
00000000
01000000
00000000
00000000
10000000
00000000
00000000
00010000
00000000
01000000
00000000
00010000
00000000
01000000
00000000
00000000
00100000
00000000
00000000
,
10000000
01000000
10000000
00100000
01000000
00100000
10000000
01000000
00100000
00001000
00010000
00001000
,
00100000
00000000
00011000
00000000
00010010
00000000
00001010
00000010
,
00000100
00000000
00000010
00000000
00000001
00000010
00000100
00000000
00000010
00000000
00001000
00000010
,
00000100
00000000
00000000
00000000
00000010
00000000
00000000
00000000
00000001
00000000
00001000
00000000
00000100
00000000
00000000
00010000
00000000
00000000
00011000
00000000
00000000
00000000
00000000
00000000
,
00001000
00000000
00010000
00000000
01000000
00100000
00010000
00000000
00001000
00000000
00000100
00000010
,
00001000
00000000
00010000
00000000
00001000
00000000
00010000
00000000
00000000
00001000
00000000
00000000
00100000
00000000
00000000
00000000
00000000
00000000
00110000
00000000
00000000
00000000
00000000
00000000
,
00010000
10000000
00100000
01000000
00010000
01000000
00100000
10000000
01000000
00100000
00010000
00100000
,
00001000
00000000
00010000
00000000
00000100
00000000
00001000
00000000
00000001
00000000
00000100
00000000
00000010
00000000
00000000
00000000
00000000
00000000
00000110
00000000
00000000
00000010
00000000
00000000
,
00000100
00000001
00001000
00000001
00000100
00000010
00001000
00000010
00010000
00001000
00100000
00010000
,
01000000
00000000
00010000
00000000
00100000
00000000
01000000
00000000
00000000
10000000
00000000
00000000
10010000
00000000
00000000
00000000
00000000
00000000
00010000
00000000
00000000
01000000
00000000
00000000
,
00100000
10000000
00100000
01000000
00010000
10000000
01000000
00100000
,
00001000
00010000
00001000
01000000
00001000
00010000
00001000
00000000
00000000
00011000
00000000
00000000
,
00010000
00000000
00010000
00001000
00000000
00001000
00000100
00000000
00000100
00000001
00000000
00000001
,
00001000
00000100
00000010
00000001
00000100
00000010
00001000
00000000
00000000
00001010
00000000
00000000
,
00011000
00000000
00000000
00010010
00000000
00000000
00011000
00000000
00000000
00010100
00000000
00000000
00010000
00000000
00001000
00000000
,
00100000
00010000
00000000
10000000
00010000
00000000
01000000
00100000
00000000
10000000
01000000
00000000
00100000
00010000
00100000
00000000
,
00110000
00000000
00000000
01001000
00000000
00000000
00011000
00000000
00000000
00010010
00000000
00000000
00001010
00000000
00000010
00000000
,
00000100
00000001
00000000
00001000
00000001
00000000
00000100
00000010
00000000
00001000
00000001
00000000
00000010
00000100
00010000
00001000
,
00010000
00000000
00000000
00011000
00000000
00000000
00010000
10000000
,
11000000
00000000
00000000
01100000
00000000
00000000
00000000
00000000
,
00010000
00000000
00100000
00010000
00100000
00000000
01000000
00000000
10000000
00000000
00100000
01000000
00100000
00000000
10000000
00000000
,
01000000
00000000
00100000
00001000
00010000
00000000
00000100
00000000
00001000
00000000
00000010
00000000
00000100
00000000
00000100
00000000
,
00000101
00000000
00000000
00001100
00000000
00000000
00010000
00001000
,
00011000
00000000
00000000
01001000
00000000
00000000
01100000
00000000
,
00010000
00000000
10000000
01000000
10000000
00000000
01000000
00000000
00100000
00000000
00001000
00010000
00001000
00000000
01000000
00000000
,
00001000
00000000
00010000
00000100
00010000
00000000
00000010
00000000
00001000
00000000
00000100
00000000
00010000
00000000
00001000
00000000
,
00011000
00000000
00010000
00010200
00000000
00001300
00000010
00000100
,
00000101
00000000
00000001
00001002
00000000
00000103
00000010
00001000
,
00000001
00000100
00001000
00000100
00000001
00000100
00001000
00010000
,
01000000
10000000
01000000
00010000
01000000
10000000
00100000
01000000
,
01010000
00000000
00010000
20010000
00000000
30100000
10000000
01000000
,
01100000
00000000
00100000
00201000
00000000
00301000
00010000
00000100
,
00001000
00000010
00000001
00000010
00001000
00000010
00000001
00000010
,
00001000
00010000
00100000
10000000
00100000
00010000
00012000
00000000
,
00013000
00001000
00000100
00000001
00001000
00000100
00000010
00000001
,
00000100
00001000
00010000
01000000
10000000
00010000
20010000
00000000
,
30010000
00000000
00000000
00000000
00000000
00000000
00000000
00000000
10000000
00000000
00000000
00000000
00000000
00000000
00000000
00000000
00200000
00300000
00000000
00000000
00000000
00000000
00000000
00000000
00200000
00300000
00000000
00000000
00000000
00000000
00000000
00000000
10000000
00000000
00000000
00000000
00000000
00000000
00000000
00000000
02000000
03000000
00000000
00000000
00000000
00000000
00000000
00000000
02000000
03000000
00000000
00000000
00000000
00000000
00000000
00000000
00010000
00000000
00000000
00000000
00000000
00000000
00000000
00000000
,
00001000
00000100
00000010
00000001
00001000
00000010
00000110
00000000
,
00000101
00001100
00011000
01010000
,
10100000
00110000
00011000
00001010
,
00000001
00000100
00000110
00000000
00001000
00000100
00000110
00000000
,
00000001
00000100
00001000
00010000
01000000
10000000
00020000
00030000
,
10000000
01000000
00000000
01000000
00100000
00000000
00100000
00010000
00000000
00010000
01000000
00000000
00100000
10000000
01000000
00000000
,
00100000
00001000
00000000
00010000
00001000
00000000
01000000
00001000
00000000
00010000
00000100
00000000
00001000
00000100
00000010
00000000
,
00000001
00000100
00000000
00000100
00001000
00000000
00001000
00000100
00000000
00000100
00000001
00000000
00000010
00000100
00001000
00000000
,
00011000
00000000
00000000
00010100
00000000
00000000
00011000
00000000
00000000
00000000
00000000
00000000
00000000
00000000
00000000
00000000
;

//--------------- dance-double - Fred-104 (BPM 156-240) ----------------
#NOTEDATA:;
#STEPSTYPE:dance-double;
#DESCRIPTION:Fred-104 (BPM 156-240);
#DIFFICULTY:Challenge;
#METER:17;
#DISPLAYBPM:156:240;
#BPMS:0=158,20=240,44=160,76=240,100=160,132=240,144=160,208=240,232=156,263.5=157.5,264=156,327.5=162,328=240;
#STOPS:327.5=0.385;
#TIMESIGNATURES:0=4=4,20=6=4,44=4=4,76=6=4,100=4=4,132=6=4,144=4=4,208=6=4,232=4=4,328=6=4;
#CREDIT:Fred-104 (BPM 156-240);
#NOTES:
00000000
00000000
00000000
00000000
,
00000000
00000000
00000000
00000000
,
00000000
00000000
00000000
00000000
,
00000000
00000000
00000000
00000000
,
00000000
00000000
00000000
00000000
,
00001000
00000000
00000000
00010000
00000000
00000000
00001000
00000000
00000000
00010000
00000000
00000000
00001000
00000000
00000000
00000000
00000000
00000000
00100000
00000000
00000000
00010000
00000000
00000000
00000000
00000000
00000000
10000000
00000000
00000000
00010000
00000000
,
00000000
00000000
00000000
00000000
10000000
00000000
00000000
01000000
00000000
00000000
00100000
00000000
00000000
00000000
00000000
00000000
00010000
00000000
00000000
00100000
00000000
00000000
01000000
00000000
00000000
10000000
00000000
00000000
00100000
00000000
00000000
00000000
,
00000000
00000000
10000000
00000000
00000000
01000000
00000000
00000000
00000000
00000000
00000000
00100000
00000000
00000000
00001000
00000000
00000000
00000000
00000000
00000000
00010000
00000000
00000000
00000100
00000000
00000000
00001000
00000000
00000000
00000000
00000000
00000000
,
00000010
00000000
00000000
00000100
00000000
00000000
00000010
00000000
00000000
00001000
00000000
00000000
00000001
00000000
00000000
00000000
00000000
00000000
00001000
00000000
00000000
00000100
00000000
00000000
00000000
00000000
00000000
00000010
00000000
00000000
00000100
00000000
,
00000000
00000000
00000000
00000000
00001000
00000000
00000000
00000100
00000000
00000000
00000010
00000000
00000000
00000000
00000000
00000000
00000001
00000000
00000000
00000010
00000000
00000000
00000100
00000000
00000000
00001000
00000000
00000000
00000100
00000000
00000000
00000010
,
00000000
00000000
00000001
00000000
00000000
00000000
00000000
00000000
00001000
00000000
00000000
00000010
00000000
00000000
00010000
00000000
00000000
00001000
00000000
00000000
00100000
00000000
00000000
00010000
00000000
00000000
10000000
00000000
00000000
00100000
00000000
00000000
,
01000000
00000000
00000000
00000000
00010000
01000000
00010000
01000000
00100000
00000000
10000000
01000000
00200000
00000000
00000000
00000000
,
00301000
00010000
00001000
00100000
00001000
00010000
00001000
00100000
00001000
00000000
00010000
00001000
00020000
00000000
00000000
00000000
,
00031000
00010000
00000100
00001000
00000100
00000000
00000110
00000000
00000010
00000001
00001000
00000001
00000100
00000001
00001000
00000000
,
00001001
00000000
00000000
00000001
00000100
00000010
00000100
00000000
00000001
00000100
00000001
00000100
00000010
00001000
00000000
00001000
,
00000100
00000000
00000010
00000001
00001000
00000010
00010000
00001000
00010000
00000000
00001000
00000000
00011000
00000000
00100000
00000000
,
01000000
00000000
00000000
00000000
00000000
00000000
10000000
00000000
00000000
00010000
00000000
00000000
10000000
00000000
00000000
00000000
00000000
00000000
11000000
00000000
00000000
00000000
00000000
00000000
00100000
00000000
00000000
00000000
00000000
00000000
01000000
00000000
00000000
00000000
00000000
00000000
00010000
00000000
00000000
00000000
01000000
00000000
00000000
00000000
00100000
00000000
00000000
00000000
,
20000000
00000000
32000000
00000000
03020000
00000000
00032000
00000000
00013000
00001000
00010000
00001000
00000100
00000000
00000001
00000000
,
00001000
00000010
00000100
00000001
00001000
00000000
00000001
00000010
00000000
00000010
00000100
00000000
00001000
00000001
00000010
00000001
,
00000100
00000000
00000000
00000001
00000000
00000000
00000100
00000000
00000000
00000010
00000000
00000000
00000100
00000000
00000000
00000000
00000000
00000000
00000001
00000000
00000000
00000010
00000000
00000000
00000000
00000000
00000000
00000010
00000000
00000000
00000100
00000000
,
00000000
00000000
00000000
00000000
00010000
00000000
00000000
00001000
00000000
00000000
00010000
00000000
00000000
00000000
00000000
00000000
00001000
00000000
00000000
00100000
00000000
00000000
00010000
00000000
00000000
10000000
00000000
00000000
00100000
00000000
00000000
00000000
,
00000000
00000000
01000000
00000000
00000000
00100000
00000000
00000000
00000000
00000000
00000000
00100000
00000000
00000000
01000000
00000000
00000000
00000000
00000000
00000000
00010000
00000000
00000000
10000000
00000000
00000000
01000000
00000000
00000000
00000000
00000000
00000000
,
00100000
00000000
00000000
00010000
00000000
00000000
10000000
00000000
00000000
00100000
00000000
00000000
01000000
00000000
00000000
00000000
00000000
00000000
00001000
00000000
00000000
00010000
00000000
00000000
00000000
00000000
00000000
00000100
00000000
00000000
00010000
00000000
,
00000000
00000000
00000000
00000000
00001000
00000000
00000000
00010000
00000000
00000000
00000100
00000000
00000000
00000000
00000000
00000000
00001000
00000000
00000000
00000100
00000000
00000000
00000010
00000000
00000000
00000100
00000000
00000000
00001000
00000000
00000000
00000000
,
00000000
00000000
00000001
00000000
00000000
00000100
00000000
00000000
00000000
00000000
00000000
00001000
00000000
00000000
00000100
00000000
00000000
00000000
00000000
00000000
00000001
00000000
00000000
00000010
00000000
00000000
00000100
00000000
00000000
00001000
00000000
00000000
,
00000002
00000000
00000203
00000000
00002300
00000000
00013000
00001000
00020000
00000000
00032000
00000000
00003010
00001000
00000010
00000000
,
00000200
00000000
00000302
00000000
00000023
00000000
00000130
00001000
00000100
00000000
00010000
00000000
00001000
00000000
00010000
00000000
,
00002000
00013000
00002000
00103000
00002000
00003010
00002000
00013000
,
00001000
00000000
00100000
00000000
00010000
10000000
00010000
00000000
01000000
00000000
00100000
00000000
10000000
01000000
00100000
00000000
,
00010000
00000000
10000000
01000000
10000000
01000000
00100000
01000000
00100000
00010000
00100000
00001000
00100000
00001000
00010000
00001000
,
00010000
00000100
00001000
00000010
00001000
00000010
00000100
00000001
00000010
00000001
00001000
00000001
00000100
00000000
00000000
00000000
,
00000110
00000000
00000000
00011000
00000000
00000000
01100000
00000000
00000000
00000000
00000000
00000000
10010000
00000000
00000000
00000000
,
01100000
00000000
00000000
00011000
00000000
00000000
00000110
00000000
00000000
00000000
00000000
00000000
00001001
00000000
00000000
00000000
,
00000001
00000000
00000000
00000100
00000000
00000000
00000010
00000000
00000000
00000100
00000000
00000000
00000001
00000000
00000000
00000000
00000000
00000000
00001000
00000000
00000000
00000100
00000000
00000000
00000000
00000000
00000000
00000010
00000000
00000000
00000100
00000000
,
00000000
00000000
00000000
00000000
00010000
00000000
00000000
00001000
00000000
00000000
00010000
00000000
00000000
00000000
00000000
00000000
00001000
00000000
00000000
00100000
00000000
00000000
00010000
00000000
00000000
10000000
00000000
00000000
00010000
00000000
00000000
00000000
,
00000000
00000000
01000000
00000000
00000000
00100000
00000000
00000000
00000000
00000000
00000000
10000000
00000000
00000000
01000000
00000000
00000000
00000000
00000000
00000000
00010000
00000000
00000000
01000000
00000000
00000000
10000000
00000000
00000000
00100000
00000000
00000000
,
01000000
00000000
00000000
00010000
00000000
00000000
00110000
00000000
00000000
00000000
00100000
00000000
00001000
00000000
00010000
00000000
00001000
00000000
01000000
00000000
00000000
00001000
00000000
00000000
,
00010000
00000000
00000000
00001000
00000000
00000000
00000100
00000000
00000000
00000010
00000000
00000000
00010000
00000000
00001000
00000000
00010000
00000000
00001000
00000000
00000000
00001000
00000000
00000000
,
00010000
00100000
01000000
00100000
00010000
10000000
01000000
00100000
00001000
00010000
00001000
00100000
,
00001000
00000000
00000000
00000000
00011000
00000000
00001000
00010000
00000100
00001000
00000010
00000000
00010000
00001000
00100000
00000000
,
00110000
00000000
00000000
00000000
01000000
00000000
00000000
00000000
00100000
00000000
10000000
00000000
01000000
00000000
00000000
00000000
00010000
00000000
00001000
00000000
00000000
00000100
00000000
00000000
,
00000110
00000000
00000000
00000000
00000001
00000000
00000000
00000000
00000100
00000000
00000010
00000000
00001000
00000000
00000000
00000001
00000000
00000000
00001001
00000000
00000000
00000000
00000000
00000000
,
00000011
00000000
00000010
00000000
00000001
00000010
00000100
00000000
00010000
00000000
00001000
00100000
,
01000000
00000000
00000000
00000000
10000000
00000000
00000000
00000000
00010000
00000000
00000000
00000000
01000000
00000000
00000000
00000000
00000000
00000000
00100000
00000000
00000000
00000000
00000000
00000000
10000000
00000000
00000000
00000000
00000000
00000000
01000000
00000000
00000000
00000000
00000000
00000000
00100000
00000000
00000000
00010000
00000000
00000000
00100000
00000000
00000000
00000000
00000000
00000000
,
00010000
01000000
00100000
01000000
10000000
01000000
00100000
01000000
00010000
10000000
01000000
00100000
,
00001000
00000000
00010000
00000000
00000100
00000000
00000010
00000000
00000001
00000000
00001000
00000000
00000010
00000000
00000000
00000000
00000000
00000000
00000110
00000000
00000000
00000100
00000000
00000000
,
00000001
00000100
00000001
00000100
00001000
00000100
00001000
00010000
01000000
10000000
01000000
10000000
,
00010000
00000000
10000000
00000000
00100000
00000000
00010000
00000000
00001000
00000000
00000010
00000000
00000002
00000000
00000000
00000000
00000000
00000000
00001003
00000000
00000000
00000001
00000000
00000000
,
00000100
00000000
00000010
00000100
00000010
00000000
00001000
00000000
00000001
00000000
00000100
00000001
00000100
00000000
00000010
00000000
,
00001000
00000001
00000100
00000010
00001000
00000100
00010000
00000000
00000000
00011000
00000000
00000000
,
00001000
00000000
00010000
00100000
00000000
01000000
10000000
00000000
00010000
01000000
00000000
00100000
,
10000000
01000000
00010000
00001000
00000100
00000001
00001000
00000000
00000000
00001001
00000000
00000000
,
00000001
00000000
00000000
00000010
00000000
00000000
00000000
00000000
00000000
00000100
00000000
00000000
00001000
00000000
00000000
00000000
00000000
00000000
00000010
00000000
00000000
00010000
00000000
00000000
00000000
00000000
00000000
00001000
00000000
00000000
00100000
00000000
,
00000000
00000000
00000000
00000000
00010000
00000000
00000000
10000000
00000000
00000000
01000000
00000000
00000000
10000000
00000000
00000000
00010000
00000000
00000000
01000000
00000000
00000000
00000000
00000000
00000000
00100000
00000000
00000000
10000000
00000000
00000000
00000000
,
00000000
00000000
01000000
00000000
00000000
00100000
00000000
00000000
00000000
00000000
00000000
00001000
00000000
00000000
00010000
00000000
00000000
00000000
00000000
00000000
00000100
00000000
00000000
00001000
00000000
00000000
00000001
00000000
00000000
00000100
00000000
00000000
,
00000010
00000000
00000000
00001000
00000000
00000000
00000010
00000000
00000000
00001000
00000000
00000000
00000001
00000000
00000000
00000000
00000000
00000000
00001000
00000000
00000000
00000100
00000000
00000000
00000000
00000000
00000000
00000010
00000000
00000000
00000100
00000000
,
00000000
00000000
00000000
00000000
00000001
00000000
00000000
00000010
00000000
00000000
00000100
00000000
00000000
00000000
00000000
00000000
00010000
00000000
00000000
00001000
00000000
00000000
00100000
00000000
00000000
00010000
00000000
00000000
10000000
00000000
00000000
00000000
,
00000000
00000000
00100000
00000000
00000000
01000000
00000000
00000000
00000000
00000000
00000000
01000000
00000000
00000000
00100000
00000000
00000000
00000000
00000000
00000000
10000000
00000000
00000000
01000000
00000000
00000000
00100000
00000000
00000000
00010000
00000000
00000000
,
00100000
00000000
00000000
00011000
00000000
00000000
00000010
00001000
,
00001001
00000000
00000000
00000110
00000000
00000000
00000000
00000000
,
00010000
00000000
00001000
00100000
00010000
00000000
10000000
00100000
01000000
00000000
00010000
10000000
01000000
00000000
00100000
00001000
,
00010000
00000000
00000100
00001000
00000001
00000000
00000100
00000000
00000110
00000000
00000010
00000000
00001010
00000000
00001000
00000000
,
00001001
00000000
00000000
00000000
00000000
00000000
00010010
00000000
00000000
00000000
00000000
00000000
00001000
00010000
00001000
00010000
,
00001000
00000000
00000000
00000000
00000000
00000000
01001000
00000000
00000000
00000000
00000000
00000000
01000000
00100000
01000000
00100000
,
01000000
00000000
00010000
10000000
01000000
00000000
00100000
00001000
00010000
00000000
00000100
00001000
00000001
00000000
00000100
00000010
,
00001000
00000000
00000100
00010000
00001000
00000000
00010000
00000000
00011000
00000000
00001000
00000000
00101000
00000000
00100000
00000000
,
00110000
00000000
00010000
00000000
10000000
00000000
11000000
00000000
01000000
00000000
00100000
00000000
00001000
00010000
00001000
00000000
,
00011000
00000000
00010000
00000000
00000100
00000000
00001100
00000000
00001000
00000000
00000001
00000000
00000100
00000010
00000100
00000000
,
00000001
00000000
00000010
00000100
00001000
00000000
00001010
00000000
00001000
00000000
00000010
00000100
00000001
00000000
00000011
00000000
,
00000100
00000000
00000000
00000000
00000000
00000000
00001000
00000000
00000000
00000001
00000000
00000000
00000100
00000000
00000000
00000000
00000000
00000000
00000110
00000000
00000000
00000000
00000000
00000000
00000010
00000000
00000000
00000000
00000000
00000000
00001000
00000000
00000100
00000000
00001000
00000000
00000100
00000000
00000000
00000000
00000000
00000000
00010000
00000000
00000000
00000000
00000000
00000000
,
00011000
00001000
00100000
00110000
00010000
10000000
00100000
01000000
,
01010000
00000000
00010000
00000000
00001000
00000000
00011000
00000000
00010000
00000000
00000100
00000000
00001000
00000010
00000100
00000000
,
00000110
00000100
00000101
00000001
00001001
00001000
00001010
00000010
,
00010010
00010000
00011000
00001000
00101000
00100000
00110000
00000000
,
10100000
00100000
01100000
01000000
01001000
00001000
00101000
00001000
,
00011000
00010000
00010100
00000100
00001100
00000100
00000110
00000000
,
00000010
00000000
00000001
00000000
00000100
00000000
00000010
00001000
00000001
00000000
00000010
00000000
00000100
00000000
00010000
00001000
,
00010000
00000000
00001000
00000000
00100000
00000000
00010000
10000000
01000000
00000000
10000000
00100000
01000000
00010000
10000000
00000000
,
11000000
01010000
00011000
00001100
,
00000011
00001010
00011000
00110000
,
00011000
00001000
01000000
00000000
00011000
00010000
00000100
00000000
,
00011000
00010000
00001000
00011000
00001000
00010000
00022000
00033000
,
00001000
00000000
00000000
00010000
00000000
00000000
00001000
00000000
00000000
00010000
00000000
00000000
00001000
00000000
00000000
00000000
00000000
00000000
00010000
00000000
00000000
01000000
00000000
00000000
00000000
00000000
00000000
01000000
00000000
00000000
10000000
00000000
,
00000000
00000000
00000000
00000000
00010000
00000000
00000000
10000000
00000000
00000000
00010000
00000000
00000000
10000000
00000000
00000000
01000000
00000000
00000000
00010000
00000000
00000000
00001000
00000000
00000000
00010000
00000000
00000000
00001000
00000000
00000000
00000000
,
00000000
00000000
00000100
00000000
00000000
00000001
00000000
00000000
00000000
00000000
00000000
00000001
00000000
00000000
00001000
00000000
00000000
00000000
00000000
00000000
00000001
00000000
00000000
00000100
00000000
00000000
00000010
00000000
00000000
00001000
00000000
00000000
,
00000001
00000000
00000000
00000010
00000000
00000000
00000001
00000000
00000000
00000010
00000000
00000000
00001000
00000000
00000000
00000000
00000000
00000000
00010000
00000000
00000000
00001000
00000000
00000000
00000000
00000000
00000000
00010000
00000000
00000000
00100000
00000000
,
00000000
00000000
00000000
00000000
10000000
00000000
00000000
00010000
00000000
00000000
10000000
00000000
00000000
00000000
00000000
00000000
10010000
00000000
00000000
00000000
00000000
00000000
00000000
00000000
00000000
10100000
00000000
00000000
00000000
00000000
00000000
00000000
,
00000000
01010000
00000000
00000000
00000000
00000000
00000000
00000000
00000000
00000000
00000000
00000000
00000000
00000000
00000000
00000000
;
