#TITLE:Daisycutter;
#ARTIST:ETIA.;
#BANNER:Daisycutter.png;
#BACKGROUND:Daisycutter-bg.png;
#CDTITLE:./CDTitles/SDVX VIVID WAVE.png;
#MUSIC:Daisycutter.ogg;
#SAMPLESTART:21.361;
#SAMPLELENGTH:15;
#DISPLAYBPM:191;
#BPMS:0=191,43=382,44=191,107=382,108=191,260=382,261=191,292=382,293=191,308=382,309=191,324=382,325=191,355=382,356=191;
#STOPS:43=0.157,107=0.157,260=0.157,292=0.157,308=0.157,324=0.158,355=0.157;
#STAGE:31;

//--------------- dance-single - The Spartan Fred-104 ----------------
#NOTES:
     dance-single:
     The Spartan Fred-104:
     Beginner:
     5:
     :
0000
0000
0000
0000
,
0000
0000
0000
0000
,
0000
0000
0000
0000
,
0000
0000
0000
0000
,
0000
0000
0000
0000
,
1000
0000
0000
1000
,
1000
0000
0000
0001
,
0001
0000
0000
0100
,
0100
0000
0000
0000
,
0001
0000
1000
0000
,
0001
0000
0000
0000
,
1000
0000
1000
0000
,
0010
0000
0010
0000
,
0100
0000
0001
0000
,
1000
0000
0001
0000
,
1000
0000
0001
0000
,
1001
0000
0000
0000
,
1000
0000
0010
0000
,
1000
1000
1000
0000
,
0001
0000
0100
0000
,
0001
0000
0010
0000
,
0001
0000
0100
0000
,
0010
0010
0010
0000
,
1000
0000
0001
0000
,
1001
0000
0000
0000
,
1000
0000
0001
0000
,
1000
1000
1000
0000
,
0001
0000
0100
0000
,
0001
0000
0010
0000
,
0001
0000
1000
0000
,
0001
0000
1000
0000
,
0010
0000
0100
0000
,
1001
0000
0000
0000
,
0001
0000
0000
0000
,
0000
0000
0000
0000
,
1000
0000
0000
0000
,
0000
0000
0000
0000
,
0002
0000
0000
0003
,
0200
0300
0002
0003
,
0200
0000
0000
0000
,
0300
0000
0020
0030
,
2000
0000
0000
0000
,
3000
0000
0002
0003
,
0200
0000
0000
0300
,
0002
0003
2000
3000
,
0001
0000
0000
0000
,
0100
0000
0010
0000
,
1000
0000
0000
0000
,
0001
0000
1000
0000
,
0010
0000
0000
0000
,
0100
0000
0001
0000
,
1000
0000
0000
0000
,
1001
0000
1001
0000
,
0001
0000
0000
0000
,
1000
0000
0000
0000
,
0010
0000
0000
0000
,
0100
0000
0000
0000
,
0001
0000
0010
0000
,
0100
0000
1000
0000
,
0001
0001
0001
0001
,
0001
0000
0000
0000
,
1000
0000
0010
0000
,
1000
0000
0001
0001
,
0001
0000
0100
0000
,
0010
0000
0100
0100
,
0100
0000
0010
0000
,
1000
0000
0001
0001
,
0001
0000
1000
0000
,
1001
0000
0000
0000
,
0001
0000
1000
0000
,
0010
0000
0200
0300
,
0100
0000
0001
0000
,
1000
0000
0001
0000
,
0002
0003
0000
0000
,
1000
0000
0010
0000
,
0100
0000
0001
0000
,
1000
0000
0001
0000
,
2000
3000
0001
0000
,
1000
0000
0010
0000
,
0100
0000
0001
0000
,
1000
0000
0001
0000
,
0200
0300
0001
0000
,
0100
0000
0001
0000
,
1000
0000
0001
0000
,
2000
0000
0000
3000
,
0001
0000
0100
0100
,
0100
0000
0010
0010
,
0010
0000
1000
0000
,
0001
0000
1000
2000
,
3000
0001
0000
0001
,
0000
1000
0000
1000
,
0020
0030
0200
0300
,
0100
0100
0001
1000
,
2002
0000
0000
0000
,
3003
0000
0000
0000
;

//--------------- dance-single - The Spartan Fred-104 ----------------
#NOTES:
     dance-single:
     The Spartan Fred-104:
     Easy:
     10:
     :
0000
0000
0000
0000
,
0000
0000
0000
0000
,
0000
0000
0000
0000
,
0000
0000
0000
0000
,
0000
0000
0000
0000
,
1000
0000
0000
0010
0000
0000
1000
0000
,
0001
0000
0000
0010
0000
0000
0001
0000
,
0100
0000
0000
0010
0000
0000
0100
0000
,
0001
0000
0100
0010
0000
0100
0010
0000
,
1000
0000
0000
0010
0000
0000
0100
0000
,
0001
0000
0000
0000
0000
0000
0000
0000
0000
0000
0000
0000
0000
0000
0000
0000
0000
0000
0000
0000
0000
0000
0000
0000
0100
0000
0000
0000
0000
0000
0000
0000
0000
0000
0000
0000
0000
0000
0000
0000
0000
0000
0000
0000
0000
0000
0000
0000
0202
0303
0000
0000
0000
0000
0000
0000
0000
0000
0000
0000
0000
0000
0000
0000
,
1000
0000
0000
0010
0000
0000
0100
0000
,
0001
0000
0000
0001
0000
0000
0001
0000
1000
0000
0000
0000
0001
0000
0000
0000
,
1000
1000
0010
0010
,
0100
0100
0001
0001
,
1000
0010
1000
0000
0001
0010
0001
0000
,
2002
0000
0000
3003
,
1000
1000
0010
0000
,
0100
0000
0000
0100
0000
0000
0100
0000
0001
0000
0000
0000
1000
0000
0000
0000
,
0001
0000
0000
0010
0000
0000
0001
0000
,
1000
0000
0000
0100
0000
0000
0010
0000
,
0001
0000
0000
1000
0000
0000
0010
0000
,
0100
0000
0000
0100
0000
0000
0100
0000
0010
0000
0000
0000
1000
0000
0000
0000
,
0001
0000
0000
0100
0000
0000
0001
0000
,
0100
0000
0010
0100
0000
0010
0100
0000
,
0001
0000
0000
1000
0000
0000
0010
0000
,
1000
0000
0000
0000
0000
0000
0000
0000
0000
0000
0000
0000
0100
0000
0000
0000
0000
0000
0000
0000
0000
0000
0000
0000
0100
0000
0000
0000
0000
0000
0000
0000
1000
0000
0000
0000
0000
0000
0000
0000
0000
0000
0000
0000
0000
0000
0000
0000
2002
3003
0000
0000
0000
0000
0000
0000
0000
0000
0000
0000
0000
0000
0000
0000
,
0001
0000
0000
0001
0000
0000
0010
0000
,
1000
0000
0000
1000
0000
0000
0010
0000
0100
0000
0000
0000
0001
0000
0000
0000
,
1000
1000
0010
0100
,
0001
0010
0100
1000
,
0001
0100
0001
0000
1000
0010
1000
0000
,
2002
0000
0000
3003
,
1001
0000
0000
1000
0000
0000
0010
0000
,
0000
0010
0000
0000
0100
0000
0001
0000
,
0010
0000
0000
0010
0000
0000
0001
0000
,
0000
0001
0000
0000
1000
0000
0010
0000
,
0110
0000
0000
0001
0000
0000
1000
0000
,
0000
0100
0000
0000
0010
0000
0001
0000
,
1001
0000
0000
0010
0000
0000
0100
0000
,
0000
0010
0000
0000
1000
0000
0100
0000
,
1100
0000
0000
0010
0000
0000
0001
0000
,
0000
1000
0000
0000
0001
0000
0100
0000
,
0101
0000
0000
0010
0000
0000
0100
0000
,
0000
1000
0000
0000
0001
0000
1000
0000
,
1010
0000
0000
0010
0000
0000
0100
0000
,
0001
0100
0000
0001
0010
0000
0000
0000
,
0011
0000
0000
0100
0000
0000
1000
0000
,
0001
0100
0000
0010
0100
0000
0000
0000
,
1100
0000
0000
0010
0000
0000
0001
0000
,
0100
0010
0000
1000
0010
0000
0000
0000
,
1001
0000
0000
0100
0000
0000
0010
0000
,
0220
0330
2002
3003
,
0001
0100
0001
0000
,
1000
0100
1000
0000
,
0001
0010
0001
0000
,
1000
0010
1000
0000
,
0001
0000
0000
0001
0000
0000
1000
0000
,
0010
0000
0000
1000
0000
0000
0100
0000
,
1000
0100
1000
0000
0001
0100
0001
0000
,
2002
0000
0000
3003
,
1000
0000
0000
0000
0000
0010
0000
0000
0000
0000
1000
0000
0000
0000
0000
0000
,
0001
0000
0000
0000
0000
0100
0000
0000
0000
0000
0010
0000
0100
0000
0000
0000
,
0001
0000
0000
0000
0000
1000
0000
0000
0000
0000
0100
0000
0000
0000
0000
0000
,
1000
0010
1000
0000
0001
0100
0001
0000
,
2002
3003
0000
0000
0000
0000
0000
0000
0000
0000
0000
0000
0000
0000
0000
0000
1000
0000
0000
0000
0000
0000
0000
0000
0000
0000
0000
0000
0000
0000
0000
0000
0001
0000
0000
0000
0000
0000
0000
0000
0100
0000
0000
0000
0000
0000
0000
0000
0000
0000
0000
0000
0001
0000
0000
0000
0000
0000
0000
0000
0000
0000
0000
0000
,
0100
0000
0001
0000
0000
0100
0000
0000
0010
0000
0000
0000
1001
0000
0000
0000
,
1000
0000
0010
0000
0000
0100
0000
0000
0001
0000
1000
0000
0000
0001
0000
0000
,
0001
0100
0001
0000
0100
0010
0200
0000
,
0301
0000
0100
0000
0010
0100
0010
0000
,
1000
0010
1000
0000
0001
0000
2000
0000
,
3001
0100
0001
0000
0100
0010
0100
0000
,
0001
1000
0001
0000
0200
0000
0320
0000
,
1030
0000
0010
0100
0010
0000
0100
0000
,
0001
1000
1001
0000
,
1000
0010
0100
0000
0001
0100
0010
0000
,
1000
0010
1000
0000
0001
1000
0001
0000
,
2002
3003
0000
0000
0000
0000
0000
0000
0000
0000
0000
0000
0000
0000
0000
0000
1000
0000
0000
0000
0000
0000
0000
0000
0000
0000
0000
0000
0000
0000
0000
0000
0100
0000
0000
0000
0000
0000
0000
0000
0000
0000
0000
0000
0000
0000
0000
0000
0000
0000
0000
0000
0000
0000
0000
0000
0000
0000
0000
0000
0000
0000
0000
0000
,
0010
0000
0001
0100
0001
0000
2000
0000
,
3001
0100
0010
0000
,
1000
0100
0010
0000
0001
0000
1000
0000
,
2002
3003
0000
0000
0000
0000
0000
0000
0000
0000
0000
0000
0000
0000
0000
0000
0001
0000
0000
0000
0000
0000
0000
0000
0000
0000
0000
0000
0000
0000
0000
0000
0100
0000
0000
0000
0000
0000
0000
0000
0000
0000
0000
0000
0000
0000
0000
0000
0000
0000
0000
0000
0000
0000
0000
0000
0000
0000
0000
0000
0000
0000
0000
0000
,
0010
1000
0100
0000
0010
0000
0001
0000
,
1000
1000
0010
0100
,
0002
0023
0230
2300
,
3001
0000
0100
0000
0010
0100
0010
0000
,
1000
0100
1000
0002
,
1003
0000
0100
0000
0010
0100
0010
0000
,
0001
1000
0001
2000
,
3001
0000
0100
0000
0010
0100
0010
0000
,
1000
0000
0100
0000
0010
0100
0010
0000
,
0001
0100
0010
1000
,
0001
0100
0001
0000
1000
0000
0001
0000
,
2002
0000
0000
0000
,
3003
0000
0000
0000
;

//--------------- dance-single - The Spartan Fred-104 ----------------
#NOTES:
     dance-single:
     The Spartan Fred-104:
     Medium:
     14:
     :
0000
0000
0000
0000
,
0000
0000
0000
0000
,
0000
0000
0000
0000
,
0000
0000
0000
0000
,
0000
0000
0000
0000
,
1000
0100
0010
0002
0000
0000
0000
0000
,
1003
0010
0100
0010
1000
0100
0010
0001
,
1000
0001
0100
0002
0000
0000
2003
3002
,
1003
0010
0100
0001
0010
0100
0010
0001
,
1000
0100
0001
0200
0000
0000
0000
0000
,
1300
0000
0000
0000
0000
0000
0000
0000
0100
0000
0000
0000
0000
0000
0000
0000
0100
0000
0000
0000
0000
0000
0000
0000
0010
0000
0000
0000
0000
0000
0000
0000
0100
0000
0000
0000
0000
0000
0000
0000
0100
0000
0000
0000
0000
0000
0000
0000
2000
3000
0000
0000
0000
0000
0000
0000
0000
0000
0000
0000
0000
0000
0000
0000
,
0001
0010
0010
0001
0010
0010
0001
1000
,
0001
0000
0000
0100
0000
0000
0001
0000
2000
0000
3010
0000
0002
0000
0013
0000
,
1000
0100
0000
1000
0001
0000
0100
0001
,
0100
0010
0000
0100
0001
0000
1000
0001
,
1000
0100
0010
0001
0100
0010
0100
0001
,
2000
0000
0000
0002
0000
0000
3003
0000
,
1000
0010
1000
0100
0000
1000
0000
0001
,
0100
0000
0000
0000
0000
0000
0000
0000
0000
0000
0000
0000
0001
0000
0000
0000
0000
0000
0000
0000
0000
0000
0000
0000
0010
0000
0000
0000
0000
0000
0000
0000
0012
0000
0000
0000
0000
0000
0000
0000
0000
0000
0000
0000
0000
0000
0000
0000
0203
0300
0000
0000
0000
0000
0000
0000
0200
0300
0000
0000
0000
0000
0000
0000
,
1000
0010
0010
1000
0010
0010
1000
0100
,
0010
0100
0010
0001
0000
1000
0010
0100
,
0001
0100
0001
0010
0000
0001
0000
1000
,
0010
0000
0000
0000
0000
0000
0000
0000
0000
0000
0000
0000
1000
0000
0000
0000
0000
0000
0000
0000
0000
0000
0000
0000
0100
0000
0000
0000
0000
0000
0000
0000
2100
0000
0000
0000
0000
0000
0000
0000
0000
0000
0000
0000
0000
0000
0000
0000
3020
0030
0000
0000
0000
0000
0000
0000
0020
0030
0000
0000
0000
0000
0000
0000
,
0001
0100
0100
0001
0000
0100
0010
0000
,
1001
0000
1000
1000
0000
0001
0100
0010
,
0100
0010
1000
0200
0000
0310
0001
1000
,
0001
0000
0000
0000
0000
0000
0000
0000
0000
0000
0000
0000
0001
0000
0000
0000
0000
0000
0000
0000
0000
0000
0000
0000
0001
0000
0000
0000
0000
0000
0000
0000
1000
0000
0000
0000
0000
0000
0000
0000
0010
0000
0000
0000
0000
0000
0000
0000
0200
0300
0000
0000
0000
0000
0000
0000
0000
0000
0000
0000
0000
0000
0000
0000
,
0001
0100
0100
0001
0100
0100
0001
0010
,
0001
0000
0000
1000
0000
0000
0001
0000
0100
0000
0010
0000
0210
0000
0000
0000
,
0301
0100
0001
0000
0100
0010
0100
0000
,
0010
1000
0010
0000
1000
0100
1000
0000
,
0001
0010
0100
1000
0010
0100
0001
1000
,
0002
0000
0000
0003
,
1001
0000
0000
1000
0000
0000
0100
0000
,
0000
0010
0000
0000
0001
0000
1000
0000
,
0001
0000
0000
0100
0000
0000
0010
0000
,
1000
0001
1000
0000
0001
1000
0001
0000
,
1100
0000
0000
0010
0000
0000
0001
0000
,
0000
1000
0000
0000
0010
0000
0100
0000
,
0101
0000
0000
0001
0000
0000
1000
0000
,
0000
0010
0000
0000
0100
0000
0001
0000
,
0011
0000
0000
0100
0000
0000
0010
0000
,
0000
1000
0000
0000
0001
0000
1000
0000
,
1010
0000
0000
0001
0000
0000
1000
0000
,
0000
0010
0000
0000
0100
0000
0001
0000
,
1000
0100
0010
0002
0000
0000
0003
0000
,
1000
0010
0000
0100
0001
0000
1000
0100
,
0010
0100
1000
0002
0000
0000
0003
0000
,
0100
0000
0010
0100
0010
0000
0100
0000
0000
0000
0100
0000
0001
0000
1000
0000
,
0001
1000
0010
0200
0000
0000
0300
0000
,
0001
0010
0000
1000
0010
0000
0001
0100
,
1000
0100
0001
2000
0000
0000
3002
0103
,
0220
0330
2002
3003
,
1000
1000
1000
1000
,
0100
0100
0100
0100
,
0010
0010
0010
0010
,
0001
0001
0001
0001
,
1000
0010
1000
0000
0001
0010
0001
0000
,
0100
0001
0100
0000
0100
1000
0100
0000
,
1000
0100
0010
0001
1000
0010
0100
0001
,
2000
0000
0000
0002
0000
0000
3003
0000
,
1100
0000
0000
0000
0000
0110
0000
0000
0010
0000
0001
0000
0000
0101
0000
0000
,
0110
0000
0000
0000
0000
1010
0000
0000
0010
0000
0100
0000
0010
0000
0000
0000
,
0011
0000
0000
0000
0000
1001
0000
0000
1000
0000
0010
0000
0000
0110
0000
0000
,
0100
0000
0001
0000
1000
0001
0000
1000
0001
0000
0100
0000
0010
0000
1000
0000
,
2002
3003
0000
0000
0000
0000
0000
0000
0000
0000
0000
0000
0000
0000
0000
0000
1100
0000
0000
0000
0000
0000
0000
0000
0000
0000
0000
0000
0000
0000
0000
0000
0100
0000
0000
0000
0000
0000
0000
0000
0010
0000
0000
0000
0000
0000
0000
0000
0000
0000
0000
0000
0011
0000
0000
0000
0000
0000
0000
0000
0000
0000
0000
0000
,
0001
0000
0100
0000
0001
0010
0000
0000
0110
0000
0000
0000
2002
0000
3003
0000
,
1010
0000
0000
0000
0000
1100
0000
0000
0010
0000
0001
0000
0000
1001
0000
0000
,
0001
0000
0100
0000
0000
0110
0000
0000
0010
0000
1000
0000
1002
0000
0000
0000
,
1003
0000
0100
1000
0000
1000
0010
0000
0100
0000
0010
0000
1000
0100
0000
0100
,
0010
0000
0000
0000
0000
0000
0000
0000
0001
0000
0000
0000
0000
0000
0000
0000
1000
0000
0000
0000
0000
0000
0000
0000
0001
0000
0000
0000
0000
0000
0000
0000
0200
0300
0000
0000
0000
0000
0000
0000
0200
0300
0000
0000
0000
0000
0000
0000
2000
0000
0000
0000
0000
0000
0000
0000
0000
0000
0000
0000
0000
0000
0000
0000
,
3001
0000
0000
0000
0000
0000
0000
0000
0100
0000
0000
0000
0000
0000
0000
0000
0020
0030
0000
0000
0000
0000
0000
0000
0020
0030
0000
0000
0000
0000
0000
0000
0001
0000
0000
0000
0000
0000
0000
0000
1000
0000
0000
0000
0000
0000
0000
0000
0010
0000
0000
0000
0000
0000
0000
0000
0100
0000
0000
0000
0000
0000
0000
0000
,
0001
0000
1000
0000
0010
0100
0000
0100
0001
0000
1000
0000
0001
0000
0100
0000
,
0220
0330
0000
0000
0000
0000
0000
0000
0000
0000
0000
0000
0000
0000
0000
0000
1100
0000
0000
0000
0000
0000
0000
0000
0000
0000
0000
0000
0000
0000
0000
0000
0100
0000
0000
0000
0000
0000
0000
0000
0001
0000
0000
0000
0000
0000
0000
0000
0100
0000
0000
0000
0000
0000
0000
0000
0010
0000
0000
0000
0000
0000
0000
0000
,
0001
0000
1000
0000
0001
0100
0001
0000
1000
0000
0100
0010
0000
0010
0000
0100
,
0001
0000
0010
0000
0001
1000
0000
0001
0010
0000
0100
0000
1000
0010
0000
1000
,
0200
0320
0032
2003
3002
0103
0110
0000
,
2002
3003
0000
0000
0000
0000
0000
0000
0000
0000
0000
0000
0000
0000
0000
0000
1000
0000
0000
0000
0000
0000
0000
0000
0000
0000
0000
0000
0010
0000
0000
0000
0000
0000
0000
0000
0000
0000
0000
0000
0100
0000
0000
0000
0000
0000
0000
0000
0001
0000
0000
0000
0000
0000
0000
0000
0000
0000
0000
0000
0010
0000
0000
0000
,
0000
0000
0100
0000
1000
0000
0000
0001
0000
0000
0100
0000
0002
0000
0000
0003
,
2001
0000
0000
0000
3010
0000
0000
0100
0000
0000
0001
0000
1000
0000
0000
0100
,
0000
0000
0001
0000
1000
0000
0010
0100
0010
0000
1000
0001
1000
0000
0001
0000
,
2002
3003
0000
0000
0000
0000
0000
0000
0000
0000
0000
0000
0000
0000
0000
0000
0001
0000
0000
0000
0000
0000
0000
0000
0000
0000
0000
0000
0100
0000
0000
0000
0000
0000
0000
0000
0000
0000
0000
0000
1000
0000
0000
0000
0000
0000
0000
0000
0001
0000
0000
0000
0000
0000
0000
0000
0000
0000
0000
0000
0010
0000
0000
0000
,
0000
0000
1000
0000
0001
0000
0000
0100
0000
0000
0010
0000
2000
0000
0000
3000
,
1001
0000
0000
0000
0001
0000
1000
0010
0000
0100
0010
0000
1000
0000
0001
0100
,
0002
2003
3020
0230
,
0301
0000
0010
0000
0001
0000
0100
0010
0000
0100
0010
0000
1000
0000
0100
1000
,
0000
0100
1000
0000
0100
0000
0010
0001
0000
0010
0001
0000
2000
0000
0000
0000
,
3001
0000
0100
0000
0010
0000
1000
0100
0000
0010
0001
0000
1000
0000
0001
0100
,
0000
0000
0000
0000
0010
0000
0000
0000
0100
0000
0000
0000
0000
0000
0000
0000
0001
0000
0000
0000
0000
0000
0000
0000
1000
0000
0000
0000
0100
0000
0000
0000
1000
0000
0000
0000
0100
0000
0000
0000
1000
0000
0000
0000
0000
0000
0000
0000
2002
3003
0000
0000
0000
0000
0000
0000
0000
0000
0000
0000
0000
0000
0000
0000
,
0101
0000
0000
0000
1000
0000
0000
1100
0000
0000
0010
0000
0001
0000
0000
0101
,
0000
0000
0010
0000
1000
0000
0000
1010
0000
0000
0100
0000
0001
0000
1000
0000
,
0001
0000
0100
0000
0001
0000
0100
0000
0010
1000
0010
1000
0010
1000
0010
1000
,
0010
0000
1000
0000
0010
0000
0000
0100
0000
0001
1000
0000
0001
0000
1000
0000
,
2002
0000
0000
0000
,
3003
0000
0000
0000
;

//--------------- dance-single - The Spartan Fred-104 ----------------
#NOTES:
     dance-single:
     The Spartan Fred-104:
     Hard:
     17:
     :
0000
0000
0000
0000
,
0000
0000
0000
0000
,
0000
0000
0000
0000
,
0000
0000
0000
0000
,
0000
0000
0000
0000
,
0010
0000
0000
0000
0000
0000
0000
0000
1000
0000
0000
0000
0000
0000
0000
0000
0010
0000
0000
0000
0000
0000
0000
0000
0200
0000
0000
0000
0000
0000
0000
0000
0000
0000
0000
0000
0000
0000
0000
0000
0301
0000
0000
0000
0000
0000
0000
0000
0020
0030
0000
0000
0000
0000
0000
0000
0020
0030
0000
0000
0000
0000
0000
0000
,
1000
0000
0000
0000
0000
0000
0000
0000
0001
0000
0000
0000
0010
0000
0000
0000
0001
0000
0000
0000
0000
0000
0000
0000
1000
0000
0000
0000
0000
0000
0000
0000
0001
0000
0000
0000
0000
0000
0000
0000
0200
0300
0000
0000
0000
0000
0000
0000
0200
0300
0000
0000
0000
0000
0000
0000
1000
0000
0000
0000
0000
0000
0000
0000
,
0001
0100
0010
0200
0000
0301
2000
3020
,
1030
0100
1000
0001
0100
0001
1000
0010
1000
0001
0010
0001
1000
0000
1000
0000
,
0001
0000
0100
0010
0100
0000
0002
0000
0000
0000
0103
0000
0010
0000
1000
0000
,
0001
0000
0000
0000
0000
0000
0000
0000
0010
0000
0000
0000
0100
0000
0000
0000
1000
0000
0000
0000
0000
0000
0000
0000
0001
0000
0000
0000
0000
0000
0000
0000
1000
0000
0000
0000
0100
0000
0000
0000
0010
0000
0000
0000
0000
0000
0000
0000
0022
0033
0000
0000
0000
0000
0000
0000
0000
0000
0000
0000
0000
0000
0000
0000
,
0001
0000
0000
0000
0000
0000
0000
0000
1000
0000
0000
0000
0001
0000
0000
0000
0100
0000
0000
0000
0000
0000
0000
0000
0001
0000
0000
0000
0000
0000
0000
0000
1000
0000
0000
0000
0001
0000
0000
0000
0100
0000
0000
0000
0000
0000
0000
0000
0020
0030
0000
0000
0000
0000
0000
0000
0020
0030
0000
0000
0000
0000
0000
0000
,
0001
0000
0100
0010
0000
1000
0010
0000
1000
0100
0020
0000
0031
0010
0200
0000
,
1300
0100
0001
1000
0010
0001
1000
0100
,
0001
0100
1000
0001
0010
1000
0001
0100
,
0001
0100
0001
0100
0001
0000
0100
0010
0100
0010
0100
0000
0010
1000
0010
0000
,
1000
0000
0000
0000
0100
0000
0000
0000
0010
0000
0000
0000
0001
0000
0000
0000
1000
0000
0000
0000
0000
0000
0000
0000
1000
0000
0000
0000
0010
0000
0000
0000
0100
0000
0000
0000
0001
0000
0000
0000
1000
0000
0000
0000
0000
0000
0000
0000
0020
0030
0000
0000
0000
0000
0000
0000
0020
0030
0000
0000
0000
0000
0000
0000
,
0001
1000
0010
0110
0000
1010
0000
0101
,
0001
0000
0100
0001
0000
0010
0001
0000
2000
0000
0000
0000
3001
0010
0100
1000
,
0001
0000
1000
0010
0100
0000
0010
0000
1000
0100
0010
0000
0100
0000
1000
0010
,
0100
0000
0001
0010
0100
0000
1100
0000
0000
0000
0101
0000
0100
0000
1000
0000
,
0001
0000
0000
0000
0000
0000
0000
0000
0100
0000
0000
0000
0000
0000
0000
0000
0001
0000
0000
0000
0000
0000
0000
0000
0021
0000
0000
0000
0000
0000
0000
0000
0000
0000
0000
0000
0000
0000
0000
0000
0031
0000
0000
0000
0000
0000
0000
0000
0200
0300
0000
0000
0000
0000
0000
0000
0200
0300
0000
0000
0000
0000
0000
0000
,
1000
0000
0100
1000
0000
0100
0010
0000
0210
0000
0000
0000
0301
1000
0010
0100
,
0001
0000
0100
0010
0100
0000
1000
0010
0100
0000
0001
0010
0100
0000
0000
0000
,
1100
0000
0101
0101
0000
1001
1001
1001
,
0001
0000
0000
0000
0000
0000
0000
0000
0010
0000
0000
0000
0000
0000
0000
0000
0010
0000
0000
0000
0000
0000
0000
0000
0210
0000
0000
0000
0000
0000
0000
0000
0000
0000
0000
0000
0000
0000
0000
0000
1300
0000
0000
0000
0000
0000
0000
0000
0020
0030
0000
0000
0000
0000
0000
0000
0020
0030
0000
0000
0000
0000
0000
0000
,
0001
0000
0000
0000
0000
0000
0000
0000
1000
0000
0000
0000
0001
0000
0000
0000
0000
0000
0000
0000
0100
0000
0000
0000
0010
0000
0000
0000
0000
0000
0000
0000
1000
0000
0000
0000
0000
0000
0000
0000
0001
0000
0000
0000
0000
0000
0000
0000
2002
3003
0000
0000
0000
0000
0000
0000
0000
0000
0000
0000
0000
0000
0000
0000
,
0001
0000
1000
0100
0010
0000
0001
0000
1000
0100
0010
0000
0001
0000
0001
0000
,
1000
0000
0010
0100
0000
0010
1000
0000
0001
0100
0010
1000
0002
0000
0000
0000
,
1003
0100
0010
0100
0010
0001
0100
0010
,
1000
0000
0100
0000
0001
0000
0100
0000
1000
0000
0010
0000
0100
0001
0100
0001
,
1000
0100
0010
0001
0100
0010
1000
0100
0010
0001
0100
0010
1000
0001
0010
0100
,
2000
0000
0000
3000
,
1001
0000
0000
0010
0000
0000
0001
0000
,
0000
0100
0000
0000
0010
0000
1000
0000
,
0100
0000
0000
0001
0000
0000
0100
0000
,
1000
0010
1000
0001
1001
1000
0100
0000
,
0001
0000
0001
0010
0000
0010
1000
0000
,
1000
0100
0000
0100
0001
0000
1001
0000
,
1000
0000
1000
0010
0000
0010
0001
0000
,
0001
0100
0000
0100
1000
0000
1001
0000
,
0001
0000
0001
0100
0000
0100
1000
0000
,
1000
0010
0000
0010
0001
0000
1001
0000
,
1000
0000
1000
0100
0000
0100
0001
0000
,
0001
0010
0000
0010
1000
0000
1001
0000
,
0001
0010
0010
0001
0010
0010
0001
0100
,
0100
0001
0100
0100
0001
0100
0010
1000
,
0100
1000
1000
0100
1000
1000
0010
1000
,
1000
0000
0000
0000
0000
0000
0000
0000
0100
0000
0000
0000
0010
0000
0000
0000
0001
0000
0000
0000
0000
0000
0000
0000
0200
0300
0000
0000
0000
0000
0000
0000
0200
0300
0000
0000
0000
0000
0000
0000
1000
0000
0000
0000
0000
0000
0000
0000
0010
0000
0000
0000
0000
0000
0000
0000
0100
0000
0000
0000
0000
0000
0000
0000
,
0001
0100
0100
0001
0010
0010
0001
0100
,
0100
0001
0010
0010
0001
0100
0010
1000
,
0100
1000
1000
0010
1000
1000
0001
0100
,
0220
0330
2002
3003
,
1000
1000
1000
1000
,
0010
0010
0010
0010
,
0100
0100
0100
0100
,
0001
0001
0001
0001
,
1100
0100
0010
0001
1000
0010
0100
0001
,
0011
0010
0100
1000
0001
0100
0001
1000
,
0001
0010
0100
1000
0001
0100
0010
1000
0010
0100
0001
1000
0100
1000
0001
0100
,
0001
0100
1000
0001
0010
1000
0001
1000
,
1001
0000
0000
0000
0000
1010
0000
0000
0010
0000
0100
0000
0000
0101
0000
0000
,
0001
0000
0000
0000
0000
0011
0000
0000
0010
0000
0100
0000
1100
0000
0000
0000
,
0101
0000
0000
0000
0000
1100
0000
0000
0010
0000
0100
0000
0000
0110
0000
0000
,
0001
0000
1000
0010
0100
0001
1000
0100
0010
0000
0001
0000
1000
0000
0010
0000
,
0220
0330
0000
0000
0000
0000
0000
0000
0000
0000
0000
0000
0000
0000
0000
0000
1100
0000
0000
0000
0000
0000
0000
0000
0000
0000
0000
0000
0000
0000
0000
0000
0101
0000
0000
0000
0000
0000
0000
0000
0101
0000
0000
0000
0000
0000
0000
0000
0000
0000
0000
0000
1001
0000
0000
0000
0000
0000
0000
0000
0000
0000
0000
0000
,
1000
0010
0100
0001
1000
0001
0000
0000
0011
0000
0000
0000
2002
0000
3003
0000
,
1100
0000
0100
0000
0010
0001
0000
0001
1000
0000
0001
0100
0010
1000
0010
0100
,
0001
0000
0010
0000
0001
0100
0000
0010
1000
0000
0001
1000
0002
0000
0000
0000
,
1003
0000
0100
1000
0000
0010
0100
0000
0001
0000
0100
0000
1000
0100
0000
0001
,
1000
0010
1000
0000
0010
0100
0000
0100
0001
0000
1000
0000
1002
0000
0000
0000
,
1003
0000
0001
0010
0001
1000
0010
0000
0100
0000
0001
0000
0010
0001
0010
0000
,
0001
0000
1000
0100
0010
0001
0000
0001
1000
0010
0200
0000
0301
0100
0010
0000
,
2020
3030
0000
0000
0000
0000
0000
0000
0000
0000
0000
0000
0000
0000
0000
0000
0010
0000
0000
0000
0100
0000
0000
0000
0010
0000
0000
0000
0000
0000
0000
0000
1000
0000
0000
0000
0000
0000
0000
0000
0001
0000
0000
0000
0100
0000
0000
0000
0010
0000
0000
0000
0100
0000
0000
0000
0000
0000
0000
0000
0001
0000
0000
0000
,
1000
0000
0100
0000
0010
1000
0001
0000
0100
0000
0010
0001
0000
1000
0000
0001
,
0100
0000
0010
0000
0100
0001
0000
0100
0010
0000
1000
0000
0001
0010
0000
0100
,
2000
0000
3020
0000
0230
0000
0302
0000
2003
0000
3200
0000
0310
0100
0010
0000
,
2002
3003
0000
0000
0000
0000
0000
0000
0000
0000
0000
0000
0000
0000
0000
0000
0110
0000
0000
0000
0000
0000
0000
0000
0100
0000
0000
0000
1000
0000
0000
0000
0000
0000
0000
0000
0100
0000
0000
0000
0001
0000
0000
0000
0000
0000
0000
0000
1000
0000
0000
0000
0000
0000
0000
0000
0100
0000
0000
0000
0001
0000
0000
0000
,
0000
0100
1000
0000
0001
0000
0100
1000
0000
0010
0100
0000
0002
0000
0000
0003
,
2001
0000
0000
0000
3001
0000
1000
0010
0000
0001
0010
0000
1000
0000
0001
0010
,
0000
0100
1000
0001
0100
0000
0010
0100
0010
0000
1000
0100
0010
0001
1000
0000
,
2002
3003
0000
0000
0000
0000
0000
0000
0000
0000
0000
0000
0000
0000
0000
0000
0001
0000
0000
0000
0000
0000
0000
0000
0100
0000
0000
0000
1000
0000
0000
0000
0000
0000
0000
0000
0001
0000
0000
0000
0010
0000
0000
0000
0000
0000
0000
0000
1000
0000
0000
0000
0000
0000
0000
0000
0100
0000
0000
0000
0010
0000
0000
0000
,
0000
0001
0100
0010
1000
0000
0100
0001
0000
0100
0010
0000
0002
0000
0000
0000
,
1003
0000
0001
0000
0100
0000
0001
0100
0000
0010
1000
0000
0010
0000
0100
0001
,
2000
3020
0230
0302
,
1003
0000
0100
0000
0010
0000
0001
0100
0001
0100
0001
0000
0100
0000
0010
1000
,
0010
1000
0010
0000
1000
0000
0001
0010
0100
1000
0001
0100
0002
0000
0000
0000
,
1003
0000
0000
0000
1100
0000
0100
0010
0100
0010
0100
0000
0010
0000
0001
0100
,
0001
0000
0000
0000
0100
0000
0000
0000
0001
0000
0000
0000
0000
0000
0000
0000
1000
0000
0000
0000
0000
0000
0000
0000
0001
0000
0000
0000
1000
0000
0000
0000
0010
0000
0000
0000
0100
0000
0000
0000
0001
0000
0000
0000
1000
0000
0000
0000
0200
0300
0000
0000
0000
0000
0000
0000
0000
0000
0000
0000
0000
0000
0000
0000
,
0110
0000
0000
0000
0010
0000
0001
0100
0000
0100
0010
0000
1000
0000
0100
0010
,
0000
0010
0001
0000
1000
0000
0001
0100
0000
0100
0010
0000
1000
0000
0001
0000
,
1000
0100
1000
0100
0010
0100
0010
0100
0010
0001
0010
0001
1000
0010
0100
0001
,
1000
0100
1000
0100
1000
0000
0001
0010
0000
1000
0010
0001
1000
0000
0010
0100
,
0002
0000
0000
0000
,
0003
0000
0000
0000
;

//--------------- dance-single - The Spartan Fred-104 ----------------
#NOTES:
     dance-single:
     The Spartan Fred-104:
     Challenge:
     18:
     :
0000
0000
0000
0000
,
0000
0000
0000
0000
,
0000
0000
0000
0000
,
0000
0000
0000
0000
,
0000
0000
0000
0000
,
1000
0000
0001
0100
0010
0000
0210
0000
0000
0000
0310
0000
1000
0000
0100
0000
,
1000
0000
0010
0001
0010
0000
1000
0000
0100
0001
0100
0000
1000
0000
0001
0000
,
1000
0000
0100
0010
0001
0000
0201
0000
0000
0000
0310
0000
0100
0000
0001
0000
,
1000
0100
1000
0100
0001
1000
0010
1000
0010
0001
1000
0001
1000
0000
0100
0000
,
0010
0001
1000
0001
0100
0000
0120
0000
0000
0000
1030
0000
0001
0000
0100
0000
,
0001
0000
0000
0000
0000
0000
0000
0000
0010
0000
0000
0000
1000
0000
0000
0000
0010
0000
0000
0000
0000
0000
0000
0000
0001
0000
0000
0000
0000
0000
0000
0000
0100
0000
0000
0000
1000
0000
0000
0000
0100
0000
0000
0000
0000
0000
0000
0000
0022
0033
0000
0000
0000
0000
0000
0000
0000
0000
0000
0000
0000
0000
0000
0000
,
0110
0000
1000
0100
0001
0000
0110
0000
0001
0100
1000
0000
0110
0000
1000
0100
,
0001
0000
1000
0001
0010
0100
1000
0001
1000
0100
0002
0000
1003
0010
0002
0000
,
1003
0000
0000
0000
0000
0000
0000
0000
0200
0300
0000
0000
0000
0000
0000
0000
0200
0300
0000
0000
0000
0000
0000
0000
0001
0000
0000
0000
0000
0000
0000
0000
0020
0030
0000
0000
0000
0000
0000
0000
0020
0030
0000
0000
0000
0000
0000
0000
1000
0000
0000
0000
0000
0000
0000
0000
0001
0000
0000
0000
0000
0000
0000
0000
,
1000
0000
0000
0000
0000
0000
0000
0000
0020
0030
0000
0000
0000
0000
0000
0000
0020
0030
0000
0000
0000
0000
0000
0000
0001
0000
0000
0000
0000
0000
0000
0000
0200
0300
0000
0000
0000
0000
0000
0000
0200
0300
0000
0000
0000
0000
0000
0000
1000
0000
0000
0000
0000
0000
0000
0000
0001
0000
0000
0000
0000
0000
0000
0000
,
1000
0100
0010
0001
0100
0001
0010
0001
1000
0010
0100
0001
0010
0100
1000
0010
,
1000
0100
1000
0100
0001
1000
0010
1000
0010
0001
1000
0001
1000
0100
0010
0001
,
1000
0000
0001
1000
0010
0000
0210
0000
0000
0000
0301
1000
0001
1000
0001
0000
,
1000
0010
0000
0001
0010
0000
0100
0000
0002
0000
0000
0000
1003
0001
0100
0001
,
1000
0000
0100
0010
0001
0000
1000
0000
0100
0010
0001
0000
1000
0001
1000
0000
,
0001
0000
1000
0100
0010
0000
0012
0000
0000
0000
0103
0010
0001
0000
0010
0000
,
1000
0000
0001
1000
0100
0000
0120
0000
0000
0000
0031
0100
0001
0100
0010
0000
,
1000
0100
0000
0010
1000
0000
0010
0000
0012
0000
0000
0000
1003
0001
0010
0001
,
1000
0000
0001
0010
0100
0000
1000
0001
0010
0000
0100
1000
0001
0000
0000
0000
,
1001
0000
0110
1010
0000
1100
0011
1001
,
1000
0000
0100
0010
1000
0000
1020
0000
0000
0000
0130
1000
0001
1000
0001
0000
,
1000
0000
0000
0000
0100
0000
0000
0000
0000
0000
0000
0000
0010
0000
0000
0000
0001
0000
0000
0000
0000
0000
0000
0000
0100
0000
0000
0000
0000
0000
0000
0000
0110
0000
0000
0000
0000
0000
0000
0000
0000
0000
0000
0000
0000
0000
0000
0000
2002
3003
0000
0000
0000
0000
0000
0000
0000
0000
0000
0000
0000
0000
0000
0000
,
1100
0000
1000
0100
0001
0000
0011
0000
0001
0100
1000
0000
1001
0000
0001
0000
,
0100
0000
0001
0010
0100
1000
0001
0010
0001
1000
0100
0010
0001
0100
0001
0000
,
1000
0010
1000
0100
0010
0001
0100
0010
,
1000
0000
0100
0000
1000
0000
0001
0000
0100
0000
0010
0000
2000
3200
2300
3200
,
1300
0100
0010
0001
0100
0010
1000
0100
0010
0001
0010
0100
1000
0010
0100
0001
,
2000
0000
0000
3000
,
1001
0000
0000
0001
0000
0000
0100
0000
,
0000
0010
0000
0000
1000
0000
0100
0000
,
0010
0000
0000
0001
0000
0000
1000
0000
,
0001
0000
0000
0000
1000
0000
0010
0000
0001
0000
0100
0000
1000
0001
1000
0000
,
1001
0000
0000
0010
0000
0000
0100
0000
,
0000
1000
0000
0100
0001
0001
0100
0000
,
1000
0000
0000
0010
0000
0000
0100
0000
,
0000
0001
0000
0100
1000
1000
0100
0000
,
0001
0000
0000
0010
0000
0000
0100
0000
,
0000
1000
0000
0100
0001
0001
0100
0000
,
1000
0000
0000
0010
0000
0000
0100
0000
,
0000
0001
0000
0100
1000
1000
0100
0000
,
1001
1000
0001
0200
0000
0000
0000
0000
,
0301
0010
1000
0001
0100
1000
0001
0010
,
1001
0001
1000
0200
0000
0000
0000
0000
,
1300
0000
0100
0010
0001
0000
0200
0000
0000
0000
0310
0000
0001
0000
0010
0000
,
1000
0001
0100
2000
0000
0000
0000
0000
,
3100
0010
1000
0100
0010
0001
1000
0010
,
0001
0010
0100
0002
0000
0000
1003
0001
,
2002
3003
0220
0330
,
1100
1000
0010
0010
,
0100
0100
0001
0001
,
1000
0010
0001
0100
,
1000
0100
0001
0010
,
2100
3010
0001
1000
0100
0001
1000
0001
,
2010
3100
0010
0001
0012
0103
0010
1000
,
0001
1000
0100
0010
0001
0100
0010
1000
0100
0010
0001
0010
0100
1000
0010
0100
,
0001
0000
1000
0000
0010
0000
0100
0001
0010
0000
1000
0000
0010
0001
0100
0000
,
0110
0000
0000
0000
0000
1100
0000
0000
0110
0000
0101
0000
0000
0011
0000
0000
,
1001
0000
0000
0000
0000
1010
0000
0000
0110
0000
0000
0000
2002
0000
3003
0000
,
1100
0000
0000
0000
0000
0101
0000
0000
1010
0000
0011
0000
0000
1001
0000
0000
,
0001
0000
0100
1000
0100
0001
0010
0001
1000
0100
0001
0000
1000
0010
0001
0000
,
2002
3003
0000
0000
0000
0000
0000
0000
0000
0000
0000
0000
0000
0000
0000
0000
1100
0000
0000
0000
0000
0000
0000
0000
0000
0000
0000
0000
0000
0000
0000
0000
0011
0000
0000
0000
0000
0000
0000
0000
1010
0000
0000
0000
0000
0000
0000
0000
0000
0000
0000
0000
0101
0000
0000
0000
0000
0000
0000
0000
0000
0000
0000
0000
,
0001
0010
1000
0010
0001
0100
0000
0100
0010
0000
0000
0000
2002
0000
3003
0000
,
1100
0000
0101
0000
1000
0010
0000
0100
0001
0000
1000
0100
0001
0100
0010
0001
,
1000
0000
0001
0010
0100
1000
0001
0010
0100
1000
0010
0100
0002
0000
0000
0000
,
1003
0000
0010
1000
0001
0010
0100
0000
0001
0000
0100
0000
1000
0001
0010
0001
,
0100
0000
0001
1000
0010
1000
0100
0010
0100
0000
1100
0000
2002
0000
3003
0000
,
0001
1000
0001
0100
0010
1000
0000
0001
0010
0000
0100
0000
0001
0100
0010
0000
,
0001
0000
1000
0100
0010
0001
1000
0100
1000
0010
0001
0000
1000
0100
0001
0000
,
2002
3003
0000
0000
0000
0000
0000
0000
0000
0000
0000
0000
0000
0000
0000
0000
1000
0000
0000
0000
0010
0000
0000
0000
0100
0000
0000
0000
0000
0000
0000
0000
0010
0000
0000
0000
0000
0000
0000
0000
1000
0000
0000
0000
0001
0000
0000
0000
0010
0000
0000
0000
0001
0000
0000
0000
0000
0000
0000
0000
0010
0000
0000
0000
,
0100
0000
1000
0001
0100
0010
0000
1000
0100
0000
1000
0001
0000
0101
0000
0100
,
0010
0000
1000
0000
0001
0010
0000
0100
1000
0000
0001
0000
0100
0010
0000
1000
,
0002
0000
0203
0000
2300
0000
3002
0000
0023
0000
2030
0000
3001
1000
0001
0000
,
2002
3003
0000
0000
0000
0000
0000
0000
0000
0000
0000
0000
0000
0000
0000
0000
1001
0000
0000
0000
0000
0000
0000
0000
1000
0000
0000
0000
0100
0000
0000
0000
0000
0000
0000
0000
0100
0000
0000
0000
0001
0000
0000
0000
0000
0000
0000
0000
1001
0000
0000
0000
0000
0000
0000
0000
0001
0000
0000
0000
0100
0000
0000
0000
,
0000
0100
1000
0000
1001
0000
1000
0100
0000
0100
0001
1000
0002
0000
0000
0003
,
1001
0000
0000
0000
0110
0000
1000
0100
0000
0100
0001
0000
0110
0000
0001
0100
,
0000
0100
1000
0000
1001
0000
0001
0100
0010
1000
0100
0010
0001
0010
0100
0000
,
2200
3300
0000
0000
0000
0000
0000
0000
0000
0000
0000
0000
0000
0000
0000
0000
1001
0000
0000
0000
0000
0000
0000
0000
0001
0000
0000
0000
0010
0000
0000
0000
0000
0000
0000
0000
0010
0000
0000
0000
1000
0000
0000
0000
0000
0000
0000
0000
1001
0000
0000
0000
0000
0000
0000
0000
1000
0000
0000
0000
0010
0000
0000
0000
,
0000
0010
0001
0000
1001
0000
0001
0100
0010
1000
0001
0010
0200
0000
0000
0000
,
1300
0000
0010
0000
0001
0000
1000
0100
0000
0001
1000
0000
0010
0000
0001
1000
,
0200
0000
0000
0000
0302
0000
0000
0000
2003
0000
0000
3001
1000
0000
0010
0000
,
0110
0000
0000
0000
1001
0000
0001
0100
0001
0100
1000
0000
1001
0000
1000
0100
,
1000
0100
0001
0000
1001
0000
0001
0100
0001
0100
1000
0001
2000
0000
0000
0000
,
3001
0000
0000
0000
1001
0000
1000
0010
1000
0010
0001
0000
1001
0000
0001
0010
,
0001
0000
0000
0000
0010
0000
0000
0000
1000
0000
0000
0000
0000
0000
0000
0000
1001
0000
0000
0000
0000
0000
0000
0000
1000
0000
0000
0000
0010
0000
0000
0000
1000
0000
0000
0000
0010
0000
0000
0000
0001
0000
0000
0000
1000
0000
0000
0000
0002
0003
0000
0000
0000
0000
0000
0000
0000
0000
0000
0000
0000
0000
0000
0000
,
1001
0000
0001
0010
0100
0000
0001
0100
0000
1000
0001
0000
1000
0000
0001
0100
,
0000
1000
0100
0000
0010
0000
1000
0100
0000
0010
0001
1000
0001
0000
1000
0000
,
0001
0010
0100
1000
0010
0100
0001
0010
0100
0010
0001
1000
0010
1000
0100
1000
,
0001
0010
0001
1000
0010
0100
0001
0010
1000
0010
0001
1000
0010
0100
0001
1000
,
0002
0000
0000
0000
,
0003
0000
0000
0000
;

//--------------- dance-double - The Spartan Fred-104 ----------------
#NOTES:
     dance-double:
     The Spartan Fred-104:
     Easy:
     9:
     :
00000000
00000000
00000000
00000000
,
00000000
00000000
00000000
00000000
,
00000000
00000000
00000000
00000000
,
00000000
00000000
00000000
00000000
,
00000000
00000000
00000000
00000000
,
00001000
00000000
00000000
00010000
00000000
00000000
00001000
00000000
,
00100000
00000000
00000000
00010000
00000000
00000000
00100000
00000000
,
00010000
00000000
00000000
10000000
00000000
00000000
00010000
00000000
,
20020000
00000000
00000000
30030000
,
10000000
00000000
00000000
00100000
00000000
00000000
01000000
00000000
,
00010000
00000000
00000000
00000000
00000000
00000000
00000000
00000000
00000000
00000000
00000000
00000000
00000000
00000000
00000000
00000000
00000000
00000000
00000000
00000000
00000000
00000000
00000000
00000000
00100000
00000000
00000000
00000000
00000000
00000000
00000000
00000000
00000000
00000000
00000000
00000000
00000000
00000000
00000000
00000000
00000000
00000000
00000000
00000000
00000000
00000000
00000000
00000000
00022000
00033000
00000000
00000000
00000000
00000000
00000000
00000000
00000000
00000000
00000000
00000000
00000000
00000000
00000000
00000000
,
00010000
00000000
00000000
00000100
00000000
00000000
00001000
00000000
,
00000001
00000000
00000000
00000001
00000000
00000000
00000001
00000000
00000100
00000000
00000000
00000000
00000010
00000000
00000000
00000000
,
00001000
00001000
00000001
00000001
,
00000100
00000100
00001000
00001000
,
00010000
00001000
00010000
00000000
01000000
00100000
01000000
00000000
,
02200000
00000000
00000000
03300000
,
10000000
01000000
00100000
00000000
,
00001000
00000000
00000000
00001000
00000000
00000000
00001000
00000000
00010000
00000000
00000000
00000000
00000100
00000000
00000000
00000000
,
00001000
00000000
00000000
00000010
00000000
00000000
00000100
00000000
,
00000001
00000000
00000000
00000010
00000000
00000000
00000100
00000000
,
00000010
00000000
00000000
00000001
00000000
00000000
00001000
00000000
,
00000001
00000000
00000000
00000001
00000000
00000000
00000100
00000000
00000010
00000000
00000000
00000000
00010000
00000000
00000000
00000000
,
00001000
00000000
00000000
00010000
00000000
00000000
00001000
00000000
,
00022000
00000000
00000000
00033000
,
00001000
00000000
00000000
00100000
00000000
00000000
00010000
00000000
,
01000000
00000000
00000000
00000000
00000000
00000000
00000000
00000000
00000000
00000000
00000000
00000000
01000000
00000000
00000000
00000000
00000000
00000000
00000000
00000000
00000000
00000000
00000000
00000000
01000000
00000000
00000000
00000000
00000000
00000000
00000000
00000000
00100000
00000000
00000000
00000000
00000000
00000000
00000000
00000000
00000000
00000000
00000000
00000000
00000000
00000000
00000000
00000000
02200000
03300000
00000000
00000000
00000000
00000000
00000000
00000000
00000000
00000000
00000000
00000000
00000000
00000000
00000000
00000000
,
10000000
00000000
00000000
01000000
00000000
00000000
00010000
00000000
,
00001000
00000000
00000000
00001000
00000000
00000000
00001000
00000000
00000100
00000000
00000000
00000000
00000001
00000000
00000000
00000000
,
00001000
00001000
00000001
00000001
,
00000010
00000010
00000100
00000100
,
00010000
00001000
00010000
00000000
00100000
00010000
00100000
00000000
,
02200000
00000000
00000000
03300000
,
10010000
00000000
00000000
01000000
00000000
00000000
00100000
00000000
,
00000000
00001000
00000000
00000000
00010000
00000000
00001000
00000000
,
00010000
00000000
00000000
00000010
00000000
00000000
00001000
00000000
,
00000100
00000000
00000010
00000000
00000001
00000100
00000001
00000000
,
00001001
00000000
00000000
00000001
00000000
00000000
00000100
00000000
,
00000000
00000010
00000000
00000000
00001000
00000000
00000100
00000000
,
00010000
00000000
00000000
00001000
00000000
00000000
01000000
00000000
,
00000000
00010000
00000000
00000000
00100000
00000000
00010000
00000000
,
10010000
00000000
00000000
10000000
00000000
00000000
01000000
00000000
,
00000000
00100000
00000000
00000000
00010000
00000000
01000000
00000000
,
00001000
00000000
00000000
00010000
00000000
00000000
00000100
00000000
,
00000000
00001000
00000000
00000000
00000010
00000000
00001000
00000000
,
00000001
00000000
00000000
00001001
00000000
00000000
00000000
00000000
,
00000010
00000000
00000000
00001000
00000000
00000000
00010000
00000000
,
00100000
00000000
00000000
01100000
00000000
00000000
00000000
00000000
,
01000000
10000000
01000000
10000000
00000000
00010000
01000000
00000000
,
00100000
00000000
00000000
01100000
00000000
00000000
00000000
00000000
,
00100000
00000000
00000000
10000000
00000000
00000000
01000000
00000000
,
00100000
00000000
00000000
00011000
00000000
00000000
00000100
00000000
,
00000220
00000330
00002002
00003003
,
00000001
00000001
00000010
00000010
,
00000100
00000100
00010000
00010000
,
00001000
00001000
00100000
00100000
,
01000000
01000000
10000000
10000000
,
00010000
01000000
00100000
10000000
,
01000000
00100000
00010000
00001000
,
00010000
00001000
00010000
00000000
00000010
00001000
00000010
00000000
,
00002002
00000000
00000000
00003003
,
00000010
00000000
00000000
00000000
00000000
00000100
00000000
00000000
00000000
00000000
00000010
00000000
00000000
00000000
00000000
00000000
,
00001000
00000000
00000000
00000000
00000000
00000001
00000000
00000000
00000000
00000000
00001000
00000000
00000010
00000000
00000000
00000000
,
00010000
00000000
00000000
00000000
00000000
00001000
00000000
00000000
00000000
00000000
00100000
00000000
00000000
00000000
00000000
00000000
,
00010000
01000000
00100000
10000000
,
22000000
33000000
00000000
00000000
00000000
00000000
00000000
00000000
00000000
00000000
00000000
00000000
00000000
00000000
00000000
00000000
01000000
00000000
00000000
00000000
00000000
00000000
00000000
00000000
00000000
00000000
00000000
00000000
00000000
00000000
00000000
00000000
00100000
00000000
00000000
00000000
00000000
00000000
00000000
00000000
00010000
00000000
00000000
00000000
00000000
00000000
00000000
00000000
00000000
00000000
00000000
00000000
00100000
00000000
00000000
00000000
00000000
00000000
00000000
00000000
00000000
00000000
00000000
00000000
,
00010000
00000000
00010000
00000000
00000000
00001000
00000000
00000000
00010000
00000000
00000000
00000000
00011000
00000000
00000000
00000000
,
00001000
00000000
00001000
00000000
00000000
00000010
00000000
00000000
00000100
00000000
00000100
00000000
00000000
00000001
00000000
00000000
,
00001000
00000010
00001000
00000000
00000001
00000100
00000002
00000000
,
00001003
00000100
00000100
00000010
,
00000001
00000100
00000001
00000000
00002000
00000000
00003000
00000000
,
00000010
00010000
00001000
00001000
,
00100000
00000000
00001000
00000000
00010000
00001000
00010000
00000000
,
00022000
00033000
00000000
00000000
00000000
00000000
00000000
00000000
00000000
00000000
00000000
00000000
00000000
00000000
00000000
00000000
00001000
00000000
00000000
00000000
00000000
00000000
00000000
00000000
00000000
00000000
00000000
00000000
00000000
00000000
00000000
00000000
00100000
00000000
00000000
00000000
00000000
00000000
00000000
00000000
00000000
00000000
00000000
00000000
00000000
00000000
00000000
00000000
00010000
00000000
00000000
00000000
00000000
00000000
00000000
00000000
00000000
00000000
00000000
00000000
00000000
00000000
00000000
00000000
,
01000000
00100000
01000000
00000000
00010000
00000000
10000000
00000000
,
00010000
01000000
00100000
01000000
,
00100000
01000000
00100000
00000000
00001000
00010000
00001000
00000000
,
00022000
00033000
00000000
00000000
00000000
00000000
00000000
00000000
00000000
00000000
00000000
00000000
00000000
00000000
00000000
00000000
00010000
00000000
00000000
00000000
00000000
00000000
00000000
00000000
00000000
00000000
00000000
00000000
00000000
00000000
00000000
00000000
00001000
00000000
00000000
00000000
00000000
00000000
00000000
00000000
00000000
00000000
00000000
00000000
00000000
00000000
00000000
00000000
00000000
00000000
00000000
00000000
00000000
00000000
00000000
00000000
00000000
00000000
00000000
00000000
00000000
00000000
00000000
00000000
,
00000010
00000100
00000001
00002000
,
00003001
00000000
00000100
00001000
,
00010000
00000000
00010000
10000000
,
20020000
30030000
00000000
00000000
00000000
00000000
00000000
00000000
00000000
00000000
00000000
00000000
00000000
00000000
00000000
00000000
00000000
00000000
00000000
00000000
00000000
00000000
00000000
00000000
00000000
00000000
00000000
00000000
00000000
00000000
00000000
00000000
00010000
00000000
00000000
00000000
00000000
00000000
00000000
00000000
00000000
00000000
00000000
00000000
00000000
00000000
00000000
00000000
01000000
00000000
00000000
00000000
00000000
00000000
00000000
00000000
00000000
00000000
00000000
00000000
00000000
00000000
00000000
00000000
,
00100000
00000000
10000000
00000000
01000000
00100000
01000000
00000000
,
00010000
00000000
00001000
00000000
,
00020000
00032000
00003200
00000302
,
00001003
00000001
00000100
00000010
,
00000100
00000000
00000001
00000000
00000010
00000000
00000100
00001000
,
00000100
00010000
00001000
00100000
,
00010000
00000000
00000000
00000000
00000000
00000000
00000000
00000000
00000000
00000000
00000000
00000000
00000000
00000000
00000000
00000000
10000000
00000000
00000000
00000000
00000000
00000000
00000000
00000000
00000000
00000000
00000000
00000000
00000000
00000000
00000000
00000000
00010000
00000000
00000000
00000000
00000000
00000000
00000000
00000000
10000000
00000000
00000000
00000000
00000000
00000000
00000000
00000000
00020000
00030000
00000000
00000000
00000000
00000000
00000000
00000000
00000000
00000000
00000000
00000000
00000000
00000000
00000000
00000000
,
10000000
01000000
00100000
00100000
,
00001000
00000000
00010000
00000000
00000100
00001000
00000100
00000000
,
00000010
00000001
00001000
00000010
,
00000100
00000010
00000100
00000000
00000001
00001000
00000001
00000000
,
00002002
00000000
00000000
00000000
,
00003003
00000000
00000000
00000000
;

//--------------- dance-double - The Spartan Fred-104 ----------------
#NOTES:
     dance-double:
     The Spartan Fred-104:
     Medium:
     14:
     :
00000000
00000000
00000000
00000000
,
00000000
00000000
00000000
00000000
,
00000000
00000000
00000000
00000000
,
00000000
00000000
00000000
00000000
,
00000000
00000000
00000000
00000000
,
00000001
00000100
00000001
00000020
00000000
00000000
00000030
00000000
,
00000010
00000001
00001000
00000001
00000100
00000010
00001000
00000100
,
00010000
00001000
00100000
02000000
00000000
00000000
03200000
02300000
,
13000000
01000000
10000000
00010000
01000000
00010000
00100000
01000000
,
10000000
00010000
01000000
00200000
00000000
00000000
00000000
00000000
,
00301000
00000000
00000000
00000000
00000000
00000000
00000000
00000000
00010000
00000000
00000000
00000000
00000000
00000000
00000000
00000000
00010000
00000000
00000000
00000000
00000000
00000000
00000000
00000000
00001000
00000000
00000000
00000000
00000000
00000000
00000000
00000000
00010000
00000000
00000000
00000000
00000000
00000000
00000000
00000000
00010000
00000000
00000000
00000000
00000000
00000000
00000000
00000000
00022000
00033000
00000000
00000000
00000000
00000000
00000000
00000000
00000000
00000000
00000000
00000000
00000000
00000000
00000000
00000000
,
00000010
00001000
00001000
00000010
00000100
00000100
00000010
00001000
,
00000001
00000000
00000000
00000100
00000000
00000000
00000001
00000000
00002000
00000000
00003010
00000000
00000001
00000000
00000020
00000000
,
00001030
00000010
00000000
00001000
00000001
00000000
00000100
00000001
,
00001000
00000100
00000000
00010000
00001000
00000000
00100000
00010000
,
01000000
00100000
10000000
00100000
01000000
00010000
10000000
01000000
,
00020000
00000000
00000000
00002000
00000000
00000000
00033000
00000000
,
00010000
00001000
00000100
00000001
00000000
00001000
00000000
00000001
,
00000100
00000000
00000000
00000010
00000000
00000000
00000100
00000000
00000102
00000000
00000000
00000000
00001003
00000000
00000000
00000000
,
00000001
00000100
00001000
00010000
01000000
10000000
00010000
01000000
,
00100000
10000000
01000000
00100000
00001000
00010000
00000100
00010000
,
00001000
00010000
00000010
00001000
00000000
00000100
00000000
00010000
,
00001000
00000000
00000000
01000000
00000000
00000000
00010000
00000000
00210000
00000000
00000000
00000000
00301000
00000000
00000000
00000000
,
00010000
00001000
00000010
00010000
00000000
00001000
00000010
00000100
,
00000101
00000000
00000010
00000010
00000000
00010000
00001000
00010000
,
00001000
00100000
00010000
20000000
00000000
31000000
00100000
01000000
,
00010000
00000000
00000000
00000000
00000000
00000000
00000000
00000000
00000000
00000000
00000000
00000000
00100000
00000000
00000000
00000000
00000000
00000000
00000000
00000000
00000000
00000000
00000000
00000000
01000000
00000000
00000000
00000000
00000000
00000000
00000000
00000000
10000000
00000000
00000000
00000000
00000000
00000000
00000000
00000000
00010000
00000000
00000000
00000000
00000000
00000000
00000000
00000000
02020000
03030000
00000000
00000000
00000000
00000000
00000000
00000000
00000000
00000000
00000000
00000000
00000000
00000000
00000000
00000000
,
10000000
01000000
00010000
00001000
00000010
00000001
00001000
00000000
,
00000001
00000000
00000000
00000100
00000000
00000000
00000010
00000000
00001000
00000000
00000010
00000000
00000120
00000000
00000000
00000000
,
00001030
00000100
00000010
00000100
00000000
00000100
00001000
00010000
,
01000000
00000000
00000000
00100000
00000000
00000000
00010000
00000000
00001000
00000000
00000000
00000000
00000100
00000000
00000000
00000000
,
00000010
00001000
00010000
00100000
01000000
00010000
00001000
00000100
,
00000020
00000000
00000000
00000030
,
00001001
00000000
00000000
00000100
00000000
00000000
00001000
00000000
,
00000000
00010000
00000000
00000000
01000000
00000000
10000000
00000000
,
00010000
00000000
00000000
01000000
00000000
00000000
00100000
00000000
,
10000000
01000000
00100000
00000000
00010000
01000000
00100000
00000000
,
10100000
00000000
00000000
10000000
00000000
00000000
01000000
00000000
,
00000000
00100000
00000000
00000000
00001000
00000000
00010000
00000000
,
00011000
00000000
00000000
00000010
00000000
00000000
00001000
00000000
,
00000000
00000001
00000000
00000000
00000100
00000000
00000010
00000000
,
00000011
00000000
00000000
00000001
00000000
00000000
00000100
00000000
,
00000000
00000010
00000000
00000000
00010000
00000000
00001000
00000000
,
00011000
00000000
00000000
00100000
00000000
00000000
00010000
00000000
,
00000000
10000000
00000000
00000000
01000000
00000000
00100000
00000000
,
00010000
01000000
00001000
00020000
00000000
00000000
00030000
00000000
,
00001000
00010000
01000000
10000000
00010000
01000000
00100000
10000000
,
00010000
00100000
01000000
20000000
00000000
00000000
30000000
00000000
,
01000000
00000000
10000000
01000000
10000000
00000000
02000000
00000000
00000000
00000000
03100000
00000000
00010000
00000000
01000000
00000000
,
00001000
00010000
00001000
00000200
00000000
00000000
00000300
00000000
,
00000001
00000100
00000000
00000010
00010000
00000000
00001000
00000010
,
00000001
00000010
00010000
00002000
00000000
00000000
00023000
00031000
,
00022000
00033000
02200000
03300000
,
10000000
10000000
01000000
01000000
,
00010000
00010000
00001000
00001000
,
00000100
00000100
00000001
00000001
,
00001000
00001000
00000010
00000010
,
00001000
00000100
00001000
00000000
00000001
00000100
00000001
00000000
,
00000010
00000100
00000010
00000000
00000100
00010000
00000100
00000000
,
00010000
00001000
00010000
00001000
00100000
00010000
00100000
01000000
,
20000000
00000000
00000000
00020000
00000000
00000000
30030000
00000000
,
00110000
00000000
00000000
00000000
00000000
10100000
00000000
00000000
00100000
00000000
01000000
00000000
00000000
01001000
00000000
00000000
,
00001000
00000000
00000000
00000000
00000000
00011000
00000000
00000000
00010000
00000000
00001000
00000000
00000100
00000000
00000000
00000000
,
00000110
00000000
00000000
00000000
00000000
00000011
00000000
00000000
00000001
00000000
00000100
00000000
00000000
00000110
00000000
00000000
,
00000010
00000000
00001000
00000000
00000001
00000100
00000000
00000100
00000001
00000000
00000100
00000000
00000010
00000000
00001000
00000000
,
00002200
00003300
00000000
00000000
00000000
00000000
00000000
00000000
00000000
00000000
00000000
00000000
00000000
00000000
00000000
00000000
00010100
00000000
00000000
00000000
00000000
00000000
00000000
00000000
00000000
00000000
00000000
00000000
00000000
00000000
00000000
00000000
00010000
00000000
00000000
00000000
00000000
00000000
00000000
00000000
00001000
00000000
00000000
00000000
00000000
00000000
00000000
00000000
00000000
00000000
00000000
00000000
01000000
00000000
00000000
00000000
00000000
00000000
00000000
00000000
00000000
00000000
00000000
00000000
,
00001000
00000000
00010000
00000000
00001000
00010000
00000000
00000000
00010100
00000000
00000000
00000000
00022000
00000000
00033000
00000000
,
00010010
00000000
00000000
00000000
00000000
00001010
00000000
00000000
00000010
00000000
00000100
00000000
00000000
00000101
00000000
00000000
,
00000001
00000000
00000010
00000000
00000000
00000110
00000000
00000000
00000010
00000000
00001000
00000000
00001002
00000000
00000000
00000000
,
00001003
00000000
00000001
00000100
00000000
00000001
00000100
00000000
00000010
00000000
00001000
00000000
00000100
00010000
00000000
00001000
,
00010000
00000000
00000000
00000000
00000000
00000000
00000000
00000000
00000100
00000000
00000000
00000000
00000000
00000000
00000000
00000000
00001000
00000000
00000000
00000000
00000000
00000000
00000000
00000000
00000100
00000000
00000000
00000000
00000000
00000000
00000000
00000000
00000020
00000030
00000000
00000000
00000000
00000000
00000000
00000000
00000020
00000030
00000000
00000000
00000000
00000000
00000000
00000000
00002000
00000000
00000000
00000000
00000000
00000000
00000000
00000000
00000000
00000000
00000000
00000000
00000000
00000000
00000000
00000000
,
00003001
00000000
00000000
00000000
00000000
00000000
00000000
00000000
00000100
00000000
00000000
00000000
00000000
00000000
00000000
00000000
00000020
00000030
00000000
00000000
00000000
00000000
00000000
00000000
00000020
00000030
00000000
00000000
00000000
00000000
00000000
00000000
00000001
00000000
00000000
00000000
00000000
00000000
00000000
00000000
00000100
00000000
00000000
00000000
00000000
00000000
00000000
00000000
00001000
00000000
00000000
00000000
00000000
00000000
00000000
00000000
00010000
00000000
00000000
00000000
00000000
00000000
00000000
00000000
,
00100000
00000000
00000000
00000000
00000000
00000000
00000000
00000000
02000000
03000000
00000000
00000000
00000000
00000000
00000000
00000000
02000000
03000000
00000000
00000000
00000000
00000000
00000000
00000000
00010000
00000000
00000000
00000000
00000000
00000000
00000000
00000000
10000000
00000000
00000000
00000000
00100000
00000000
00000000
00000000
10000000
00000000
00000000
00000000
00000000
00000000
00000000
00000000
00010000
00000000
00000000
00000000
01000000
00000000
00000000
00000000
00010000
00000000
00000000
00000000
00000000
00000000
00000000
00000000
,
20020000
30030000
00000000
00000000
00000000
00000000
00000000
00000000
00000000
00000000
00000000
00000000
00000000
00000000
00000000
00000000
01100000
00000000
00000000
00000000
00000000
00000000
00000000
00000000
00000000
00000000
00000000
00000000
00000000
00000000
00000000
00000000
00100000
00000000
00000000
00000000
00000000
00000000
00000000
00000000
00001000
00000000
00000000
00000000
00000000
00000000
00000000
00000000
00020000
00030000
00000000
00000000
00000000
00000000
00000000
00000000
00020000
00030000
00000000
00000000
00000000
00000000
00000000
00000000
,
01000000
00000000
00001000
00000000
00010000
00001000
00010000
00000000
00001000
00000000
00010000
00000100
00000000
00001000
00000000
00000100
,
00000010
00000000
00000001
00000000
00000100
00000010
00000000
00000100
00000010
00000000
00001000
00000000
00000100
00000010
00000000
00000010
,
00000002
00000023
00002030
00023000
02030000
23000000
30010000
00000000
,
20020000
30030000
00000000
00000000
00000000
00000000
00000000
00000000
00000000
00000000
00000000
00000000
00000000
00000000
00000000
00000000
01100000
00000000
00000000
00000000
00000000
00000000
00000000
00000000
00000000
00000000
00000000
00000000
00100000
00000000
00000000
00000000
00000000
00000000
00000000
00000000
00000000
00000000
00000000
00000000
10000000
00000000
00000000
00000000
00000000
00000000
00000000
00000000
01000000
00000000
00000000
00000000
00000000
00000000
00000000
00000000
00000000
00000000
00000000
00000000
00100000
00000000
00000000
00000000
,
00000000
00000000
00001000
00000000
00010000
00000000
00000000
00000100
00000000
00000000
00010000
00000000
00012000
00000000
00000000
00000000
,
00023000
00000000
00000000
00000000
00030010
00000000
00000000
00010000
00000000
00000000
00000010
00000000
00001000
00000000
00000000
00000010
,
00000000
00000000
00000100
00000000
00000001
00000000
00000100
00000010
00000100
00000000
00000001
00000000
00001000
00000000
00000001
00000000
,
00002002
00003003
00000000
00000000
00000000
00000000
00000000
00000000
00000000
00000000
00000000
00000000
00000000
00000000
00000000
00000000
00000001
00000000
00000000
00000000
00000000
00000000
00000000
00000000
00000000
00000000
00000000
00000000
00000100
00000000
00000000
00000000
00000000
00000000
00000000
00000000
00000000
00000000
00000000
00000000
00001000
00000000
00000000
00000000
00000000
00000000
00000000
00000000
00010000
00000000
00000000
00000000
00000000
00000000
00000000
00000000
00000000
00000000
00000000
00000000
01000000
00000000
00000000
00000000
,
00000000
00000000
10000000
00000000
00010000
00000000
00000000
01000000
00000000
00000000
00100000
00000000
20000000
00000000
00000000
30000000
,
10010000
00000000
00000000
00000000
00010000
00000000
10000000
01000000
00000000
01000000
00100000
00000000
00001000
00010000
00000000
00010000
,
00002000
00023000
00032000
00003200
,
00000301
00000000
00000010
00000000
00000100
00000000
00000010
00000001
00000000
00000010
00000001
00000000
00001000
00000000
00000001
00000100
,
00000000
00000001
00000100
00000000
00000010
00000000
00001000
00000100
00000000
00010000
00001000
00000000
00020000
00000000
00000000
00000000
,
00031000
00000000
00100000
00000000
00001000
00000000
00010000
00001000
00000000
00100000
00010000
00000000
10000000
00000000
00010000
01000000
,
00000000
00000000
00000000
00000000
00010000
00000000
00000000
00000000
01000000
00000000
00000000
00000000
00000000
00000000
00000000
00000000
00100000
00000000
00000000
00000000
00000000
00000000
00000000
00000000
10000000
00000000
00000000
00000000
01000000
00000000
00000000
00000000
10000000
00000000
00000000
00000000
01000000
00000000
00000000
00000000
00100000
00000000
00000000
00000000
00000000
00000000
00000000
00000000
00220000
00330000
00000000
00000000
00000000
00000000
00000000
00000000
00000000
00000000
00000000
00000000
00000000
00000000
00000000
00000000
,
00011000
00000000
00000000
00000000
00010000
00000000
00000000
00010010
00000000
00000000
00000010
00000000
00001000
00000000
00000000
00001100
,
00000000
00000000
00000010
00000000
00000001
00000000
00000000
00000101
00000000
00000000
00000010
00000000
00001000
00000000
00000001
00000000
,
00000100
00000000
00000010
00000000
00001000
00000000
00000100
00000000
00010000
00001000
00010000
00001000
00010000
00001000
00010000
00001000
,
00010000
00000000
00001000
00000000
00100000
00000000
00000000
00010000
00000000
00000000
10000000
00000000
00100000
00000000
01000000
00000000
,
02200000
00000000
00000000
00000000
,
03300000
00000000
00000000
00000000
;

//--------------- dance-double - The Spartan Fred-104 ----------------
#NOTES:
     dance-double:
     The Spartan Fred-104:
     Hard:
     17:
     :
00000000
00000000
00000000
00000000
,
00000000
00000000
00000000
00000000
,
00000000
00000000
00000000
00000000
,
00000000
00000000
00000000
00000000
,
00000000
00000000
00000000
00000000
,
00010000
00100000
01000000
20000000
00000000
30010000
01000000
10000000
,
00010000
00000000
00100000
01000000
00100000
00000000
00001000
00000000
00010000
00000000
00000100
00000000
00000010
00000000
00000001
00000000
,
00001000
00000100
00000010
00020000
00000000
00030100
00001000
00000010
,
00000100
00000000
00000000
00000000
00000001
00000000
00000000
00000000
00000100
00000000
00000000
00000000
00000001
00000000
00000000
00000000
00000100
00000000
00000000
00000000
00000000
00000000
00000000
00000000
00000001
00000000
00000000
00000000
00000010
00000000
00000000
00000000
00000001
00000000
00000000
00000000
00001000
00000000
00000000
00000000
00000001
00000000
00000000
00000000
00001000
00000000
00000000
00000000
00000020
00000030
00000000
00000000
00000000
00000000
00000000
00000000
00000020
00000030
00000000
00000000
00000000
00000000
00000000
00000000
,
00000001
00000000
00000100
00000010
00000100
00000000
00000002
00000000
00000000
00000000
00000103
00000000
00000100
00000000
00000010
00000000
,
00001000
00000000
00000000
00000000
00000000
00000000
00000000
00000000
00000100
00000000
00000000
00000000
00001000
00000000
00000000
00000000
00000100
00000000
00000000
00000000
00000000
00000000
00000000
00000000
00010000
00000000
00000000
00000000
00000000
00000000
00000000
00000000
00001000
00000000
00000000
00000000
00100000
00000000
00000000
00000000
00001000
00000000
00000000
00000000
00000000
00000000
00000000
00000000
00022000
00033000
00000000
00000000
00000000
00000000
00000000
00000000
00000000
00000000
00000000
00000000
00000000
00000000
00000000
00000000
,
00100000
00000000
00000000
00000000
00000000
00000000
00000000
00000000
00010000
00000000
00000000
00000000
10000000
00000000
00000000
00000000
01000000
00000000
00000000
00000000
00000000
00000000
00000000
00000000
10000000
00000000
00000000
00000000
00000000
00000000
00000000
00000000
00010000
00000000
00000000
00000000
10000000
00000000
00000000
00000000
01000000
00000000
00000000
00000000
00000000
00000000
00000000
00000000
00200000
00300000
00000000
00000000
00000000
00000000
00000000
00000000
00200000
00300000
00000000
00000000
00000000
00000000
00000000
00000000
,
10000000
00000000
00100000
01000000
00000000
00100000
10000000
00000000
01000000
00100000
00020000
00000000
00130000
00010000
00002000
00000000
,
00103000
00001000
00010000
00001000
00000010
00000001
00001000
00000010
,
00000100
00000001
00001000
00000010
00000100
00001000
00010000
01000000
,
00100000
01000000
00100000
01000000
00100000
00000000
10000000
01000000
10000000
01000000
10000000
00000000
00100000
01000000
00100000
00000000
,
01000000
00010000
00100000
00001000
00010000
00000000
00000100
00001000
00000010
00010000
00001000
00000000
00010000
00000000
00010000
00000000
,
00001000
00100000
00010000
02010000
00000000
03100000
01000000
00100000
,
00001000
00000000
00010000
00001000
00000000
00000100
00000010
00000000
00002000
00000000
00000000
00000000
00003010
00010000
00001000
00000000
,
00001000
00000000
00010000
00000010
00001000
00000000
00000010
00000000
00010000
00000010
00001000
00000000
00000010
00000000
00010000
00001000
,
00100000
00000000
00001000
00010000
00001000
00000000
00011000
00000000
00000000
00000000
01100000
00000000
01000000
00000000
00001000
00000000
,
00010000
00000100
00001000
00001200
00000000
00000310
00001000
00000100
,
00010000
00000000
00000010
00001000
00000000
00000100
00010000
00000000
00012000
00000000
00000000
00000000
00103000
00010000
00100000
00010000
,
01000000
00000000
00001000
00010000
00001000
00000000
00100000
00001000
00010000
00000000
00000100
00010000
00001000
00000000
00000000
00000000
,
00011000
00000000
00010000
00010010
00000000
00001010
00001010
00000110
,
00000010
00000000
00000000
00000000
00000000
00000000
00000000
00000000
00000001
00000000
00000000
00000000
00000000
00000000
00000000
00000000
00001000
00000000
00000000
00000000
00000000
00000000
00000000
00000000
00001020
00000000
00000000
00000000
00000000
00000000
00000000
00000000
00000000
00000000
00000000
00000000
00000000
00000000
00000000
00000000
00000130
00000000
00000000
00000000
00000000
00000000
00000000
00000000
00000020
00000030
00000000
00000000
00000000
00000000
00000000
00000000
00000020
00000030
00000000
00000000
00000000
00000000
00000000
00000000
,
00001000
00000000
00000000
00000000
00000000
00000000
00000000
00000000
00000001
00000000
00000000
00000000
00000100
00000000
00000000
00000000
00000000
00000000
00000000
00000000
00000010
00000000
00000000
00000000
00001000
00000000
00000000
00000000
00000000
00000000
00000000
00000000
00000100
00000000
00000000
00000000
00000000
00000000
00000000
00000000
00010000
00000000
00000000
00000000
00000000
00000000
00000000
00000000
00022000
00033000
00000000
00000000
00000000
00000000
00000000
00000000
00000000
00000000
00000000
00000000
00000000
00000000
00000000
00000000
,
00100000
00000000
00000000
00000000
00000000
00000000
00000000
00000000
00010000
00000000
00000000
00000000
10000000
00000000
00000000
00000000
00100000
00000000
00000000
00000000
00000000
00000000
00000000
00000000
10000000
00000000
00000000
00000000
00000000
00000000
00000000
00000000
00010000
00000000
00000000
00000000
10000000
00000000
00000000
00000000
00100000
00000000
00000000
00000000
00000000
00000000
00000000
00000000
02000000
03000000
00000000
00000000
00000000
00000000
00000000
00000000
02000000
03000000
00000000
00000000
00000000
00000000
00000000
00000000
,
10000000
00000000
00010000
01000000
00000000
00100000
10000000
00000000
00010000
00100000
01000000
00100000
00020000
00000000
00000000
00000000
,
01030000
00010000
10000000
01000000
00100000
00001000
00010000
00000100
,
00001000
00000000
00000100
00000000
00000010
00000000
00000001
00000000
00001000
00000000
00000001
00000000
00000100
00000010
00000100
00000000
,
00000001
00000100
00000001
00000100
00000010
00001000
00000010
00001000
00000100
00010000
00000100
00010000
00001000
00100000
00010000
00100000
,
02000000
00000000
00000000
03000000
,
00011000
00000000
00000000
01000000
00000000
00000000
10000000
00000000
,
00000000
00100000
00000000
00000000
00001000
00000000
00010000
00000000
,
00000010
00000000
00000000
00001000
00000000
00000000
00000001
00000000
,
00000100
00000010
00001000
00000001
00000011
00000001
00001000
00000000
,
00001001
00000000
00000001
00000100
00000000
00000100
00001000
00000000
,
00010000
01000000
00000000
01000000
10000000
00000000
00100000
00000000
,
10010000
00000000
10000000
00100000
00000000
00100000
00010000
00000000
,
00001000
00000010
00000000
00000010
00000001
00000000
00000100
00000000
,
00001001
00000000
00000001
00000010
00000000
00000010
00001000
00000000
,
00010000
00100000
00000000
00100000
10000000
00000000
01000000
00000000
,
10010000
00000000
10000000
01000000
00000000
01000000
00010000
00000000
,
00001000
00000100
00000000
00000100
00000001
00000000
00000010
00000000
,
00000001
00000010
00001000
00020000
00000000
00130000
10000000
00010000
,
01000000
00100000
00100000
10000000
00100000
00100000
01000000
00100000
,
10000000
01000000
00010000
00002000
00000000
00013000
00000100
00001000
,
00000010
00000000
00000000
00000000
00000000
00000000
00000000
00000000
00000100
00000000
00000000
00000000
00000010
00000000
00000000
00000000
00000100
00000000
00000000
00000000
00000000
00000000
00000000
00000000
00000001
00000000
00000000
00000000
00000000
00000000
00000000
00000000
00000200
00000300
00000000
00000000
00000000
00000000
00000000
00000000
00000200
00000300
00000000
00000000
00000000
00000000
00000000
00000000
00001000
00000000
00000000
00000000
00000000
00000000
00000000
00000000
00000100
00000000
00000000
00000000
00000000
00000000
00000000
00000000
,
00000010
00000001
00001000
00000020
00000000
00010030
00001000
00100000
,
01000000
00100000
00010000
10000000
01000000
00100000
00010000
10000000
,
00010000
01000000
00100000
10000000
00000000
01000000
00100000
00001000
,
00202000
00303000
00020020
00030030
,
00010000
00001000
00000010
00000001
,
00000100
00001000
00010000
01000000
,
10000000
00100000
00010000
00001000
,
00000010
00000001
00000100
00001000
,
00010000
00100000
01000000
10000000
00100000
01000000
00010000
00100000
,
00001000
00010000
00000100
00001000
00000010
00000100
00000001
00001000
,
00000001
00000100
00000010
00001000
00000100
00010000
00001000
00100000
00010000
00100000
01000000
10000000
00010000
01000000
00100000
01000000
,
00010000
10000000
01000000
00010000
00001000
00000010
00000001
00001000
,
00001001
00000000
00000000
00000000
00000000
00000101
00000000
00000000
00000100
00000000
00000010
00000000
00000000
00001010
00000000
00000000
,
00010000
00000000
00000000
00000000
00000000
00011000
00000000
00000000
00010000
00000000
01000000
00000000
01100000
00000000
00000000
00000000
,
10010000
00000000
00000000
00000000
00000000
01100000
00000000
00000000
10000000
00000000
01000000
00000000
00000000
01100000
00000000
00000000
,
00001000
00000000
00010000
00001000
00010000
00000010
00001000
00000010
00010000
00000000
00000100
00000000
00001000
00000000
00000100
00000000
,
00000220
00000330
00000000
00000000
00000000
00000000
00000000
00000000
00000000
00000000
00000000
00000000
00000000
00000000
00000000
00000000
00001001
00000000
00000000
00000000
00000000
00000000
00000000
00000000
00000000
00000000
00000000
00000000
00000000
00000000
00000000
00000000
00000101
00000000
00000000
00000000
00000000
00000000
00000000
00000000
00000110
00000000
00000000
00000000
00000000
00000000
00000000
00000000
00000000
00000000
00000000
00000000
00001010
00000000
00000000
00000000
00000000
00000000
00000000
00000000
00000000
00000000
00000000
00000000
,
00010000
00001000
00010000
00001000
00100000
00001000
00000000
00000000
00110000
00000000
00000000
00000000
22000000
00000000
33000000
00000000
,
01100000
00000000
01000000
00000000
00100000
00010000
00000000
00100000
00010000
00000000
10000000
01000000
00100000
00010000
01000000
00100000
,
10000000
00000000
00100000
00000000
01000000
00010000
00000000
00010000
00100000
00000000
00001000
00010000
00002000
00000000
00000000
00000000
,
00013000
00000000
00000100
00001000
00000000
00000010
00010000
00000000
00000100
00000000
00001000
00000000
00000100
00000010
00000000
00000010
,
00000001
00000100
00000010
00000000
00001000
00000010
00000000
00000100
00000010
00000000
00001000
00000000
00001002
00000000
00000000
00000000
,
00000103
00000000
00000010
00000100
00000010
00000100
00000010
00000000
00001000
00000000
00000001
00000000
00000100
00000010
00000100
00000000
,
00000001
00000000
00000100
00000010
00001000
00000100
00000000
00010000
00001000
00010000
00001000
00000000
01000000
00100000
01000000
00000000
,
20020000
30030000
00000000
00000000
00000000
00000000
00000000
00000000
00000000
00000000
00000000
00000000
00000000
00000000
00000000
00000000
01000000
00000000
00000000
00000000
00100000
00000000
00000000
00000000
01000000
00000000
00000000
00000000
00000000
00000000
00000000
00000000
00010000
00000000
00000000
00000000
00000000
00000000
00000000
00000000
10000000
00000000
00000000
00000000
01000000
00000000
00000000
00000000
00100000
00000000
00000000
00000000
00010000
00000000
00000000
00000000
00000000
00000000
00000000
00000000
01000000
00000000
00000000
00000000
,
00100000
00000000
01000000
00000000
00010000
00001000
00010000
00000000
00001000
00000000
00000100
00000010
00000000
00001000
00000000
00000001
,
00000100
00000000
00000010
00000000
00000100
00000001
00000000
00001000
00000001
00000000
00000010
00000000
00000100
00000010
00000000
00000010
,
00000002
00000000
00000203
00000000
00002300
00000000
00023000
00000000
02030000
00000000
23000000
00000000
30010000
10000000
00010000
00000000
,
20020000
30030000
00000000
00000000
00000000
00000000
00000000
00000000
00000000
00000000
00000000
00000000
00000000
00000000
00000000
00000000
10000000
00000000
00000000
00000000
00000000
00000000
00000000
00000000
01000000
00000000
00000000
00000000
00100000
00000000
00000000
00000000
00000000
00000000
00000000
00000000
00100000
00000000
00000000
00000000
00010000
00000000
00000000
00000000
00000000
00000000
00000000
00000000
01000000
00000000
00000000
00000000
00000000
00000000
00000000
00000000
00001000
00000000
00000000
00000000
00010000
00000000
00000000
00000000
,
00000000
00010000
00000100
00000000
00001000
00000000
00000010
00000100
00000000
00000100
00000001
00000000
00002000
00000000
00000000
00003000
,
00001200
00000000
00000000
00000000
00000310
00000000
00000001
00000100
00000000
00000010
00001000
00000000
00000001
00000000
00000010
00000100
,
00000000
00010000
00001000
00010000
00001000
00000000
00100000
00001000
00100000
00001000
00010000
00000000
00000010
00010000
00001000
00000000
,
00022000
00033000
00000000
00000000
00000000
00000000
00000000
00000000
00000000
00000000
00000000
00000000
00000000
00000000
00000000
00000000
00100000
00000000
00000000
00000000
00000000
00000000
00000000
00000000
00010000
00000000
00000000
00000000
00100000
00000000
00000000
00000000
00000000
00000000
00000000
00000000
00100000
00000000
00000000
00000000
01000000
00000000
00000000
00000000
00000000
00000000
00000000
00000000
10000000
00000000
00000000
00000000
00000000
00000000
00000000
00000000
00010000
00000000
00000000
00000000
01000000
00000000
00000000
00000000
,
00000000
00100000
10000000
01000000
00100000
00000000
00001000
00010000
00000000
00000100
00000010
00000000
00000200
00000000
00000000
00000000
,
00001300
00000000
00000001
00000000
00000100
00000000
00000010
00000100
00000000
00000100
00000010
00000000
00001000
00000000
00000001
00000010
,
00000200
00002300
00023000
02030000
,
03100000
00000000
10000000
00000000
00010000
00000000
01000000
00100000
00000000
10000000
01000000
00000000
00100000
00000000
00001000
00010000
,
00000000
00001000
00100000
00000000
00001000
00000000
00010000
00000100
00001000
00000100
00000010
00000001
00000020
00000000
00000000
00000000
,
00000031
00000000
00001000
00000000
00000010
00000000
00000100
00000001
00000000
00000100
00000010
00000000
00001000
00000000
00000010
00000100
,
00000000
00000000
00000000
00000000
00001000
00000000
00000000
00000000
00010000
00000000
00000000
00000000
00000000
00000000
00000000
00000000
00001000
00000000
00000000
00000000
00000000
00000000
00000000
00000000
00100000
00000000
00000000
00000000
00010000
00000000
00000000
00000000
10000000
00000000
00000000
00000000
00010000
00000000
00000000
00000000
01000000
00000000
00000000
00000000
00100000
00000000
00000000
00000000
02000000
03000000
00000000
00000000
00000000
00000000
00000000
00000000
00000000
00000000
00000000
00000000
00000000
00000000
00000000
00000000
,
10010000
00000000
00000000
00000000
00100000
00000000
01000000
10000000
00000000
00100000
01000000
00000000
00010000
00000000
00100000
00001000
,
00000000
00010000
00000010
00000000
00001000
00000000
00000100
00000001
00000000
00000100
00001000
00000000
00000001
00000000
00000100
00000000
,
00000001
00000010
00000001
00000100
00000010
00001000
00000100
00010000
00001000
00100000
00010000
00100000
01000000
10000000
00010000
01000000
,
00010000
00100000
01000000
00100000
00010000
00000000
10000000
01000000
00000000
00100000
00010000
10000000
00010000
00000000
01000000
00001000
,
00020000
00000000
00000000
00000000
,
00030000
00000000
00000000
00000000
;

//--------------- dance-double - The Spartan Fred-104 ----------------
#NOTES:
     dance-double:
     The Spartan Fred-104:
     Challenge:
     18:
     :
00000000
00000000
00000000
00000000
,
00000000
00000000
00000000
00000000
,
00000000
00000000
00000000
00000000
,
00000000
00000000
00000000
00000000
,
00000000
00000000
00000000
00000000
,
00010000
00000000
00001000
00010000
00001000
00000000
00201000
00000000
00000000
00000000
00301000
00000000
00010000
00000000
00000010
00000000
,
00001000
00000000
00000010
00000001
00000010
00000000
00001000
00000000
00000100
00000001
00000100
00000000
00001000
00000000
00000001
00000000
,
00000100
00000000
00000001
00000010
00000100
00000000
00000120
00000000
00000000
00000000
00000031
00000000
00002000
00000000
00003020
00000000
,
00000130
00000001
00000010
00000100
00001000
00000010
00000100
00000001
00000010
00000100
00001000
00000010
00000100
00000000
00000001
00000000
,
00001000
00000000
00000010
00001000
00000100
00000000
00020100
00000000
00000000
00000000
00031000
00000000
00100000
00000000
01000000
00000000
,
10000000
00000000
00000000
00000000
00000000
00000000
00000000
00000000
00100000
00000000
00000000
00000000
00010000
00000000
00000000
00000000
00100000
00000000
00000000
00000000
00000000
00000000
00000000
00000000
10000000
00000000
00000000
00000000
00000000
00000000
00000000
00000000
01000000
00000000
00000000
00000000
00010000
00000000
00000000
00000000
01000000
00000000
00000000
00000000
00000000
00000000
00000000
00000000
20020000
30030000
00000000
00000000
00000000
00000000
00000000
00000000
00000000
00000000
00000000
00000000
00000000
00000000
00000000
00000000
,
10010000
00000000
10000000
01000000
00010000
00000000
00011000
00000000
00010000
00001000
00000010
00000000
00000011
00000000
00000001
00001000
,
00000001
00000000
00000100
00001000
00000100
00000001
00001000
00000000
00000001
00000010
00002000
00000000
00003001
00000100
00002000
00000000
,
00003001
00000010
00001000
00010000
01000000
10000000
00010000
10000000
,
00100000
00010000
00001000
00000100
00000001
00001000
00000001
00000100
,
00000001
00000010
00000100
00000010
00000001
00001000
00000010
00001000
00000100
00010000
00001000
00100000
00010000
10000000
00100000
01000000
,
00010000
00100000
00010000
00100000
10000000
00010000
01000000
00010000
01000000
10000000
00010000
01000000
00100000
00000000
10000000
00000000
,
10010000
00000000
10000000
01000000
00100000
00000000
00120000
00000000
00000000
00000000
01030000
00001000
00010000
00000000
00001000
00000000
,
00000010
00000100
00000000
00000010
00000001
00000000
00001000
00000000
00001001
00000000
00000000
00000000
00000001
00000100
00001000
00000100
,
00000001
00000000
00000010
00000100
00001000
00000000
00000001
00000000
00000010
00000100
00001000
00000000
00000010
00000000
00010000
00000000
,
00001000
00000000
00100000
00001000
00100000
00000000
00120000
00000000
00000000
00000000
10030000
00010000
01000000
00000000
00100000
00000000
,
10000000
00000000
00100000
00010000
00100000
00000000
02100000
00000000
00000000
00000000
03010000
10000000
00010000
00000000
10000000
00000000
,
01000000
00100000
00000000
00001000
00010000
00000000
00001000
00000000
00021000
00000000
00000000
00000000
00031000
00010000
00000010
00001000
,
00000100
00000000
00010000
00000100
00001000
00000000
00000001
00000010
00001000
00000000
00000010
00000001
00000100
00000000
00000010
00000000
,
00000110
00000000
00001010
00001001
00000000
00010010
00011000
00010100
,
00010000
00000000
00001000
00100000
00010000
00000000
10000000
00000000
00010000
00000000
00100000
00000000
01000000
00000000
00100000
00000000
,
00010000
00000000
00000000
00000000
01000000
00000000
00000000
00000000
00000000
00000000
00000000
00000000
00001000
00000000
00000000
00000000
00010000
00000000
00000000
00000000
00000000
00000000
00000000
00000000
00000100
00000000
00000000
00000000
00000000
00000000
00000000
00000000
00010000
00000000
00000000
00000000
00000000
00000000
00000000
00000000
00001000
00000000
00000000
00000000
00000000
00000000
00000000
00000000
00022000
00033000
00000000
00000000
00000000
00000000
00000000
00000000
00000000
00000000
00000000
00000000
00000000
00000000
00000000
00000000
,
00010000
00000000
00001000
00000010
00001000
00000000
00010000
00000000
00001000
00000100
00001000
00000000
00010000
00000000
00001000
00000000
,
00000100
00000000
00000001
00001000
00000001
00000100
00000010
00000000
00001000
00000100
00000001
00000000
00001000
00000010
00000001
00000000
,
00001000
00000001
00000010
00000100
00001000
00010000
00001000
00000100
,
00000010
00000000
00000001
00000000
00000100
00000000
00001000
00000000
00010000
00000000
00100000
00000000
20000000
30020000
20030000
30020000
,
10030000
01000000
00100000
00010000
00100000
00001000
00010000
00000100
00001000
00000100
00000010
00000001
00000100
00001000
00010000
00000000
,
00022000
00000000
00000000
00033000
,
00011000
00000000
00000000
00000001
00000000
00000000
00001000
00000000
,
00000000
00010000
00000000
00000000
10000000
00000000
00010000
00000000
,
00001000
00000000
00000000
00000001
00000000
00000000
00001000
00000000
,
00010000
00000000
00100000
10000000
00010000
10000000
00010000
00000000
,
20000000
00000000
00000000
30020000
00000000
00000000
00032000
00000000
,
00000000
00000001
00003000
00002000
00000001
00000001
00003001
00000000
,
00000002
00000000
00000000
00002003
00000000
00000000
00023000
00000000
,
00000000
10000000
00030000
00020000
10000000
10000000
10030000
00000000
,
11000000
00000000
01000000
00200000
00000000
00310000
00002000
00000000
,
00003100
00000010
00000000
00000002
00001000
00001000
00001003
00000000
,
00000001
00000010
00001000
00010000
01000000
10000000
00100000
00010000
,
00001000
00000100
00000001
00001000
00001000
00001000
00001001
00000000
,
00000001
00000010
00000100
00020000
00000000
00000000
00000000
00000000
,
00031000
00010000
00100000
10000000
01000000
00010000
00001000
00010000
,
00001000
00000010
00000001
00002000
00000000
00000000
00000000
00000000
,
00003001
00000000
00000100
00001000
00000100
00000000
00000002
00000000
00000000
00000000
00000013
00000000
00001000
00000000
00000010
00000000
,
00000001
00000100
00001000
00020000
00000000
00000000
00000000
00000000
,
00031000
00010000
00100000
10000000
00010000
10000000
01000000
00010000
,
00001000
00010000
00001000
00000020
00000000
00000031
00001000
00000001
,
00002002
00003003
00022000
00033000
,
00011000
00010000
00000010
00000010
,
00001000
00001000
00000001
00000001
,
00000100
00000100
00010000
00010000
,
01000000
01000000
10000000
10000000
,
20010000
31000000
00100000
10020000
01030000
00100000
00001000
00010000
,
00011000
00010000
00000100
00001000
00001001
00000001
00000100
00000010
,
00000100
00000001
00000010
00000001
00001000
00000010
00001000
00000100
00010000
00001000
00100000
00010000
00100000
01000000
10000000
00010000
,
10000000
00000000
00100000
00000000
01000000
00000000
00010000
00100000
10000000
00000000
00100000
00000000
00010000
01000000
00100000
00000000
,
10100000
00000000
00000000
00000000
00000000
11000000
00000000
00000000
01100000
00000000
00101000
00000000
00000000
00010010
00000000
00000000
,
00001010
00000000
00000000
00000000
00000000
00000011
00000000
00000000
00001010
00000000
00000000
00000000
00002002
00000000
00003003
00000000
,
00000110
00000000
00000000
00000000
00000000
00001100
00000000
00000000
00000101
00000000
00001100
00000000
00000000
00011000
00000000
00000000
,
00001000
00000000
00100000
00010000
10000000
00010000
01000000
00100000
10000000
01000000
00010000
00000000
10000000
00100000
00010000
00000000
,
20020000
30030000
00000000
00000000
00000000
00000000
00000000
00000000
00000000
00000000
00000000
00000000
00000000
00000000
00000000
00000000
11000000
00000000
00000000
00000000
00000000
00000000
00000000
00000000
00000000
00000000
00000000
00000000
00000000
00000000
00000000
00000000
01100000
00000000
00000000
00000000
00000000
00000000
00000000
00000000
01010000
00000000
00000000
00000000
00000000
00000000
00000000
00000000
00000000
00000000
00000000
00000000
00011000
00000000
00000000
00000000
00000000
00000000
00000000
00000000
00000000
00000000
00000000
00000000
,
00010000
00000100
00001000
00000010
00000100
00000010
00000000
00001000
00000001
00000000
00000000
00000000
00002002
00000000
00003003
00000000
,
00000011
00000000
00001000
00000000
00000001
00000100
00000000
00000100
00000010
00000000
00001000
00000100
00010000
00001000
00010000
00001000
,
00010000
00000000
00001000
00100000
00010000
10000000
00100000
01000000
00010000
00100000
10000000
00100000
00020000
00000000
00000000
00000000
,
10030000
00000000
00010000
10000000
00100000
10000000
01000000
00000000
00100000
00000000
00001000
00000000
00010000
00100000
10000000
00010000
,
10000000
00000000
01000000
00100000
00010000
00100000
00001000
00010000
00001000
00000000
00011000
00000000
00020020
00000000
00030030
00000000
,
00010000
00000010
00001000
00000010
00000100
00000001
00000000
00000001
00000010
00000000
00001000
00000000
00000010
00000001
00000100
00000000
,
00000001
00000000
00000010
00000100
00001000
00000001
00000010
00000100
00010000
00001000
00100000
00000000
00001000
00010000
00001000
00000000
,
00022000
00033000
00000000
00000000
00000000
00000000
00000000
00000000
00000000
00000000
00000000
00000000
00000000
00000000
00000000
00000000
00001000
00000000
00000000
00000000
00010000
00000000
00000000
00000000
00001000
00000000
00000000
00000000
00000000
00000000
00000000
00000000
00100000
00000000
00000000
00000000
00000000
00000000
00000000
00000000
00010000
00000000
00000000
00000000
01000000
00000000
00000000
00000000
00010000
00000000
00000000
00000000
00001000
00000000
00000000
00000000
00000000
00000000
00000000
00000000
00010000
00000000
00000000
00000000
,
00001000
00000000
00010000
00000000
00100000
00010000
00000000
00001000
00010000
00000000
00001000
00000010
00000000
00000110
00000000
00000100
,
00000001
00000000
00000010
00000000
00000100
00010000
00000000
00001000
00100000
00000000
00010000
00000000
01000000
00100000
00000000
10000000
,
00020000
00000000
02030000
00000000
23000000
00000000
30200000
00000000
00320000
00000000
00032000
00003000
00022000
00000000
00033000
00000000
,
00000220
00000330
00000000
00000000
00000000
00000000
00000000
00000000
00000000
00000000
00000000
00000000
00000000
00000000
00000000
00000000
00001001
00000000
00000000
00000000
00000000
00000000
00000000
00000000
00000001
00000000
00000000
00000000
00000100
00000000
00000000
00000000
00000000
00000000
00000000
00000000
00001000
00000000
00000000
00000000
00000100
00000000
00000000
00000000
00000000
00000000
00000000
00000000
00000001
00000000
00000000
00000000
00000000
00000000
00000000
00000000
00000010
00000000
00000000
00000000
00001000
00000000
00000000
00000000
,
00000000
00000010
00000001
00000000
00001000
00000000
00000001
00000010
00000100
00001000
00000100
00010000
00002000
00000000
00000000
00003000
,
00011000
00000000
00000000
00000000
01100000
00000000
00010000
01000000
00000000
10000000
01000000
00000000
00010000
00000000
00100000
10000000
,
00000000
00100000
00010000
00000000
10000000
00000000
01000000
00100000
00001000
00010000
00000100
00001000
00000001
00000100
00000010
00000000
,
00000220
00000330
00000000
00000000
00000000
00000000
00000000
00000000
00000000
00000000
00000000
00000000
00000000
00000000
00000000
00000000
00001001
00000000
00000000
00000000
00000000
00000000
00000000
00000000
00001000
00000000
00000000
00000000
00000100
00000000
00000000
00000000
00000000
00000000
00000000
00000000
00000001
00000000
00000000
00000000
00000100
00000000
00000000
00000000
00000000
00000000
00000000
00000000
00001000
00000000
00000000
00000000
00000000
00000000
00000000
00000000
00000010
00000000
00000000
00000000
00000001
00000000
00000000
00000000
,
00000000
00000010
00001000
00000000
00000001
00000000
00000010
00000100
00000010
00000001
00001000
00000010
00000200
00000000
00000000
00000000
,
00000301
00000000
00000010
00000000
00000100
00000000
00010000
00001000
00000000
00000100
00000001
00000000
00001000
00000000
00000001
00000010
,
00000200
00000000
00000000
00000000
00020300
00000000
00000000
00000000
00032000
00000000
00000000
00013000
00001000
00000000
00010000
00000000
,
00000100
00000000
00001000
00000000
00000001
00000000
00001000
00000100
00000001
00000100
00001000
00000000
00000001
00000000
00001000
00000100
,
00000001
00000100
00001000
00000000
00000001
00000000
00000010
00000100
00001000
00000100
00010000
00001000
02000000
00000000
00000000
00000000
,
03010000
00000000
00000000
00000000
10010000
00000000
10000000
00100000
00010000
00100000
10000000
00000000
00010000
00000000
10000000
00100000
,
00010000
00000000
00000000
00000000
00100000
00000000
00000000
00000000
10000000
00000000
00000000
00000000
00000000
00000000
00000000
00000000
00010000
00000000
00000000
00000000
00000000
00000000
00000000
00000000
10000000
00000000
00000000
00000000
01000000
00000000
00000000
00000000
00100000
00000000
00000000
00000000
00001000
00000000
00000000
00000000
00010000
00000000
00000000
00000000
00001000
00000000
00000000
00000000
00020000
00030000
00000000
00000000
00000000
00000000
00000000
00000000
00000000
00000000
00000000
00000000
00000000
00000000
00000000
00000000
,
00011000
00000000
00000000
00000000
00010000
00000000
00001000
00000010
00000001
00001000
00000001
00000000
00001000
00000000
00000001
00000100
,
00001000
00010000
00001000
00000000
00010000
00000000
00100000
10000000
00010000
10000000
01000000
00100000
01000000
00000000
10000000
00000000
,
00010000
01000000
00100000
01000000
00010000
10000000
01000000
00100000
00010000
00100000
00001000
00010000
00000100
00001000
00000100
00000010
,
00000001
00001000
00000010
00000100
00000010
00001000
00000001
00000010
00000100
00000010
00000001
00000100
00001000
00010000
00100000
10000000
,
00020000
00000000
00000000
00000000
,
00030000
00000000
00000000
00000000
;
