#VERSION:0.83;
#TITLE:大見解;
#ARTIST:Des-ROW・組;
#TITLETRANSLIT:Daikenkai;
#ARTISTTRANSLIT:Des-ROW feat. TSUBOI for ALPHA;
#GENRE:HIP ROCK;
#BANNER:Daikenkai.png;
#BACKGROUND:Daikenkai-bg.png;
#CDTITLE:./CDTitles/pnm 6.png;
#MUSIC:Daikenkai.ogg;
#SAMPLESTART:68.06;
#SAMPLELENGTH:15;
#DISPLAYBPM:143:172;
#BPMS:0=143,134=172,152=172.2,153=175,154=169,155=173.5,156=170,157=176.5,158=170,159=172;
#BGSTAGE:4;

//--------------- dance-single - Fred-104 ----------------
#NOTEDATA:;
#STEPSTYPE:dance-single;
#DESCRIPTION:Fred-104;
#DIFFICULTY:Beginner;
#METER:4;
#CREDIT:Fred-104;
#NOTES:
0000
0000
0000
0000
,
0000
0000
0000
0000
,
0000
0000
0000
0000
,
0000
0000
0000
0000
,
0000
0000
0000
0000
,
0000
0000
0000
0000
,
2000
0000
3000
0000
,
0002
0003
2000
3000
,
0002
0003
2000
0000
,
0000
0000
3000
0000
,
0001
0000
0000
0000
,
1000
0000
0000
0000
,
0001
0000
0100
0000
,
0001
0000
0001
0000
,
1000
0000
0000
0000
,
0010
0000
0000
0000
,
1000
0000
0010
0000
,
1000
0000
0100
0000
,
1000
0000
0001
0000
,
1000
0000
1000
0000
,
0001
0000
0001
0000
,
0100
0000
0001
0000
,
0100
0000
0010
0000
,
0010
0000
1000
0000
,
0010
0000
1000
0000
,
0001
0000
0001
0000
,
1000
0000
1000
0000
,
0001
0000
1000
0000
,
0001
0000
0100
0000
,
0001
0001
0001
0000
,
1000
0000
0010
0000
,
1000
0000
0001
0000
,
1000
0000
1000
0000
,
0002
0000
0003
0000
,
1001
0000
0000
0000
,
0000
0000
0000
0000
,
0001
0000
0000
0000
,
0000
0000
0000
0000
,
1000
0000
0000
0000
,
0001
0000
0000
0000
,
1000
0000
0010
0000
,
1000
0000
0001
0001
,
0001
0000
1000
0000
,
0001
0000
0100
0000
,
0001
0000
0010
0000
,
0001
0000
1000
0000
,
0001
0000
0001
0000
,
1000
0000
0010
0000
,
1000
0000
1000
0000
,
0010
0000
1000
0000
,
0001
0000
0001
0000
,
0100
0000
0001
0000
,
1000
0000
1000
0000
,
0001
0000
1000
0000
,
0001
0000
0001
0000
,
0100
0000
0100
0000
,
0001
0000
0001
0000
,
1000
0000
1000
0000
,
1000
0000
1000
0000
,
0001
0000
0001
0000
,
1000
0000
1000
0000
,
0001
0000
0001
0000
,
1000
0000
1000
0000
,
0010
0000
1000
0000
,
1000
0000
0001
0000
,
0100
0000
0001
0000
,
1000
1000
1000
0000
,
0001
0000
0100
0000
,
0001
0100
0001
0000
,
1000
0010
1000
0000
,
0001
0010
0001
0000
,
1000
1000
0001
0001
,
2002
0000
0000
3003
;

//--------------- dance-single - Fred-104 ----------------
#NOTEDATA:;
#STEPSTYPE:dance-single;
#DESCRIPTION:Fred-104;
#DIFFICULTY:Easy;
#METER:7;
#CREDIT:Fred-104;
#NOTES:
0000
0000
0000
0000
,
0000
0000
0000
0000
,
0000
0000
0000
0000
,
0000
0000
0000
0000
,
0000
0000
0000
0000
,
0000
0000
0000
0000
,
1000
1000
2000
3000
,
0001
0001
0200
0300
,
0001
0100
0010
0010
,
0000
1000
2002
3003
,
1000
1000
0010
1000
,
0001
0010
0100
1000
,
0001
0100
0010
0100
,
0001
1000
1001
0000
,
1000
0100
0010
0001
,
1000
0010
1000
0100
,
0010
0001
0100
0001
,
0100
1000
1001
0000
,
1000
0100
0100
0001
,
0001
1000
0001
0000
,
1000
1000
0010
0100
,
0010
1000
0002
0003
,
1000
1000
0010
1000
,
0100
1000
0001
0100
,
0001
0001
0010
0100
,
1000
0001
2002
3003
,
0001
0001
0100
0100
,
0010
0100
0001
0001
,
1000
0010
1000
0100
,
0100
1000
0002
0003
,
1000
0100
0010
0000
,
0001
0100
0010
0000
,
1000
1000
0001
0001
,
0100
0010
0200
0000
,
0302
0000
0000
0000
,
2003
0000
0000
0000
,
3020
0000
0000
0000
,
0230
0000
0000
0000
,
0301
0000
0001
0000
,
1000
0000
1000
0000
,
0010
0010
0100
0100
,
0001
0000
0001
0000
1000
0001
1000
0000
,
0001
0100
0010
0100
,
0001
0010
0010
0100
,
1000
1000
0010
1000
,
0100
1000
2002
3003
,
0001
0001
0100
0010
,
0100
0100
0001
0010
,
0100
0100
1000
0010
,
1000
0100
0220
0330
,
0010
0001
0001
1000
,
0001
0100
0100
0001
,
0010
0100
0100
1000
,
0001
1000
2002
3003
,
1000
0100
0100
1000
,
0010
0100
0100
0010
,
0100
0001
1000
0001
,
0100
0100
0010
0010
,
0100
0100
0001
1000
,
0100
0100
1000
0001
,
0001
0010
0100
1000
,
0001
1000
2002
3003
,
1000
0100
0100
1000
,
0010
1000
0001
0001
,
1000
1000
0100
0100
,
0001
0001
0010
0010
,
1000
1000
1010
0000
,
0001
0001
0100
0000
,
0001
0001
1000
0001
,
0100
0100
0010
0100
,
0001
0001
1000
0001
,
0100
0010
0100
0000
0001
1000
0001
0000
,
2002
0000
0000
3003
;

//--------------- dance-single - Fred-104 ----------------
#NOTEDATA:;
#STEPSTYPE:dance-single;
#DESCRIPTION:Fred-104;
#DIFFICULTY:Medium;
#METER:11;
#CREDIT:Fred-104;
#NOTES:
0000
0000
0000
0000
,
0000
0000
0000
0000
,
0000
0000
0000
0000
,
0000
0000
0000
0000
,
0000
0000
0000
0000
,
0000
0000
0000
0000
,
1000
0000
0010
1000
0002
0000
0003
0100
,
0000
0010
0100
0010
1000
0001
1000
0000
,
0001
0000
0100
0010
0100
0001
0100
0010
,
0000
1000
0100
0000
1010
0000
0101
0000
,
1000
0100
1000
0000
0100
0010
0100
0000
,
0010
0001
1000
0000
0001
1000
0100
0000
,
1000
0010
0100
0000
0001
0010
0100
0000
,
1000
0100
0001
0100
2000
0000
3000
0000
,
0001
0010
0100
0000
1000
0010
0100
0000
,
0001
0010
1000
0000
0010
0001
0100
0000
,
0001
0010
0100
0000
1000
0010
0100
0000
,
0001
1000
0100
0010
0002
0000
1003
0000
,
0001
0100
0001
0000
0100
0010
0100
0000
,
0010
1000
0010
0000
1000
0100
1000
0000
,
0001
0100
0010
1000
0001
0000
1000
0100
,
0010
0001
1000
0010
0100
0000
0110
0000
,
0001
0100
0001
0100
0010
0000
1000
0100
,
1000
0010
1000
0000
0010
0100
0010
0000
,
0100
0001
1000
0001
,
1000
0000
0000
0010
0000
0000
1000
0000
2002
0000
0000
0000
3003
0000
0000
0000
,
0001
0010
0100
0000
1000
0001
0010
0000
,
0001
1000
0100
0000
0001
0100
1000
0000
,
0001
0010
0100
1000
0010
0000
0100
0000
,
0010
1000
0100
0010
0001
1000
0001
0000
,
0100
0010
0100
0001
1000
0000
0001
0100
,
0001
0000
0100
0010
2000
0000
3002
0000
,
1003
0100
0010
0001
1000
0000
0001
0100
,
0010
0100
0010
1000
0002
0000
1003
0000
,
0020
0000
0230
0000
,
0302
0023
0230
2300
,
3002
0000
2003
0000
,
3002
2003
3020
0230
,
0301
0001
1000
1000
,
0010
0010
0100
0100
,
0001
0010
0001
0000
1000
0010
1000
0000
,
0001
0100
0010
0000
1000
0000
1001
0000
,
1000
0100
0010
0000
0001
1000
0010
0000
,
1000
0100
1000
0000
0001
0100
0001
0000
,
1000
0100
0010
0000
0001
0010
0001
0000
,
1000
0001
0100
0001
1000
0000
1001
0000
,
0001
0010
0100
0000
1000
0010
0100
0000
,
0001
1000
0100
0000
1000
0001
0010
0000
,
0001
0100
0010
0000
1000
0001
0010
0000
,
0001
0010
0100
1000
0001
0000
1001
0000
,
1000
0100
0001
0000
1000
0010
0001
0000
,
1000
0100
0001
0000
1000
0010
0001
0000
,
1000
0100
0001
0000
0001
0100
1000
0000
,
0001
0100
0010
1000
0001
0000
0101
0000
,
0100
0010
1000
0000
0010
1000
0100
0000
,
0010
0001
0100
0000
0001
0100
0010
0000
,
1000
0100
1000
0000
0001
1000
0010
0000
,
1000
0100
0010
0001
0100
0010
0100
0000
,
0001
0100
1000
0000
1000
0100
0001
0000
,
0001
0010
1000
0000
1000
0010
0001
0000
,
1000
0010
0100
0000
0001
0010
0100
0000
,
1000
0001
0100
0001
1000
0000
1001
0000
,
0001
0100
0001
0100
0001
0100
0001
0000
,
1000
0100
1000
0100
1000
0100
1000
0000
,
0001
0100
1000
0000
0001
0010
1000
0000
,
0001
0100
1000
0000
0001
0010
1000
0000
,
0001
0100
0010
0100
0010
0100
0001
0000
,
1000
0100
0010
0100
0010
0100
1000
0000
,
0001
1000
0100
1000
0001
1000
0100
0000
,
0010
0001
1000
0001
0100
0001
1000
0000
,
0001
0100
0001
0100
0010
1000
0100
0000
,
1000
0010
1000
0001
0100
0010
0100
0000
,
2002
0000
0000
3003
;

//--------------- dance-single - Fred-104 ----------------
#NOTEDATA:;
#STEPSTYPE:dance-single;
#DESCRIPTION:Fred-104;
#DIFFICULTY:Hard;
#METER:13;
#CREDIT:Fred-104;
#NOTES:
0000
0000
0000
0000
,
0000
0000
0000
0000
,
0000
0000
0000
0000
,
0000
0000
0000
0000
,
0000
0000
0000
0000
,
0000
0000
0000
0000
,
0001
0000
1000
0100
0010
0001
0100
0010
,
0000
0010
1000
0100
1000
0001
0100
0000
,
0001
0010
0001
1000
0010
0100
0001
0000
,
0001
0000
2000
3200
2300
3002
0103
0100
,
0010
1000
0100
0100
0001
0010
0110
0000
,
1000
0001
0010
0100
1000
0100
1001
0000
,
0010
0100
0001
1000
0100
0100
0001
1000
,
0010
0100
0001
1000
0120
0000
1000
0000
,
0031
1000
0100
0001
0010
0010
1100
0000
,
0010
0001
0100
1000
0010
0100
0011
0000
,
0100
1000
0010
0010
0001
0010
0100
1000
,
0010
0000
1000
0000
0001
0000
0001
0000
0100
0010
0100
0000
0001
0000
0001
0000
,
0100
0010
1000
0001
0010
0100
0100
0010
,
0010
0001
0100
0010
1000
0000
0010
0010
,
0100
0010
1000
0001
0100
0000
1000
0100
,
0010
0100
0001
1000
1010
0000
0110
0000
,
1000
0100
0001
0010
1000
0000
0001
0100
,
0010
0001
1000
0100
0010
1000
0001
0000
,
0001
0000
0000
1000
0001
0000
0001
0000
0001
0000
1000
0000
0100
0000
0000
0000
,
0001
0010
1000
0001
0202
0000
0303
0000
,
0010
0001
1000
0100
1000
0010
0100
0001
,
0001
0010
1000
0100
0010
0001
0110
0100
,
0010
0100
0001
1000
1100
1000
0001
0010
,
0100
0001
1000
0010
0100
1000
1001
0000
,
0010
0100
0001
1000
0200
0000
0310
1000
,
0010
0100
1000
0001
2000
0000
3100
0010
,
0001
0100
1000
0010
0002
0000
1003
0100
,
0010
0100
0001
0100
0110
0000
1001
0100
,
1000
0000
0001
1000
0100
0000
1000
0001
,
0000
0001
0010
0100
1000
0001
2000
0000
,
3000
0001
0010
0100
0010
0001
1000
0100
,
0000
0001
0100
1000
0010
0001
0100
0000
,
2100
0001
0100
0001
,
0100
0000
0001
0000
0100
0100
3100
0000
,
1000
0100
0001
0100
0010
1000
0010
0000
,
0001
0100
0001
0001
1000
0001
0100
0000
,
0010
1000
0100
0001
0100
0010
1000
0000
,
0100
0001
0010
0100
1000
0001
0110
0000
,
1000
0001
0010
0100
1000
0010
0100
0001
,
1000
0010
0100
0001
0200
0000
1000
0000
,
0301
0100
0010
1000
0100
0010
1000
0000
,
0100
0001
0010
0100
1000
0010
1001
0000
,
1000
0100
0001
0010
0100
0001
1000
0100
,
0010
0001
1000
0010
0120
0000
1000
0000
,
0031
1000
0100
1000
0001
1000
0110
0000
,
1000
0001
0100
0001
1000
0001
0110
0000
,
0010
1000
0100
0001
0100
1000
1100
0000
,
0100
0001
0010
0100
1200
0000
1000
0000
,
0310
0100
0001
0100
0010
0100
0001
0000
,
1000
0000
0100
0000
0010
0000
0100
0000
0000
1000
0000
0000
0010
0000
0000
0100
0000
0000
0100
0000
0000
0000
0000
0000
,
0001
1000
0100
0010
0001
1000
0100
1000
,
0010
0001
0100
0010
0001
0100
1001
0000
,
0100
0001
0010
0001
0100
0001
1001
0000
,
0010
1000
0001
1000
0010
1000
0101
0000
,
0100
0010
1000
0100
0001
0010
0110
0000
,
1000
0001
0001
0100
2001
0000
3001
0000
,
1000
0001
0100
0001
0001
0010
0100
0000
,
1000
0000
0100
0000
0010
0000
0100
0000
0000
0100
0000
0000
1000
0000
0000
0010
0000
0000
0010
0000
0000
0000
0000
0000
,
0010
1000
0100
0001
0010
1000
0100
0001
,
0010
1000
0100
0001
0010
1000
0100
0001
,
0001
0010
0100
0010
0001
0100
1000
0010
,
0100
0010
0001
1000
0010
0100
0100
0010
,
0100
0001
1000
0010
0100
1000
0010
0001
,
0100
0010
0001
1000
0100
0010
0010
0100
,
0010
1000
0100
0001
0010
1000
0001
0100
,
1000
0010
0100
0001
0010
1000
0100
0001
,
2002
0000
0000
3003
;

//--------------- dance-single - Fred-104 ----------------
#NOTEDATA:;
#STEPSTYPE:dance-single;
#DESCRIPTION:Fred-104;
#DIFFICULTY:Challenge;
#METER:16;
#CREDIT:Fred-104;
#NOTES:
0000
0000
0000
0000
,
0000
0000
0000
0000
,
0000
0000
0000
0000
,
0000
0000
0000
0000
,
0000
0000
0000
0000
,
0000
0000
0000
0000
,
2000
0000
3010
1000
0002
0000
1003
0100
,
0010
0000
0000
0001
0100
0001
0100
0000
0010
0000
1000
0000
0001
0000
0000
0001
0000
0000
1001
0000
0000
0000
0000
0000
,
0020
0000
0000
0000
1030
0000
0001
1000
0100
0000
1000
0000
0010
0000
0100
0000
,
0000
0000
0000
0000
0000
0000
0000
0000
0001
0000
0000
0000
1000
0000
0000
0000
0001
0000
0000
0000
0000
0000
0000
0000
0200
0300
0000
0000
0000
0000
0000
0000
0200
0300
0000
0000
0000
0000
0000
0000
1000
0000
0000
0000
0000
0000
0000
0000
0020
0030
0000
0000
0000
0000
0000
0000
0020
0030
0000
0000
0000
0000
0000
0000
,
0001
0000
0100
0000
1000
0000
0100
0001
0010
0000
0100
0000
2000
0000
0000
0000
,
3010
0000
1000
0000
0100
0000
0001
0100
0010
0000
0001
0000
2000
0000
0000
0000
,
3001
0000
0000
0000
0000
0000
0000
0000
0020
0030
0000
0000
0000
0000
0000
0000
0020
0030
0000
0000
0000
0000
0000
0000
1000
0000
0000
0000
0001
0000
0000
0000
1000
0000
0000
0000
0000
0000
0000
0000
0200
0300
0000
0000
0000
0000
0000
0000
0200
0300
0000
0000
0000
0000
0000
0000
0001
0000
0000
0000
1000
0000
0000
0000
,
0001
0000
0000
0000
0000
0000
0000
0000
0020
0030
0000
0000
0000
0000
0000
0000
0020
0030
0000
0000
0000
0000
0000
0000
1000
0000
0000
0000
0001
0000
0000
0000
1000
0000
0000
0000
0000
0000
0000
0000
0001
0000
0000
0000
0000
0000
0000
0000
1001
0000
0000
0000
0000
0000
0000
0000
0000
0000
0000
0000
0000
0000
0000
0000
,
1000
0000
0010
0000
0100
0000
1000
0100
0001
0000
1000
0000
0020
0000
0000
0000
,
0130
0000
0010
0000
1000
0000
0010
0100
1000
0000
0100
0000
0002
0000
0000
0000
,
1003
0000
0000
0000
0000
0000
0000
0000
0020
0030
0000
0000
0000
0000
0000
0000
0020
0030
0000
0000
0000
0000
0000
0000
0001
0000
0000
0000
1000
0000
0000
0000
0001
0000
0000
0000
0000
0000
0000
0000
0200
0300
0000
0000
0000
0000
0000
0000
0200
0300
0000
0000
0000
0000
0000
0000
1000
0000
0000
0000
0001
0000
0000
0000
,
1000
0000
0000
0000
0000
0000
0000
0000
0000
0000
0000
0000
0000
0000
0000
0000
0000
0000
0000
0000
0000
0000
0000
0000
0020
0000
0000
0030
0000
0000
0000
0000
0000
0000
0000
0000
0000
0000
0000
0000
0000
0000
0000
0000
0000
0000
0000
0000
0020
0000
0000
0030
0000
0000
0000
0000
0000
0000
0000
0000
0000
0000
0000
0000
0000
0000
0000
0000
0000
0000
0000
0000
0001
0000
0000
0000
0000
0000
0000
0000
0000
0000
0000
0000
0000
0000
0000
0000
0000
0000
0000
0000
0000
0000
0000
0000
1000
0000
0000
0000
0000
0000
0000
0000
0010
0000
0000
0000
0000
0000
0000
0000
1000
0000
0000
0000
0000
0000
0000
0000
0001
0000
0000
0000
0000
0000
0000
0000
0000
0000
0000
0000
0000
0000
0000
0000
0000
0000
0000
0000
0000
0000
0000
0000
0100
0000
0000
0000
0000
0000
0000
0000
0000
0000
0000
0000
0000
0000
0000
0000
0000
0000
0000
0000
0000
0000
0000
0000
0010
0000
0000
0000
0000
0000
0000
0000
0000
0000
0000
0000
0000
0000
0000
0000
0000
0000
0000
0000
0000
0000
0000
0000
,
1000
0000
0000
0000
0000
0000
0000
0000
0020
0030
0000
0000
0000
0000
0000
0000
0020
0030
0000
0000
0000
0000
0000
0000
0001
0000
0000
0000
1000
0000
0000
0000
0001
0000
0000
0000
0000
0000
0000
0000
0200
0300
0000
0000
0000
0000
0000
0000
0200
0300
0000
0000
0000
0000
0000
0000
1000
0000
0000
0000
0001
0000
0000
0000
,
1000
0000
0000
0000
0000
0000
0010
0000
0000
1000
0000
0000
0001
0000
0000
1000
0000
0000
0100
0000
0000
0000
0000
0000
0110
0000
0000
0000
0000
0000
0000
0000
0000
0000
0000
0000
0010
0000
0000
0000
0100
0000
0000
0000
0010
0000
0000
0000
,
0001
0000
0100
0001
1000
0000
0100
0000
1200
0000
0000
0000
1300
0000
1000
0000
,
0001
0100
0001
0010
0001
0000
0100
0000
0101
0000
0000
0000
1010
0000
0000
0000
,
1000
0000
1000
0000
0001
1000
0100
1000
0010
0000
0100
0000
0001
1000
0001
0000
,
1000
0100
1000
0001
0100
0010
0000
0000
1000
0000
0001
1000
0010
0000
0000
0000
,
1010
0000
0000
0010
0100
0000
0001
0000
1000
0100
0010
0001
1000
0000
1001
0000
,
0001
0100
0000
0010
0000
0001
0010
0100
0001
0000
1000
0100
0010
0001
1000
0001
,
1000
0000
0100
0000
0001
0000
0100
0000
1000
0100
0001
0000
0100
0000
1000
0001
,
1000
0000
0000
0000
0000
0000
0000
0000
0200
0300
0000
0000
0000
0000
0000
0000
0200
0300
0000
0000
0000
0000
0000
0000
0001
0000
0000
0000
1000
0000
0000
0000
0001
0000
0000
0000
1000
0000
0000
0000
0010
0000
0000
0000
0100
0000
0000
0000
0001
0000
0000
0000
0000
0000
0000
0000
1000
0000
0000
0000
0000
0000
0000
0000
,
0001
0000
0000
0000
0000
0000
0010
0000
0000
0000
0000
0000
1000
0000
0000
0010
0000
0000
0100
0000
0000
0000
0000
0000
1000
0000
0000
0000
0000
0000
0010
0000
0000
0000
0000
0000
0001
0000
0000
0000
0010
0000
0000
0000
0100
0000
0000
0000
,
0001
0000
0100
0000
1000
0000
0100
0000
0000
0001
0000
0000
1000
0000
0000
1100
0000
0000
1001
0000
0000
0000
0000
0000
,
0001
0000
0100
0010
0100
0001
1000
0001
2000
0000
0000
0000
3001
1000
0010
0000
,
1000
0100
0010
0000
0001
0100
0000
0010
2000
0000
0000
0000
3001
0000
0001
0000
,
0100
0010
0100
0000
0001
0010
0100
1000
0002
0000
0000
0000
1003
0100
1000
0010
,
0100
0001
0010
0001
1000
0100
0010
0001
0200
0000
0000
0000
0301
0000
0001
0000
,
2000
0000
3020
0000
0230
0000
0302
0023
,
0000
0230
2300
3200
0302
0203
0320
0000
,
0032
0203
0320
0230
2300
3200
0320
2030
,
0000
3002
0023
2030
3002
0203
2300
0000
,
3001
0001
0100
0100
,
0010
0010
0010
0000
1000
1000
1000
0000
,
0010
0000
0000
0000
0000
0000
0000
0000
1000
0000
0000
0000
0000
0000
0000
0000
0001
0000
0000
0000
0000
0000
0000
0000
1000
0000
0000
0000
0000
0000
0000
0000
0200
0300
0000
0000
0000
0000
0000
0000
0200
0300
0000
0000
0000
0000
0000
0000
0001
0000
0000
0000
0000
0000
0000
0000
1000
0000
0000
0000
0000
0000
0000
0000
,
0001
0000
0100
0000
0110
0000
0000
0010
1000
0000
0001
1000
0100
0000
1000
0000
,
0001
0000
0010
0000
1000
0000
0010
0001
0100
0000
0010
0000
2000
0000
0000
0000
,
3001
0000
0100
0000
0010
0000
1000
0010
0001
0000
0010
0000
0200
0000
0000
0000
,
0301
0000
0000
0000
0000
0000
0000
0000
0200
0300
0000
0000
0000
0000
0000
0000
0200
0300
0000
0000
0000
0000
0000
0000
1000
0000
0000
0000
0001
0000
0000
0000
1000
0000
0000
0000
0000
0000
0000
0000
0020
0030
0000
0000
0000
0000
0000
0000
0020
0030
0000
0000
0000
0000
0000
0000
0001
0000
0000
0000
1000
0000
0000
0000
,
0001
0000
0000
0000
0000
0000
0000
0000
0200
0300
0000
0000
0000
0000
0000
0000
0200
0300
0000
0000
0000
0000
0000
0000
1000
0000
0000
0000
0001
0000
0000
0000
1000
0000
0000
0000
0000
0000
0000
0000
0001
0000
0000
0000
0100
0000
0000
0000
0010
0000
0000
0000
0000
0000
0000
0000
1000
0000
0000
0000
0000
0000
0000
0000
,
0001
0000
0100
0000
0010
0000
0001
0010
0100
0000
0001
0000
2000
0000
0000
0000
,
3010
0000
1000
0000
0100
0000
0010
1000
0010
0000
0001
0000
2000
0000
0000
0000
,
3001
0000
0000
0000
0000
0000
0000
0000
0020
0030
0000
0000
0000
0000
0000
0000
0020
0030
0000
0000
0000
0000
0000
0000
1000
0000
0000
0000
0001
0000
0000
0000
1000
0000
0000
0000
0000
0000
0000
0000
0200
0300
0000
0000
0000
0000
0000
0000
0200
0300
0000
0000
0000
0000
0000
0000
0001
0000
0000
0000
1000
0000
0000
0000
,
0001
0000
0000
0000
0000
0000
0000
0000
0020
0030
0000
0000
0000
0000
0000
0000
0020
0030
0000
0000
0000
0000
0000
0000
1000
0000
0000
0000
0001
0000
0000
0000
1000
0000
0000
0000
0000
0000
0000
0000
0001
0000
0000
0000
0000
0000
0000
0000
1001
0000
0000
0000
0000
0000
0000
0000
0000
0000
0000
0000
0000
0000
0000
0000
,
1100
0000
0100
0010
0001
0000
1000
0001
0100
0000
0010
0000
1000
0000
0000
0000
,
1010
0000
0001
1000
0100
0000
1000
0001
0100
0000
0001
0010
0100
1000
0001
0000
,
1000
0001
0100
0001
1000
0100
0010
0001
1000
0000
0001
1000
0002
0000
0000
0000
,
1003
0000
0000
0000
0000
0000
0000
0000
0200
0300
0000
0000
0000
0000
0000
0000
0200
0300
0000
0000
0000
0000
0000
0000
0001
0000
0000
0000
0010
0000
0000
0000
0001
0000
0000
0000
0000
0000
0000
0000
0100
0000
0000
0000
0000
0000
0000
0000
0010
0000
0000
0000
0000
0000
0000
0000
1000
0000
0000
0000
0000
0000
0000
0000
,
0001
0100
1000
0001
0010
0100
0020
0000
,
1030
0000
0100
0000
0010
0000
0001
0000
0000
0100
0000
0000
1000
0000
0000
0100
0000
0000
0002
0000
0000
0000
0000
0000
,
1003
0000
1100
0000
0100
0000
0110
0000
0010
0000
0001
0000
1000
0000
0001
0010
,
0100
0000
0010
0000
0001
0000
1000
0010
0100
0000
0001
1000
0001
0000
1000
0000
,
0001
0000
0100
1000
0100
0000
0001
0100
0010
0000
1000
0001
0200
0000
0000
0000
,
0310
0000
1000
0100
0001
0000
0100
1000
0010
0000
1000
0001
0020
0000
0000
0000
,
0031
0100
0010
0100
0010
0000
1000
0000
0100
0000
0010
0000
0011
0000
0000
0000
,
0001
0000
0010
0000
1000
0000
0010
0000
0001
0100
0001
0100
0010
1000
0010
1000
,
0001
0000
1000
0100
0010
0000
0001
0100
0010
0000
1000
0100
0020
0000
0000
0000
,
0031
0100
0010
0100
0001
0000
1000
0000
0001
0000
0100
0000
0010
1000
0001
0100
,
0001
0000
0001
0010
0001
0000
1000
0000
0010
1000
0001
0000
1001
0000
0000
0100
,
0010
0000
1000
0000
0001
1000
0100
0010
0001
0000
0001
0000
0101
0000
0000
0000
,
0001
0000
0100
0000
1000
0000
0100
0000
0001
0000
0010
0000
0100
0000
1000
0010
,
1000
0000
0100
0000
0010
0001
1000
0010
0100
0000
0001
1000
0001
0000
1000
0000
,
0001
0000
0100
0001
0010
0000
0100
1000
0010
0000
0100
0001
0010
0000
0100
1000
,
0001
0000
0100
0000
0010
1000
0001
0010
0100
0000
1000
0000
1100
0000
0000
0000
,
1010
0000
1000
0001
0100
0000
0010
0000
0110
0000
0100
0001
1000
0000
0100
1000
,
0001
0000
0010
0001
1000
0001
0100
0000
0001
0010
0100
1000
0001
0010
0100
1000
,
0002
0000
0000
0003
;

//--------------- dance-double - Fred-104 ----------------
#NOTEDATA:;
#STEPSTYPE:dance-double;
#DESCRIPTION:Fred-104;
#DIFFICULTY:Easy;
#METER:7;
#CREDIT:Fred-104;
#NOTES:
00000000
00000000
00000000
00000000
,
00000000
00000000
00000000
00000000
,
00000000
00000000
00000000
00000000
,
00000000
00000000
00000000
00000000
,
00000000
00000000
00000000
00000000
,
00000000
00000000
00000000
00000000
,
00001000
00010000
00002000
00003000
,
00010000
00001000
00020000
00030000
,
00001000
00000000
00100000
00010000
,
00000000
01000000
02200000
03300000
,
00010000
00010000
10000000
00000000
,
01000000
00100000
01000000
00000000
,
10000000
01000000
00100000
00001000
,
00010000
00001000
00011000
00000000
,
00010000
00001000
00000100
00000000
,
00000001
00000100
00001000
00000000
,
00010000
01000000
10000000
01000000
,
00010000
10000000
10010000
00000000
,
10000000
01000000
00100000
00000000
,
00001000
00010000
00001000
00000000
,
01000000
00001000
00010000
00000000
,
00000100
00010000
00002000
00003000
,
00010000
00001000
00000010
00000000
,
00000001
00000010
00001000
00000000
,
00010000
00100000
10000000
00100000
,
00010000
00001000
00022000
00033000
,
00001000
00001000
00010000
00010000
,
00001000
00100000
00010000
00100000
,
00010000
10000000
01000000
00100000
,
00001000
00010000
02000000
03000000
,
00100000
00100000
10000000
00000000
,
00100000
00100000
00010000
00000000
,
10000000
01000000
00100000
00001000
,
00010000
00000010
00002000
00003000
,
00000002
00000000
00000000
00000000
,
00000203
00000000
00000000
00000000
,
00002300
00000000
00000000
00000000
,
00023000
00000000
00000000
00000000
,
00031000
00000000
00001000
00000000
,
00010000
00000000
00010000
00000000
,
00001000
00001000
00100000
00100000
,
00001000
00000000
00100000
00000000
00010000
01000000
00010000
00000000
,
10000000
01000000
00100000
00000000
,
00001000
00010000
00100000
00000000
,
10000000
01000000
00010000
00001000
,
00000100
00000001
00002002
00003003
,
00000001
00000100
00000010
00000000
,
00001000
00000100
00000010
00000000
,
00000001
00000100
00001000
00010000
,
01000000
10000000
20020000
30030000
,
00010000
10000000
00010000
10000000
,
01000000
00100000
01000000
10000000
,
00100000
01000000
00010000
01000000
,
00001000
00010000
00022000
00033000
,
01000000
00001000
00010000
00001000
,
00100000
00001000
00010000
00000010
,
00001000
00000100
00010000
00010000
,
00001000
00010000
00010000
00001000
,
00000100
00000001
00001000
00000001
,
00000100
00000001
00000100
00000010
,
00001000
00000100
00010000
00001000
,
00010000
00001000
00022000
00033000
,
00001000
00001000
00010000
01000000
,
10000000
00010000
01000000
00100000
,
10000000
01000000
00100000
00010000
,
00001000
00000100
00000010
00000001
,
00000100
00000100
00000110
00000000
,
00000001
00000010
00001000
00000000
,
00010000
01000000
10000000
00000000
,
00010000
01000000
00100000
10000000
,
01000000
00100000
00001000
00010000
,
00001000
00100000
00001000
00000000
00010000
00001000
00010000
00000000
,
00020020
00000000
00000000
00030030
;

//--------------- dance-double - Fred-104 ----------------
#NOTEDATA:;
#STEPSTYPE:dance-double;
#DESCRIPTION:Fred-104;
#DIFFICULTY:Medium;
#METER:12;
#CREDIT:Fred-104;
#NOTES:
00000000
00000000
00000000
00000000
,
00000000
00000000
00000000
00000000
,
00000000
00000000
00000000
00000000
,
00000000
00000000
00000000
00000000
,
00000000
00000000
00000000
00000000
,
00000000
00000000
00000000
00000000
,
10000000
00000000
00010000
10000000
01000000
00000000
00000000
00100000
,
00000000
00001000
00010000
00000000
00000010
00001000
00000100
00000000
,
00010000
00000000
00001000
00010000
00000100
00010000
00001000
01000000
,
00000000
00010000
00100000
00000000
10010000
00000000
01100000
00000000
,
10000000
01000000
00010000
00000000
00001000
00000100
00000001
00000000
,
00000001
00000010
00001000
00000000
00010000
00100000
10000000
00000000
,
00010000
10000000
01000000
00100000
01000000
00100000
00001000
00000000
,
00010000
00000010
00001000
00000100
00010000
00000000
00011000
00000000
,
00010000
00001000
00000100
00000000
00001000
00010000
01000000
00000000
,
00010000
00001000
00000010
00000000
00001000
00010000
00100000
00000000
,
00001000
00010000
00000100
00001000
00000010
00001000
00000001
00000000
,
00000100
00000010
00001000
00000001
00000010
00000000
00000110
00000000
,
00000010
00000001
00001000
00000000
00000010
00010000
00001000
00000000
,
00100000
00010000
10000000
00000000
00010000
10000000
01000000
00000000
,
10000000
01000000
00100000
00001000
00010000
00000000
00001000
00100000
,
00001000
00010000
00000100
00001000
00000100
00000000
00000110
00000000
,
00000010
00000001
00001000
00000001
00000100
00000000
00000001
00000010
,
00000100
00010000
00001000
00000100
00000001
00001000
00000001
00000000
,
00001000
00000000
00000000
00000001
00000100
00000000
00000010
00000000
00001000
00000000
00000000
00000000
00000100
00000000
00000000
00000000
,
00010000
00000000
00000000
00001000
00000000
00000000
00010000
00000000
00022000
00000000
00000000
00000000
00033000
00000000
00000000
00000000
,
00001000
01000000
00010000
00000000
01000000
00100000
10000000
00000000
,
01000000
00100000
00001000
00000000
00010000
00001000
00010000
00000000
,
00000100
00001000
00000010
00000100
00000010
00000000
00001000
00000001
,
00000100
00000001
00001000
00000100
00000010
00000010
00001001
00000000
,
00000001
00000100
00001000
00010000
01000000
00000000
10000000
00010000
,
01000000
00100000
10000000
01000000
00100000
00000000
00011000
00000000
,
00010000
00000010
00001000
00000010
00000100
00000000
00000001
00000100
,
00001000
00010000
01000000
10000000
00010000
00000000
01000000
00000000
,
00200000
00000000
20300000
00000000
,
32000000
03020000
00032000
00003200
,
00000302
00000000
00000023
00000000
,
00002030
00023000
00230000
20300000
,
30010000
10000000
01000000
00100000
,
00001000
00010000
00000010
00001000
,
00000001
00000100
00000001
00000000
00000100
00000010
00001000
00000000
,
00000001
00000010
00001000
00010000
00100000
10000000
00010000
00000000
,
01000000
00100000
10000000
00100000
10000000
01000000
00100000
00000000
,
00001000
00010000
00001000
00100000
00001000
00010000
00001000
00000000
,
00010000
00001000
00000100
00000001
00001000
00000100
00000010
00000000
,
00000001
00000100
00001000
00010000
00001000
00000000
00011000
00000000
,
00001000
00010000
01000000
10000000
00010000
01000000
00100000
00000000
,
10000000
00100000
00010000
00001000
00010000
00100000
10000000
00000000
,
00010000
10000000
01000000
00100000
00001000
00010000
00001000
00000000
,
01000000
00001000
00010000
00000100
00001000
00000000
00001001
00000000
,
00000001
00000100
00000010
00000000
00001000
00000100
00000010
00000000
,
00000001
00000010
00001000
00000000
00010000
00100000
10000000
00000000
,
00010000
10000000
01000000
00000000
00100000
00001000
00010000
00000000
,
00001000
00000100
00000010
00000001
00000100
00000000
00000110
00000000
,
00000010
00001000
00000100
00000000
00000010
00000001
00001000
00000000
,
00000001
00000010
00001000
00010000
00100000
10000000
00010000
00000000
,
01000000
00100000
10000000
00000000
00100000
10000000
01000000
00000000
,
00100000
00010000
00001000
00000010
00000001
00001000
00000001
00000000
,
00001000
00000100
00000010
00000000
00001000
00000010
00000100
00000000
,
00001000
00000001
00000100
00000000
00000001
00001000
00000100
00000000
,
00000001
00000100
00000010
00000000
00000001
00000010
00000100
00000000
,
00000001
00001000
00000100
00010000
00001000
00000000
00011000
00000000
,
00001000
00100000
00001000
00100000
00010000
00100000
00010000
00000000
,
10000000
00100000
10000000
00100000
01000000
00100000
10000000
00000000
,
00010000
10000000
00010000
10000000
01000000
00100000
01000000
00000000
,
00100000
00001000
00010000
00001000
00010000
00000100
00010000
00000000
,
00001000
00000100
00000010
00000001
00001000
00000001
00000100
00000000
,
00000001
00000100
00001000
00000000
00010000
01000000
10000000
00000000
,
00010000
10000000
00010000
10000000
00010000
10000000
01000000
00000000
,
00100000
00001000
00100000
00001000
00100000
00001000
00010000
00000000
,
00000100
00001000
00000100
00001000
00000100
00000010
00000100
00000000
,
00000010
00000001
00000100
00001000
00010000
01000000
10000000
00010000
,
20020000
00000000
00000000
30030000
;

//--------------- dance-double - Fred-104 ----------------
#NOTEDATA:;
#STEPSTYPE:dance-double;
#DESCRIPTION:Fred-104;
#DIFFICULTY:Hard;
#METER:14;
#CREDIT:Fred-104;
#NOTES:
00000000
00000000
00000000
00000000
,
00000000
00000000
00000000
00000000
,
00000000
00000000
00000000
00000000
,
00000000
00000000
00000000
00000000
,
00000000
00000000
00000000
00000000
,
00000000
00000000
00000000
00000000
,
00001000
00010000
01000000
00000000
,
00010000
00001000
00000100
00000000
,
00010000
00001000
00020000
00000000
,
00000000
00000000
01030000
01000000
00001000
00001000
00010000
00010000
,
00000010
00001000
00000100
00000100
00000010
00000001
00000100
00000000
,
00001000
00010000
01000000
01000000
00010000
10000000
01000000
00000000
,
00100000
10000000
01000000
00010000
01000000
00001000
00010000
00000010
,
00000100
00001000
00000001
00001000
00000200
00000000
00000010
00000000
,
00001300
00010000
00011000
00100000
01000000
10000000
00010000
00000000
,
01000000
00001000
00011000
00000010
00001000
00010000
00001000
00000000
,
00100000
00010000
01010000
10000000
01000000
00010000
00001000
00010000
,
00000010
00000000
00000000
00000000
00000000
00000000
00000000
00000000
00001000
00000000
00000000
00000000
00000000
00000000
00000000
00000000
00010000
00000000
00000000
00000000
00000000
00000000
00000000
00000000
00000100
00000000
00000000
00000000
00000000
00000000
00000000
00000000
00001000
00000000
00000000
00000000
00000100
00000000
00000000
00000000
00001000
00000000
00000000
00000000
00000000
00000000
00000000
00000000
00000200
00000300
00000000
00000000
00000000
00000000
00000000
00000000
00000200
00000300
00000000
00000000
00000000
00000000
00000000
00000000
,
00000001
00000010
00000001
00001000
00000010
00010000
00011000
00000000
,
00010000
01000000
10000000
00100000
01100000
00000000
00010000
00001000
,
00010000
00000010
00000100
00000001
00000110
00000000
00000001
00000100
,
00000010
00000100
00001000
00010000
00100000
00000000
01100000
00000000
,
00010000
10000000
01000000
00010000
00011000
00000000
00001000
00000100
,
00000010
00001000
00000100
00010000
00001000
00010000
01000000
00000000
,
00100000
00000000
00000000
00010000
00100000
00000000
00010000
00000000
00001000
00000000
00010000
00000000
01000000
00000000
00000000
00000000
,
00100000
00001000
00000000
00010000
00000000
00010000
00001000
00000000
02002000
00000000
00000000
00000000
03003000
00000000
00000000
00000000
,
00010000
00001000
00000100
00000010
00010000
00001000
00000100
00001000
,
00010000
01000000
10000000
00100000
01000000
00010000
02000000
00000000
,
03001000
00010000
00000010
00000100
00000010
00010000
00001000
00010000
,
01000000
10000000
00100000
00010000
01000000
00001000
00020010
00000000
,
00031000
00000100
00000001
00000010
00000200
00000000
00001300
00000010
,
00010000
00000010
00000100
00001000
00020000
00000000
00031000
01000000
,
00100000
10000000
00010000
01000000
00002000
00000000
00013000
00000010
,
00001000
00000100
00000010
00001000
00011000
00000000
00100000
01000000
,
10000000
00000000
01000000
00100000
00010000
00000000
10000000
00100000
,
00000000
01000000
00001000
00010000
00000010
00000100
00000002
00000000
,
00000003
00000100
00000001
00001000
00000001
00000010
00001000
00010000
,
00000000
00100000
10000000
00100000
00010000
00000000
00001000
00000000
,
00012000
00000010
00100000
00000010
,
00100000
00000000
00003010
00000000
00010000
00001000
00011000
00000000
,
00001000
00010000
01000000
10000000
00010000
01000000
00100000
00000000
,
10000000
00000000
01000000
00000000
00010000
00001000
00011000
00000000
,
00001000
00000100
00000001
00000100
00001000
00000010
00000110
00000000
,
00001000
00010000
01000000
10000000
00100000
00010000
00011000
00000000
,
00010000
01000000
10000000
01000000
00100000
00001000
00010000
00001000
,
00000100
00000001
00000010
00000100
00001100
00000000
00010000
00000000
,
00001000
00010000
01000000
10000000
00100000
00010000
01100000
00000000
,
10000000
01000000
00010000
00001000
00000100
00000001
00000011
00000000
,
00000010
00001000
00000010
00000001
00000100
00001000
00010000
01000000
,
10000000
00100000
01000000
00010000
01200000
00000000
10000000
00000000
,
00310000
10000000
11000000
00010000
00001000
00010000
01000000
00000000
,
00010000
00001000
00010100
00001000
00000010
00000001
00000100
00000000
,
00001000
00100000
01000000
00010000
00001000
00000100
00001100
00000000
,
00010000
00100000
01000000
00010000
02100000
00000000
13000000
00000000
,
00100000
00010000
00100000
10000000
01000000
01000000
00010000
00000000
,
00001000
00000100
00000001
00000010
00001000
00001000
00000100
00000000
,
00000100
00001000
00010000
01000000
10000000
00100000
01000000
00010000
,
00100000
01000000
00010000
00001000
00000100
00000001
00000010
00000000
,
00000001
00001000
00001100
00010000
00001000
00000100
00000101
00000000
,
00000010
00001000
00001010
00000010
00000100
00001000
00011000
00000000
,
01000000
00100000
00010000
01000000
10000000
01000000
01100000
00000000
,
00100000
01000000
00010000
00001000
00010000
00010000
00010000
00010000
,
00001000
00000100
00000001
00001000
00000010
00000100
00001001
00000000
,
00000100
00001000
00010000
01000000
01000000
10000000
01100000
00000000
,
01000000
00100000
01000000
00010000
00001000
00000100
00000110
00001000
,
00000001
00000100
00000010
00001000
00001000
00010000
00011000
00010000
,
00100000
00010000
01000000
00100000
01000000
00010000
10010000
00100000
,
00010000
00001000
00000010
00000100
00001000
00000010
00000110
00000100
,
00010000
00001000
00100000
01000000
01000000
00010000
00110000
00001000
,
01000000
00100000
00010000
00001000
00100000
00010000
00011000
00001000
,
00010000
00000010
00001000
00000100
00000010
00001000
00000110
00000001
,
00000100
00001000
00010000
00100000
10000000
00010000
01000000
00001000
,
00020200
00000000
00000000
00030300
;

//--------------- dance-double - Fred-104 ----------------
#NOTEDATA:;
#STEPSTYPE:dance-double;
#DESCRIPTION:Fred-104;
#DIFFICULTY:Challenge;
#METER:17;
#CREDIT:Fred-104;
#NOTES:
00000000
00000000
00000000
00000000
,
00000000
00000000
00000000
00000000
,
00000000
00000000
00000000
00000000
,
00000000
00000000
00000000
00000000
,
00000000
00000000
00000000
00000000
,
00000000
00000000
00000000
00000000
,
00011000
00000000
00010000
00001000
00000010
00000001
00001000
00000001
,
00000000
00000000
00000000
00000100
00000010
00001000
00000001
00000000
00000100
00000000
00001000
00000000
00010000
00000000
00000000
00001000
00000000
00000000
00011000
00000000
00000000
00000000
00000000
00000000
,
01100000
00000000
00000000
00000000
00010000
00000000
10000000
00100000
02000000
00000000
00100000
00000000
00100000
00000000
03200000
00000000
,
00000000
00000000
10300000
01000000
00200000
00000000
00320000
00000000
00030020
00000000
00002030
00000000
00203000
00000000
00320000
00000000
,
01030000
00000000
00001000
00000000
00000100
00000000
00000010
00000100
00000001
00000000
00000100
00000000
00000020
00000000
00000000
00000000
,
00001030
00000000
00000001
00000000
00000010
00000000
00001000
00010000
01000000
00000000
00100000
00000000
00020000
00000000
00000000
00000000
,
10030000
00000000
01000000
00000000
00001000
00000000
00000100
00010000
00001000
00000000
00100000
00000000
00010000
00000000
10000000
00100000
,
00010000
00000000
00100000
00000000
01000000
00000000
00010000
10000000
00100000
00000000
00010000
00001000
00000100
00000000
00000010
00000000
,
00010000
00000000
00000100
00000000
00000010
00000000
00000001
00000010
00000100
00000000
00010000
00000000
00002000
00000000
00000000
00000000
,
00013000
00000000
00001000
00000000
00100000
00000000
01000000
10000000
01000000
00000000
00010000
00000000
00002000
00000000
00000000
00000000
,
00013000
00000000
00001000
00000000
00000100
00000000
00000001
00000100
00001000
00000000
00010000
00000000
01000000
00000000
10000000
01000000
,
00010000
00000000
00000000
00001000
00000000
00000000
00000010
00000000
00000000
00000001
00000000
00000000
00001000
00000001
00000100
00000001
00000000
00000000
00001000
00000000
00000000
00000010
00000000
00000000
,
00010000
00000000
00001000
00000000
00100000
00000000
00010000
00100000
01000000
00000000
00010000
00000000
01000000
00000000
00100000
00001000
,
00010000
00000000
00000000
00000000
00000000
00000000
00000100
00000000
00000000
00001000
00000000
00000000
00000010
00000000
00000000
00010000
00000000
00000000
00001000
00000000
00000000
00000000
00000000
00000000
00011000
00000000
00000000
00000000
00000000
00000000
00000000
00000000
00000000
00000000
00000000
00000000
00010000
00000000
00000000
00000000
00010000
00000000
00000000
00000000
00010000
00000000
00000000
00000000
,
00001000
00000000
00000100
00000010
00001000
00000000
00000001
00000000
00000102
00000000
00000000
00000000
00001003
00000000
00000100
00000000
,
00000010
00000001
00001000
00000010
00000100
00000000
00000001
00000000
00001001
00000000
00000000
00000000
00011000
00000000
00000000
00000000
,
10010000
00000000
10000000
00000000
00010000
01000000
10000000
01000000
00010000
00000000
00000000
00000000
00010000
00001000
00010000
00000000
,
00000100
00000010
00000001
00000100
00001000
00010000
00000000
00000000
00001000
00000000
00010000
01000000
00100000
00000000
00000000
00000000
,
01100000
00000000
00000000
00010000
10000000
00000000
01000000
00000000
00100000
00001000
00010000
00001000
01000000
00000000
00001000
00000000
,
00010000
00001000
00000000
00000100
00000000
00000001
00000010
00000100
00001000
00000000
00000001
00000100
00001000
00000100
00000001
00000010
,
00000100
00000000
00001000
00000000
00010000
00000000
00100000
00000000
00010000
01000000
00001000
00000000
00010000
00000000
00001000
00000100
,
00000010
00000000
00001000
00000000
00000001
00000000
00000100
00000010
00000100
00001000
00010000
00100000
01000000
00000000
00010000
00000000
,
10000000
00000000
00000000
00000000
00000000
00000000
01000000
00000000
00000000
00000000
00000000
00000000
10000000
00000000
00000000
01000000
00000000
00000000
00100000
00000000
00000000
00000000
00000000
00000000
10000000
00000000
00000000
00000000
00000000
00000000
00100000
00000000
00000000
00000000
00000000
00000000
00010000
00000000
00000000
00000000
10000000
00000000
00000000
00000000
00100000
00000000
00000000
00000000
,
00010000
00000000
00001000
00000000
00000100
00000000
00000001
00000000
00000000
00001000
00000000
00000000
00000100
00000000
00000000
00000110
00000000
00000000
00001001
00000000
00000000
00000000
00000000
00000000
,
00000010
00000000
00001000
00000001
00000010
00000100
00001000
00000100
00020000
00000000
00000000
00000000
00031000
00100000
00010000
00000000
,
10000000
01000000
00010000
00000000
00001000
00010000
00000000
00100000
02000000
00000000
00000000
00000000
03001000
00000000
00100000
00000000
,
00010000
10000000
01000000
00000000
00100000
00001000
00010000
00001000
02000000
00000000
00000000
00000000
03001000
00010000
00000010
00001000
,
00000100
00010000
00001000
00000100
00000001
00001000
00000100
00000010
00000200
00000000
00000000
00000000
00010300
00000000
00001000
00000000
,
00021000
00000000
00032000
00000000
02003000
00000000
03020000
00230000
,
00000000
02300000
23000000
30020000
02030000
03200000
02300000
00000000
,
03002000
00023000
00032000
00003200
00000302
00002003
00003200
00002300
,
00000000
00003020
00020030
00032000
02003000
03002000
00013000
00000000
,
00012000
00100000
00000010
00103000
,
00021000
00000100
00030100
00000000
00012000
01000000
01003000
00000000
,
00001000
00000000
00010000
00000000
01000000
00000000
10000000
00000000
00010000
00000000
01000000
00001000
00010000
00000000
00001000
00000000
,
00000010
00000000
00000100
00000000
00001000
00000000
00010000
00100000
01000000
00000000
00010000
00001000
00000010
00000000
00000100
00000000
,
00001000
00000000
00000010
00000000
00000001
00000000
00000010
00000100
00000010
00000000
00001000
00000000
00000002
00000000
00000000
00000000
,
00000103
00000000
00001000
00000000
00010000
00000000
00001000
00010000
01000000
00000000
00100000
00000000
00020000
00000000
00000000
00000000
,
10030000
00000000
01000000
00000000
10000000
00000000
01000000
00010000
00001000
00000000
00010000
00000000
00001000
00000000
00000100
00000010
,
00001000
00000000
00000001
00000000
00000010
00000000
00000001
00000010
00001000
00000000
00010000
01000000
00100000
00000000
00010000
00000000
,
10000000
00000000
00100000
00000000
00010000
00000000
00001000
00010000
01000000
00000000
00100000
00000000
00020000
00000000
00000000
00000000
,
00031000
00000000
00010000
00000000
00001000
00000000
00000010
00000001
00000010
00000000
00001000
00000000
00020000
00000000
00000000
00000000
,
00031000
00000000
00000100
00000000
00000001
00000000
00000010
00000100
00000010
00000000
00001000
00000000
00010000
00000000
01000000
00100000
,
00010000
00000000
00100000
00000000
01000000
00000000
10000000
00100000
00010000
00000000
10000000
01000000
00100000
00000000
10000000
00000000
,
11000000
00000000
10000000
00100000
00010000
00000000
00001000
00000010
00000001
00000000
00001000
00000000
00001001
00000000
00000000
00000000
,
00000011
00000000
00000001
00000100
00001000
00000000
00010000
01000000
10000000
00000000
00010000
10000000
00100000
01000000
00010000
00000000
,
10000000
00100000
01000000
00100000
00010000
00001000
00000100
00000010
00001000
00000000
00000100
00001000
00000002
00000000
00000000
00000000
,
00000103
00000000
00001000
00000000
00000100
00000000
00000001
00000010
00000100
00000000
00010000
00000000
00001000
00000000
00001000
00000000
,
01000000
00010000
00001000
00000010
00010000
00001000
00011000
00000000
,
00001000
00000000
00010000
00000000
01000000
00000000
10000000
00000000
00000000
00010000
00000000
00000000
01000000
00000000
00000000
00100000
00000000
00000000
20000000
00000000
00000000
00000000
00000000
00000000
,
30100000
00000000
10100000
00000000
00100000
00000000
01100000
00000000
01000000
00000000
00010000
00000000
10000000
00000000
01000000
00100000
,
00001000
00000000
00010000
00000000
00000100
00000000
00001000
00000100
00000001
00000000
00001000
00000010
00000100
00000000
00001000
00000000
,
00001001
00000000
00000001
00000100
00001000
00000000
00010000
00001000
00010000
00000000
01000000
10000000
00010000
00000000
00000000
00000000
,
10100000
00000000
10000000
00100000
10000000
00000000
00100000
00010000
00001000
00000000
00000010
00000001
00001000
00000000
00000000
00000000
,
00001000
00000001
00000100
00000010
00001000
00000000
00000001
00000000
00001000
00000000
00000100
00000000
00010100
00000000
00000000
00000000
,
00001000
00000000
00010000
00000000
01000000
00000000
00100000
00000000
00010000
10000000
01000000
00100000
00010000
00100000
00001000
00010000
,
00000010
00000000
00001000
00000001
00000010
00000000
00000100
00010000
00001000
00000000
00010000
01000000
20000000
00000000
00000000
00000000
,
30010000
01000000
10000000
01000000
00010000
00000000
10000000
00000000
01000000
00000000
00010000
00001000
00100000
00001000
00010000
00000000
,
00001000
00000000
00010000
00001000
00000100
00000000
00001000
00000000
00010000
00000100
00001000
00000000
00001100
00000000
00000000
00000010
,
00001000
00000000
00000100
00000000
00010000
00001000
00100000
00010000
01000000
00000000
01000000
00000000
01100000
00000000
00000000
00000000
,
00001000
00000000
00010000
00000000
00100000
00000000
10000000
00000000
00010000
00000000
01000000
00000000
00001000
00000000
00010000
00000100
,
00001000
00000000
00000100
00000000
00000010
00000001
00001000
00000010
00000100
00000000
00000001
00000100
00001000
00000000
00000100
00000000
,
00000010
00000000
00001000
00000001
00000010
00000000
00000100
00010000
00001000
00000000
00100000
01000000
10000000
00000000
00010000
01000000
,
00100000
00000000
10000000
00000000
00010000
10000000
01000000
00100000
00001000
00000000
00010000
00000000
00011000
00000000
00000000
00000000
,
00001001
00000000
00000001
00000100
00001000
00000000
00010000
00000000
00011000
00000000
00001000
00010000
00100000
00000000
01000000
00010000
,
10000000
00000000
00010000
01000000
10000000
01000000
00010000
00000000
10000000
01000000
00100000
00001000
00010000
00000100
00000010
00000001
,
00000200
00000000
00000000
00000300
;
