#VERSION:0.83;
#TITLE:Dahlia;
#ARTIST:BlackY;
#GENRE:HARD RENAISSANCE;
#BANNER:Dahlia.png;
#BACKGROUND:Dahlia-bg.png;
#CDTITLE:./CDTitles/bm IIDX 31 EPOLIS.png;
#MUSIC:Dahlia.ogg;
#SAMPLESTART:88.189;
#SAMPLELENGTH:15;
#DISPLAYBPM:92.5:370;
#BPMS:0=92.5,16=185,120=92.5,128.5=185,128.833333=92.5,130.5=185,130.666667=92.5,132=185,141.5=92.5,148=185,156=740,164=555,170=370,174=185,176=92.5,192=185,296=370,297=185,328=92.5,340=185;
#STOPS:128.5=0.054,128.666667=0.054,130.5=0.054,140=0.243,140.75=0.243,296=0.162;

//--------------- dance-single - Fred-104 ----------------
#NOTEDATA:;
#STEPSTYPE:dance-single;
#DESCRIPTION:Fred-104;
#DIFFICULTY:Beginner;
#METER:5;
#CREDIT:Fred-104;
#NOTES:
0000
0000
0000
0000
,
0000
0000
0000
0000
,
0000
0000
0000
0000
,
1000
0000
0001
0000
,
2002
0000
0000
0000
,
0000
0000
3003
0000
,
1000
0000
0000
0000
,
0001
0000
1000
0000
,
0100
0000
0000
0000
,
0010
0000
0001
0000
,
1000
0000
1000
0000
,
0100
0000
0100
0000
,
1000
0000
0001
0000
,
2002
0000
0000
3003
,
1000
0000
0010
0000
,
1000
0000
0001
0000
,
0001
0000
1000
0000
,
1001
0000
0000
0000
,
0002
0000
0000
0003
,
2000
0000
0000
3000
,
0001
0000
1000
0000
,
0200
0000
0000
0300
,
2000
3000
0001
0000
,
0100
0000
0001
0000
,
1000
0000
0001
0000
,
0010
0000
0100
0000
,
2000
0000
0000
3000
,
0002
0000
0000
0003
,
1000
0000
0001
0000
,
2000
0000
0000
3000
,
1001
0000
0000
0000
,
0001
0000
0000
0000
,
2000
0000
0000
3000
,
0001
0000
1000
0000
,
0001
0000
1000
0000
,
2002
0000
3003
0000
,
1000
1000
0001
0001
,
0100
0000
0100
0000
,
0010
0000
0010
0000
,
2002
0000
0000
0000
,
0000
0000
0000
0000
,
0000
0000
0000
0000
,
0000
0000
0000
0000
,
0000
0000
3003
0000
,
2000
0000
0000
3000
,
0002
0000
0000
0003
,
0020
0000
0000
0030
,
0200
0000
0000
0300
,
1000
0000
1000
0000
,
0001
0000
0001
0000
,
0100
0000
0100
0000
,
0010
0000
0010
0000
,
1000
0000
0001
0000
,
0010
0000
0100
0000
,
1000
0000
0001
0000
,
1000
1000
0001
0001
,
2002
0000
0000
0000
,
0000
0000
3003
0000
,
1000
0000
0001
0000
,
0010
0000
0001
0000
,
1000
0000
0010
0000
,
0100
0100
0100
0000
,
0001
0000
1000
0000
,
0001
0000
0010
0000
,
0100
0000
1000
0000
,
0001
0000
1000
1000
,
1000
0000
0001
0000
,
0100
0000
0010
0000
,
0100
0000
0001
0000
,
1000
0000
0001
0000
,
2000
0000
0000
3000
,
0002
0003
2000
3000
,
0020
0030
0200
0300
,
0001
0001
0001
0001
,
2002
3003
0000
0000
,
1000
0000
0001
0000
,
0100
0000
0010
0000
,
0100
0100
0100
0100
,
0100
0000
0001
0000
,
1000
0000
0000
0000
,
2002
0000
0000
3003
,
0001
0010
0100
1000
,
2002
0000
0000
3003
,
2002
0000
0000
0000
,
0000
0000
0000
0000
,
3003
0000
0000
0000
;

//--------------- dance-single - Fred-104 ----------------
#NOTEDATA:;
#STEPSTYPE:dance-single;
#DESCRIPTION:Fred-104;
#DIFFICULTY:Easy;
#METER:10;
#CREDIT:Fred-104;
#NOTES:
0000
0000
0000
0000
,
0000
0000
0000
0000
,
0000
0000
0000
0000
,
2000
0000
3000
0200
0000
0300
0020
0000
0030
0000
0000
0000
0001
0000
0000
0000
,
2002
0000
0000
0000
,
0000
0000
3003
0000
,
1000
0000
0000
0010
0000
0010
0100
0000
,
0001
1000
0001
0010
,
0100
0000
0000
1000
0000
1000
0001
0000
,
0100
0010
0100
0000
0001
1000
0001
0000
,
0010
0100
1000
1100
,
1000
0001
0100
0110
,
0010
1000
0001
0010
,
0220
0000
0000
0330
,
1000
0000
0001
0000
0100
0010
0100
0000
,
0001
0000
0000
0010
0000
0000
0100
0000
,
1000
0000
0000
0001
0000
0000
0100
0000
,
0010
0000
1000
1000
0000
1001
0000
0001
,
1000
0000
0000
0100
0000
0000
0002
0000
,
1003
0000
0000
0010
0000
0000
0002
0000
,
1003
0001
0110
1000
,
0001
0000
0100
0100
0000
0010
1000
0001
,
2002
0000
0000
3003
1000
0000
0001
0000
,
0100
0000
0000
0010
0000
0000
0100
0000
,
0001
0000
0000
1000
0000
0000
0100
0000
,
0010
0000
0001
0001
0000
1000
0001
0100
,
0010
0000
0000
0100
0000
0000
0002
0000
,
1003
0000
0000
0100
0000
0000
0020
0000
,
0031
1000
0010
0100
,
0001
1000
0100
0110
,
1001
0000
0000
0001
0000
0000
2000
0000
0000
0000
0000
0000
0000
0000
0000
0000
,
3001
0001
0100
0100
0010
0010
1000
1000
,
0001
1001
1000
0010
0100
0110
2000
3002
,
1003
0100
0001
0010
,
1000
0000
0000
0000
0001
0000
0000
0000
0100
0000
0000
0100
0000
0000
0100
0000
,
0010
0000
0000
0010
0000
0000
0220
0000
0000
0000
0000
0000
0000
0000
0330
0000
,
1000
1000
0100
0100
0001
0001
0010
0010
,
1000
0010
0001
0100
,
1000
0001
0100
0010
,
2002
0000
0000
0000
,
0000
0000
0000
0000
,
0000
0000
0000
0000
,
0000
0000
0000
0000
,
0000
0000
3003
0000
,
1000
0000
0000
0100
0000
0000
0010
0000
0000
0002
0000
0000
0003
0000
0000
0000
,
1000
0000
0000
0010
0000
0000
0100
0000
0000
0002
0000
0000
0003
0000
0000
0000
,
1000
0000
0000
0001
0000
0000
0010
0000
0000
0200
0000
0000
0300
0000
0000
0000
,
1000
0000
0000
0001
0000
0000
0100
0000
0000
0020
0000
0000
0030
0000
0000
0000
,
1000
0000
0000
0010
0000
0000
0001
0000
,
0000
0010
0000
0000
1000
0000
0100
0010
,
0100
0000
0000
1000
0000
0000
0001
0000
,
0000
0100
0000
0000
0010
0000
1000
0100
,
1000
0010
0100
0001
,
1000
0100
0010
0001
,
0100
0010
0100
0000
0001
1000
0001
0000
,
0010
0100
0010
0100
0010
0100
0010
0000
,
0001
0001
0000
1000
0000
0010
0000
2002
,
0000
0000
0000
3003
,
1000
0000
0000
0100
0000
0000
1000
0000
0000
0001
0000
0000
1000
0000
0000
0000
,
0001
0000
0000
0010
0000
0000
0001
0000
0000
1000
0000
0000
0010
0000
0000
0000
,
0100
0000
0000
0001
0000
0000
1000
0000
0000
0100
0000
0000
0010
0000
0001
0000
,
1000
0000
0001
0000
0100
0100
0000
0010
,
0010
0000
0000
0100
0000
0000
0001
0000
0000
1000
0000
0000
0100
0000
0000
0000
,
0010
0000
0000
0100
0000
0000
1000
0000
0000
0001
0000
0000
0100
0000
0010
0000
,
0100
0000
0000
0001
0000
0000
0010
0000
0100
0000
1000
0000
0001
0000
0001
0000
,
0000
0000
0100
0000
0010
0000
0100
0000
0001
0000
0000
1000
0000
0000
0001
0000
,
1001
0000
0000
1000
0000
0000
0010
0000
0000
0100
0000
0000
0010
0000
0000
0000
,
1000
0000
0000
0100
0000
0000
0010
0000
0000
0001
0000
0000
1000
0000
0000
0000
,
0001
0000
0000
0100
0000
0000
0010
0000
0000
0100
0000
0000
0001
0000
1000
0000
,
0001
0000
0100
0000
0001
0000
0100
0000
0010
0000
0000
1000
0000
0000
0001
0000
,
1000
0000
0000
0100
0000
0000
0010
0000
0000
0001
0000
0000
0020
0000
0000
0000
,
0130
0000
0000
1000
0000
0000
0001
0000
0100
0000
0000
0010
0000
0000
0100
0000
,
0001
0000
0000
1000
0000
0000
0100
0000
0010
0000
0001
0000
1000
0000
0000
0000
,
0001
0000
0100
0000
0010
0000
1000
0000
0001
0000
0000
0010
0000
0000
0100
0000
,
2200
0000
3300
0000
1000
0001
0010
0000
,
0001
1000
0010
0000
0100
0001
1000
0000
,
0001
0000
0010
0100
1000
0001
0100
0000
,
0010
0100
0010
0100
0010
1000
0001
0000
,
1000
0000
0001
0010
0000
0100
1000
0000
,
0001
0100
0000
0010
0000
0100
0000
2002
,
0000
0000
0000
0000
0000
3003
1000
0100
,
1000
0001
0100
0010
1000
0001
0010
0100
,
1000
0000
0000
0001
0000
0000
0200
0000
0000
0000
0000
0000
0000
0000
0300
0000
,
0220
0000
0000
0000
,
0000
0000
0000
0000
,
0330
0000
0000
0000
;

//--------------- dance-single - Fred-104 ----------------
#NOTEDATA:;
#STEPSTYPE:dance-single;
#DESCRIPTION:Fred-104;
#DIFFICULTY:Medium;
#METER:14;
#CREDIT:Fred-104;
#NOTES:
0000
0000
0000
0000
,
0000
0000
0000
0000
,
0000
0000
0000
0000
,
0020
0000
0000
2030
0000
0000
3002
0000
0003
0000
0000
0000
1000
0000
0000
0000
,
0220
0000
0000
0000
,
0000
0000
0330
0000
,
0001
0010
1000
0001
0100
1000
0002
0000
,
1003
0100
0010
0001
1000
0010
0100
0001
,
1000
0010
0001
1000
0100
0001
1000
0001
,
0010
0000
0100
0000
0010
0001
0010
0000
0001
0000
1000
0000
0001
0000
0000
0000
,
1100
0000
0101
0000
1000
0001
2000
0000
,
3001
0000
0010
0000
0100
0010
0100
0000
1000
0000
0001
0000
0100
0000
0010
0000
,
0100
0000
0001
0000
1000
0000
0100
0000
0010
0000
0000
0001
1000
0001
1000
0000
,
0001
0000
0010
0000
0100
0000
1000
0000
0001
1000
0001
1000
0001
1000
0001
1000
,
0001
0000
0100
0001
1000
0100
0010
0001
,
1000
0010
0100
1000
0100
0010
0100
0000
,
0001
1000
0100
0010
1000
0010
0001
1000
,
0010
0000
0100
0101
0000
1001
0001
1000
,
0001
0000
0000
0100
0000
0000
1000
0000
0000
0100
0000
0000
0002
0000
0000
0000
,
1003
0000
0000
0100
0000
0000
0001
0000
0000
0100
0000
0000
1000
0001
1000
0000
,
0001
0000
0000
0010
0000
0000
0100
0000
1100
0000
0000
0000
1000
0000
0001
0000
,
0100
0000
0010
0110
0000
1001
0001
1000
,
0002
0000
0000
1003
0010
1000
0001
0000
0010
0000
0100
0000
1000
0000
0001
0000
,
1000
0010
0001
0010
0100
0010
1000
0000
,
0001
0010
0100
0001
0100
0010
0001
1000
,
0010
0000
0100
0110
0000
0001
1000
0001
,
0011
0000
0000
0100
0000
0000
1010
0000
0000
0100
0000
0000
0001
0000
1000
0000
,
1100
0000
0000
0010
0000
0000
0101
0000
0000
0010
1000
0000
0001
0000
0010
0000
,
0100
0000
0000
1000
0000
0000
0001
0100
0001
0000
1000
0000
0100
0010
0100
0000
,
1000
0000
0000
0001
0000
0000
0100
0000
0010
1000
0010
1000
0002
0000
0000
0000
,
1003
0000
0000
0000
0000
0000
0000
0000
0000
0100
0000
0000
0000
0000
0000
0000
0000
0000
0010
0000
0000
0001
0000
0000
0010
0000
0000
0001
0000
0000
1000
0000
0010
0000
1000
0000
0001
0000
0000
0000
1000
0000
0002
0000
0000
2003
0000
0000
,
3001
0000
0000
0000
0001
0000
0010
0000
0000
0000
0010
0000
0100
0000
0000
0000
0100
0000
1000
0000
0000
0001
0000
0000
0100
0000
0000
0000
0100
0000
0010
0000
0000
0000
0010
0000
1000
0000
0000
0000
1000
0000
0001
0000
1000
0000
0000
0000
,
1100
0000
0000
0000
0000
0000
0001
0000
0010
0000
0000
0000
0011
0000
0000
0000
0000
0000
0001
0000
0000
0000
0001
0000
1000
0000
0000
0000
1000
0000
0010
0000
0000
0000
0010
0000
0100
0000
0000
0001
0000
0000
1000
0000
0000
0100
0000
0000
,
0010
0000
0000
0010
0001
0000
0000
0001
1000
0000
0000
1000
0010
0000
0100
0000
,
0101
0000
0000
0000
0001
0000
1000
0000
0100
0000
0000
0010
0000
0000
0001
0000
,
0101
0000
0000
1100
0000
0000
2002
0000
0000
0000
0000
0000
0000
0000
3003
0000
,
1000
0000
0000
0000
1000
0000
0100
0000
0000
0000
0100
0000
0010
0000
0000
0000
0010
0000
0001
0000
0000
1000
0000
0000
0001
0000
0000
0000
0001
0000
0100
0000
0000
0000
0100
0000
0010
0000
0000
0000
0010
0000
2000
0000
0000
0000
0000
0000
,
3001
0000
0001
0010
0000
0010
0100
0000
0100
1000
0000
1000
,
0010
0000
0010
0100
0000
0100
0001
0000
0001
1000
0000
1000
,
0002
0000
0000
0000
,
0000
0000
0000
0000
,
0000
0000
0000
0000
,
0000
0000
0000
0000
,
0000
0000
0003
0000
,
1000
0000
0000
0100
0000
0000
0010
0000
0000
0002
0000
0000
0000
0000
0000
0000
,
1003
0000
0000
0100
0000
0000
0020
0000
0000
0000
0000
0000
0030
0000
0000
0000
,
0001
0000
0000
0100
0000
0000
0010
0000
0000
2000
0000
0000
0000
0000
0000
0000
,
3001
0000
0000
0100
0000
0000
0020
0000
0000
0000
0000
0000
0030
0000
0000
0000
,
1000
1000
0100
0100
,
0001
0001
0010
0010
,
1000
1000
0010
0010
,
0001
0001
0100
0100
,
1000
0100
1000
0100
0010
0001
0010
0001
,
1000
0010
1000
0010
0100
0001
0100
0001
,
1000
0000
0000
0100
0000
0000
0010
0000
0000
0001
0000
0000
1000
0010
1000
0000
,
0001
0000
0100
0010
0000
1000
0010
0000
0100
0000
0001
1000
0000
0100
0010
0000
,
0001
0011
0000
1010
0000
0101
0000
2200
,
0000
0000
0000
0000
0000
0000
3300
0000
0001
1000
0001
1000
0002
0000
0000
0000
,
1003
0000
0000
0100
0000
0000
0010
0000
0000
0001
0000
0000
1000
0000
0001
0100
,
0001
0000
0000
0010
0000
0000
0100
0000
0000
1000
0000
0000
0001
0000
0100
0000
,
0010
0000
0000
1000
0000
0000
0010
0000
0000
0100
0000
0000
0001
1000
0001
0000
,
0010
0100
0010
0000
0100
0000
1000
0000
0010
0000
0110
0000
0000
0000
0100
0000
,
0101
0000
0000
0001
0000
0000
1000
0000
0000
0010
0000
0000
0100
0001
0100
0000
,
0001
0000
0000
0010
0000
0000
0100
0000
0000
1000
0000
0000
0010
0000
0100
0000
,
0110
0000
0000
0001
0000
0000
1000
0000
1100
0000
0000
0000
0001
0000
1000
0000
,
0000
0000
0010
0000
1000
0000
0001
0000
0010
0000
0000
0100
0000
0000
1000
0000
,
1001
0000
0000
0001
0000
0000
1000
0000
0000
0010
0000
0000
0100
0001
0100
0000
,
0001
0000
0000
0010
0000
0000
0100
0000
0000
1000
0000
0000
0010
0000
0100
0000
,
0010
0000
0000
1000
0000
0000
0100
0000
0000
1000
0000
0000
0001
0000
1001
0000
,
0000
0000
0110
0000
0000
0000
1001
0000
0001
0000
0000
1000
0000
0000
0001
0000
,
2000
0000
0000
3200
0000
0000
0320
0000
0000
0032
0000
0000
1003
0001
1000
0000
,
0002
0000
0000
0203
0000
0000
0310
0000
1010
0000
0000
1000
0000
0000
0001
0000
,
0101
0000
0000
0001
0000
0000
1000
0000
0010
0000
0100
0000
0001
0000
1000
0000
,
0100
0000
0010
0000
0001
0000
1000
0000
0010
0000
0000
0010
0000
0000
0010
0000
,
0110
0000
1001
0000
0001
0010
0200
1300
,
0001
0100
1000
0100
0010
1000
0001
0010
,
0100
1000
0010
0001
0010
0100
0010
1000
,
0001
0000
0010
0100
0010
0000
0001
1000
0001
0000
0010
0000
0110
0000
0000
0000
,
1000
0010
0100
0010
1000
0001
0010
0100
,
0000
1100
0000
0101
0000
0011
0000
2020
,
0000
0000
0000
0000
0000
3030
1000
0100
,
1000
0000
0001
0000
0100
0000
0010
0000
0100
0010
0100
0010
0100
0000
0001
0000
,
2000
0000
0000
3200
0000
0000
0320
0000
0000
0000
0000
0000
0000
0000
0031
1000
,
0002
0000
0000
0000
,
0000
0000
0000
0000
,
0003
0000
0000
0000
;

//--------------- dance-single - Fred-104 ----------------
#NOTEDATA:;
#STEPSTYPE:dance-single;
#DESCRIPTION:Fred-104;
#DIFFICULTY:Hard;
#METER:17;
#CREDIT:Fred-104;
#NOTES:
0000
0000
0000
0000
,
0000
0000
0000
0000
,
0000
0000
0000
0000
,
0002
0000
0000
2003
0000
0000
3020
0000
0030
0000
0000
0000
0010
0000
0000
0000
,
0220
0000
0000
0000
,
0000
0000
0000
0330
,
1000
0100
0001
0100
0010
0100
1000
0000
,
0001
0000
0100
0000
1000
0100
0001
0000
0020
0000
0230
0000
2300
0000
3001
1000
,
0001
0100
0010
0100
1000
0100
0010
1000
,
0001
0000
0010
0000
0100
1000
0100
1000
0100
0000
1000
0000
0001
0000
0100
0000
,
0010
1000
1100
0001
0101
1000
2002
3003
,
0001
0000
0010
0000
0001
1000
0010
0100
0001
0000
1000
0000
0100
0000
0010
0000
,
0001
0000
1000
0000
0010
0000
0100
0000
0010
0000
0000
1000
0001
0010
0100
0000
,
1000
0100
1000
0100
0010
0100
0010
0100
1000
0001
0100
0010
1000
0001
1000
0001
,
1000
0001
0010
0100
2100
3001
1000
0010
,
0110
0000
0001
0000
1000
0000
0110
0000
1000
0000
0001
0000
1000
0100
1000
0000
,
1100
0010
0001
1010
0100
0001
1000
0001
,
0010
0000
0110
1100
0001
1001
0100
1000
,
0001
0000
0100
1000
0000
0100
0001
0000
0010
1000
0000
0010
0002
0000
0000
0000
,
1003
0000
0100
0001
0000
0100
1000
0000
0010
0001
0000
0010
1000
0001
1000
0001
,
1000
0000
0000
0001
0000
0000
0100
0000
0110
0000
1000
0000
0001
0000
0010
0000
,
0100
0000
0000
0000
1100
0000
1001
0000
0000
0000
1010
0000
1000
0100
0010
0001
,
2000
0000
0000
3001
0100
1000
0100
0000
0010
0000
1000
0001
0010
0000
0100
0000
,
1000
0000
0100
0010
0000
1000
0010
0000
0001
0010
0000
0100
0010
0000
0001
0000
,
1000
0000
0001
0100
0000
1000
0100
0000
0010
1000
0000
0001
1000
0000
0100
0000
,
0110
0000
0000
0000
0011
0000
1001
0000
1000
0000
0001
0100
0001
1000
0100
0010
,
0001
0000
0000
0011
0000
0000
1001
0000
0000
1010
0000
0000
0001
0000
1000
0000
,
1100
0000
0000
1010
0000
0000
0101
0000
0000
0001
1000
0000
0100
0000
0010
0000
,
0001
0000
1000
0000
1010
0000
0000
0001
1000
0100
0010
0001
0010
0100
1000
0000
,
0001
0000
0100
0010
0000
0001
0010
0000
0100
0001
1000
0001
2000
0000
0000
0000
,
3001
0000
0000
0000
0000
0000
0000
0000
0000
0000
0000
0000
0000
0000
0000
0000
0000
0000
0110
0000
0000
0000
0000
0000
0000
0000
0000
0000
0000
0000
0000
0000
0000
0000
0000
0000
1000
0000
0000
0100
0000
0000
1000
0000
0000
0100
0000
0000
1000
0000
0000
0001
0000
0000
1000
0000
0000
0001
0000
0000
1000
0000
0000
0000
0010
0000
0000
0000
0100
0000
0000
0000
0001
0000
0000
0000
1000
0000
0000
0000
0001
0000
0000
0000
0020
0000
0000
0000
0000
0000
0230
0000
0000
0000
0000
0000
,
1300
0000
0001
0000
0100
0000
0010
0000
1000
0000
0001
0000
0010
0000
0100
0000
0010
0000
0002
0000
0000
2003
0000
0000
3010
0000
1000
0000
0010
0000
0100
0000
0001
0000
0100
0000
0001
0000
0010
0000
0100
0000
1000
0000
0002
0000
0000
0000
,
1003
0000
0000
0000
0000
0000
0000
0000
0000
0000
0000
0000
0000
0000
0000
0000
0000
0000
0000
0000
0000
0000
0000
0000
0200
0300
0000
0000
0000
0000
0000
0000
0200
0300
0000
0000
0000
0000
0000
0000
0000
0000
0000
0000
0000
0000
0000
0000
0001
0000
0000
0000
0000
0000
0000
0000
0000
0000
0000
0000
0000
0000
0000
0000
0000
0000
0000
0000
0000
0000
0000
0000
1000
0000
0000
0000
0000
0000
0000
0000
0100
0000
0000
0000
0000
0000
0000
0000
0010
0000
0000
0000
0000
0000
0000
0000
0001
0000
0000
0000
0000
0000
0000
0000
0100
0000
0000
0000
0000
0000
0000
0000
0010
0000
0000
0000
0000
0000
0000
0000
2000
3000
0000
0000
0000
0000
0000
0000
0001
0000
0000
0000
0000
0000
0000
0000
0010
0000
0000
0000
0000
0000
0000
0000
0100
0000
0000
0000
0000
0000
1000
0000
0000
0000
0000
0000
0100
0000
0000
0000
0000
0000
1000
0000
0000
0000
0000
0000
0001
0000
0000
0000
0000
0000
0100
0000
0000
0000
0000
0000
0001
0000
0000
0000
0000
0000
0100
0000
0000
0000
0000
0000
,
0001
0000
0000
0000
1000
0000
0100
0010
0001
0000
1000
0010
0100
0001
1000
0100
,
0010
0000
0000
0000
0011
0000
1000
0001
0100
0000
0000
0010
0000
0000
1000
0000
,
2002
3003
0000
0000
0000
0000
0000
0000
0000
0000
0000
0000
0000
0000
0000
0000
0000
0000
0000
0000
0000
0000
0000
0000
0000
0000
0000
0000
0000
0000
0000
0000
0000
0000
0000
0000
0220
0330
0000
0000
0000
0000
0000
0000
0000
0000
0000
0000
0000
0000
0000
0000
0000
0000
0000
0000
0000
0000
0000
0000
0000
0000
0000
0000
0000
0000
0000
0000
0000
0000
0000
0000
2002
0000
0000
0000
0000
0000
0000
0000
0000
0000
0000
0000
0000
0000
0000
0000
0000
0000
0000
0000
0000
0000
0000
0000
0000
0000
0000
0000
0000
0000
0000
0000
0000
0000
0000
0000
0000
0000
0000
0000
0000
0000
0000
0000
0000
0000
0000
0000
0000
0000
0000
0000
0000
0000
0000
0000
0000
0000
0000
0000
0000
0000
0000
0000
0000
0000
0000
0000
0000
0000
0000
0000
0000
0000
0000
0000
0000
0000
0000
0000
0000
0000
0000
0000
0000
0000
0000
0000
0000
0000
0000
0000
0000
0000
0000
0000
3003
0000
0000
0000
0000
0000
0000
0000
0000
0000
0000
0000
0000
0000
0000
0000
0000
0000
0000
0000
0000
0000
0000
0000
,
1000
0000
0100
0000
1000
0000
0001
0000
0100
0000
0001
0000
0010
0000
0100
0000
1000
0000
0002
0000
0000
0203
0000
0000
0310
0000
1000
0000
0100
0000
0010
0000
0001
0000
0100
0000
0010
0000
1000
0000
0100
0000
0020
0000
0000
0000
0000
0000
,
0031
0000
0001
1000
0000
1000
0100
0000
0100
0010
0000
0010
,
0001
0010
0100
1000
0010
0100
0001
0100
0010
1000
0100
0010
,
0002
0000
0000
0000
,
0000
0000
0000
0000
,
0000
0000
0000
0000
,
0000
0000
0000
0000
,
0000
0000
0003
0000
,
1000
0000
0000
0100
0000
0000
0001
0000
0000
0020
0000
0000
0000
0000
0000
0000
,
1030
0000
0000
0010
0000
0000
0001
0000
0000
0200
0000
0000
0000
0000
0000
0000
,
1300
0000
0000
0100
0000
0000
0010
0000
0000
0002
0000
0000
0000
0000
0000
0000
,
1003
0000
0000
0010
0000
0000
0100
0000
0000
0002
0000
0000
0000
0000
0000
0000
,
1003
1000
0100
0100
,
0001
0001
0010
0010
,
1000
1000
0010
0010
,
0001
0001
0100
0100
,
1000
0010
1000
0010
0100
0001
0100
0001
,
1000
0100
1000
0100
0010
0001
0010
0001
,
0011
0000
0000
1010
0000
0000
0101
0000
0000
1100
0000
0000
0110
0000
0001
1000
,
0001
0000
1000
0100
0000
1000
0001
0100
0010
1000
0001
0010
0100
1000
0001
0000
,
0101
1100
0000
0011
0000
1010
0000
2002
,
0000
0000
0000
0000
0000
0000
3003
0000
2000
3002
2003
3002
2003
0000
0000
0000
,
3001
0000
0100
0001
0000
1000
0001
0000
0010
0100
0000
1000
0010
0000
0100
0000
,
0001
0000
1000
0100
0000
0010
0001
0000
0100
0010
0000
1000
0001
0000
0010
0000
,
0100
1000
0000
0100
0001
0000
0100
0010
0000
0001
1000
0000
0001
0000
0100
0000
,
0010
1000
0001
0010
0100
0010
0001
0000
0101
0000
1001
0000
0000
0000
1100
0000
,
1001
0000
0001
1000
0000
0001
0100
0000
0001
0000
1000
0000
0100
0010
0001
0000
,
1000
0000
0001
0100
0000
0010
1000
0000
0001
0010
0000
0100
1000
0000
0001
0000
,
0011
0000
0000
0001
0000
0000
1000
0000
1010
0000
0010
0000
0100
0000
0101
0000
,
0000
0000
0110
0000
0000
0000
1001
0000
1000
0000
0001
1000
0100
0010
0001
0000
,
1000
0001
0000
0100
0010
0000
0100
0001
0000
0010
0100
0000
1000
0000
0010
1000
,
0001
0000
0100
0001
0000
1000
0001
0000
0010
0100
0000
1000
0010
0000
0100
0000
,
0010
0000
1000
0010
0000
0100
0001
0000
1000
0100
0000
0010
0001
0000
1001
0000
,
0000
0000
1010
0000
0000
0000
0101
0000
1001
0000
0001
0010
0100
0000
1000
0000
,
0002
0000
0000
0023
0000
0000
2030
0000
0000
3020
0000
0000
0031
1000
0001
1000
,
0020
0000
0000
0230
0000
0000
0302
0000
1003
0000
0000
0100
0000
0000
0010
0000
,
0011
0000
0000
0001
0000
0000
1000
0000
0001
0100
0010
1000
0010
0100
0001
0000
,
1000
0100
0010
0001
1000
0001
0100
0010
1000
0000
0000
0001
0000
0000
0010
0000
,
0220
0330
0000
0000
0000
0000
0000
0000
0000
0000
0000
0000
0000
0000
0000
0000
2100
0000
0000
0000
0000
0000
0000
0000
3001
0000
0000
0000
0000
0000
0000
0000
0100
0000
0000
0000
0000
0000
0000
0000
0010
0000
0000
0000
0000
0000
0000
0000
1000
0000
0000
0000
0000
0000
0000
0000
0001
0000
0000
0000
0010
0000
0000
0000
,
0100
0000
1000
0000
0001
0000
0100
0000
0120
0000
1030
0000
0001
0000
0010
0100
,
1000
0000
0001
0000
0100
0000
1000
0100
0010
0000
0001
0010
1000
0000
0001
0000
,
0010
0000
0100
1000
0100
1000
0001
1000
0010
0000
0100
0000
0101
0000
0000
0000
,
1000
0000
0010
1000
0001
0000
0100
0010
1000
0001
0010
0000
0100
0000
2000
0000
,
0100
3020
0100
2030
0100
3010
0100
0220
,
0000
0000
0000
0000
0000
0000
0000
0000
0000
0000
0330
0000
0001
1000
0001
1000
,
0001
0010
0001
0010
0100
1000
0100
1000
0001
0100
0001
0100
0010
0000
1000
0000
,
0001
0000
0000
0000
0000
0000
1000
0000
0000
0000
0000
0000
0200
0000
0000
0000
0000
0000
0000
0000
0000
0000
0000
0000
0000
0000
0000
0000
1300
0010
0100
0001
,
2000
0000
0000
0000
,
0000
0000
0000
0000
,
3000
0000
0000
0000
;

//--------------- dance-single - Fred-104† ----------------
#NOTEDATA:;
#STEPSTYPE:dance-single;
#DESCRIPTION:Fred-104†;
#DIFFICULTY:Challenge;
#METER:18;
#DISPLAYBPM:46.25:370;
#BPMS:0=92.5,16=185,119=370,121=92.5,129.5=185,129.833333=92.5,131.5=185,131.666667=92.5,133=185,137=92.5,139=185,140.5=92.5,147=185,155=740,163=555,169=370,173=185,175=46.25,183=92.5,191=185,214=370,216=185,280=370,281=185,312=46.25,314=23.125,316=185;
#STOPS:129.5=0.054,129.666667=0.054,131.5=0.054,139=0.243,139.75=0.243,280=0.162;
#TIMESIGNATURES:0=4=4,116=5=4,121=4=4,137=2=4,139=4=4,211=5=4,216=4=4;
#CREDIT:Fred-104†;
#NOTES:
0000
0000
0000
0000
,
0000
0000
0000
0000
,
0000
0000
0000
0000
,
2000
0000
0000
3200
0000
0000
0302
0000
0023
0000
0000
0000
1030
0000
0000
0000
,
2002
0000
0000
0000
,
0000
0000
0000
3003
,
1000
0000
0001
0010
0100
0000
1000
0010
0100
0000
0010
0000
2000
0000
0000
0000
,
3100
0000
0010
0001
0100
0000
0010
1000
0001
0000
0010
1000
0010
0000
0001
0100
,
1000
0000
0100
0010
1000
0000
0100
0010
0001
0000
0100
1000
0100
0000
0010
0000
,
0100
0000
0001
1000
0100
0010
0001
1000
0010
0000
0100
0001
1000
0000
0100
0000
,
0110
0000
0001
0100
1000
0000
1000
0100
0001
0000
0010
0100
2000
0000
0000
0000
,
3001
0000
0100
0010
1000
0001
0010
0000
0100
0000
0010
0001
1000
0010
0100
0000
,
0001
1000
0100
1000
0001
0100
0001
1000
0100
0000
0000
0001
0100
0010
0001
0000
,
1000
0010
1000
0100
1000
0001
0100
0001
1000
0100
0010
0001
0010
0100
1000
0001
,
0100
0000
0001
0100
0010
0000
0001
0000
0010
0100
0001
0000
1000
0000
0100
0000
,
0010
0001
0000
0010
1000
0000
0010
0001
0000
0100
1000
0000
0100
0010
1000
0000
,
0001
0010
1000
0000
0010
0000
0001
1000
0010
0000
0001
0000
0010
0100
0001
0000
,
1000
0000
0100
0000
1100
0000
0101
0000
1000
0000
1001
0000
0001
0100
0010
0000
,
1000
0100
0000
0001
1000
0000
0010
0001
0000
1000
0100
0000
0020
0000
0000
0000
,
0031
0100
0000
1000
0001
0000
0010
1000
0000
0001
0010
0000
0100
1000
0001
0100
,
0010
0000
0000
0000
0000
0000
0000
0000
0000
1000
0000
0000
0000
0000
0000
0000
0000
0000
0100
0000
0000
0000
0000
0000
0110
0000
0000
0000
0000
0000
0001
0000
1000
0000
0001
0000
1000
0000
0000
0000
0000
0000
0001
0000
0000
0000
0000
0000
,
0100
0001
1000
0000
1100
0000
0110
0000
0000
0000
0011
0000
0001
0100
1000
0100
,
0002
0000
0000
1003
0100
0001
0100
0000
1000
0100
0010
0000
0001
1000
0010
0000
,
0100
0001
0000
0010
0100
0000
0001
0100
0000
0010
0001
0000
1000
0010
0100
0000
,
0001
0010
0000
0100
1000
0000
0001
1000
0100
1000
0010
0000
0100
0001
1000
0001
,
0010
0000
0000
0000
0000
0000
0000
0000
0000
0000
0000
0000
0110
0000
0000
0000
0000
0000
1100
0000
0000
0000
0000
0000
1001
0000
0000
0000
0000
0000
0001
0000
0010
0000
0100
0000
1000
0000
0000
0001
0000
0000
0100
0000
0000
0010
0000
0000
,
2000
0000
0000
0100
0000
0000
0001
0000
0000
0010
0000
0000
3100
1000
0001
0100
,
0001
0010
0000
1000
0010
0000
0100
1000
0000
0001
0100
0000
0010
0000
1000
0000
,
0100
0000
0010
0000
0001
0000
0100
0010
0001
0010
0100
0001
0010
0100
1000
0001
,
1000
0100
1000
0001
0100
0001
1000
0100
0010
0001
0100
0010
2000
0000
0000
0000
,
0000
0000
0000
0000
0000
0000
0000
0000
0000
0000
0000
0000
0000
0000
0000
0000
0000
0000
0000
0000
0000
0000
0000
0000
3001
0000
0000
0000
0000
0000
0000
0000
0000
0000
0000
0000
0000
0000
0000
0000
0000
0000
0110
0000
0000
0000
0000
0000
0000
0000
0000
0000
0000
0000
0000
0000
0000
0000
0000
0000
1000
0000
0000
0100
0000
0000
0010
0000
0000
0001
0000
0000
1000
0000
0000
0010
0000
0000
0100
0000
0000
0001
0000
0000
1000
0000
0000
0000
0100
0000
0000
0000
0001
0000
0000
0000
,
0100
0000
0000
0000
1000
0000
0000
0000
0010
0000
0000
0000
0200
0000
0000
0000
0000
0000
0302
0000
0000
0000
0000
0000
1003
0000
0000
0000
0100
0000
0000
0000
0010
0000
0000
0000
0001
0000
0000
0000
0010
0000
0000
0000
0100
0000
0000
0000
1100
0000
0000
0000
1000
0000
0000
0000
0001
0000
0000
0000
0200
0000
0000
0000
0000
0000
0301
0000
0000
1000
0000
0000
0001
0000
0000
0000
0100
0000
0000
0000
1000
0000
0000
0000
0001
0000
0000
0000
0010
0000
0000
0000
1000
0000
0000
0000
,
0100
0000
0000
0000
0000
0000
0000
0000
0010
0000
0000
0000
0000
0000
0000
0000
0001
0000
0000
0000
0000
0000
0000
0000
1000
0000
0000
0000
0000
0000
0000
0000
0020
0000
0000
0000
0000
0000
0000
0000
0000
0000
0000
0000
0000
0000
0000
0000
1030
0000
0000
0000
0000
0000
0000
0000
0000
0000
0000
0000
0000
0000
0000
0000
0000
0000
0000
0000
0000
0000
0000
0000
0200
0300
0000
0000
0000
0000
0000
0000
0200
0300
0000
0000
0000
0000
0000
0000
0000
0000
0000
0000
0000
0000
0000
0000
1001
0000
0000
0000
0000
0000
0000
0000
0000
0000
0000
0000
0000
0000
0000
0000
0000
0000
0000
0000
0000
0000
0000
0000
1000
0000
0000
0000
0000
0000
0000
0000
0100
0000
0000
0000
0000
0000
0000
0000
0010
0000
0000
0000
0000
0000
0000
0000
1000
0000
0000
0000
0000
0000
0000
0000
0010
0000
0000
0000
0000
0000
0000
0000
0001
0000
0000
0000
0000
0000
0000
0000
0020
0030
0000
0000
0000
0000
0000
0000
0100
0000
0000
0000
0000
0000
0000
0000
1000
0000
0000
0000
0000
0000
0000
0000
,
0001
0100
0010
1000
0001
0100
0010
1000
0001
0000
0000
0000
1000
0000
0001
0000
0010
0000
0000
0000
0100
0000
1000
0000
0001
0000
0100
0000
0010
0000
1000
0000
,
0001
0000
0000
0000
0000
0000
0000
0000
0000
0000
0000
0000
0010
0000
0000
0000
0000
0000
0000
0000
0000
0000
0000
0000
0100
0000
0000
0000
0000
0000
0000
0000
0000
0000
0000
0000
1000
0000
0000
0000
0000
0000
0000
0000
0000
0000
0000
0000
0001
0000
0000
0000
0000
0000
0000
0000
0000
0000
0000
0000
0000
0000
0000
0000
0000
0000
0000
0000
0000
0000
0000
0000
1001
0000
0000
0000
0000
0000
0000
0000
0000
0000
0000
0000
1000
0000
0000
0000
0000
0000
0100
0000
0000
0000
0000
0000
0001
0000
0000
0000
0000
0000
0000
0000
0000
0000
0000
0000
0100
0000
0000
0000
0000
0000
0010
0000
0000
0000
0000
0000
0000
0000
0000
0000
0000
0000
0001
0000
0000
0000
0000
0000
1000
0000
0000
0000
0000
0000
0000
0000
0000
0000
0000
0000
2002
3003
0000
0000
0000
0000
0000
0000
0000
0000
0000
0000
0000
0000
0000
0000
0000
0000
0000
0000
0000
0000
0000
0000
0000
0000
0000
0000
0000
0000
0000
0000
0000
0000
0000
0000
0220
0330
0000
0000
0000
0000
0000
0000
0000
0000
0000
0000
,
0000
0000
0000
2002
0000
0000
0000
0000
0000
0000
0000
0000
0000
0000
0000
3003
0000
0000
1000
0100
0010
0001
0100
0010
,
1010
0000
0000
0000
1000
0000
0000
0000
0001
0000
0000
0000
0020
0000
0000
0000
0000
0000
0130
0000
0000
1000
0000
0000
0001
0000
0000
0000
0100
0000
0000
0000
0010
0000
0000
0000
1000
0000
0000
0000
0001
0000
0000
0000
0010
0000
0000
0000
0110
0000
0000
0000
0100
0000
0000
0000
1000
0000
0000
0000
0001
0000
0000
0000
1000
0000
0000
0000
0001
0000
0000
0000
1000
0000
0000
0000
0000
0000
0000
0000
0100
0000
0000
0000
0000
0000
0000
0000
0010
0000
0000
0000
0000
0000
0000
0000
,
1000
0010
0001
0100
0010
0001
0010
1000
0001
0010
1000
0010
,
0100
1000
0010
0100
1000
0100
0001
1000
0100
0220
0000
0000
,
0000
0000
0000
0000
,
0000
0000
0000
0000
,
0000
0000
0000
0000
,
0000
0330
0000
0000
,
0000
0000
0000
0000
0000
0000
0000
0000
MMMM
0000
0000
0000
0000
0000
0000
0000
0000
0000
0000
0000
0000
0000
0000
0000
1000
0000
0000
0100
0000
0000
0001
0000
,
0000
0000
0020
0000
0000
0000
0000
0000
0000
0000
0000
0000
0000
0000
0000
0000
1030
0000
0000
0000
0000
0000
0010
0000
0000
0000
0000
0000
0001
0000
0000
0000
0000
0000
0200
0000
0000
0000
0000
0000
0000
0000
0000
0000
0000
0000
0000
0000
2300
3000
0001
0000
0010
0000
0200
0300
0000
0000
1000
0000
0002
0003
0000
0000
,
1000
0000
0200
0300
1000
0000
0010
0000
0100
0000
0010
0000
1000
0000
0001
0000
0020
0030
0100
0000
1000
0000
0200
0300
0001
0000
0100
0000
0020
0030
0000
0000
0001
0000
0200
0300
0010
0000
0001
0000
0010
0000
1000
0000
0100
0000
0010
0000
0002
0003
0000
0000
0010
0000
0000
0000
0100
0000
0000
0000
2000
3000
0000
0000
,
1001
0000
0000
0000
0001
0000
0000
0000
0200
0300
0000
0000
0010
0000
0000
0000
1010
0000
0000
0000
2000
3000
0000
0000
0100
0000
0000
0000
0010
0000
0000
0000
0011
0000
0000
0000
0001
0000
0000
0000
1000
0000
0000
0000
0010
0000
0000
0000
0220
0330
0000
0000
0100
0000
0000
0000
0001
0000
0000
0000
2000
3000
0000
0000
,
1100
0000
0000
0000
0100
0000
0000
0000
0020
0030
0000
0000
0001
0000
0000
0000
0011
0000
0000
0000
0020
0030
0000
0000
0100
0000
0000
0000
1000
0000
0000
0000
0001
0000
0100
0000
0001
0000
1000
0000
0100
0000
1000
0000
0001
0000
0100
0000
0020
0030
0000
0000
0000
0000
0000
0000
1000
0000
0000
0000
0001
0000
0000
0000
,
0010
0000
0000
0000
0000
0000
0000
0000
0200
0300
0000
0000
1000
0000
0000
0000
0001
0000
0000
0000
1000
0000
0000
0000
0010
0000
0000
0000
0000
0000
0000
0000
0200
0300
0000
0000
0001
0000
0000
0000
1000
0000
0000
0000
0001
0000
0000
0000
1000
0000
0000
0000
0000
0000
0000
0000
0200
0300
0000
0000
0010
0000
0000
0000
,
0000
0000
0000
0000
1000
0000
0000
0000
0010
0000
0000
0000
0000
0000
0000
0000
0100
0000
0000
0000
0010
0000
0000
0000
0000
0000
0000
0000
0001
0000
0000
0000
1000
0000
0000
0000
0001
0000
0000
0000
0100
0000
0000
0000
0000
0000
0000
0000
0002
0003
0000
0000
1000
0000
0000
0000
0001
0000
0000
0000
1000
0000
0000
0000
,
0100
0000
0000
0000
0010
0000
0000
0000
0002
0003
0000
0000
1000
0000
0000
0000
0010
0000
0000
0000
0100
0000
0000
0000
0010
0000
0000
0000
1000
0000
0000
0000
0002
0003
0000
0000
0010
0000
0000
0000
0100
0000
0000
0000
1000
0000
0000
0000
0100
0000
0000
0000
0010
0000
0000
0000
0002
0003
0000
0000
0100
0000
0000
0000
,
0010
1000
0100
0010
0001
0010
0100
1000
0010
0100
0001
0000
0011
0000
1010
0000
,
0000
0101
0000
1100
0000
2002
0000
0000
,
0000
0000
0000
3003
0000
0000
1000
0100
0010
0001
0010
0100
2000
0000
0000
0000
0000
0000
0000
0000
0000
0000
0000
0000
,
3001
0000
0100
0001
0000
1000
0001
0000
0010
0100
0000
1000
0010
0000
0100
0001
,
1000
0000
0100
0010
0000
0001
1000
0000
0001
0010
0000
0100
1000
0001
0100
0000
,
0010
1000
0000
0010
0001
0000
0010
0100
0000
0001
1000
0000
0100
0010
0001
1000
,
0010
0100
0001
0010
0100
1000
0001
0100
0010
0000
1010
0000
0000
0000
1100
0000
,
1001
0000
0001
0010
0000
0100
0010
0000
0001
0100
0000
0010
1000
0001
0010
0100
,
1000
0000
0010
0100
0000
0010
1000
0000
0100
0010
0000
0001
1000
0000
0010
0000
,
0110
0000
0001
0010
0000
0100
1000
0000
0001
0010
0100
0000
1000
0000
1001
0000
,
0000
0000
0000
0000
0000
0000
1010
0000
0000
0000
0000
0000
1000
0000
0000
0000
0000
0000
0001
0000
0000
0000
0000
0000
0100
0000
0000
0010
0000
0000
1000
0000
0000
0000
0000
0000
0001
0000
0010
0000
0100
0000
1000
0000
0000
0000
0000
0000
,
0001
0010
0000
1000
0010
0000
0001
0100
0000
1000
0100
0000
0010
1000
0001
0010
,
0100
0000
1000
0100
0000
0001
0100
0000
0010
0001
0000
1000
0010
0100
0001
0000
,
1000
0001
0000
0010
0100
0000
0001
0100
0000
0010
0001
0000
1000
0010
0100
0001
,
1000
0000
0000
0100
0000
0000
0010
0000
0000
0001
0000
0000
0010
0000
0000
0100
0000
0000
1000
0000
0000
0001
0000
0000
0100
0000
0000
0000
0000
0000
0010
0000
1000
0000
0001
0000
1000
0000
0000
0100
0000
0000
0010
0000
0000
0000
0000
0000
,
0011
0000
0000
1010
0000
0000
0101
0000
0000
1100
0000
0000
0001
0010
0100
1000
,
0001
0000
0000
0110
0000
0000
1001
0000
1000
0000
0100
0010
0000
0001
1000
0000
,
0020
0000
0000
2030
0000
0000
3002
0000
0013
0100
1000
0001
0100
0010
1000
0010
,
0100
0001
1000
0100
0010
0001
0100
0010
1000
0010
0100
0001
0010
0100
1000
0001
,
2000
3000
0000
0000
0000
0000
0000
0000
0000
0000
0000
0000
0000
0000
0000
0000
0001
0000
0000
0000
0000
0000
0000
0000
0100
0000
0000
0000
0001
0000
0000
0000
0010
0000
0000
0000
0000
0000
0000
0000
0100
0000
0000
0000
0000
0000
0000
0000
0010
0000
0000
0000
0001
0000
0000
0000
1000
0000
0000
0000
0010
0000
0000
0000
,
0100
0000
0001
1000
0100
0000
0010
0000
0001
0000
0100
0010
0001
0000
0010
0000
,
0100
0000
0001
0000
1000
0000
0001
0100
1000
0000
0100
0010
0001
0000
0010
0000
,
1000
0000
0001
0010
1000
0010
0100
1000
0001
0000
1000
0000
0001
0000
0100
0010
,
1000
0000
0001
0010
0100
0000
1000
0010
0100
0010
1000
0000
0001
0010
0100
1000
,
0001
0000
0100
0001
1000
0000
0001
0100
0010
1000
0001
0000
0000
0000
2002
0000
,
0000
0000
0000
0000
0000
0000
0000
0000
0000
0000
3003
0000
1000
0100
0010
0001
,
1000
0010
0100
0001
0100
0010
1000
0001
0010
0100
1000
0010
0100
0001
0010
0100
,
1000
0000
0000
0000
0000
0000
0100
0000
0000
0000
0000
0000
0020
0000
0000
0000
0000
0000
0000
0000
0000
0000
0000
0000
0000
0000
0030
0000
0001
0100
1000
0100
0002
0000
0000
0000
0000
0000
0000
0000
0000
0000
0000
0000
0000
0000
0000
0000
0000
0000
0000
0000
0000
0000
0000
0000
0000
0000
0000
0000
0000
0000
0000
0000
,
0003
0000
0000
0000
;

//--------------- dance-double - Fred-104 ----------------
#NOTEDATA:;
#STEPSTYPE:dance-double;
#DESCRIPTION:Fred-104;
#DIFFICULTY:Easy;
#METER:10;
#CREDIT:Fred-104;
#NOTES:
00000000
00000000
00000000
00000000
,
00000000
00000000
00000000
00000000
,
00000000
00000000
00000000
00000000
,
00000002
00000000
00000003
00002000
00000000
00003000
00000200
00000000
00000300
00000000
00000000
00000000
00010000
00000000
00000000
00000000
,
00022000
00000000
00000000
00000000
,
00000000
00000000
00033000
00000000
,
00001000
00000000
00000000
00100000
00000000
00100000
01000000
00000000
,
00100000
00010000
01000000
00100000
,
10000000
00000000
00000000
01000000
00000000
01000000
00100000
00000000
,
00001000
00010000
00001000
00000000
00010000
00000010
00010000
00000000
,
00001000
00000000
00010000
00000000
00000010
00001000
00000010
00000000
,
00000100
00000000
00000001
00000000
00000010
00000100
00000010
00000000
,
00001000
00010000
01000000
00100000
,
00220000
00000000
00000000
00330000
,
10000000
00000000
00010000
00000000
01000000
00100000
01000000
00000000
,
00001000
00000000
00000000
00010000
00000000
00000000
00001000
00000000
,
00010000
00000000
00000000
00000100
00000000
00000000
00001000
00000000
,
00000001
00000000
00000100
00000100
00000000
00000110
00000000
00010000
,
00001000
00000000
00000000
00100000
00000000
00000000
02000000
00000000
,
13000000
00000000
00000000
00100000
00000000
00000000
02000000
00000000
,
03001000
00010000
00011000
00000010
,
00001000
00000000
00000001
00000001
00000000
00000010
00000100
00001000
,
00002002
00000000
00000000
00003003
00000001
00000000
00000100
00000000
,
00001000
00000000
00000000
00010000
00000000
00000000
01000000
00000000
,
10000000
00000000
00000000
00010000
00000000
00000000
10000000
00000000
,
00100000
00000000
00010000
00010000
00000000
00001000
00000010
00000001
,
00000010
00000000
00000000
00000100
00000000
00000000
00002000
00000000
,
00003100
00000000
00000000
00010000
00000000
00000000
00002000
00000000
,
00103000
00001000
00010000
00100000
,
01000000
00000000
00001000
00000000
00010000
00001000
00010000
00000000
,
00011000
00000000
00000000
00001000
00000000
00000000
00020000
00000000
00000000
00000000
00000000
00000000
00000000
00000000
00000000
00000000
,
00031000
00010000
00100000
01000000
00010000
10000000
01000000
00000000
,
00100000
00110000
00001000
00010000
00000010
00001010
00000002
00002003
,
00003001
00000100
00001000
00010000
,
00100000
00000000
00000000
00000000
10000000
00000000
00000000
00000000
01000000
00000000
00000000
01000000
00000000
00000000
01000000
00000000
,
00100000
00000000
00000000
00001000
00000000
00000000
00022000
00000000
00000000
00000000
00000000
00000000
00000000
00000000
00033000
00000000
,
00010000
00010000
00001000
00001000
00000010
00000010
00000001
00000001
,
00000100
00001000
00010000
00100000
,
10000000
01000000
00010000
00001000
,
00022000
00000000
00000000
00000000
,
00000000
00000000
00000000
00000000
,
00000000
00000000
00000000
00000000
,
00000000
00000000
00000000
00000000
,
00000000
00000000
00033000
00000000
,
00010000
00000000
00000000
00001000
00000000
00000000
00000100
00000000
00000000
00000002
00000000
00000000
00000003
00000000
00000000
00000000
,
00000010
00000000
00000000
00000100
00000000
00000000
00010000
00000000
00000000
00002000
00000000
00000000
00003000
00000000
00000000
00000000
,
00010000
00000000
00000000
00100000
00000000
00000000
10000000
00000000
00000000
00020000
00000000
00000000
00030000
00000000
00000000
00000000
,
10000000
00000000
00000000
01000000
00000000
00000000
00100000
00000000
00000000
00020000
00000000
00000000
00030000
00000000
00000000
00000000
,
10000000
01000000
00100000
00000000
,
00001000
00010000
00100000
00000000
,
01000000
00001000
00010000
00000000
,
00001000
00000100
00000001
00001000
,
00000100
00000010
00000001
00001000
,
00000010
00000100
00001000
00010000
,
00100000
01000000
00100000
00000000
10000000
00010000
10000000
00000000
,
00100000
01000000
00100000
01000000
00100000
01000000
00100000
00000000
,
10000000
10000000
00000000
01000000
00000000
00010000
00000000
00022000
,
00000000
00000000
00000000
00033000
,
00010000
00000000
00000000
00001000
00000000
00000000
00000100
00000000
00000000
00000010
00000000
00000000
00001000
00000000
00000000
00000000
,
00000001
00000000
00000000
00000010
00000000
00000000
00000100
00000000
00000000
00010000
00000000
00000000
00001000
00000000
00000000
00000000
,
00100000
00000000
00000000
00010000
00000000
00000000
01000000
00000000
00000000
00100000
00000000
00000000
01000000
00000000
00010000
00000000
,
10000000
00000000
01000000
00000000
00100000
00100000
00000000
00001000
,
00001000
00000000
00000000
00010000
00000000
00000000
00000010
00000000
00000000
00010000
00000000
00000000
00001000
00000000
00000000
00000000
,
00010000
00000000
00000000
00000100
00000000
00000000
00001000
00000000
00000000
00000100
00000000
00000000
00010000
00000000
00001000
00000000
,
00000100
00000000
00000000
00000001
00000000
00000000
00001000
00000000
00000100
00000000
00000010
00000000
00000001
00000000
00000001
00000000
,
00000000
00000000
00000100
00000000
00001000
00000000
00010000
00000000
00001000
00000000
00000000
00010000
00000000
00000000
00001000
00000000
,
00011000
00000000
00000000
00001000
00000000
00000000
00100000
00000000
00000000
01000000
00000000
00000000
10000000
00000000
00000000
00000000
,
00010000
00000000
00000000
01000000
00000000
00000000
00100000
00000000
00000000
10000000
00000000
00000000
00010000
00000000
00000000
00000000
,
10000000
00000000
00000000
01000000
00000000
00000000
00100000
00000000
00000000
00001000
00000000
00000000
00010000
00000000
00001000
00000000
,
00010000
00000000
00000010
00000000
00010000
00000000
00000010
00000000
00001000
00000000
00000000
00000001
00000000
00000000
00000100
00000000
,
00000001
00000000
00000000
00000010
00000000
00000000
00001000
00000000
00000000
00010000
00000000
00000000
00200000
00000000
00000000
00000000
,
10300000
00000000
00000000
00010000
00000000
00000000
10000000
00000000
01000000
00000000
00000000
00010000
00000000
00000000
00001000
00000000
,
00010000
00000000
00000000
00001000
00000000
00000000
00000100
00000000
00000001
00000000
00001000
00000000
00000001
00000000
00000000
00000000
,
00000100
00000000
00000001
00000000
00001000
00000000
00000100
00000000
00010000
00000000
00000000
00001000
00000000
00000000
00010000
00000000
,
00022000
00000000
00033000
00000000
00001000
00010000
00100000
00000000
,
01000000
00100000
01000000
00000000
00010000
10000000
00100000
00000000
,
10000000
00000000
01000000
00100000
00001000
00010000
00001000
00000000
,
00010000
00000000
00001000
00010000
00000010
00001000
00000010
00000000
,
00001000
00000000
00000100
00000010
00000000
00000001
00000100
00000000
,
00001000
00010000
00000000
00100000
00000000
01000000
00000000
20020000
,
00000000
00000000
00000000
00000000
00000000
30030000
10000000
00100000
,
10000000
00010000
00100000
00001000
00010000
00001000
00100000
00001000
,
00010000
00000000
00000000
00000010
00000000
00000000
00002000
00000000
00000000
00000000
00000000
00000000
00000000
00000000
00003000
00000000
,
00002002
00000000
00000000
00000000
,
00000000
00000000
00000000
00000000
,
00003003
00000000
00000000
00000000
;

//--------------- dance-double - Fred-104 ----------------
#NOTEDATA:;
#STEPSTYPE:dance-double;
#DESCRIPTION:Fred-104;
#DIFFICULTY:Medium;
#METER:14;
#CREDIT:Fred-104;
#NOTES:
00000000
00000000
00000000
00000000
,
00000000
00000000
00000000
00000000
,
00000000
00000000
00000000
00000000
,
20000000
00000000
00000000
30020000
00000000
00000000
00230000
00000000
00300000
00000000
00000000
00000000
00001000
00000000
00000000
00000000
,
00022000
00000000
00000000
00000000
,
00000000
00000000
00033000
00000000
,
00010000
00001000
00000100
00000010
00001000
00000001
00000010
00000000
,
00000001
00001000
00000010
00000100
00001000
00010000
00100000
01000000
,
00010000
10000000
01000000
00100000
00001000
00010000
00000100
00010000
,
00001000
00000000
00000100
00000000
00000001
00001000
00000001
00000000
00000010
00000000
00000100
00000000
00001000
00000000
00000000
00000000
,
00000001
00000100
00001000
00000000
00010000
01000000
10000000
00000000
,
10000000
00100000
00010000
00000000
00001000
00000010
00000001
00000000
,
00001000
00000000
00000001
00000000
00000010
00000000
00000100
00000000
00001000
00000000
00000000
00000100
00010000
00001000
00010000
00000000
,
00001000
00000000
01000000
00000000
00010000
00000000
01000000
00000000
00001000
00010000
00001000
00010000
00001000
00010000
00001000
00010000
,
00001000
00000000
00010000
00001000
00000010
00000001
00000010
00000100
,
00001000
00000001
00000100
00001000
00010000
01000000
00100000
00000000
,
00010000
10000000
00100000
00010000
00001000
00000010
00000100
00000000
,
00001000
00000000
00000001
00000101
00000000
00001001
00000001
00000100
,
00000010
00000000
00000000
00010000
00000000
00000000
00001000
00000000
00000000
00010000
00000000
00000000
00200000
00000000
00000000
00000000
,
01300000
00000000
00000000
00010000
00000000
00000000
10000000
00000000
00000000
01000000
00000000
00000000
00100000
00010000
00100000
00000000
,
00001000
00000000
00000000
00010000
00000000
00000000
00000010
00000000
00001010
00000000
00000000
00000000
00001000
00000000
00000100
00000000
,
00000010
00000000
00000001
00000101
00000000
00000110
00000010
00001000
,
00000001
00000000
00000000
00000010
00000100
00000010
00000100
00000000
00000010
00000000
00001000
00000000
00010000
00000000
01000000
00000000
,
00100000
01000000
10000000
00100000
00010000
00001000
00010000
00000000
,
00001000
00010000
00001000
00000100
00000001
00000100
00000010
00001000
,
00000100
00000000
00010000
00011000
00000000
00000010
00010000
00001000
,
00101000
00000000
00000000
00001000
00000000
00000000
00010000
00000000
00000000
00000010
00000000
00000000
00010010
00000000
00000000
00000000
,
00011000
00000000
00000000
00001000
00000000
00000000
01000000
00000000
00000000
00001000
00010000
00000000
00000100
00000000
00001000
00000000
,
00000001
00000000
00000000
00000010
00000000
00000000
00000100
00001000
00000100
00000000
00010000
00000000
00001000
01000000
00001000
00000000
,
00010000
00000000
00000000
00001000
00000000
00000000
00000010
00000000
00000001
00001000
00000001
00001000
00000002
00000000
00000000
00000000
,
00000103
00000000
00000000
00000000
00000000
00000000
00000000
00000000
00000000
00000010
00000000
00000000
00000000
00000000
00000000
00000000
00000000
00000000
00010000
00000000
00000000
00001000
00000000
00000000
00010000
00000000
00000000
00100000
00000000
00000000
10000000
00000000
00010000
00000000
10000000
00000000
00010000
00000000
00000000
00000000
10000000
00000000
02000000
00000000
00000000
03200000
00000000
00000000
,
00301000
00000000
00000000
00000000
00001000
00000000
00000010
00000000
00000000
00000000
00000010
00000000
00000100
00000000
00000000
00000000
00000100
00000000
00001000
00000000
00000000
00000001
00000000
00000000
00000100
00000000
00000000
00000000
00000100
00000000
00001000
00000000
00000000
00000000
00001000
00000000
00010000
00000000
00000000
00000000
00010000
00000000
00100000
00000000
10000000
00000000
00000000
00000000
,
10010000
00000000
00000000
00000000
00000000
00000000
10000000
00000000
01000000
00000000
00000000
00000000
01100000
00000000
00000000
00000000
00000000
00000000
00100000
00000000
00000000
00000000
00100000
00000000
00001000
00000000
00000000
00000000
00001000
00000000
00010000
00000000
00000000
00000000
00010000
00000000
00000010
00000000
00000000
00001000
00000000
00000000
00000010
00000000
00000000
00010000
00000000
00000000
,
00001000
00010000
00100000
01000000
00010000
00001000
00000010
00001000
,
00000100
00000000
00000000
00000000
00000010
00000000
00000001
00000000
00000100
00000000
00000000
00001000
00000000
00000000
00010000
00000000
,
00011000
00000000
00000000
00010010
00000000
00000000
00022000
00000000
00000000
00000000
00000000
00000000
00000000
00000000
00033000
00000000
,
00010000
00000000
00000000
00000000
00010000
00000000
00001000
00000000
00000000
00000000
00001000
00000000
00000100
00000000
00000000
00000000
00000100
00000000
00000001
00000000
00000000
00000010
00000000
00000000
00000100
00000000
00000000
00000000
00000100
00000000
00010000
00000000
00000000
00000000
00010000
00000000
00001000
00000000
00000000
00000000
00001000
00000000
00200000
00000000
00000000
00000000
00000000
00000000
,
00301000
00000000
00001000
00010000
00000000
00010000
00100000
00000000
00100000
10000000
00000000
10000000
,
00010000
00000000
00010000
10000000
00000000
10000000
01000000
00000000
01000000
00100000
00000000
00001000
,
00020000
00000000
00000000
00000000
,
00000000
00000000
00000000
00000000
,
00000000
00000000
00000000
00000000
,
00000000
00000000
00000000
00000000
,
00000000
00000000
00030000
00000000
,
00001000
00000000
00000000
00010000
00000000
00000000
01000000
00000000
00000000
00200000
00000000
00000000
00000000
00000000
00000000
00000000
,
00310000
00000000
00000000
01000000
00000000
00000000
00100000
00000000
00000000
00020000
00000000
00000000
00000000
00000000
00000000
00000000
,
00031000
00000000
00000000
00000010
00000000
00000000
00000100
00000000
00000000
00002000
00000000
00000000
00000000
00000000
00000000
00000000
,
00003010
00000000
00000000
00000100
00000000
00000000
00001000
00000000
00000000
00020000
00000000
00000000
00000000
00000000
00000000
00000000
,
00031000
00010000
00100000
10000000
,
00010000
00100000
10000000
01000000
,
00010000
00001000
00000100
00000001
,
00000010
00001000
00010000
00001000
,
00010000
00001000
00000010
00000001
00000010
00000100
00001000
00000000
,
00000001
00000100
00001000
00010000
00100000
01000000
00100000
00000000
,
10000000
01000000
00100000
00001000
00010000
00000100
00000010
00000001
,
00000100
00001000
00010000
01000000
00100000
00010000
00100000
00000000
,
01000000
11000000
00000000
01100000
00000000
00101000
00000000
00022000
,
00000000
00000000
00000000
00000000
00000000
00000000
00033000
00000000
00001000
00010000
00001000
00010000
00002000
00000000
00000000
00000000
,
00013000
00000000
00000000
00000100
00000000
00000000
00001000
00000000
00000000
00000001
00000000
00000000
00000010
00000100
00000010
00000000
,
00000001
00000000
00000000
00000100
00000000
00000000
00001000
00000000
00000000
00010000
00000000
00000000
01000000
00000000
10000000
00000000
,
00100000
00000000
00000000
10000000
00000000
00000000
01000000
00000000
00000000
00100000
00000000
00000000
00001000
00010000
00001000
00000000
,
00000010
00000100
00001000
00000100
00000010
00000011
00000000
00000001
,
00001001
00000000
00000000
00001000
00000000
00000000
00000010
00000000
00000000
00010000
00000000
00000000
00001000
00100000
00001000
00000000
,
00010000
00000000
00000000
00001000
00000000
00000000
01000000
00000000
00000000
00010000
00000000
00000000
00100000
00000000
01000000
00000000
,
11000000
00000000
00000000
00100000
00000000
00000000
00001000
00000000
00010000
00000000
00000100
00000000
00001000
00000000
00001001
00000000
,
00000000
00000000
00000001
00000000
00000010
00000000
00001000
00000000
00010000
00000000
00000000
00001000
00000000
00000000
00000100
00000000
,
00000001
00000000
00000000
00000010
00000000
00000000
00000100
00000000
00000000
00010000
00000000
00000000
00001000
00100000
00001000
00000000
,
00010000
00000000
00000000
00100000
00000000
00000000
01000000
00000000
00000000
00100000
00000000
00000000
10000000
00000000
00010000
00000000
,
00100000
00000000
00000000
01000000
00000000
00000000
00100000
00000000
00000000
00001000
00000000
00000000
00010000
00000100
00010000
00000000
,
00000100
00001000
00000100
00000000
00000010
00000001
00000010
00000001
00000010
00000000
00000000
00000100
00000000
00000000
00010000
00000000
,
00002000
00000000
00000000
00203000
00000000
00000000
00320000
00000000
00000000
20030000
00000000
00000000
31000000
00100000
01000000
00000000
,
00200000
00000000
00000000
00302000
00000000
00000000
00023000
00000000
00031000
00000000
00000000
00010000
00000000
00000000
00000010
00000000
,
00001010
00000000
00000000
00010000
00000000
00000000
00000100
00000000
00001000
00000000
00000001
00000000
00000010
00000000
00000100
00000000
,
00000010
00000000
00001000
00000000
00010000
00000000
01000000
00000000
00100000
00000000
00000000
00001000
00000000
00000000
00010000
00000000
,
00011000
00000000
00010010
00000000
00010000
00001000
00000010
00000100
,
00001000
00000001
00000010
00000100
00010000
00001000
00000100
00000010
,
00001000
00000001
00000100
00001000
00010000
00001000
00010000
01000000
,
10000000
00010000
10000000
00100000
00010000
00001000
00011000
00000000
,
00010000
00001000
00000010
00000001
00000010
00000100
00010000
01000000
,
00100000
00010000
10000000
00100000
00010000
00001000
00000000
00022000
,
00000000
00000000
00000000
00000000
00000000
00033000
00010000
00001000
,
01000000
00000000
00010000
00000000
10000000
00000000
01000000
00000000
00100000
00010000
00100000
00001000
00010000
00000000
00000100
00000000
,
00010000
00000000
00000000
00000000
00000000
00000000
00001000
00000000
00000000
00000000
00000000
00000000
02000000
00000000
00000000
00000000
00000000
00000000
00000000
00000000
00000000
00000000
00000000
00000000
00000000
00000000
00000000
00000000
03010000
10000000
00010000
10000000
,
02000000
00000000
00000000
00000000
,
00000000
00000000
00000000
00000000
,
03000000
00000000
00000000
00000000
;

//--------------- dance-double - Fred-104 ----------------
#NOTEDATA:;
#STEPSTYPE:dance-double;
#DESCRIPTION:Fred-104;
#DIFFICULTY:Hard;
#METER:17;
#CREDIT:Fred-104;
#NOTES:
00000000
00000000
00000000
00000000
,
00000000
00000000
00000000
00000000
,
00000000
00000000
00000000
00000000
,
00020000
00000000
00000000
00032000
00000000
00000000
00003200
00000000
00000300
00000000
00000000
00000000
00000001
00000000
00000000
00000000
,
00002002
00000000
00000000
00000000
,
00000000
00000000
00000000
00003003
,
00000001
00000100
00001000
00010000
00100000
10000000
00010000
00000000
,
10000000
00000000
01000000
00000000
00010000
00000000
00001000
00000000
00000020
00000000
00000032
00000000
00002003
00000000
00003001
00001000
,
00000001
00000100
00000010
00000100
00001000
00010000
00100000
10000000
,
00100000
00000000
01000000
00000000
00010000
00100000
00010000
00100000
00010000
00000000
10000000
00000000
00100000
00000000
01000000
00000000
,
00001000
00010000
00100000
10000000
00010000
00100000
02200000
03300000
,
10000000
00000000
01000000
00000000
00100000
00010000
00100000
00001000
00010000
00000000
00001000
00000000
00000010
00000000
00000001
00000000
,
00000010
00000000
00000100
00000000
00001000
00000000
00000001
00000000
00000100
00000000
00000000
00001000
00010000
00001000
00010000
00000000
,
01000000
00100000
01000000
00000000
00100000
00010000
10000000
00000000
00100000
10000000
00010000
00100000
01000000
10000000
01000000
00100000
,
00010000
10000000
00100000
00010000
00001000
00010000
00001000
00000100
,
00000010
00001000
00000100
00000010
00000001
00000100
00001000
00010000
,
00001000
00010000
00100000
10000000
01000000
00100000
00001000
00010000
,
00001000
00000000
00010000
00011000
00001000
00101000
00100000
00010000
,
10000000
00000000
01000000
00010000
00000000
00001000
00000010
00000000
00000001
00001000
00000000
00000010
00000200
00000000
00000000
00000000
,
00000301
00000000
00000100
00001000
00000000
00010000
00100000
00000000
10000000
00010000
00000000
00100000
01000000
10000000
01000000
10000000
,
01000000
00000000
00000000
00100000
00000000
00000000
00001000
00000000
00011000
00000000
00010000
00000000
00001000
00000000
00000100
00000000
,
00000001
00000000
00000000
00000000
00000010
00000000
00000011
00000000
00000000
00000000
00001001
00000000
00000001
00000010
00000100
00010000
,
00002000
00000000
00000000
00013000
00100000
01000000
00100000
00000000
10000000
00000000
01000000
10000000
00010000
00000000
10000000
00000000
,
00100000
00000000
00010000
00001000
00000000
00010000
00000100
00000000
00000010
00000100
00000000
00001000
00000001
00000000
00000100
00000000
,
00000010
00000000
00000100
00001000
00000000
00010000
00100000
00000000
01000000
00010000
00000000
10000000
01000000
00000000
00100000
00000000
,
00001000
00000000
00000000
00000000
00011000
00000000
00010010
00000000
00000010
00000000
00001000
00000100
00000010
00000001
00001000
00000010
,
00000100
00000000
00000000
00000101
00000000
00000000
00001100
00000000
00000000
00011000
00000000
00000000
00001000
00000000
00100000
00000000
,
00110000
00000000
00000000
10100000
00000000
00000000
01010000
00000000
00000000
10000000
01000000
00000000
00100000
00000000
00001000
00000000
,
00010000
00000000
00001000
00000000
00011000
00000000
00000000
00010000
00001000
00000010
00000001
00000010
00000100
00001000
00000100
00000000
,
00010000
00000000
00001000
00010000
00000000
00100000
01000000
00000000
00010000
10000000
00010000
10000000
00020000
00000000
00000000
00000000
,
10030000
00000000
00000000
00000000
00000000
00000000
00000000
00000000
00000000
00000000
00000000
00000000
00000000
00000000
00000000
00000000
00000000
00000000
01100000
00000000
00000000
00000000
00000000
00000000
00000000
00000000
00000000
00000000
00000000
00000000
00000000
00000000
00000000
00000000
00000000
00000000
00001000
00000000
00000000
00010000
00000000
00000000
00001000
00000000
00000000
00010000
00000000
00000000
00000100
00000000
00000000
00010000
00000000
00000000
00000100
00000000
00000000
00010000
00000000
00000000
00000100
00000000
00000000
00000000
00001000
00000000
00000000
00000000
00000100
00000000
00000000
00000000
00000010
00000000
00000000
00000000
00000001
00000000
00000000
00000000
00000100
00000000
00000000
00000000
00002000
00000000
00000000
00000000
00000000
00000000
00023000
00000000
00000000
00000000
00000000
00000000
,
00130000
00000000
01000000
00000000
00100000
00000000
10000000
00000000
00100000
00000000
01000000
00000000
00010000
00000000
10000000
00000000
01000000
00000000
00200000
00000000
00000000
00302000
00000000
00000000
00013000
00000000
00001000
00000000
00000100
00000000
00000001
00000000
00000100
00000000
00000010
00000000
00001000
00000000
00000001
00000000
00000010
00000000
00000100
00000000
00020000
00000000
00000000
00000000
,
00031000
00000000
00000000
00000000
00000000
00000000
00000000
00000000
00000000
00000000
00000000
00000000
00000000
00000000
00000000
00000000
00000000
00000000
00000000
00000000
00000000
00000000
00000000
00000000
00200000
00300000
00000000
00000000
00000000
00000000
00000000
00000000
00200000
00300000
00000000
00000000
00000000
00000000
00000000
00000000
00000000
00000000
00000000
00000000
00000000
00000000
00000000
00000000
10000000
00000000
00000000
00000000
00000000
00000000
00000000
00000000
00000000
00000000
00000000
00000000
00000000
00000000
00000000
00000000
00000000
00000000
00000000
00000000
00000000
00000000
00000000
00000000
00010000
00000000
00000000
00000000
00000000
00000000
00000000
00000000
10000000
00000000
00000000
00000000
00000000
00000000
00000000
00000000
01000000
00000000
00000000
00000000
00000000
00000000
00000000
00000000
00100000
00000000
00000000
00000000
00000000
00000000
00000000
00000000
00010000
00000000
00000000
00000000
00000000
00000000
00000000
00000000
00100000
00000000
00000000
00000000
00000000
00000000
00000000
00000000
00002000
00003000
00000000
00000000
00000000
00000000
00000000
00000000
00010000
00000000
00000000
00000000
00000000
00000000
00000000
00000000
00000010
00000000
00000000
00000000
00000000
00000000
00000000
00000000
00001000
00000000
00000000
00000000
00000000
00000000
00000010
00000000
00000000
00000000
00000000
00000000
00001000
00000000
00000000
00000000
00000000
00000000
00000001
00000000
00000000
00000000
00000000
00000000
00000100
00000000
00000000
00000000
00000000
00000000
00000001
00000000
00000000
00000000
00000000
00000000
00001000
00000000
00000000
00000000
00000000
00000000
00000001
00000000
00000000
00000000
00000000
00000000
,
00001000
00000000
00000000
00000000
00000001
00000000
00000100
00001000
00010000
00000000
00100000
01000000
00100000
10000000
00010000
00000000
,
00110000
00000000
00000000
00000000
10010000
00000000
10000000
01000000
00100000
00000000
00000000
00010000
00000000
00000000
01000000
00000000
,
01100000
00000000
00000000
00011000
00000000
00000000
00000220
00000000
00000000
00000000
00000000
00000000
00000000
00000000
00000330
00000000
,
00001000
00000000
00000100
00000000
00000010
00000000
00000001
00000000
00000100
00000000
00000010
00000000
00000100
00000000
00001000
00000000
00010000
00000000
00200000
00000000
00000000
20300000
00000000
00000000
30010000
00000000
10000000
00000000
01000000
00000000
00010000
00000000
00001000
00000000
00000010
00000000
00000001
00000000
00001000
00000000
00000100
00000000
00000020
00000000
00000000
00000000
00000000
00000000
,
00000031
00000000
00000001
00000100
00000000
00000100
00001000
00000000
00001000
00010000
00000000
00010000
,
01000000
00000000
01000000
10000000
00000000
10000000
00100000
00010000
00001000
00000010
00000001
00000010
,
00000200
00000000
00000000
00000000
,
00000000
00000000
00000000
00000000
,
00000000
00000000
00000000
00000000
,
00000000
00000000
00000000
00000000
,
00000000
00000000
00000300
00000000
,
00010000
00000000
00000000
00001000
00000000
00000000
00000010
00000000
00000000
00002000
00000000
00000000
00000000
00000000
00000000
00000000
,
00013000
00000000
00000000
00001000
00000000
00000000
00000100
00000000
00000000
00002000
00000000
00000000
00000000
00000000
00000000
00000000
,
00013000
00000000
00000000
00001000
00000000
00000000
00000010
00000000
00000000
00000002
00000000
00000000
00000000
00000000
00000000
00000000
,
00000103
00000000
00000000
00001000
00000000
00000000
00010000
00000000
00000000
00200000
00000000
00000000
00000000
00000000
00000000
00000000
,
10300000
10000000
01000000
01000000
,
00100000
00100000
00001000
00001000
,
00010000
00010000
00000100
00000100
,
00000010
00000010
00000001
00000001
,
00001000
00000100
00000010
00000001
00000100
00000010
00000100
00001000
,
00010000
00100000
01000000
00100000
10000000
01000000
00100000
00001000
,
00011000
00000000
00000000
00010010
00000000
00000000
01001000
00000000
00000000
00010100
00000000
00000000
00101000
00000000
00001000
00010000
,
00001000
00000000
00010000
00000100
00000000
00001000
00000001
00000010
00000100
00000000
00010000
00001000
00010000
00001000
00010000
00000000
,
00011000
00110000
00000000
10100000
00000000
01010000
00000000
20020000
,
00000000
00000000
00000000
00000000
00000000
00000000
30030000
00000000
20000000
30020000
20030000
30020000
20030000
00000000
00000000
00000000
,
30010000
00000000
10000000
01000000
00000000
00100000
00001000
00000000
00010000
00000100
00000000
00001000
00000100
00000000
00000010
00000000
,
00000001
00000000
00001000
00000010
00000000
00000100
00001000
00000000
00010000
00100000
00000000
01000000
00010000
00000000
01000000
00000000
,
00001000
00010000
00000000
00001000
01000000
00000000
00001000
00010000
00000000
00000100
00001000
00000000
00000100
00000000
00000010
00000000
,
00000001
00001000
00000001
00001000
00000001
00000010
00000100
00000000
00010000
00000000
00011000
00000000
00000000
00000000
00010010
00000000
,
00011000
00000000
00001000
00100000
00000000
00001000
00010000
00000000
00001000
00010000
00000000
00100000
01000000
00000000
00100000
00000000
,
10000000
00000000
00010000
00100000
00000000
10000000
00100000
00000000
01000000
10000000
00000000
01000000
00100000
00000000
00001000
00000000
,
00011000
00000000
00000000
00010000
00000000
00000000
00000010
00000000
00001010
00000000
00001000
00000000
00000100
00000000
00000110
00000000
,
00000000
00000000
00000011
00000000
00000000
00000000
00001001
00000000
00001000
00000000
00000001
00001000
00000010
00010000
00001000
00000000
,
00100000
00010000
00000000
00100000
01000000
00000000
10000000
00100000
00000000
00010000
00100000
00000000
01000000
00000000
00100000
10000000
,
00010000
00000000
10000000
01000000
00000000
00100000
00001000
00000000
00010000
00001000
00000000
00000100
00000010
00000000
00001000
00000000
,
00000001
00000000
00000010
00000100
00000000
00001000
00000100
00000000
00010000
00001000
00000000
01000000
00001000
00000000
00011000
00000000
,
00000000
00000000
00010010
00000000
00000000
00000000
00011000
00000000
00101000
00000000
00100000
00010000
10000000
00000000
00100000
00000000
,
02000000
00000000
00000000
03020000
00000000
00000000
20030000
00000000
00000000
32000000
00000000
00000000
03100000
00010000
00100000
00001000
,
00020000
00000000
00000000
00032000
00000000
00000000
00003020
00000000
00000031
00000000
00000000
00001000
00000000
00000000
00000100
00000000
,
00000110
00000000
00000000
00000010
00000000
00000000
00000001
00000000
00001000
00000001
00000100
00000001
00001000
00000100
00010000
00000000
,
00001000
00100000
00010000
00100000
01000000
10000000
00010000
10000000
00100000
00000000
00000000
01000000
00000000
00000000
00001000
00000000
,
00022000
00033000
00000000
00000000
00000000
00000000
00000000
00000000
00000000
00000000
00000000
00000000
00000000
00000000
00000000
00000000
00021000
00000000
00000000
00000000
00000000
00000000
00000000
00000000
00031000
00000000
00000000
00000000
00000000
00000000
00000000
00000000
00010000
00000000
00000000
00000000
00000000
00000000
00000000
00000000
00001000
00000000
00000000
00000000
00000000
00000000
00000000
00000000
00000100
00000000
00000000
00000000
00000000
00000000
00000000
00000000
00000001
00000000
00000000
00000000
00001000
00000000
00000000
00000000
,
00000100
00000000
00001000
00000000
00000001
00000000
00000010
00000000
00000210
00000000
00001300
00000000
00000001
00000000
00000100
00001000
,
00010000
00000000
00100000
00000000
01000000
00000000
00010000
10000000
00100000
00000000
10000000
00010000
00100000
00000000
01000000
00000000
,
10000000
00000000
00010000
01000000
00010000
01000000
00001000
01000000
00001000
00000000
00010000
00000000
00011000
00000000
00000000
00000000
,
00010000
00000000
00001000
00000100
00000010
00000000
00000100
00000001
00001000
00000001
00000010
00000000
00000100
00000000
00000020
00000000
,
00000001
00000230
00000010
00002300
00000100
00003001
00000100
00000220
,
00000000
00000000
00000000
00000000
00000000
00000000
00000000
00000000
00000000
00000000
00000330
00000000
00010000
00001000
00010000
00001000
,
00100000
00010000
10000000
00100000
10000000
00010000
01000000
00001000
00010000
00000010
00001000
00000001
00000100
00000000
00000001
00000000
,
00002000
00000000
00000000
00000000
00000000
00000000
00003200
00000000
00000000
00000000
00000000
00000000
00020300
00000000
00000000
00000000
00000000
00000000
00000000
00000000
00000000
00000000
00000000
00000000
00000000
00000000
00000000
00000000
00031000
00010000
00001000
00010000
,
00002000
00000000
00000000
00000000
,
00000000
00000000
00000000
00000000
,
00003000
00000000
00000000
00000000
;

//--------------- dance-double - Fred-104† ----------------
#NOTEDATA:;
#STEPSTYPE:dance-double;
#DESCRIPTION:Fred-104†;
#DIFFICULTY:Challenge;
#METER:18;
#DISPLAYBPM:46.25:370;
#BPMS:0=92.5,16=185,119=370,121=92.5,129.5=185,129.833333=92.5,131.5=185,131.666667=92.5,133=185,137=92.5,139=185,140.5=92.5,147=185,155=740,163=555,169=370,173=185,175=46.25,183=92.5,191=185,214=370,216=185,280=370,281=185,312=46.25,314=23.125,316=185;
#STOPS:129.5=0.054,129.666667=0.054,131.5=0.054,139=0.243,139.75=0.243,280=0.162;
#TIMESIGNATURES:0=4=4,116=5=4,121=4=4,137=2=4,139=4=4,211=5=4,216=4=4;
#CREDIT:Fred-104†;
#NOTES:
00000000
00000000
00000000
00000000
,
00000000
00000000
00000000
00000000
,
00000000
00000000
00000000
00000000
,
00002000
00000000
00000000
00023000
00000000
00000000
00230000
00000000
20300000
00000000
00000000
00000000
31000000
00000000
00000000
00000000
,
20020000
00000000
00000000
00000000
,
00000000
00000000
0000MMMM
30030000
,
10000000
00000000
00010000
10000000
01000000
00000000
00010000
00001000
00000100
00000000
00000010
00000000
00002000
00000000
00000000
00000000
,
00003001
00000000
00000010
00000100
00001000
00000000
00000001
00001000
00000010
00000000
00010000
00001000
00010000
00000000
00100000
0000MMMM
,
01000000
00000000
00100000
10000000
00010000
00000000
10000000
01000000
00100000
00000000
00001000
00010000
00001000
00000000
00000100
00000000
,
00000001
00000000
00001000
00000100
00000010
00000001
00001000
00000001
00001000
00000000
00000001
00000100
00001000
00000000
00010000
00000000
,
00011000
00000000
00001000
00010000
00100000
00000000
01000000
00010000
10000000
00000000
01000000
00100000
00020000
00000000
00000000
00000000
,
00130000
00000000
00001000
00010000
00000010
00001000
00000010
00000000
00010000
00000000
00001000
00100000
00010000
00100000
00001000
00000000
,
00010000
00001000
00000100
00000010
00001000
00000100
00000010
00000001
00001000
00000000
00000000
00000001
00000010
00000100
00010000
00000000
,
00001000
00100000
00001000
00100000
00010000
10000000
00010000
10000000
01000000
00100000
01000000
00100000
00001000
00010000
00000100
00010000
,
00001000
00000000
00010000
00001000
00000010
00000000
00000001
00000000
00000010
00000100
00001000
00000000
00000001
00000000
00000100
00000000
,
00000001
00000010
00000000
00000100
00010000
00000000
00001000
00100000
00000000
01000000
10000000
00000000
00010000
10000000
00100000
00000000
,
10000000
01000000
00100000
00000000
00010000
00000000
01000000
00100000
00010000
00000000
00100000
00000000
01000000
00100000
10000000
00000000
,
10010000
00000000
00000000
00000000
00101000
00000000
00011000
00000000
00010000
00000000
00010010
00000000
00000010
00001000
00000001
00000000
,
00000010
00000100
00000000
00010000
00001000
00000000
00100000
01000000
00000000
10000000
01000000
00000000
00200000
00000000
00000000
00000000
,
00301000
00010000
00000000
00000100
00000010
00000000
00000001
00000100
00000000
00001000
00010000
00000000
00100000
01000000
00010000
10000000
,
01000000
00000000
00000000
00000000
00000000
00000000
00000000
00000000
00000000
00100000
00000000
00000000
00000000
00000000
00000000
00000000
00000000
00000000
00001000
00000000
00000000
00000000
00000000
00000000
00011000
00000000
00000000
00000000
00000000
00000000
00010000
00000000
00000100
00000000
00010000
00000000
00000100
00000000
00000000
00000000
00000000
00000000
00001000
00000000
00000000
00000000
00000000
00000000
,
00000001
00000010
00000100
00000000
00001100
00000000
00010100
00000000
00000000
00000000
00011000
00000000
00001000
00010000
00100000
10000000
,
00020000
00000000
00000000
10030000
01000000
00010000
00001000
00000000
00010000
00000100
00001000
00000000
00000100
00000010
00000001
00000000
,
00001000
00000010
00000000
00000001
00000010
00000000
00000100
00000010
00000000
00001000
00000001
00000000
00000100
00001000
00010000
00000000
,
00001000
00010000
00000000
00100000
01000000
00000000
00010000
10000000
00000000
01000000
00100000
00000000
00010000
00100000
00001000
00010000
,
00001000
00000000
00000000
00000000
00000000
00000000
00000000
00000000
00000000
00000000
00000000
00000000
00101000
00000000
00000000
00000000
00000000
00000000
00011000
00000000
00000000
00000000
00000000
00000000
00010010
00000000
00000000
00000000
00000000
00000000
00010000
00000000
00000010
00000000
00010000
00000000
00000010
00000000
00000000
00001000
00000000
00000000
00000001
00000000
00000000
00001000
00000000
00000000
,
00000020
00000000
MMMM0000
00000100
00000000
MMMM0000
00001000
00000000
MMMM0000
00000100
00000000
MMMM0000
00001030
00000001
00001000
00000100
,
00010000
00001000
00000000
00010000
00100000
00000000
01000000
00100000
00000000
10000000
01000000
00000000
00100000
00000000
00010000
00000000
,
00100000
00000000
00001000
00000000
00010000
00000000
00001000
00010000
00000010
00001000
00000010
00001000
00000001
00001000
00000001
00001000
,
00000100
00000010
00000001
00001000
00000010
00000100
00001000
00010000
00100000
01000000
00010000
10000000
02000000
00000000
00000000
00000000
,
00000000
00000000
00000000
00000000
00000000
00000000
00000000
00000000
00000000
00000000
00000000
00000000
00000000
00000000
00000000
00000000
00000000
00000000
00000000
00000000
00000000
00000000
00000000
00000000
03100000
00000000
00000000
00000000
00000000
00000000
00000000
00000000
00000000
00000000
00000000
00000000
00000000
00000000
00000000
00000000
00000000
00000000
00011000
00000000
00000000
00000000
00000000
00000000
00000000
00000000
00000000
00000000
00000000
00000000
00000000
00000000
00000000
00000000
00000000
00000000
00000010
00000000
00000000
00001000
00000000
00000000
00000010
00000000
00000000
00001000
00000000
00000000
00000001
00000000
00000000
00001000
00000000
00000000
00000001
00000000
00000000
00001000
00000000
00000000
00000001
00000000
00000000
00000000
00000100
00000000
00000000
00000000
00001000
00000000
00000000
00000000
,
00010000
00000000
00000000
00000000
01000000
00000000
00000000
00000000
10000000
00000000
00000000
00000000
00020000
00000000
00000000
00000000
00000000
00000000
20030000
00000000
00000000
00000000
00000000
00000000
31000000
00000000
00000000
00000000
00100000
00000000
00000000
00000000
00001000
00000000
00000000
00000000
00010000
00000000
00000000
00000000
00100000
00000000
00000000
00000000
01000000
00000000
00000000
00000000
00010000
00000000
00000000
00000000
10000000
00000000
00000000
00000000
01000000
00000000
00000000
00000000
00200000
00000000
00000000
00000000
00000000
00000000
00301000
00000000
00000000
00010000
00000000
00000000
00001000
00000000
00000000
00000000
00010000
00000000
00000000
00000000
00001000
00000000
00000000
00000000
00000100
00000000
00000000
00000000
00000001
00000000
00000000
00000000
00000100
00000000
00000000
00000000
,
00000010
00000000
00000000
00000000
00000000
00000000
00000000
00000000
00001000
00000000
00000000
00000000
00000000
00000000
00000000
00000000
00000010
00000000
00000000
00000000
00000000
00000000
00000000
00000000
00000100
00000000
00000000
00000000
00000000
00000000
00000000
00000000
00002000
00000000
00000000
00000000
00000000
00000000
00000000
00000000
00000000
00000000
00000000
00000000
00000000
00000000
00000000
00000000
00013000
00000000
00000000
00000000
00000000
00000000
00000000
00000000
00000000
00000000
00000000
00000000
00000000
00000000
00000000
00000000
00000000
00000000
00000000
00000000
00000000
00000000
00000000
00000000
00002000
00003000
00000000
00000000
00000000
00000000
00000000
00000000
00002000
00003000
00000000
00000000
00000000
00000000
00000000
00000000
00000000
00000000
00000000
00000000
00000000
00000000
00000000
00000000
00011000
00000000
00000000
00000000
00000000
00000000
00000000
00000000
00000000
00000000
00000000
00000000
00000000
00000000
00000000
00000000
00000000
00000000
00000000
00000000
00000000
00000000
00000000
00000000
00001000
00000000
00000000
00000000
00000000
00000000
00000000
00000000
00010000
00000000
00000000
00000000
00000000
00000000
00000000
00000000
01000000
00000000
00000000
00000000
00000000
00000000
00000000
00000000
00100000
00000000
00000000
00000000
00000000
00000000
00000000
00000000
00010000
00000000
00000000
00000000
00000000
00000000
00000000
00000000
00100000
00000000
00000000
00000000
00000000
00000000
00000000
00000000
02000000
03000000
00000000
00000000
00000000
00000000
00000000
00000000
10000000
00000000
00000000
00000000
00000000
00000000
00000000
00000000
00010000
00000000
00000000
00000000
00000000
00000000
00000000
00000000
,
10000000
00100000
01000000
00010000
10000000
01000000
00100000
00001000
00010000
00000000
00000000
00000000
00001000
00000000
00010000
00000000
00000010
00000000
00000000
00000000
00010000
00000000
00001000
00000000
00000100
00000000
00000010
00000000
00001000
00000000
00000100
00000000
,
00000010
00000000
00000001
00000000
00000010
00000000
00000000
00000000
00000011
00000000
00000000
00000000
00001100
00000000
00000001
00000100
00001000
00000000
00000000
00010000
00000000
00100000
01000000
00000000
01010000
00000000
00000000
00000000
00000000
00000000
10100000
00000000
,
00000000
00000000
00000000
00220000
00000000
00000000
0000MMMM
00000000
00000000
0000MMMM
00000000
00000000
0000MMMM
00000000
00000000
0033MMMM
00000000
00000000
1000MMMM
01000000
00010000
00001000
00010000
00001000
,
00011000
00000000
00000000
00000000
00010000
00000000
00000000
00000000
00001000
00000000
00000000
00000000
00000200
00000000
00000000
00000000
00000000
00000000
00000301
00000000
00000000
00001000
00000000
00000000
MMMM0001
00000000
00000000
00000000
00000010
00000000
00000000
00000000
00000100
00000000
00000000
00000000
00010000
00000000
00000000
00000000
00001000
00000000
00000000
00000000
00010000
00000000
00000000
00000000
00011000
00000000
00000000
00000000
00001000
00000000
00000000
00000000
00010000
00000000
00000000
00000000
00100000
00000000
00000000
00000000
10000000
00000000
00000000
00000000
00010000
00000000
00000000
00000000
10000000
00000000
00000000
00000000
00000000
00000000
00000000
00000000
01000000
00000000
00000000
00000000
00000000
00000000
00000000
00000000
00100000
00000000
00000000
00000000
00000000
00000000
00000000
00000000
,
00001000
00010000
00100000
01000000
00001000
00010000
00001000
00000010
00000001
00000010
00000100
00001000
,
00000001
00000100
00001000
00010000
00100000
10000000
01000000
00010000
00001000
00022000
00000000
00000000
,
00000000
00000000
00000000
00000000
,
00000000
00000000
00000000
00000000
,
00000000
00000000
00000000
00000000
,
00000000
00033000
00000000
00000000
,
00000000
00000000
00000000
00000000
00000000
00000000
00000000
00000000
MMMMMMMM
00000000
00000000
00000000
00000000
00000000
00000000
00000000
00000000
00000000
00000000
00000000
00000000
00000000
00000000
00000000
00010000
00000000
00000000
00001000
00000000
00000000
00000010
00000000
,
00000000
00000000
00000002
00000000
00000000
00000000
00000000
00000000
MMMM0000
00000000
00000000
00000000
00000000
00000000
00000000
00000000
00000103
00000000
00000000
00000000
00000000
00000000
00001000
00000000
00000000
00000000
00000000
00000000
00010000
00000000
00000000
00000000
00000000
00000000
00200000
00000000
00000000
00000000
00000000
00000000
0000MMMM
00000000
00000000
00000000
00000000
00000000
00000000
00000000
20300000
30000000
00010000
00000000
10000000
00000000
02000000
03000000
00000000
00000000
00100000
00000000
00002000
00003000
00000000
00000000
,
00010000
00000000
00002000
00003000
00000010
00000000
00000001
00000000
00000010
00000000
00000100
00000000
00001000
00000000
00000100
00000000
00020000
00030000
00001000
00000000
00000100
00000000
00000002
00000003
00000100
00000000
00000010
00000000
00002000
00003000
00000000
00000000
00000010
00000000
00000200
00000300
00001000
00000000
00010000
00000000
00100000
00000000
01000000
00000000
00010000
00000000
10000000
00000000
00020000
00030000
00000000
00000000
00000000
00000000
00000000
00000000
10000000
00000000
00000000
00000000
02000000
03000000
00000000
00000000
,
01100000
00000000
00000000
00000000
00000000
00000000
00000000
00000000
00002000
00003000
00000000
00000000
00010000
00000000
00000000
00000000
00011000
00000000
00000000
00000000
00002000
00003000
00000000
00000000
00010000
00000000
00000000
00000000
00000100
00000000
00000000
00000000
00001100
00000000
00000000
00000000
00001000
00000000
00000000
00000000
00000001
00000000
00000000
00000000
00000100
00000000
00000000
00000000
00000202
00000303
00000000
00000000
00000000
00000000
00000000
00000000
00000010
00000000
00000000
00000000
00002000
00003000
00000000
00000000
,
00001100
00000000
00000000
00000000
00000000
00000000
00000000
00000000
00020000
00030000
00000000
00000000
00001000
00000000
00000000
00000000
00011000
00000000
00000000
00000000
00002000
00003000
00000000
00000000
00010000
00000000
00000000
00000000
00001000
00000000
00000000
00000000
00100000
00000000
00010000
00000000
01000000
00000000
00100000
00000000
10000000
00000000
00100000
00000000
01000000
00000000
00010000
00000000
00200000
00300000
00000000
00000000
00000000
00000000
00000000
00000000
00001000
00000000
00000000
00000000
00100000
00000000
00000000
00000000
,
00010000
00000000
00000000
00000000
00000000
00000000
00000000
00000000
20000000
30000000
00000000
00000000
00010000
00000000
00000000
00000000
00100000
00000000
00000000
00000000
01000000
00000000
00000000
00000000
10000000
00000000
00000000
00000000
00000000
00000000
00000000
00000000
00020000
00030000
00000000
00000000
01000000
00000000
00000000
00000000
00100000
00000000
00000000
00000000
10000000
00000000
00000000
00000000
01000000
00000000
00000000
00000000
00000000
00000000
00000000
00000000
00200000
00300000
00000000
00000000
00001000
00000000
00000000
00000000
,
00000000
00000000
00000000
00000000
00001000
00000000
00000000
00000000
00010000
00000000
00000000
00000000
00000000
00000000
00000000
00000000
00000010
00000000
00000000
00000000
00001000
00000000
00000000
00000000
00000000
00000000
00000000
00000000
00001000
00000000
00000000
00000000
00000001
00000000
00000000
00000000
00001000
00000000
00000000
00000000
00000100
00000000
00000000
00000000
00000000
00000000
00000000
00000000
00002000
00003000
00000000
00000000
00000001
00000000
00000000
00000000
00000010
00000000
00000000
00000000
00000100
00000000
00000000
00000000
,
00000010
00000000
00000000
00000000
00000001
00000000
00000000
00000000
00002000
00003000
00000000
00000000
00000010
00000000
00000000
00000000
00010000
00000000
00000000
00000000
00001000
00000000
00000000
00000000
00100000
00000000
00000000
00000000
00010000
00000000
00000000
00000000
20000000
30000000
00000000
00000000
00010000
00000000
00000000
00000000
00100000
00000000
00000000
00000000
00001000
00000000
00000000
00000000
00010000
00000000
00000000
00000000
00000010
00000000
00000000
00000000
00002000
00003000
00000000
00000000
00000010
00000000
00000000
00000000
,
00000100
00000001
00001000
00000100
00010000
00001000
00100000
00010000
10000000
00100000
01000000
00000000
10100000
00000000
01010000
00000000
,
00000000
00011000
00000000
00001100
00000000
00000022
00000000
00000033
,
MMMMMMMM
00000000
00000000
00000000
00000000
00000000
00001000
00000001
00001000
00000001
00001000
00000001
00002000
00000000
00000000
00000000
00000000
00000000
00000000
00000000
00000000
00000000
00000000
00000000
,
00003001
00000000
00000010
00000100
00000000
00001000
00000100
00000000
00010000
00001000
00000000
00010000
00000100
00000000
00001000
00000100
,
00010000
00000000
00001000
01000000
00000000
00010000
01000000
00000000
00010000
10000000
00000000
01000000
00100000
00010000
00100000
00000000
,
00001000
00010000
00000000
00000010
00001000
00000000
00000010
00010000
00000000
00001000
00010000
00000000
00000100
00001000
00000100
00000010
,
00000001
00001000
00000010
00000100
00001000
00010000
00100000
01000000
00010000
00000000
10010000
00000000
00000000
00000000
11000000
00000000
,
01100000
00000000
00100000
00010000
00000000
10000000
01000000
00000000
00100000
00001000
00000000
00010000
00000100
00001000
00000001
00001000
,
00000100
00000000
00000010
00000001
00000000
00000010
00000100
00000000
00010000
00001000
00000000
00000100
00001000
00000000
00010000
00000000
,
00011000
00000000
00001000
00010000
00000000
00100000
01000000
00000000
00010000
10000000
00100000
00000000
01000000
00000000
01010000
00000000
,
00000000
00000000
10010000
00000000
10000000
00000000
01000000
00000000
00100000
00001000
00010000
00001000
00000000
00000010
00000001
00000000
,
00001000
00000100
00000000
00000001
00000100
00000000
00000010
00000001
00000000
00001000
00000001
00000000
00000010
00000100
00001000
00000100
,
00010000
00000000
00001000
00100000
00000000
00010000
10000000
00000000
00010000
00100000
00000000
01000000
00100000
00001000
00010000
00000000
,
00001000
00000000
00010000
00000010
00000000
00001000
00000010
00000000
00010000
00001000
00000000
00010000
00000100
00001000
00000100
00000010
,
00000001
00000000
00000000
00001000
00000000
00000000
00000010
00000000
00000000
00000100
00000000
00000000
00000001
00000000
00000000
00000010
00000000
00000000
00000100
00000000
00000000
00001000
00000000
00000000
00000100
00000000
00000000
00000000
00000000
00000000
00010000
00000000
00001000
00000000
00010000
00000000
00001000
00000000
00000000
00100000
00000000
00000000
00010000
00000000
00000000
00000000
00000000
00000000
,
01010000
00000000
00000000
10010000
00000000
00000000
10100000
00000000
00000000
10010000
00000000
00000000
10000000
01000000
00100000
00001000
,
00010000
00000000
00000000
00001000
00000000
00000000
00000010
00000000
00000011
00000000
00000000
00001001
00000000
00000000
00001100
00000000
,
00000110
00000000
00000000
00000011
00000000
00000000
00001001
00000000
00000001
00000100
00000010
00001000
00000001
00000010
00000100
00001000
,
00000100
00010000
00001000
00100000
00010000
00100000
01000000
10000000
00010000
01000000
00100000
10000000
00010000
00100000
00001000
00010000
,
00002000
00003000
00000000
00000000
00000000
00000000
00000000
00000000
00000000
00000000
00000000
00000000
00000000
00000000
00000000
00000000
00010000
00000000
00000000
00000000
00000000
00000000
00000000
00000000
00001000
00000000
00000000
00000000
00000010
00000000
00000000
00000000
00000001
00000000
00000000
00000000
00000000
00000000
00000000
00000000
00000010
00000000
00000000
00000000
00000000
00000000
00000000
00000000
00000100
00000000
00000000
00000000
00001000
00000000
00000000
00000000
00000001
00000000
00000000
00000000
00001000
00000000
00000000
00000000
,
00000100
00000000
00010000
00000000
00001000
00000000
00010000
00001000
00000010
00000000
00001000
00010000
00001000
00000000
00100000
00000000
,
00010000
00000000
10000000
00000000
00100000
00000000
00010000
00100000
01000000
00000000
10000000
01000000
00100000
00000000
10000000
00000000
,
00010000
00000000
10000000
01000000
00100000
00010000
00100000
00001000
00010000
00000000
00001000
00000000
00000100
00000000
00000010
00001000
,
00000001
00000000
00000010
00000100
00001000
00000000
00000010
00000100
00000001
00000100
00000010
00000000
00001000
00000001
00000010
00000000
,
00000100
00000000
00010000
00001000
00100000
00000000
00010000
10000000
00100000
01000000
00100000
00000000
00000000
00000000
20200000
00000000
,
00000000
00000000
00000000
00000000
00000000
00000000
00000000
00000000
00000000
00000000
30300000
00000000
10000000
01000000
00100000
00010000
,
01000000
00100000
00010000
00001000
00100000
00010000
00001000
00000100
00010000
00001000
00000100
00000010
00001000
00000100
00000010
00000001
,
00000200
00000000
00000000
00000000
00000000
00000000
00000320
00000000
00000000
00000000
00000000
00000000
00000230
00000000
00000000
00000000
00000000
00000000
00000000
00000000
00000000
00000000
00000000
00000000
00000000
00000000
00000000
00000000
00000301
00000010
00000100
00010000
00002000
00000000
00000000
00000000
00000000
00000000
00000000
00000000
00000000
00000000
00000000
00000000
00000000
00000000
00000000
00000000
00000000
00000000
00000000
00000000
00000000
00000000
00000000
00000000
00000000
00000000
00000000
00000000
00000000
00000000
00000000
00000000
,
MMMM3000
00000000
00000000
00000000
;
