#VERSION:0.83;
#TITLE:DUAL BREAKER XX;
#ARTIST:Srav3R vs Getty;
#GENRE:PUMPCORE;
#BANNER:DUAL BREAKER XX.png;
#BACKGROUND:DUAL BREAKER XX-bg.png;
#CDTITLE:./CDTitles/WACCA Lily R.png;
#MUSIC:DUAL BREAKER XX.ogg;
#SAMPLESTART:94.5;
#SAMPLELENGTH:15;
#BPMS:0=100,12=200,92=100,100=200,116=100,128=200,148=100,150=200,182=100,190=200,234=100,244=200,320=100,332=200,340=100,344=200;
#TIMESIGNATURES:0=4=4,148=2=4,150=4=4,230=6=4,236=4=4;
#BGSTAGE:30;

//--------------- dance-single - Fred-104 ----------------
#NOTEDATA:;
#STEPSTYPE:dance-single;
#DESCRIPTION:Fred-104;
#DIFFICULTY:Beginner;
#METER:6;
#CREDIT:Fred-104;
#NOTES:
0000
0000
0000
0000
,
0000
0000
0000
0000
,
0000
0000
0000
0000
,
2000
3000
0000
0000
0000
0000
0000
0000
0000
0000
0000
0000
0000
0000
0000
0000
1000
0000
0000
0000
0000
0000
0000
0000
0000
0000
0000
0000
0000
0000
0000
0000
0000
0000
0000
0000
0000
0000
0000
0000
0000
0000
0000
0000
0000
0000
0000
0000
0001
0000
0000
0000
0000
0000
0000
0000
0000
0000
0000
0000
0000
0000
0000
0000
,
0000
0001
0000
0100
,
0000
0100
0000
0001
,
1001
0000
0000
0000
,
1000
0000
0000
0000
,
0010
0000
0000
0000
,
0001
0000
0000
0000
,
0100
0000
0000
0000
,
1000
0000
1000
0000
,
0001
0000
0001
0000
,
1000
0000
0001
0000
,
1001
0000
0000
0000
,
1000
1000
1000
0000
,
0001
0000
1000
0000
,
0001
0000
0100
0000
,
0010
0010
0010
0000
,
0100
0100
0100
0000
,
0001
0000
1000
0000
,
1001
0000
0000
0000
,
0000
0000
0000
0000
,
2000
3000
0000
0000
0000
0000
0000
0000
0000
0000
0000
0000
0000
0000
0000
0000
0000
0000
0000
0000
0000
0000
0000
0000
0000
0000
0000
0000
0000
0000
0000
0000
0000
0000
0000
0000
0000
0000
0000
0000
0000
0000
0000
0000
0000
0000
0000
0000
0000
0000
0000
0000
0000
0000
0000
0000
0000
0000
0000
0000
0000
0000
0000
0000
,
1000
0000
0000
0000
,
0002
0003
0000
0000
0000
0000
0000
0000
0000
0000
0000
0000
0000
0000
0000
0000
0000
0000
0000
0000
0000
0000
0000
0000
0000
0000
0000
0000
0000
0000
0000
0000
0000
0000
0000
0000
0000
0000
0000
0000
0000
0000
0000
0000
0000
0000
0000
0000
0000
0000
0000
0000
0000
0000
0000
0000
0000
0000
0000
0000
0000
0000
0000
0000
,
0001
0000
0000
0000
,
1000
0000
1000
0000
,
1001
0000
0000
0000
,
0002
0003
0000
0000
0000
0000
0000
0000
0000
0000
0000
0000
0000
0000
0000
0000
0000
0000
0000
0000
0000
0000
0000
0000
0000
0000
0000
0000
0000
0000
0000
0000
0001
0000
0000
0000
0000
0000
0000
0000
0000
0000
0000
0000
0000
0000
0000
0000
0000
0000
0000
0000
0000
0000
0000
0000
0000
0000
0000
0000
0000
0000
0000
0000
,
1000
0000
0010
0100
,
0001
0001
1000
0100
,
0200
0300
0000
0000
0000
0000
0000
0000
0000
0000
0000
0000
0000
0000
0000
0000
0000
0000
0000
0000
0000
0000
0000
0000
0000
0000
0000
0000
0000
0000
0000
0000
0000
0000
0000
0000
0000
0000
0000
0000
0000
0000
0000
0000
0000
0000
0000
0000
0100
0000
0000
0000
0000
0000
0000
0000
0000
0000
0000
0000
0000
0000
0000
0000
,
0000
0000
0100
0000
,
0010
0000
0000
0010
,
0000
0000
0010
0000
,
0100
0000
0100
0000
,
2002
0000
0000
0000
0000
0000
0000
0000
0000
0000
0000
0000
0000
0000
0000
0000
3003
0000
0000
0000
0000
0000
0000
0000
0000
0000
0000
0000
0000
0000
0000
0000
2000
3000
0000
0000
0000
0000
0000
0000
0000
0000
0000
0000
0000
0000
0000
0000
0000
0000
0000
0000
0000
0000
0000
0000
0000
0000
0000
0000
0000
0000
0000
0000
,
0000
0000
0010
0000
,
0010
0000
0001
0000
,
0001
0000
0100
0000
,
0100
0000
1000
0000
,
0000
0000
0001
0000
,
0001
0000
1000
0000
,
0000
0000
0001
0000
,
0000
0000
0000
0000
0000
0000
0000
0000
0000
0000
0000
0000
0000
0000
0000
0000
0000
0000
0000
0000
0000
0000
0000
0000
0000
0000
0000
0000
0000
0000
0000
0000
2002
3003
0000
0000
0000
0000
0000
0000
0000
0000
0000
0000
0000
0000
0000
0000
0000
0000
0000
0000
0000
0000
0000
0000
0000
0000
0000
0000
0000
0000
0000
0000
,
0000
0000
0000
0000
,
0000
0000
0000
0000
0000
0000
0000
0000
0000
0000
0000
0000
0000
0000
0000
0000
0000
0000
0000
0000
0000
0000
0000
0000
0000
0000
0000
0000
0000
0000
0000
0000
0002
0003
0000
0000
0000
0000
0000
0000
0000
0000
0000
0000
0000
0000
0000
0000
0000
0000
0000
0000
0000
0000
0000
0000
0000
0000
0000
0000
0000
0000
0000
0000
,
0000
0000
0001
0000
,
0000
0000
1000
0000
,
1000
0000
1001
0000
,
0000
0000
1001
0000
,
0000
0001
0000
0000
,
0001
0000
0000
0000
,
1000
0000
0001
0000
,
0000
0000
0100
0000
,
0100
0000
0010
0000
,
0010
0000
1000
0000
,
1000
0000
1001
0000
,
0001
1000
0100
0010
,
0002
0000
0000
0003
,
0002
0003
0000
0000
0000
0000
0000
0000
0000
0000
0000
0000
0000
0000
0000
0000
0000
0000
0000
0000
0000
0000
0000
0000
0000
0000
0000
0000
0000
0000
0000
0000
0001
0000
0000
0000
0000
0000
0000
0000
0000
0000
0000
0000
0000
0000
0000
0000
0000
0000
0000
0000
0000
0000
0000
0000
0000
0000
0000
0000
0000
0000
0000
0000
,
1000
1000
1000
1000
,
1001
0000
0000
0000
,
0002
0003
0002
0003
,
2000
3000
2000
3000
,
0010
0000
0010
0000
,
0100
0000
0100
0000
,
0010
0000
1000
0000
,
0001
0000
0001
0000
,
0001
0000
1000
0000
,
0001
0000
0001
0000
,
1001
0000
0000
0000
,
1001
0000
0000
0000
,
0001
0000
0010
0000
,
0010
0000
0100
0000
,
0100
0000
1000
0000
,
1000
0000
0000
0000
,
0001
0000
0100
0000
,
0010
0000
1000
0000
,
2002
3003
0000
0000
0000
0000
0000
0000
0000
0000
0000
0000
0000
0000
0000
0000
0000
0000
0000
0000
0000
0000
0000
0000
0000
0000
0000
0000
0000
0000
0000
0000
0000
0000
0000
0000
0000
0000
0000
0000
0000
0000
0000
0000
0000
0000
0000
0000
0000
0000
0000
0000
0000
0000
0000
0000
0000
0000
0000
0000
0000
0000
0000
0000
,
1001
0000
0000
0000
,
0000
0000
0000
0000
,
2000
3000
0000
0000
0000
0000
0000
0000
0000
0000
0000
0000
0000
0000
0000
0000
0000
0000
0000
0000
0000
0000
0000
0000
0000
0000
0000
0000
0000
0000
0000
0000
1000
0000
0000
0000
0000
0000
0000
0000
0000
0000
0000
0000
0000
0000
0000
0000
0000
0000
0000
0000
0000
0000
0000
0000
0000
0000
0000
0000
0000
0000
0000
0000
,
0001
0000
0001
0000
,
2002
0000
3003
0000
,
2000
3000
0000
0000
0000
0000
0000
0000
0000
0000
0000
0000
0000
0000
0000
0000
0000
0000
0000
0000
0000
0000
0000
0000
0000
0000
0000
0000
0000
0000
0000
0000
1000
0000
0000
0000
0000
0000
0000
0000
0000
0000
0000
0000
0000
0000
0000
0000
0000
0000
0000
0000
0000
0000
0000
0000
0000
0000
0000
0000
0000
0000
0000
0000
,
0001
0000
0001
0000
,
1000
0000
0010
0000
,
0100
0000
0000
0000
,
0001
0000
0001
0000
,
1000
0000
0001
0000
,
1000
0000
0000
0000
,
1001
0000
0000
0000
,
0001
0000
0001
0000
,
0010
0000
0000
0000
,
0100
0000
0100
0000
,
1000
0000
0000
0000
,
0001
0000
0001
0000
,
1000
0000
1000
0000
,
0010
0000
0100
0000
,
0001
0000
0000
0000
,
1001
0000
0000
0000
;

//--------------- dance-single - Fred-104 ----------------
#NOTEDATA:;
#STEPSTYPE:dance-single;
#DESCRIPTION:Fred-104;
#DIFFICULTY:Easy;
#METER:9;
#CREDIT:Fred-104;
#NOTES:
0000
0000
0000
0000
,
0000
0000
0000
0000
,
0000
0000
0000
0000
,
0002
0003
0000
0000
0000
0000
0000
0000
0000
0000
0000
0000
0000
0000
0000
0000
0001
0000
0000
0000
0000
0000
0000
0000
0000
0000
0000
0000
0000
0000
0000
0000
0000
0000
0000
0000
0000
0000
0000
0000
0000
0000
0000
0000
0000
0000
0000
0000
0100
0000
0000
0000
0000
0000
0000
0000
0000
0000
0000
0000
0000
0000
0000
0000
,
1000
0100
0100
0001
,
1000
0100
0010
0010
,
2002
0000
0000
3003
,
0001
0000
0000
0010
0000
0000
0100
0000
,
1000
0000
0000
0010
0000
0000
0100
0000
,
0001
0000
0000
1000
0000
0000
0100
0000
,
0010
0001
1000
1000
,
0001
0001
0100
1000
,
0001
0001
0010
1000
,
0100
0100
0010
0010
,
2002
0000
0000
3003
,
0001
0001
0100
0001
,
0010
0100
1000
1000
,
0001
0100
1000
0100
,
0001
0001
1001
0000
,
1000
0001
1000
0000
0001
0000
0001
0000
,
0100
0010
0100
0100
,
0001
0000
0001
0000
1000
0000
0000
0100
,
0000
0000
0010
0000
0001
1000
0002
0003
,
2002
3003
0000
0000
0000
0000
0000
0000
0000
0000
0000
0000
0000
0000
0000
0000
0001
0000
0000
0000
0000
0000
0000
0000
0000
0000
0000
0000
0000
0000
0000
0000
0100
0000
0000
0000
0000
0000
0000
0000
0010
0000
0000
0000
0000
0000
0000
0000
0100
0000
0000
0000
0000
0000
0000
0000
0000
0000
0000
0000
0000
0000
0000
0000
,
1000
0000
0000
0000
0100
0000
0000
0000
0001
0000
0000
1000
0000
0000
0001
0000
,
0020
0100
0100
0130
,
0110
0000
0010
1000
,
0001
0000
0010
0000
0001
1000
0001
0000
,
1001
0000
0000
0000
,
2002
3003
0000
0000
0000
0000
0000
0000
0000
0000
0000
0000
0000
0000
0000
0000
0001
0000
0000
0000
0000
0000
0000
0000
0001
0000
0000
0000
0000
0000
0000
0000
0100
0000
0000
0000
0000
0000
0000
0000
0100
0000
0000
0000
0000
0000
0000
0000
0020
0000
0000
0000
0000
0000
0000
0000
0030
0000
0000
0000
0000
0000
0000
0000
,
0110
0000
0100
0100
0001
0001
1000
0200
,
0310
0010
0011
0000
0100
0000
1001
0000
,
0002
0003
0000
0000
0000
0000
0000
0000
0000
0000
0000
0000
0000
0000
0000
0000
0000
0000
0000
0000
0000
0000
0000
0000
0000
0000
0000
0000
0000
0000
0000
0000
1000
0000
0000
0000
0000
0000
0000
0000
0000
0000
0000
0000
0000
0000
0000
0000
0000
0000
0000
0000
0000
0000
0000
0000
0000
0000
0000
0000
0000
0000
0000
0000
,
0010
0010
0220
0330
,
0001
0000
0011
0000
,
1000
0000
1100
0000
,
1000
0001
0100
0010
,
0220
0000
0000
0000
0000
0000
0000
0000
0000
0000
0000
0000
0000
0000
0000
0000
0330
0000
0000
0000
0000
0000
0000
0000
0000
0000
0000
0000
0000
0000
0000
0000
0200
0300
0000
0000
0000
0000
0000
0000
0000
0000
0000
0000
0000
0000
0000
0000
0100
0000
0000
0000
0000
0000
0000
0000
0000
0000
0000
0000
0000
0000
0000
0000
,
0001
0000
1000
1000
,
0100
0000
0000
0010
0000
0000
0100
0000
,
0001
0100
1000
0001
,
1001
0000
0001
0001
,
0100
0000
0000
0100
0000
0100
0000
0000
,
0100
0001
1000
0100
,
1000
0000
0001
0000
0100
0010
0100
0000
,
0010
0000
0000
0000
0000
0000
0000
0000
0100
0000
0000
0000
0000
0000
0000
0000
0010
0000
0000
0000
0000
0000
0000
0000
0000
0000
0000
0000
0000
0000
0000
0000
2002
3003
0000
0000
0000
0000
0000
0000
0000
0000
0000
0000
0000
0000
0000
0000
0000
0000
0000
0000
0000
0000
0000
0000
0000
0000
0000
0000
0000
0000
0000
0000
,
0000
0000
0000
0000
,
0000
0000
0000
0000
0000
0000
0000
0000
0000
0000
0000
0000
0000
0000
0000
0000
0000
0000
0000
0000
0000
0000
0000
0000
0000
0000
0000
0000
0000
0000
0000
0000
2000
3000
0000
0000
0000
0000
0000
0000
0000
0000
0000
0000
0000
0000
0000
0000
0000
0000
0000
0000
0000
0000
0000
0000
0000
0000
0000
0000
0000
0000
0000
0000
,
1000
0000
0001
0000
,
0001
0000
0010
0100
,
0010
0100
0010
0000
0110
0000
0000
1100
,
0000
0011
1001
1001
,
0001
0000
0000
0101
0000
0101
0000
0000
,
0001
0000
0000
1100
0000
1100
0000
0000
,
0100
0000
0010
0000
0001
0000
0000
1000
,
0000
1001
0001
1000
,
0100
0000
0000
0100
0000
0100
0000
0000
,
1000
0000
0001
0000
0100
0010
0100
0000
,
0010
0100
0010
0000
0220
0000
0330
0000
,
1001
0000
0000
0000
1000
0000
0000
0100
0000
0000
0100
0000
0010
0000
0000
0000
,
0001
0000
0000
0001
0000
0000
1000
0000
0000
1000
0000
0000
1001
0000
0000
0000
,
2000
3000
0000
0000
0000
0000
0000
0000
0000
0000
0000
0000
0000
0000
0000
0000
0000
0000
0000
0000
0000
0000
0000
0000
0100
0000
0000
0000
0000
0000
0000
0000
0000
0000
0000
0000
0000
0000
0000
0000
0000
0000
0000
0000
0000
0000
0000
0000
0010
0000
0000
0000
0000
0000
0000
0000
0000
0000
0000
0000
0000
0000
0000
0000
,
0001
0000
0000
0100
0000
0000
0010
0000
,
2002
0000
0000
3003
,
1000
0100
0110
0000
,
0001
0100
0220
0330
,
1001
0000
0001
0000
1000
0000
0000
0100
,
0000
0010
0000
0000
0100
0000
0000
1000
,
0000
0001
0000
0000
0100
0000
0010
0000
,
0100
0000
0000
0001
0000
0000
1000
0000
,
1001
0000
0001
0000
0010
0000
0000
0100
,
0000
0100
0000
0000
0001
0000
0100
0000
,
1000
0001
0100
0010
,
0100
0010
0100
0010
0100
0000
0110
0000
,
1001
0000
0001
0000
1000
0000
0000
0100
,
0000
0100
0000
0000
0010
0000
0000
1000
,
0000
1000
0000
0000
0010
0000
0001
0000
,
0100
0000
0000
0001
0000
0000
1000
0000
,
1001
0001
0010
0100
,
0100
1000
0001
0100
,
0220
0330
0000
0000
0000
0000
0000
0000
0000
0000
0000
0000
0000
0000
0000
0000
0020
0000
0000
0000
0000
0000
0000
0000
0230
0000
0000
0000
0000
0000
0000
0000
0310
0000
0000
0000
0000
0000
0000
0000
0010
0000
0000
0000
0000
0000
0000
0000
0100
0000
0000
0000
0000
0000
0000
0000
0100
0000
0000
0000
0000
0000
0000
0000
,
1001
0000
0000
0000
,
0000
0000
0000
0000
,
2000
3000
0000
0000
0000
0000
0000
0000
0000
0000
0000
0000
0000
0000
0000
0000
0000
0000
0000
0000
0000
0000
0000
0000
1000
0000
0000
0000
0000
0000
0000
0000
0000
0000
0000
0000
0000
0000
0000
0000
0000
0000
0000
0000
0000
0000
0000
0000
0001
0000
0000
0000
0000
0000
0000
0000
0000
0000
0000
0000
0000
0000
0000
0000
,
0010
0000
0000
0010
0000
0000
0100
0000
,
2002
0000
0000
3003
0220
0000
0000
0330
,
2002
3003
0000
0000
0000
0000
0000
0000
0000
0000
0000
0000
0000
0000
0000
0000
0001
0000
0000
0000
0000
0000
0000
0000
0000
0000
0000
0000
0000
0000
0000
0000
0100
0000
0000
0000
0000
0000
0000
0000
0000
0000
0000
0000
0000
0000
0000
0000
0000
0000
0000
0000
0000
0000
0000
0000
0010
0000
0000
0000
0000
0000
0000
0000
,
0000
0010
0000
0000
0001
0000
0000
0010
,
0000
0010
0000
0000
0100
0000
0001
0000
,
1000
0000
0100
0000
0010
0100
0010
0000
,
0001
0001
1000
1000
,
0010
0100
0001
1000
,
0100
0000
0010
0100
0010
0000
0001
0000
,
2002
0000
0000
0000
0000
0003
3000
0000
,
0001
0001
1000
1000
,
0100
0100
0001
0001
,
0100
0010
0001
1000
,
0002
0203
0320
2030
,
3001
0000
0000
0010
0000
0000
0100
0000
,
1000
0000
0000
0010
0000
0000
0100
0000
,
0010
0000
1000
0000
0100
0010
0100
0000
,
0220
0000
0000
0330
,
1001
0000
0000
0000
;

//--------------- dance-single - Fred-104 ----------------
#NOTEDATA:;
#STEPSTYPE:dance-single;
#DESCRIPTION:Fred-104;
#DIFFICULTY:Medium;
#METER:14;
#DISPLAYBPM:100:200;
#BPMS:0=100,12=200,92=100,100=200,116=100,119=200,119.5=100,128=200,148=50,148.5=100,149=200,182=100,190=200,235=100,240=200,243=100,244=200,320=100,332=200,340=100,342=200,343.5=100,344=200;
#STOPS:119=0.038,119.125=0.037,119.25=0.038,119.375=0.037,234=0.075,234.25=0.075,234.5=0.075,234.75=0.075,240=0.113,240.375=0.112,240.75=0.113,241.125=0.112,241.5=0.113,241.875=0.112,242.25=0.113,242.625=0.112,342=0.075,342.25=0.15,342.75=0.15,343.25=0.075;
#TIMESIGNATURES:0=4=4,148=2=4,150=4=4,230=6=4,236=4=4;
#CREDIT:Fred-104;
#NOTES:
0000
0000
0000
0000
,
0000
0000
0000
0000
,
0000
0000
0000
0000
,
0002
0003
0000
0000
0000
0000
0000
0000
0000
0000
0000
0000
0000
0000
0000
0000
0100
0000
0000
0000
0000
0000
0000
0000
0000
0000
0000
0000
0000
0000
0000
0000
0000
0000
0000
0000
0000
0000
0000
0000
0010
0000
0000
0000
0000
0000
0000
0000
0010
0000
0000
0000
0000
0000
0000
0000
0000
0000
0000
0000
0000
0000
0000
0000
,
1000
0100
1000
0000
0001
0100
0001
0000
,
1000
0100
0010
0000
0001
0010
0100
0000
,
2002
0000
0003
3000
,
0110
0000
1000
0100
0000
0100
0010
0000
,
0110
0000
0001
0100
0000
0100
0010
0000
,
0110
0000
1000
0010
0000
0010
0100
0000
,
0110
0000
0001
0010
0100
0000
0110
0000
,
0100
0000
0000
1000
0000
0000
0001
0000
0100
0000
0000
0010
0000
0000
1000
0000
,
0100
0000
0000
0010
0000
0000
0001
0000
1000
0000
0000
0001
0000
0000
0100
0000
,
0010
0000
0000
1010
0000
0000
1000
0000
0100
0000
0000
0110
0000
0000
0010
0000
,
0022
0000
0000
0033
,
1100
0000
1100
0000
1000
0001
0100
0010
,
0000
0210
0300
0120
0030
0100
0001
1000
,
0100
0010
0100
0010
0001
1000
0010
1000
,
1001
0000
1001
0000
0002
2003
3002
2003
,
3001
0001
0001
0000
1001
0000
1000
0001
,
0100
0010
0100
0001
0100
0010
0100
0000
,
1001
0000
2000
0000
3001
1000
0100
1000
,
0000
0001
0000
1000
0010
0100
0002
0003
,
2002
3003
0000
0000
0000
0000
0000
0000
1000
0000
0000
0000
0000
0000
0000
0000
1100
0000
0000
0000
0000
0000
0000
0000
0100
0000
0000
0000
0000
0000
0000
0000
0001
0000
0000
0000
0000
0000
0000
0000
0100
0000
0000
0000
0000
0000
0000
0000
0110
0000
0000
0000
0000
0000
0000
0000
0010
0000
0000
0000
0000
0000
0000
0000
,
0001
0000
0001
0000
1001
0000
1000
0000
1010
0000
0000
0011
0000
0000
0110
0000
,
1002
2003
3200
0320
,
0031
1000
0001
1000
0010
0100
0010
1000
,
0010
0010
0100
0100
0001
1000
0001
0000
,
2000
3200
0020
0330
,
0011
0000
0001
0001
1000
0010
1000
0010
0100
0001
0100
0001
2000
0000
3000
0000
,
0001
0000
0020
0030
0210
0300
0102
0003
0210
0300
1020
0030
0012
0003
2001
3000
,
0100
0010
0100
0000
0010
0010
0001
1000
0000
0010
1000
0000
0001
0000
1001
0000
,
1000
0000
1000
0000
0000
0000
0010
0000
0000
1000
0000
0000
0001
0000
0000
0010
,
0000
0100
0010
0100
0220
0000
0330
0000
,
1000
0000
0000
0001
0000
0000
0100
0000
1100
0000
0000
0000
0100
0000
0000
0001
,
0000
0000
1000
0000
0000
0100
0000
0000
0110
0000
0000
0000
0001
0000
1000
0000
,
0001
0000
0001
0100
0000
0100
0010
0000
0010
1000
0000
0000
,
2002
0000
3003
0000
1000
0001
1000
0100
,
0010
0000
0010
0001
0100
0000
0100
0010
,
0100
0000
0001
1000
0000
1000
0010
1000
,
0001
0010
0100
1000
0001
0100
0010
1000
,
0001
1001
2000
3200
,
0310
0100
0010
1000
0000
0010
0000
0001
,
1000
0001
0100
0010
0100
0010
0100
0001
,
0100
0010
1010
0000
0001
0010
0100
1000
,
0100
0000
0000
0000
0000
0000
0000
0000
0010
0000
0000
0000
0000
0000
0000
0000
0011
0000
0000
0000
0000
0000
0000
0000
0000
0000
0000
0000
0000
0000
0000
0000
2002
3003
0000
0000
0000
0000
0000
0000
0000
0000
0000
0000
0000
0000
0000
0000
0000
0000
0000
0000
0000
0000
0000
0000
0000
0000
0000
0000
0000
0000
0000
0000
,
0000
0000
0000
0000
0000
0000
0000
0000
0000
0000
0000
0000
0000
0000
0001
0100
,
0020
0000
0000
0000
0000
0000
0000
0000
1030
0000
0000
0000
0010
0000
0000
0000
0200
0000
0000
0000
0000
0000
0000
0000
0302
0000
0000
0000
0000
0000
0000
0000
2003
3000
0000
0000
0000
0000
0000
0000
0000
0000
0000
0000
0000
0000
0000
0000
1000
0000
0000
0000
0000
0000
0000
0000
0000
0000
0000
0000
0000
0000
0000
0000
,
1000
1000
0001
0001
,
0001
0000
0001
0000
0010
0100
0010
0100
,
0010
0100
0010
0100
1000
0001
0100
0100
,
0000
0010
0100
0100
0001
0000
1001
0000
,
1000
0100
0010
0001
0000
1001
0000
1000
,
0001
0100
0010
0100
0000
0101
0000
0001
,
1000
0100
0010
0100
1000
0000
0001
0001
,
0000
0100
0010
0000
0110
0000
1001
0000
,
0001
0010
0100
1000
0000
0001
0100
0010
,
1000
0100
0010
0100
1000
0001
1000
0001
,
0100
0010
1000
0000
2002
0000
3000
0003
,
1001
0000
1000
0001
0100
0010
0100
0010
0000
0010
0001
0010
0100
0010
2000
0000
,
3002
0000
0000
1000
0000
0000
1000
0000
0000
1000
0000
0000
2003
0000
0000
0001
0000
0000
0001
0000
0000
0001
0000
0000
3001
0000
0000
0000
1001
0000
0000
0000
,
2200
3300
0000
0000
0000
0000
0000
0000
0000
0000
0000
0000
0000
0000
0000
0000
0000
0000
0000
0000
0000
0000
0000
0000
0101
0000
0000
0000
0000
0000
0000
0000
0000
0000
0000
0000
0000
0000
0000
0000
0000
0000
0000
0000
0000
0000
0000
0000
1100
0000
0000
0000
0000
0000
0000
0000
0000
0000
0000
0000
0000
0000
0000
0000
,
0100
0010
0001
1000
0010
1000
0001
0010
,
0200
0000
0000
0300
,
1001
0000
1001
0000
0001
1000
0010
0000
,
0100
0001
0100
0010
0100
0000
0110
0000
,
0002
0000
2003
0000
3010
0100
0010
0100
,
0000
1000
0000
0100
0010
0100
0001
1000
,
0000
0100
0000
0010
0001
1000
0001
0010
,
0100
0000
1000
0001
0000
0100
0010
0000
,
2000
0000
3002
0000
0013
0100
0001
0100
,
0000
0010
0000
0100
1000
0001
0100
0010
,
1000
0101
1000
0011
,
1000
0100
0010
0001
1000
0000
1001
0000
,
0001
1000
0001
0000
0100
0010
0001
0010
,
0000
0100
0000
1000
0100
0010
1000
0001
,
0000
0010
0000
0100
0001
0100
0010
0001
,
1001
0000
1000
0100
0000
0001
0100
1000
,
0001
0100
0010
1000
0100
0010
0100
1000
,
0001
0100
0010
1000
0010
0100
0001
0000
,
2200
3300
0000
0000
0000
0000
0000
0000
0101
0000
0000
0000
0000
0000
0000
0000
0220
0000
0000
0000
0330
0000
0000
0000
2002
0000
0000
0000
3003
0000
0000
0000
0001
0000
0000
0000
0010
0000
0000
0000
0001
0000
0000
0000
0010
0000
0000
0000
0100
0000
0000
0000
1000
0000
0000
0000
0100
0000
0000
0000
1000
0000
0000
0000
,
1001
0000
0000
0000
,
0000
0000
0000
0000
,
2000
3000
0000
0000
0000
0000
0000
0000
0000
0000
0000
0000
0000
0000
0000
0000
0100
0000
0000
0000
0000
0000
0000
0000
0000
0000
0000
0000
0000
0000
0000
0000
0000
0000
0000
0000
0000
0000
0000
0000
0010
0000
0000
0000
0000
0000
0000
0000
0010
0000
0000
0000
0000
0000
0000
0000
0001
0000
0000
0000
0000
0000
0000
0000
,
0000
0100
0100
0010
0100
0001
1000
0000
,
2002
0000
0000
0000
0000
0000
3003
0000
0100
0100
0000
0110
0000
0010
0010
0000
,
0220
0330
0000
0000
0000
0000
0000
0000
0000
0000
0000
0000
0000
0000
0000
0000
1001
0000
0000
0000
0000
0000
0000
0000
0000
0000
0000
0000
0000
0000
0000
0000
0001
0000
0000
0000
0000
0000
0000
0000
0100
0000
0000
0000
0000
0000
0000
0000
0010
0000
0000
0000
0000
0000
0000
0000
0100
0000
0000
0000
0000
0000
0000
0000
,
0001
1000
0100
0010
0100
0001
0100
1000
,
0001
0100
0010
0100
1000
0100
0010
0001
,
0010
1000
0001
0010
0100
0100
1000
1000
,
0001
0100
0010
0100
0001
0010
0100
1000
,
0010
0100
0010
1000
0001
0010
0100
1000
,
0001
0000
0000
0001
0100
0000
0010
0000
0100
0000
0010
0100
0000
0010
1000
0000
,
0001
0010
0200
2000
0000
0300
3000
0000
,
0001
0100
0010
0100
0001
0010
0100
1000
,
0010
0100
0010
1000
0100
0010
0001
1000
,
0010
0100
0010
1000
0001
0010
0100
1000
,
0001
0100
1000
0001
1000
0100
0001
0000
,
1000
0100
0100
0001
0100
0100
1000
0000
,
0001
0100
0100
1000
0100
0100
0001
0000
,
1000
0100
0010
0001
0100
0010
1000
0001
,
0020
0230
2000
3300
,
1001
0000
0000
0000
;

//--------------- dance-single - Fred-104 ----------------
#NOTEDATA:;
#STEPSTYPE:dance-single;
#DESCRIPTION:Fred-104;
#DIFFICULTY:Hard;
#METER:17;
#DISPLAYBPM:100:200;
#BPMS:0=100,12=200,92=100,100=200,116=100,119=200,119.5=100,128=200,148=50,148.5=100,149=200,182=100,190=200,235=100,240=200,243=100,244=200,320=100,332=200,340=100,342=200,343.5=100,344=200;
#STOPS:119=0.038,119.125=0.037,119.25=0.038,119.375=0.037,234=0.075,234.25=0.075,234.5=0.075,234.75=0.075,240=0.113,240.375=0.112,240.75=0.113,241.125=0.112,241.5=0.113,241.875=0.112,242.25=0.113,242.625=0.112,342=0.075,342.25=0.15,342.75=0.15,343.25=0.075;
#TIMESIGNATURES:0=4=4,148=2=4,150=4=4,230=6=4,236=4=4;
#CREDIT:Fred-104;
#NOTES:
0000
0000
0000
0000
,
0000
0000
0000
0000
,
0000
0000
0000
0000
,
2000
3000
0000
0000
0000
0000
0000
0000
0000
0000
0000
0000
0000
0000
0000
0000
0110
0000
0000
0000
0000
0000
0000
0000
0000
0000
0000
0000
0000
0000
0000
0000
0000
0000
0000
0000
0000
0000
0000
0000
0001
0000
0000
0000
0000
0000
0000
0000
1001
0000
0000
0000
0000
0000
0000
0000
1000
0000
0000
0000
0000
0000
0000
0000
,
0100
0001
0101
0000
0100
1000
1100
0000
,
0001
1000
0001
0000
0100
0000
0010
0000
0100
0000
0100
0000
0001
0000
0001
0000
,
2002
0000
3000
0003
,
1100
0100
0010
0011
0001
1000
1001
0000
,
0101
0100
0010
1010
1000
0001
1001
0000
,
0011
0010
0100
1100
1000
0001
1001
0000
,
1010
0010
0100
0001
0101
0000
1001
0000
,
0001
0000
0000
0010
0000
0000
0100
1000
0100
0000
0000
1000
0000
0000
0001
0100
,
0001
0000
0000
1000
0000
0000
0100
0010
0100
0000
0000
0010
0000
0000
0001
1000
,
0010
1000
0010
1000
0001
0100
0001
0100
0001
1000
0001
1000
0100
0010
0100
0010
,
0002
0000
0000
0003
,
2100
3000
1200
0300
1000
0001
0100
0010
,
0001
0000
0020
0000
1030
0000
0020
0000
0031
0000
0010
0000
0100
0000
0010
1000
,
0001
0000
0010
0100
0010
0000
1000
0010
0100
0000
0010
0000
0001
0000
1000
0000
,
1001
0000
1001
0000
2000
3200
0320
0032
,
1003
1000
1001
0000
0001
1000
0010
0100
,
1000
0100
0010
0001
0010
0100
0001
1000
,
0200
0000
0001
0000
0310
0100
2000
0010
,
0000
0001
0000
3100
0010
0001
2000
3001
,
0202
0303
0000
0000
0000
0000
0000
0000
0100
0000
0000
0000
0010
0000
0000
0000
0110
0000
0000
0000
0100
0000
0000
0000
0001
0000
0000
0000
1000
0000
0000
0000
0100
0000
0000
0000
0010
0000
0000
0000
0010
0000
0000
0000
0010
0000
0000
0000
0001
0000
0000
0000
0100
0000
0000
0000
0100
0000
0000
0000
0100
0000
0010
0000
,
0100
0000
1001
1000
1100
0100
1000
0001
0101
0010
1000
1100
0010
0001
1001
0000
,
2000
0010
0001
3100
,
0120
0130
0210
0310
0001
1000
0001
0100
,
0010
0000
0010
0000
0100
0000
0100
0000
0001
1000
0001
1000
0100
0010
0100
0010
,
0002
2003
0020
3030
,
2002
3003
0000
0000
1000
0000
0000
0000
0001
0000
0000
0000
0010
0000
0000
0000
0110
0000
0000
0000
0100
0000
0000
0000
0100
0000
0000
0000
0100
0000
0000
0000
0100
0000
0000
0000
0100
0000
0000
0000
0100
0000
0000
0000
0100
0000
0000
0000
1000
0000
0001
0000
1000
0000
0001
0000
2000
0000
0000
0000
0000
0000
0000
0000
,
3001
0100
0120
0030
0012
0003
0120
0030
1200
0300
0120
0030
0012
0003
1020
0000
,
1030
0001
0110
0000
1001
0001
0200
0320
0031
2000
3200
0310
1000
0001
2000
3000
,
2200
3300
0000
0000
0000
0000
0000
0000
1100
0000
0000
0000
0000
0000
0000
0000
0000
0000
0000
0000
0000
0000
0000
0000
1010
0000
0000
0000
0000
0000
0000
0000
0000
0000
0000
0000
0101
0000
0000
0000
0000
0000
0000
0000
0000
0000
0000
0000
0011
0000
0000
0000
0000
0000
0000
0000
0000
0000
0000
0000
0101
0000
0000
0000
,
0000
1010
1000
0001
2002
0000
3003
0000
,
0011
0000
0000
1010
0000
0000
0011
0000
0110
0000
0000
0000
1100
0000
0000
0101
,
0000
0000
1100
0000
0000
0110
0000
0000
0011
0000
0000
0000
1000
0001
1000
0001
,
1000
0100
0010
0001
0100
0010
1000
0010
0100
0001
0010
0100
,
2000
0000
3000
0000
0001
0100
0010
0100
,
0001
1000
0001
0000
1000
0000
0100
0000
0010
0001
1000
0000
0010
0000
0100
0000
,
1000
0000
0100
0000
0001
1000
0002
0000
0000
0000
0103
0000
1000
0000
0001
0000
,
0010
0100
0010
0000
1000
0000
0001
0000
1000
0010
0100
0000
1000
0000
0100
0000
,
0120
0000
0000
0000
1030
0001
1000
0001
0010
0000
0100
0000
0010
0000
0100
0000
,
0001
1000
0010
0002
0000
1003
0010
0001
,
0010
0000
0100
0000
0010
0000
0100
0001
0100
0000
0001
0000
1001
0000
1000
0000
,
1100
1000
2002
3003
0001
0001
1000
1000
,
0100
0000
0000
0000
0010
0000
0000
0000
0001
0000
0000
0000
1000
0000
0000
0000
0010
0000
0000
0000
0000
0000
0000
0000
0000
0000
0000
0000
0000
0000
0000
0000
2002
3003
0000
0000
0000
0000
0000
0000
0000
0000
0000
0000
0000
0000
0000
0000
0000
0000
0000
0000
0000
0000
0000
0000
0000
0000
0000
0000
0000
0000
0000
0000
,
0000
0000
0000
0000
0000
0000
0000
0000
0000
0000
0000
0000
0000
0000
0001
0100
,
2000
0000
0000
0000
0000
0000
0000
0000
3001
0000
0000
0000
0010
0000
0000
0000
2000
0000
0000
0000
0000
0000
0000
0000
3002
0000
0000
0000
0000
0000
0000
0000
2003
3000
0000
0000
0000
0000
0000
0000
0000
0000
0000
0000
0000
0000
0000
0000
1000
0000
0000
0000
0000
0000
0000
0000
0000
0000
0000
0000
0000
0000
0000
0000
,
1000
1000
0001
0001
,
0001
0000
0001
0000
0100
0010
0100
0010
,
0100
0000
0010
0000
0100
0010
0100
0010
0100
0000
0001
0000
1000
0100
0010
0000
,
0000
0000
0010
0100
1000
0001
1000
0000
1001
0000
0000
0000
1001
0000
0000
0000
,
0001
0010
0100
0101
0000
0110
0000
1100
,
1000
0001
1000
1010
0000
0011
0000
0110
,
0100
0001
1000
0100
0110
0000
0011
0011
,
0000
0000
1001
0000
0001
1000
0001
1000
0010
0000
0000
0000
0110
0000
0000
0000
,
0100
0000
1000
0000
0100
0000
0001
0000
0010
0000
0100
0000
1000
0000
0001
1000
,
0001
0100
0010
1000
0001
0001
1000
1000
,
0001
1000
0100
0010
0001
1000
0010
2000
0002
0000
0000
0000
3000
0000
0003
0000
,
1001
0000
0000
0000
1000
0000
1000
0000
0100
0000
0100
0000
0100
0000
0110
0000
0000
0000
0011
0000
0001
1000
0001
1000
0001
0000
0010
0000
0100
1000
0100
1000
,
0001
0000
0000
0000
0000
0000
0000
0000
0000
0010
0000
0000
0000
0000
0000
0000
0000
0000
1000
0000
0000
0000
0000
0000
0000
0000
0000
0100
0000
0000
0000
0000
0000
0000
0000
0000
0001
0000
0000
0000
0000
0000
0000
0000
0000
0100
0000
0000
0000
0000
0000
0000
0000
0000
1000
0000
0000
0000
0000
0000
0000
0000
0000
0010
0000
0000
0000
0000
0000
0000
0000
0000
0001
0000
0000
0000
0010
0000
0000
0000
0100
0000
0000
0000
1000
0000
0000
0000
0000
0000
0000
0000
0000
0000
0000
0000
,
0002
0003
0000
0000
0100
0000
0000
0000
0001
0000
0000
0000
0100
0000
0000
0000
0001
0000
0000
0000
0000
0000
0000
0000
1000
0000
0000
0000
0010
0000
0000
0000
1000
0000
0000
0000
0010
0000
0000
0000
1000
0000
0000
0000
0000
0000
0000
0000
0001
0000
0000
0000
1000
0000
0000
0000
0001
0000
0000
0000
0000
0000
0000
0000
,
1000
0100
0010
0001
1000
0010
1000
0001
0010
0100
1000
0001
0100
0010
1000
0001
,
0020
0000
0000
0030
,
1001
0000
0001
0000
1001
0000
1000
0000
0001
0100
0000
0010
1000
0000
1000
0000
,
0001
0010
0100
1000
0100
0010
0001
1000
0001
0000
0000
0000
1001
0000
0000
0000
,
1000
0100
0110
0000
0001
1000
0010
0002
,
0000
1003
0100
0010
1000
0100
0001
2000
,
0000
3010
0100
1000
0001
0100
0010
1000
,
0100
0000
0001
0000
1000
0000
0010
0000
0001
0000
0100
0000
0010
1000
0010
1000
,
0100
0010
0011
0000
1000
0010
0100
2000
,
0000
3100
0001
1000
0100
0010
0001
1000
,
1100
0010
0001
0000
0101
0010
1000
0001
,
0010
0000
0010
0000
0100
0000
0100
0000
0110
0000
0000
0000
1000
0001
1000
0001
,
1000
0000
0001
0000
0100
0000
0010
0000
0100
0001
1000
0000
0001
0000
0010
0000
,
0100
0000
1000
0000
0010
0000
1000
0000
0100
0010
0001
0000
1000
0000
0010
0000
,
0100
0000
1000
0000
0100
0000
0001
0000
0010
0100
1000
0000
0001
0000
0100
0000
,
0110
0000
0000
0000
1010
0000
1010
0000
0000
0000
1001
0000
0001
1000
0100
0010
,
0001
0000
1000
0000
0010
0000
1000
0000
0100
0010
0001
0000
0100
0000
0010
0000
,
0001
1000
0001
0010
1000
0100
0010
0001
,
0200
0010
0010
0310
0210
0300
0120
0030
1000
1000
1000
1000
0100
0100
0100
0100
,
0110
0000
0000
0001
0000
0000
1000
0000
0001
0000
0000
0100
0000
0000
0010
1000
,
0002
0203
2300
3020
0032
0000
0003
0000
,
2000
3000
0000
0000
0000
0000
0000
0000
0000
0000
0000
0000
0000
0000
0000
0000
1001
0000
0000
0000
0000
0000
0000
0000
0000
0000
0000
0000
0000
0000
0000
0000
0000
0000
0000
0000
0000
0000
0000
0000
0001
0000
0000
0000
0000
0000
0000
0000
0011
0000
0000
0000
0000
0000
0000
0000
0010
0000
0000
0000
0000
0000
0000
0000
,
0000
0100
1100
1000
0001
0100
0110
0000
,
2002
0000
0000
0000
0000
0000
0000
0000
0000
0000
0000
0000
3003
0000
0000
0000
1000
0000
1100
0000
0000
0000
0101
0000
0000
0000
0110
0000
1000
0001
1000
0001
,
2000
3000
0000
0000
0000
0000
0000
0000
0001
0000
0000
0000
0100
0000
0000
0000
0001
0000
0000
0000
0000
0000
0000
0000
1000
0000
0000
0000
0000
0000
0000
0000
0100
0000
0000
0000
0010
0000
0000
0000
0001
0000
0000
0000
0000
0000
0000
0000
1000
0000
0000
0000
0000
0000
0000
0000
0010
0000
0000
0000
0000
0000
0000
0000
,
1000
0000
0001
0000
0100
0000
1000
0000
0100
0000
0010
0000
0100
0001
1000
0000
,
0100
0000
0010
0000
1010
0000
0010
0000
0100
0000
1000
0000
1001
0000
0001
0100
,
0010
1000
0010
1000
0010
0000
0100
0000
0001
0000
1000
0000
0100
0000
0010
0000
,
0001
0000
1000
0000
0010
0000
0100
0000
0001
0000
1000
0000
0100
0010
0001
0000
,
1000
0010
0100
0000
0010
1000
0001
0000
0010
0100
1000
0001
0010
0001
1000
0100
,
0010
0000
0000
0010
0001
0000
0001
0100
0010
0000
0100
0010
0000
1000
0010
0000
,
1000
0100
0020
0002
0000
0030
0003
0000
,
0001
0000
1000
0010
0100
0000
0001
0000
0010
0000
0100
1000
0001
0000
0100
0000
,
0010
0000
1000
0100
0010
0000
0001
0000
1000
0010
1000
0001
1000
0000
0100
0000
,
0010
0000
0001
0100
0010
0000
0100
0001
1000
0000
0001
0000
0010
0000
2000
0000
,
3001
0000
0100
0000
0010
0000
0001
0000
0200
0000
0320
0000
2030
0000
3002
0003
,
0011
0100
1000
1010
0100
0001
1001
0000
,
1100
0010
0001
0101
0010
1000
1001
0000
,
1000
0100
1000
0001
0010
0001
1000
0010
1000
0001
0010
0001
0100
0010
1000
0001
,
0020
0230
2000
3300
,
1001
0000
0000
0000
;

//--------------- dance-double - Fred-104 ----------------
#NOTEDATA:;
#STEPSTYPE:dance-double;
#DESCRIPTION:Fred-104;
#DIFFICULTY:Easy;
#METER:10;
#CREDIT:Fred-104;
#NOTES:
00000000
00000000
00000000
00000000
,
00000000
00000000
00000000
00000000
,
00000000
00000000
00000000
00000000
,
00002000
00003000
00000000
00000000
00000000
00000000
00000000
00000000
00000000
00000000
00000000
00000000
00000000
00000000
00000000
00000000
00001000
00000000
00000000
00000000
00000000
00000000
00000000
00000000
00000000
00000000
00000000
00000000
00000000
00000000
00000000
00000000
00000000
00000000
00000000
00000000
00000000
00000000
00000000
00000000
00000000
00000000
00000000
00000000
00000000
00000000
00000000
00000000
00010000
00000000
00000000
00000000
00000000
00000000
00000000
00000000
00000000
00000000
00000000
00000000
00000000
00000000
00000000
00000000
,
01000000
00100000
00010000
10000000
,
00100000
01000000
00100000
00010000
,
00022000
00000000
00030000
00003000
,
00010000
00000000
00000000
00001000
00000000
00000000
00000100
00000000
,
00000001
00000000
00000000
00000010
00000000
00000000
00001000
00000000
,
00010000
00000000
00000000
00001000
00000000
00000000
00000010
00000000
,
00000001
00000100
00001000
00010000
,
00001000
00001000
00010000
00010000
,
00000100
00000100
00010000
00010000
,
00001000
00010000
00100000
10000000
,
20020000
00000000
00000000
30030000
,
00010000
00010000
10000000
00100000
,
00010000
00001000
00010000
00000100
,
00010000
00001000
00010000
00000010
,
00001000
00000100
00000110
00000000
,
00000001
00001000
00000001
00000000
00000100
00000000
00000010
00000000
,
00000100
00001000
00010000
00001000
,
00010000
00000000
00010000
00000000
00001000
00000000
00000000
01000000
,
00000000
00000000
00001000
00000000
00010000
00000000
00002000
00003000
,
00022000
00033000
00000000
00000000
00000000
00000000
00000000
00000000
00000000
00000000
00000000
00000000
00000000
00000000
00000000
00000000
00010000
00000000
00000000
00000000
00000000
00000000
00000000
00000000
00010000
00000000
00000000
00000000
00000000
00000000
00000000
00000000
00001000
00000000
00000000
00000000
00000000
00000000
00000000
00000000
00001000
00000000
00000000
00000000
00000000
00000000
00000000
00000000
00000100
00000000
00000000
00000000
00000000
00000000
00000000
00000000
00000100
00000000
00000000
00000000
00000000
00000000
00000000
00000000
,
00001000
00000000
00001000
00000000
00010000
00000000
00010000
00000000
00001000
00000000
00000000
01000000
00000000
00000000
01100000
00000000
,
20000000
30000000
00000000
00000000
00000000
00000000
00000000
00000000
00000000
00000000
00000000
00000000
00000000
00000000
00000000
00000000
01000000
00000000
00000000
00000000
00000000
00000000
00000000
00000000
00000000
00000000
00000000
00000000
00000000
00000000
00000000
00000000
00010000
00000000
00000000
00000000
00000000
00000000
00000000
00000000
00000000
00000000
00000000
00000000
00000000
00000000
00000000
00000000
00001000
00000000
00000000
00000000
00000000
00000000
00000000
00000000
00000000
00000000
00000000
00000000
00000000
00000000
00000000
00000000
,
00011000
00000000
00001000
00001000
,
00010000
00000000
00010000
00000000
00000100
00000010
00000100
00000000
,
00001100
00000000
00000000
00000000
,
00022000
00033000
00000000
00000000
00000000
00000000
00000000
00000000
00000000
00000000
00000000
00000000
00000000
00000000
00000000
00000000
00010000
00000000
00000000
00000000
00000000
00000000
00000000
00000000
00010000
00000000
00000000
00000000
00000000
00000000
00000000
00000000
00001000
00000000
00000000
00000000
00000000
00000000
00000000
00000000
00001000
00000000
00000000
00000000
00000000
00000000
00000000
00000000
00022000
00000000
00000000
00000000
00000000
00000000
00000000
00000000
00033000
00000000
00000000
00000000
00000000
00000000
00000000
00000000
,
00011000
00010000
00001000
00001000
00000010
00000010
00000001
00000200
,
00001300
00010000
00001000
00000000
01000000
01000000
00001000
00011000
,
00010000
00000000
00001000
00000000
,
01000000
00010000
20020000
30030000
,
10000000
00000000
11000000
00000000
,
00010000
00000000
00110000
00000000
,
10000000
00010000
01000000
00100000
,
20020000
00000000
00000000
00000000
00000000
00000000
00000000
00000000
00000000
00000000
00000000
00000000
00000000
00000000
00000000
00000000
30030000
00000000
00000000
00000000
00000000
00000000
00000000
00000000
00000000
00000000
00000000
00000000
00000000
00000000
00000000
00000000
20000000
30000000
00000000
00000000
00000000
00000000
00000000
00000000
00000000
00000000
00000000
00000000
00000000
00000000
00000000
00000000
00100000
00000000
00000000
00000000
00000000
00000000
00000000
00000000
00000000
00000000
00000000
00000000
00000000
00000000
00000000
00000000
,
00010000
00000000
00001000
00010000
,
00000100
00000000
00000000
00000100
00000000
00000000
00000100
00000000
,
00000010
00000001
00001000
00000001
,
00001001
00000000
00000001
00000100
,
00001000
00000000
00000000
00010000
00000000
00010000
00000000
00000000
,
00001000
01000000
00010000
00010000
,
10000000
00000000
01000000
00000000
00100000
00010000
00100000
00000000
,
00010000
00000000
00000000
00000000
00000000
00000000
00000000
00000000
10000000
00000000
00000000
00000000
00000000
00000000
00000000
00000000
00010000
00000000
00000000
00000000
00000000
00000000
00000000
00000000
00000000
00000000
00000000
00000000
00000000
00000000
00000000
00000000
20020000
30030000
00000000
00000000
00000000
00000000
00000000
00000000
00000000
00000000
00000000
00000000
00000000
00000000
00000000
00000000
00000000
00000000
00000000
00000000
00000000
00000000
00000000
00000000
00000000
00000000
00000000
00000000
00000000
00000000
00000000
00000000
,
00000000
00000000
00000000
00000000
,
00000000
00000000
00000000
00000000
00000000
00000000
00000000
00000000
00000000
00000000
00000000
00000000
00000000
00000000
00000000
00000000
00000000
00000000
00000000
00000000
00000000
00000000
00000000
00000000
00000000
00000000
00000000
00000000
00000000
00000000
00000000
00000000
00002000
00003000
00000000
00000000
00000000
00000000
00000000
00000000
00000000
00000000
00000000
00000000
00000000
00000000
00000000
00000000
00001000
00000000
00000000
00000000
00000000
00000000
00000000
00000000
00000000
00000000
00000000
00000000
00000000
00000000
00000000
00000000
,
00001000
00001000
00010000
00010000
,
00010000
00010000
00001000
00010000
,
00001000
00010000
00001000
00000000
00011000
00000000
00000000
00010010
,
00000000
00011000
00011000
00011000
,
00001000
00000000
00000000
01001000
00000000
01001000
00000000
00000000
,
01000000
00000000
00000000
10010000
00000000
10010000
00000000
00000000
,
10000000
00000000
00100000
00000000
00010000
00000000
00000000
00001000
,
00000000
00011000
00010000
00000100
,
00000010
00000001
00000100
00000010
,
00000100
00000000
00001000
00000000
00010000
00001000
00010000
00000000
,
00001000
00010000
00001000
00000000
00022000
00000000
00030000
00003000
,
00011000
00000000
00001000
00000000
01000000
00000000
00000000
00010000
00000000
00000000
10000000
00000000
01000000
00000000
00100000
00000000
,
00001000
00000000
00000000
00001000
00000000
00000000
00010000
00000000
00000000
00010000
00000000
00000000
00011000
00000000
00000000
00000000
,
00001000
00000000
00000000
01000000
00000000
00000000
00001000
00000000
,
00010000
00000000
00000000
00000100
00000000
00000000
00010000
00000000
,
00022000
00000000
00000000
00033000
,
00001000
00000000
00001000
00000000
01000000
00010000
10000000
00000000
,
01000000
00100000
00001000
00000000
00022000
00000000
00033000
00000000
,
00011000
00000000
00010000
00000000
00000100
00000000
00000000
00000010
,
00000000
00000010
00000000
00000000
00000001
00000000
00000000
00001000
,
00000000
00001000
00000000
00000000
00000010
00000000
00010000
00000000
,
00001000
00000000
00000000
00010000
00000000
00000000
00100000
00000000
,
10100000
00000000
10000000
00000000
00010000
00000000
00000000
10000000
,
00000000
10000000
00000000
00000000
01000000
00000000
00100000
00000000
,
00001000
00001000
00010000
00010000
,
00000010
00001000
00000010
00000000
00000100
00000000
00000101
00000000
,
00001001
00000000
00000001
00000000
00000100
00000000
00000000
00000010
,
00000000
00000010
00000000
00000000
00010000
00000000
00000000
00001000
,
00000000
00001000
00000000
00000000
01000000
00000000
00001000
00000000
,
00010000
00000000
00000000
00001000
00000000
00000000
00100000
00000000
,
00010000
00000000
10000000
00000000
00010000
00000000
00000000
01000000
,
00000000
01000000
00000000
00000000
00010000
00000000
10000000
00000000
,
02200000
03300000
00000000
00000000
00000000
00000000
00000000
00000000
00000000
00000000
00000000
00000000
00000000
00000000
00000000
00000000
00100000
00000000
00000000
00000000
00000000
00000000
00000000
00000000
00100000
00000000
00000000
00000000
00000000
00000000
00000000
00000000
00001000
00000000
00000000
00000000
00000000
00000000
00000000
00000000
00001000
00000000
00000000
00000000
00000000
00000000
00000000
00000000
00010000
00000000
00000000
00000000
00000000
00000000
00000000
00000000
00010000
00000000
00000000
00000000
00000000
00000000
00000000
00000000
,
00011000
00000000
00000000
00000000
,
00000000
00000000
00000000
00000000
,
00020000
00030000
00000000
00000000
00000000
00000000
00000000
00000000
00000000
00000000
00000000
00000000
00000000
00000000
00000000
00000000
00001000
00000000
00000000
00000000
00000000
00000000
00000000
00000000
00000000
00000000
00000000
00000000
00000000
00000000
00000000
00000000
00000000
00000000
00000000
00000000
00000000
00000000
00000000
00000000
00000000
00000000
00000000
00000000
00000000
00000000
00000000
00000000
00010000
00000000
00000000
00000000
00000000
00000000
00000000
00000000
00000000
00000000
00000000
00000000
00000000
00000000
00000000
00000000
,
00000100
00000010
00000001
00001000
,
00000220
00000000
00000000
00000330
00022000
00000000
00000000
00033000
,
00022000
00033000
00000000
00000000
00000000
00000000
00000000
00000000
00000000
00000000
00000000
00000000
00000000
00000000
00000000
00000000
00001000
00000000
00000000
00000000
00000000
00000000
00000000
00000000
00000000
00000000
00000000
00000000
00000000
00000000
00000000
00000000
01000000
00000000
00000000
00000000
00000000
00000000
00000000
00000000
00000000
00000000
00000000
00000000
00000000
00000000
00000000
00000000
00001000
00000000
00000000
00000000
00000000
00000000
00000000
00000000
00000000
00000000
00000000
00000000
00000000
00000000
00000000
00000000
,
00010000
00001000
00100000
00001000
,
00010000
00000100
00000010
00000001
,
00000100
00000000
00001000
00000000
00010000
00001000
00010000
00000000
,
00001000
00000000
01000000
00000000
00010000
10000000
00010000
00000000
,
00100000
01000000
00010000
00001000
,
00010000
00000000
00000010
00000000
00001000
00000010
00010000
00000000
,
00022000
00000000
00000000
00000000
00000000
00030000
00003000
00000000
,
00010000
00001000
00010000
00000100
,
00000010
00000001
00001000
00000001
,
00000100
00001000
00010000
00001000
,
00020000
00032000
00003200
00002300
,
00013000
00001000
00000010
00000001
,
00001000
00000001
00000100
00001000
,
00010000
00100000
00010000
00001000
,
00000200
00000302
00002000
00003003
,
00001001
00000000
00000000
00000000
;

//--------------- dance-double - Fred-104 ----------------
#NOTEDATA:;
#STEPSTYPE:dance-double;
#DESCRIPTION:Fred-104;
#DIFFICULTY:Medium;
#METER:14;
#DISPLAYBPM:100:200;
#BPMS:0=100,12=200,92=100,100=200,116=100,119=200,119.5=100,128=200,148=50,148.5=100,149=200,182=100,190=200,235=100,240=200,243=100,244=200,320=100,332=200,340=100,342=200,343.5=100,344=200;
#STOPS:119=0.038,119.125=0.037,119.25=0.038,119.375=0.037,234=0.075,234.25=0.075,234.5=0.075,234.75=0.075,240=0.113,240.375=0.112,240.75=0.113,241.125=0.112,241.5=0.113,241.875=0.112,242.25=0.113,242.625=0.112,342=0.075,342.25=0.15,342.75=0.15,343.25=0.075;
#TIMESIGNATURES:0=4=4,148=2=4,150=4=4,230=6=4,236=4=4;
#CREDIT:Fred-104;
#NOTES:
00000000
00000000
00000000
00000000
,
00000000
00000000
00000000
00000000
,
00000000
00000000
00000000
00000000
,
00020000
00030000
00000000
00000000
00000000
00000000
00000000
00000000
00001000
00000000
00000000
00000000
00000000
00000000
00000000
00000000
01000000
00000000
00000000
00000000
00000000
00000000
00000000
00000000
00010000
00000000
00000000
00000000
00000000
00000000
00000000
00000000
00100000
00000000
00000000
00000000
00000000
00000000
00000000
00000000
01000000
00000000
00000000
00000000
00000000
00000000
00000000
00000000
10000000
00000000
00000000
00000000
00000000
00000000
00000000
00000000
00000000
00000000
00000000
00000000
00000000
00000000
00000000
00000000
,
00010000
10000000
00100000
00010000
00001000
00010000
00000100
00000000
,
00000010
00000010
00000001
00000100
00000010
00000100
00001000
00010000
,
00022000
00000000
00030000
00003000
,
00011000
00000000
00010000
00001000
00000000
00000100
00000001
00000000
,
00001001
00000000
00000001
00000010
00000000
00001000
00010000
00000000
,
00011000
00000000
00001000
00010000
00000000
01000000
10000000
00000000
,
10010000
00000000
10000000
00100000
00010000
00000000
00011000
00000000
,
00010000
00000000
00000000
00000100
00000000
00000000
00000010
00000000
00000001
00000000
00000000
00000100
00000000
00000000
00001000
00000000
,
00010000
00000000
00000000
00100000
00000000
00000000
00010000
00000000
00001000
00000000
00000000
00010000
00000000
00000000
01000000
00000000
,
10000000
00010000
01000000
00100000
00010000
00001000
00000100
00001000
,
00022000
00000000
00000000
00033000
,
00010000
00001000
01000000
00001000
00010000
00000100
00000010
00000001
,
00000000
00001010
00000000
00001001
00000000
00000001
00001000
00000100
,
00000010
00001000
00010000
01000000
00100000
00010000
01000000
00001000
,
00011000
00000000
00011000
00000000
00002000
00023000
00032000
00023000
,
00031000
00001000
00011000
00000000
00001000
01000000
00010000
00100000
,
01000000
00100000
10000000
00100000
00010000
01000000
00001000
00000000
,
00021000
00000000
00030200
00000000
00000310
00000001
00001000
00000010
,
00000000
00000100
00000000
00001000
00010000
00100000
20000000
30000000
,
20020000
30030000
00000000
00000000
00000000
00000000
00000000
00000000
10000000
00000000
00000000
00000000
00000000
00000000
00000000
00000000
10100000
00000000
00000000
00000000
00000000
00000000
00000000
00000000
00100000
00000000
00000000
00000000
00000000
00000000
00000000
00000000
00010000
00000000
00000000
00000000
00000000
00000000
00000000
00000000
00001000
00000000
00000000
00000000
00000000
00000000
00000000
00000000
00011000
00000000
00000000
00000000
00000000
00000000
00000000
00000000
00010000
00000000
00000000
00000000
00000000
00000000
00000000
00000000
,
00000100
00000000
00000010
00000000
00000011
00000000
00000001
00000000
00000101
00000000
00000000
00001100
00000000
00000000
00000110
00000000
,
00002000
00003020
00002030
00003002
,
00000013
00000100
00000010
00000100
00000010
00001000
00000010
00001000
,
00010000
01000000
00010000
01000000
00100000
01000000
10000000
00010000
,
02000000
03002000
00020000
00033000
,
00022000
00033000
00000000
00000000
00000000
00000000
00000000
00000000
00001000
00000000
00000000
00000000
00001000
00000000
00000000
00000000
00010000
00000000
00000000
00000000
00100000
00000000
00000000
00000000
01000000
00000000
00000000
00000000
00010000
00000000
00000000
00000000
10000000
00000000
00000000
00000000
01000000
00000000
00000000
00000000
00100000
00000000
00000000
00000000
00010000
00000000
00000000
00000000
20000000
00000000
00000000
00000000
00000000
00000000
00000000
00000000
30000000
00000000
00000000
00000000
00000000
00000000
00000000
00000000
,
10010000
00000000
20000000
30000000
12000000
03000000
01020000
00030000
00012000
00003000
00001020
00000030
00000012
00000003
00002001
00000000
,
00003001
00000100
00000100
00000000
00000010
00000010
00000100
00001000
00000000
00010000
00010000
00000000
00001000
00000000
00011000
00000000
,
00020000
00030000
00000000
00000000
00000000
00000000
00000000
00000000
00001000
00000000
00000000
00000000
00000000
00000000
00000000
00000000
00000000
00000000
00000000
00000000
00000000
00000000
00000000
00000000
00000010
00000000
00000000
00000000
00000000
00000000
00000000
00000000
00000000
00000000
00000000
00000000
00000001
00000000
00000000
00000000
00000000
00000000
00000000
00000000
00000000
00000000
00000000
00000000
00001000
00000000
00000000
00000000
00000000
00000000
00000000
00000000
00000000
00000000
00000000
00000000
00000001
00000000
00000000
00000000
,
00000000
00000100
00001000
00010000
00022000
00000000
00033000
00000000
,
00001000
00000000
00000000
00010000
00000000
00000000
00100000
00000000
01100000
00000000
00000000
00000000
01000000
00000000
00000000
00010000
,
00000000
00000000
10000000
00000000
00000000
01000000
00000000
00000000
01100000
00000000
00000000
00000000
00001000
00000000
00010000
00000000
,
00001000
00010000
00001000
00010000
00000000
00000000
00000010
00001000
00000010
00010000
00000000
00000000
,
00022000
00000000
00033000
00000000
00010000
00001000
01000000
00001000
,
00010000
00000000
00010000
00100000
10000000
00000000
10000000
01000000
,
10000000
00000000
00100000
00010000
00000000
00010000
00001000
00010000
,
00000100
00001000
00000010
00000100
00000001
00000010
00001000
00010000
,
00001000
00011000
00020000
00032000
,
00013000
00000100
00000010
00000001
00000000
00001000
00000000
00000001
,
00001000
00000010
00010000
00001000
00100000
01000000
00100000
10000000
,
00100000
01000000
11000000
00000000
00010000
10000000
00100000
01000000
,
00100000
00000000
00000000
00000000
00000000
00000000
00000000
00000000
00010000
00000000
00000000
00000000
00000000
00000000
00000000
00000000
00011000
00000000
00000000
00000000
00000000
00000000
00000000
00000000
00000000
00000000
00000000
00000000
00000000
00000000
00000000
00000000
00022000
00033000
00000000
00000000
00000000
00000000
00000000
00000000
00000000
00000000
00000000
00000000
00000000
00000000
00000000
00000000
00000000
00000000
00000000
00000000
00000000
00000000
00000000
00000000
00000000
00000000
00000000
00000000
00000000
00000000
00000000
00000000
,
00000000
00000000
00000000
00000000
00000000
00000000
00000000
00000000
00000000
00000000
00000000
00000000
00000000
00000000
00001000
00010000
,
00002000
00000000
00000000
00000000
00000000
00000000
00000000
00000000
00003100
00000000
00000000
00000000
00000001
00000000
00000000
00000000
00000020
00000000
00000000
00000000
00000000
00000000
00000000
00000000
00000230
00000000
00000000
00000000
00000000
00000000
00000000
00000000
00000320
00000030
00000000
00000000
00000000
00000000
00000000
00000000
00000000
00000000
00000000
00000000
00000000
00000000
00000000
00000000
00000010
00000000
00000000
00000000
00000000
00000000
00000000
00000000
00000000
00000000
00000000
00000000
00000000
00000000
00000000
00000000
,
00000010
00000010
00001000
00001000
,
00001000
00000000
00001000
00000000
00010000
00001000
00010000
00001000
,
00010000
00001000
00010000
00001000
00010000
00001000
01000000
01000000
,
00000000
00010000
10000000
01000000
01100000
00000000
01100000
00000000
,
00100000
00001000
00010000
00001000
00000000
00011000
00000000
00010000
,
00000100
00000010
00000001
00001000
00000000
00001001
00000000
00000001
,
00000100
00000010
00000100
00001000
00010000
00000000
00001000
01000000
,
00000000
00010000
00100000
00000000
01100000
00000000
10100000
00000000
,
00100000
00010000
10000000
00100000
00000000
00110000
00000000
00010000
,
00001000
00000100
00000001
00001000
00000100
00000010
00000001
00001000
,
00000010
00000100
00001000
00000000
00022000
00000000
00003000
00030000
,
00011000
00000000
00001000
01000000
00010000
00100000
00010000
10000000
00000000
01000000
00100000
00010000
10000000
00100000
00020000
00000000
,
00031000
00000000
00000000
00001000
00000000
00000000
00001000
00000000
00000000
00001000
00000000
00000000
00010000
00000000
00000000
00010000
00000000
00000000
00010000
00000000
00000000
00010000
00000000
00000000
00001000
00000000
00000000
00000000
00011000
00000000
00000000
00000000
,
00020000
00030000
00000000
00000000
00000000
00000000
00000000
00000000
00001000
00000000
00000000
00000000
00000000
00000000
00000000
00000000
00000100
00000000
00000000
00000000
00000000
00000000
00000000
00000000
00000010
00000000
00000000
00000000
00000000
00000000
00000000
00000000
00001000
00000000
00000000
00000000
00000000
00000000
00000000
00000000
00000001
00000000
00000000
00000000
00000000
00000000
00000000
00000000
00000010
00000000
00000000
00000000
00000000
00000000
00000000
00000000
00000000
00000000
00000000
00000000
00000000
00000000
00000000
00000000
,
00000100
00001000
00000010
00000100
00001000
00010000
00100000
10000000
,
02000000
00000000
00000000
03000000
,
01100000
00000000
01100000
00000000
00001000
00010000
00001000
00000000
,
00010000
00001000
00000010
00000001
00000100
00000000
00001001
00000000
,
00000002
00000000
00002003
00000000
00003100
00000010
00001000
00010000
,
00000000
00011000
00000000
00001000
01000000
00010000
10000000
01000000
,
00000000
01100000
00000000
00100000
00001000
00010000
00001000
00000100
,
00000010
00000000
00001000
00000100
00000000
00000010
00000001
00000000
,
00000200
00000000
00000320
00000000
00000130
00000001
00001000
00000100
,
00000000
00000010
00000000
00000001
00000100
00001000
00010000
00001000
,
01000000
10010000
00100000
10010000
,
10000000
00100000
00010000
00001000
00010000
00000000
00011000
00000000
,
00010000
00001000
00010000
00000000
00000010
00001000
00000100
00000010
,
00000000
00000100
00000001
00000100
00000010
00000001
00001000
00000010
,
00000000
00010000
00001000
00100000
01000000
00100000
00010000
10000000
,
00010000
00000000
10000000
01000000
00000000
00010000
00001000
00000000
,
00010000
00000100
00001000
00000000
00000010
00010000
00001000
00010000
,
00000000
00100000
01000000
00100000
10000000
01000000
00010000
00000000
,
00022000
00033000
00000000
00000000
00000000
00000000
00000000
00000000
00010100
00000000
00000000
00000000
00000000
00000000
00000000
00000000
02002000
00000000
00000000
00000000
03003000
00000000
00000000
00000000
00022000
00000000
00000000
00000000
00033000
00000000
00000000
00000000
00010000
00000000
00000000
00000000
00001000
00000000
00000000
00000000
00010000
00000000
00000000
00000000
00001000
00000000
00000000
00000000
00000100
00000000
00000000
00000000
00000001
00000000
00000000
00000000
00000100
00000000
00000000
00000000
00000001
00000000
00000000
00000000
,
00001001
00000000
00000000
00000000
,
00000000
00000000
00000000
00000000
,
00020000
00030000
00000000
00000000
00000000
00000000
00000000
00000000
00000000
00000000
00000000
00000000
00000000
00000000
00000000
00000000
00001000
00000000
00000000
00000000
00000000
00000000
00000000
00000000
00000000
00000000
00000000
00000000
00000000
00000000
00000000
00000000
00000000
00000000
00000000
00000000
00000000
00000000
00000000
00000000
00100000
00000000
00000000
00000000
00000000
00000000
00000000
00000000
00100000
00000000
00000000
00000000
00000000
00000000
00000000
00000000
01000000
00000000
00000000
00000000
00000000
00000000
00000000
00000000
,
00000000
10000000
00010000
01000000
00100000
00010000
00001000
00000000
,
00022000
00000000
00000000
00000000
00000000
00000000
00033000
00000000
00010000
00001000
00000000
00011000
00000000
00001000
00010000
00000000
,
00002000
00003000
00000000
00000000
00000000
00000000
00000000
00000000
00010000
00000000
00000000
00000000
00000000
00000000
00000000
00000000
00001000
00000000
00000000
00000000
00000000
00000000
00000000
00000000
00100000
00000000
00000000
00000000
00000000
00000000
00000000
00000000
00010000
00000000
00000000
00000000
00000000
00000000
00000000
00000000
00100000
00000000
00000000
00000000
00000000
00000000
00000000
00000000
01000000
00000000
00000000
00000000
00000000
00000000
00000000
00000000
10000000
00000000
00000000
00000000
00000000
00000000
00000000
00000000
,
00000000
00010000
01000000
00100000
10000000
00100000
00010000
00001000
,
00000000
00010000
00000100
00000010
00000100
00000001
00000100
00000010
,
00000001
00001000
00000010
00000100
00001000
00010000
00001000
00010000
,
00001000
00100000
00010000
10000000
00010000
01000000
00010000
01000000
,
00100000
10000000
01000000
00100000
00001000
00010000
00000100
00010000
,
00000100
00000000
00000000
00000100
00000010
00000000
00000001
00000000
00001000
00000000
00000010
00000100
00000000
00000010
00000100
00000000
,
00001000
00010000
00002000
00020000
00000000
00003000
00030000
00000000
,
00001000
00100000
00001000
00100000
01000000
00100000
00010000
10000000
,
00100000
01000000
00100000
01000000
10000000
01000000
00010000
10000000
,
01000000
00010000
00001000
00010000
00000100
00000010
00000001
00001000
,
00000001
00000100
00001000
00010000
00100000
10000000
00010000
00000000
,
10000000
00000000
00000000
01000000
00000000
00000000
00100000
00000000
00001000
00000000
00000000
00010000
00000000
00000000
00100000
00000000
,
00010000
00000000
00000000
00001000
00000000
00000000
00010000
00000000
00000100
00000000
00000000
00000010
00000000
00000000
00000001
00000000
,
00001000
00000001
00000010
00000100
00001000
00010000
00100000
01000000
,
20000000
30200000
00320000
00031000
,
00011000
00000000
00000000
00000000
;

//--------------- dance-double - Fred-104 ----------------
#NOTEDATA:;
#STEPSTYPE:dance-double;
#DESCRIPTION:Fred-104;
#DIFFICULTY:Hard;
#METER:17;
#DISPLAYBPM:100:200;
#BPMS:0=100,12=200,92=100,100=200,116=100,119=200,119.5=100,128=200,148=50,148.5=100,149=200,182=100,190=200,235=100,240=200,243=100,244=200,320=100,332=200,340=100,342=200,343.5=100,344=200;
#STOPS:119=0.038,119.125=0.037,119.25=0.038,119.375=0.037,234=0.075,234.25=0.075,234.5=0.075,234.75=0.075,240=0.113,240.375=0.112,240.75=0.113,241.125=0.112,241.5=0.113,241.875=0.112,242.25=0.113,242.625=0.112,342=0.075,342.25=0.15,342.75=0.15,343.25=0.075;
#TIMESIGNATURES:0=4=4,148=2=4,150=4=4,230=6=4,236=4=4;
#CREDIT:Fred-104;
#NOTES:
00000000
00000000
00000000
00000000
,
00000000
00000000
00000000
00000000
,
00000000
00000000
00000000
00000000
,
00002000
00003000
00000000
00000000
00000000
00000000
00000000
00000000
00010000
00000000
00000000
00000000
00000000
00000000
00000000
00000000
00100000
00000000
00000000
00000000
00000000
00000000
00000000
00000000
01000000
00000000
00000000
00000000
00000000
00000000
00000000
00000000
00010000
00000000
00000000
00000000
00000000
00000000
00000000
00000000
00100000
00000000
00000000
00000000
00000000
00000000
00000000
00000000
01000000
00000000
00000000
00000000
00000000
00000000
00000000
00000000
00010000
00000000
00000000
00000000
00000000
00000000
00000000
00000000
,
00000100
00001000
01000000
00010000
00001000
00000010
00000100
00000000
,
00001000
00000010
00001000
00000000
00000010
00000000
00000100
00000000
00001000
00000000
00010000
00000000
00001000
00000000
00010000
00000000
,
00022000
00000000
00030000
00003000
,
00011000
00001000
01000000
01010000
00010000
10000000
10010000
00000000
,
11000000
01000000
00100000
00101000
00001000
00010000
00011000
00000000
,
00010010
00000010
00001000
00001001
00000001
00000010
00000110
00000000
,
00001100
00000100
00001000
00000001
00000101
00000000
00001001
00000000
,
00000001
00000100
00000001
00000100
00001000
00010000
00001000
00010000
,
00100000
10000000
00100000
10000000
01000000
00010000
01000000
00010000
,
00001000
00010000
00001000
00010000
00000000
00000100
00001000
00000000
00000001
00001000
00000001
00001000
00000000
00000100
00000010
00000000
,
00000022
00000000
00000000
00000033
,
00002000
00000100
00003200
00000010
00000310
00000001
00000100
00001000
,
00010000
00000000
00002000
00000000
00013000
00000000
00000200
00000000
00010300
00000000
01000000
00000000
00100000
00000000
00010000
10000000
,
00010000
00000000
01000000
00100000
01000000
00000000
10000000
01000000
00100000
00000000
00010000
00000000
00001000
00000000
00010000
00000000
,
00011000
00000000
00011000
00000000
00020000
00032000
00003020
00000230
,
00001300
00000001
00001001
00000000
00000001
00001000
00000010
00000001
,
00000010
00000100
00001000
00010000
00100000
01000000
00010000
10000000
,
02000000
00000000
00010000
00000000
13000000
00100000
00010000
00002000
,
00000000
00023000
00000000
00030200
00010300
00001000
00020000
00030100
,
00000220
00000330
00000000
00000000
00000000
00000000
00000000
00000000
00000010
00000000
00000000
00000000
00000001
00000000
00000000
00000000
00001001
00000000
00000000
00000000
00001000
00000000
00000000
00000000
00000001
00000000
00000000
00000000
00000100
00000000
00000000
00000000
00001000
00000000
00000000
00000000
00010000
00000000
00000000
00000000
00010000
00000000
00000000
00000000
00010000
00000000
00000000
00000000
01000000
00000000
00000000
00000000
10000000
00000000
00000000
00000000
10000000
00000000
00000000
00000000
10000000
00000000
00010000
00000000
,
01000000
00000000
01100000
00100000
10100000
10000000
01000000
00100000
00101000
00001000
00010000
00010010
00010000
00001000
00011000
00000000
,
00020000
00030000
00000000
00000000
00000000
00000000
00000000
00000000
00001000
00000000
00000000
00000000
00000000
00000000
00000000
00000000
00000010
00000000
00000000
00000000
00000000
00000000
00000000
00000000
00001000
00000000
00000000
00000000
00000000
00000000
00000000
00000000
00010000
00000000
00000000
00000000
00000000
00000000
00000000
00000000
00001000
00000000
00000000
00000000
00000000
00000000
00000000
00000000
01000000
00000000
00000000
00000000
00000000
00000000
00000000
00000000
00000000
00000000
00000000
00000000
00000000
00000000
00000000
00000000
,
00012000
00013000
00021000
00031000
00010000
00000100
00010000
00001000
,
00100000
00000000
01000000
00000000
10000000
00000000
00010000
00000000
01000000
00100000
00010000
00000000
00001000
00010000
00000100
00000000
,
00020000
00032000
00020000
00033000
,
00022000
00033000
00000000
00000000
00010000
00000000
00000000
00000000
00001000
00000000
00000000
00000000
00000100
00000000
00000000
00000000
00000110
00000000
00000000
00000000
00000010
00000000
00000000
00000000
00000010
00000000
00000000
00000000
00000010
00000000
00000000
00000000
00001000
00000000
00000000
00000000
00001000
00000000
00000000
00000000
00001000
00000000
00000000
00000000
00001000
00000000
00000000
00000000
00000001
00000000
00001000
00000000
00000001
00000000
00001000
00000000
00000002
00000000
00000000
00000000
00000000
00000000
00000000
00000000
,
00001003
00000001
00000201
00000300
00002100
00003000
00021000
00030000
00210000
00300000
20100000
30000000
12000000
03000000
01200000
00000000
,
00310000
10000000
01100000
00000000
10010000
00010000
20000000
32000000
03010000
00002000
00003020
00000031
00000100
00001000
00020000
00000000
,
00032000
00003000
00000000
00000000
00000000
00000000
00000000
00000000
00011000
00000000
00000000
00000000
00000000
00000000
00000000
00000000
00000000
00000000
00000000
00000000
00000000
00000000
00000000
00000000
01001000
00000000
00000000
00000000
00000000
00000000
00000000
00000000
00000000
00000000
00000000
00000000
00010000
00000000
00000000
00000000
00000000
00000000
00000000
00000000
00000000
00000000
00000000
00000000
00010100
00000000
00000000
00000000
00000000
00000000
00000000
00000000
00000000
00000000
00000000
00000000
00001000
00000000
00000000
00000000
,
00000000
00011000
00010000
00000010
00002020
00000000
00003030
00000000
,
00000011
00000000
00000000
00000100
00000000
00000000
00010000
00000000
00011000
00000000
00000000
00000000
01001000
00000000
00000000
00100000
,
00000000
00000000
10000000
00000000
00000000
01000000
00000000
00000000
00110000
00000000
00000000
00000000
00010000
10000000
00010000
10000000
,
00010000
10000000
00100000
01000000
00100000
00010000
00001000
00000100
00000010
00000100
00000001
00001000
,
00000000
00000000
00000000
00000000
00001000
00000100
00000010
00000001
,
00001000
00000010
00000100
00001000
00010000
00001000
00100000
01000000
,
00010000
01000000
00100000
02000000
00000000
13000000
00100000
00010000
,
00001000
00010000
00001000
00000000
00010000
00000000
00000100
00000000
00000010
00000000
00000001
00000000
00000100
00000000
00001000
00000000
,
00020000
00000000
00000000
00000000
00031000
00010000
00001000
00010000
00001000
00000000
00010000
00000000
00011000
00000000
00000000
00000000
,
00001000
00010000
01000000
00200000
00000000
00301000
01000000
00100000
,
00010000
10000000
01000000
00010000
10000000
01000000
01010000
00010000
,
00011000
00001000
00022000
00033000
00010000
00010000
00001000
00001000
,
00000100
00000000
00000000
00000000
00000001
00000000
00000000
00000000
00000100
00000000
00000000
00000000
00000001
00000000
00000000
00000000
00001000
00000000
00000000
00000000
00000000
00000000
00000000
00000000
00000000
00000000
00000000
00000000
00000000
00000000
00000000
00000000
00002002
00003003
00000000
00000000
00000000
00000000
00000000
00000000
00000000
00000000
00000000
00000000
00000000
00000000
00000000
00000000
00000000
00000000
00000000
00000000
00000000
00000000
00000000
00000000
00000000
00000000
00000000
00000000
00000000
00000000
00000000
00000000
,
00000000
00000000
00000000
00000000
00000000
00000000
00000000
00000000
00000000
00000000
00000000
00000000
00000000
00000000
00000001
00000100
,
00002000
00000000
00000000
00000000
00000000
00000000
00000000
00000000
00013000
00000000
00000000
00000000
00100000
00000000
00000000
00000000
20000000
00000000
00000000
00000000
00000000
00000000
00000000
00000000
32000000
00000000
00000000
00000000
00000000
00000000
00000000
00000000
03200000
00300000
00000000
00000000
00000000
00000000
00000000
00000000
00000000
00000000
00000000
00000000
00000000
00000000
00000000
00000000
00100000
00000000
00000000
00000000
00000000
00000000
00000000
00000000
00000000
00000000
00000000
00000000
00000000
00000000
00000000
00000000
,
00100000
00100000
00001000
00001000
,
00001000
00000000
00001000
00000000
00010000
00001000
00010000
00001000
,
00010000
00000000
00001000
00000000
00010000
00001000
00010000
00001000
00010000
00000000
00001000
00000000
00010000
00000100
00001000
00000000
,
00000000
00000000
00001000
00000100
00000010
00000001
00001000
00000000
00001001
00000000
00000000
00000000
00001001
00000000
00000000
00000000
,
00000001
00000100
00000010
00000011
00000000
00001010
00000000
00001001
,
00000001
00000100
00001000
00011000
00000000
00101000
00000000
00011000
,
00001000
01000000
00010000
10000000
11000000
00000000
00100000
00101000
,
00000000
00000000
00011000
00000000
00001000
00010000
00001000
00010000
00000100
00000000
00000000
00000000
00000110
00000000
00000000
00000000
,
00000010
00000000
00001000
00000000
00000010
00000000
00000001
00000000
00001000
00000000
00000001
00000000
00000100
00000000
00000010
00001000
,
00000010
00010000
00001000
01000000
00010000
00010000
10000000
10000000
,
01000000
00100000
01000000
00100000
00001000
00010000
00001000
00020000
00002000
00000000
00000000
00000000
00030000
00000000
00003000
00000000
,
00011000
00000000
00000000
00000000
00010000
00000000
00010000
00000000
00000100
00000000
00000100
00000000
00000010
00000000
00000011
00000000
00000000
00000000
00001001
00000000
00000001
00001000
00000001
00001000
00000001
00000000
00000100
00000000
00000010
00000000
00001000
00000000
,
00000001
00000000
00000000
00000000
00000000
00000000
00000000
00000000
00000000
00000010
00000000
00000000
00000000
00000000
00000000
00000000
00000000
00000000
00000100
00000000
00000000
00000000
00000000
00000000
00000000
00000000
00000000
00001000
00000000
00000000
00000000
00000000
00000000
00000000
00000000
00000000
00010000
00000000
00000000
00000000
00000000
00000000
00000000
00000000
00000000
00100000
00000000
00000000
00000000
00000000
00000000
00000000
00000000
00000000
01000000
00000000
00000000
00000000
00000000
00000000
00000000
00000000
00000000
10000000
00000000
00000000
00000000
00000000
00000000
00000000
00000000
00000000
00010000
00000000
00000000
00000000
01000000
00000000
00000000
00000000
00100000
00000000
00000000
00000000
10000000
00000000
00000000
00000000
00000000
00000000
00000000
00000000
00000000
00000000
00000000
00000000
,
00020000
00030000
00000000
00000000
00100000
00000000
00000000
00000000
00010000
00000000
00000000
00000000
00000000
00000000
00000000
00000000
10000000
00000000
00000000
00000000
00000000
00000000
00000000
00000000
00010000
00000000
00000000
00000000
01000000
00000000
00000000
00000000
00010000
00000000
00000000
00000000
00000000
00000000
00000000
00000000
10000000
00000000
00000000
00000000
00000000
00000000
00000000
00000000
01000000
00000000
00000000
00000000
00100000
00000000
00000000
00000000
00001000
00000000
00000000
00000000
00000000
00000000
00000000
00000000
,
00010000
00001000
00010000
00000100
00001000
00000100
00000010
00000001
00001000
00000010
00000100
00000001
00001000
00000100
00000010
00000000
,
00000022
00000000
00000000
00000033
,
00001001
00000000
00000001
00000000
00001001
00000000
00001000
00000000
00000001
00000010
00000000
00000100
00010000
00000000
00001000
00000000
,
01000000
00010000
01000000
00010000
10000000
00010000
10000000
00010000
00100000
00000000
00000000
00000000
01100000
00000000
00000000
00000000
,
10000000
01000000
00100000
00010000
01000000
00001000
00010000
00000200
,
00000000
00000301
00000100
00000010
00000001
00001000
00000001
00000200
,
00000000
00001300
00010000
00001000
00000010
00001000
00010000
00001000
,
01000000
00000000
00000000
00000000
00010000
00000000
10000000
00000000
00000000
00000000
10000000
00000000
01000000
00100000
01000000
00100000
,
00001000
00010000
00000100
00000010
00000100
00000001
00000100
00000020
,
00000000
00000031
00000100
00001000
00010000
00100000
10000000
01000000
,
01100000
00000000
00011000
00000000
00010100
00000100
00010000
00001000
,
01000000
00000000
01000000
00000000
00100000
00000000
00100000
00000000
01100000
00000000
00000000
00000000
10000000
01000000
00100000
00010000
,
10000000
00000000
00100000
00000000
00010000
00000000
00001000
00000000
00010000
00001000
00010000
00000000
00000100
00000000
00000010
00000000
,
00000001
00000000
00001000
00000000
00000010
00000000
00000100
00000000
00001000
00010000
00001000
00000000
00100000
00000000
00001000
00000000
,
00010000
00000000
00000100
00000000
00001000
00000000
00000100
00000000
00000010
00000001
00001000
00000000
00000010
00000000
00000100
00000000
,
00000101
00000000
00000000
00000000
00000001
00000000
00001001
00000000
00000000
00000000
00001001
00000000
00000001
00001000
00000100
00010000
,
00001000
00000000
00100000
00000000
00010000
00000000
10000000
00000000
00010000
00100000
01000000
00000000
10000000
00010000
01000000
00000000
,
00100000
00010000
00001000
00010000
01000000
00100000
00001000
00010000
,
00002000
00010000
00010000
00013000
00012000
00003000
00021000
00030000
00001000
00001000
00010000
00010000
00100000
00100000
10000000
10000000
,
10010000
00000000
00000000
00010000
00000000
00000000
10000000
00000000
01000000
00000000
00000000
00010000
00000000
00000000
00001000
00010000
,
00002000
00003020
00000032
00000203
00002300
00000000
00003000
00000000
,
00020000
00030000
00000000
00000000
00000000
00000000
00000000
00000000
00001000
00000000
00000000
00000000
00000000
00000000
00000000
00000000
00000010
00000000
00000000
00000000
00000000
00000000
00000000
00000000
00000100
00000000
00000000
00000000
00000000
00000000
00000000
00000000
00001000
00000000
00000000
00000000
00000000
00000000
00000000
00000000
00000010
00000000
00000000
00000000
00000000
00000000
00000000
00000000
00010000
00000000
00000000
00000000
00000000
00000000
00000000
00000000
00001000
00000000
00000000
00000000
00000000
00000000
00000000
00000000
,
00010000
00100000
01000000
00001000
00100000
01000000
00010000
00001000
,
00022000
00000000
00000000
00000000
00000000
00000000
00000000
00000000
00000000
00000000
00000000
00000000
00033000
00000000
00000000
00000000
00010000
00000000
00011000
00000000
00000000
00000000
00011000
00000000
00000000
00000000
00011000
00000000
00001000
00010000
00001000
00010000
,
00002000
00003000
00000000
00000000
00000000
00000000
00000000
00000000
00010000
00000000
00000000
00000000
00000000
00000000
00000000
00000000
00100000
00000000
00000000
00000000
00000000
00000000
00000000
00000000
10000000
00000000
00000000
00000000
00000000
00000000
00000000
00000000
01000000
00000000
00000000
00000000
00100000
00000000
00000000
00000000
00010000
00000000
00000000
00000000
00000000
00000000
00000000
00000000
01000000
00000000
00000000
00000000
00100000
00000000
00000000
00000000
00010000
00000000
00000000
00000000
00000000
00000000
00000000
00000000
,
00001000
00000000
00010000
00000000
00000100
00000000
00000010
00000000
00000001
00001000
00000010
00000000
00000100
00001000
00010000
00000000
,
00001000
00000000
00010000
00000000
00110000
00000000
00100000
00000000
10000000
00000000
01000000
00000000
01100000
00000000
00100000
00001000
,
00010000
00001000
00010000
00001000
00000100
00000000
00000001
00000000
00000010
00000000
00000100
00000000
00010000
00000000
00001000
00000000
,
00010000
00000100
00000010
00001000
00000001
00000100
00000010
00000100
,
00001000
00000001
00000010
00000000
00000100
00010000
00001000
00000000
00100000
00010000
10000000
00000000
00100000
01000000
00010000
00000000
,
10010000
00000000
00000000
10000000
01000000
00000000
01000000
00100000
00010000
00000000
01000000
00100000
00000000
10000000
00010000
00000000
,
00100000
01000000
00020000
00002000
00000000
00030000
00003000
00000000
,
00010000
00000000
00000010
00001000
00000010
00000000
00000100
00000000
00000001
00000000
00001000
00000100
00000010
00000000
00000001
00000000
,
00001000
00000000
00000010
00010000
00001000
00000000
00010000
00000000
00001000
00000000
00010000
00100000
01000000
00000000
00100000
00000000
,
10100000
00000000
00000000
00000000
10010000
00000000
00000000
00000000
00010000
10000000
01000000
00100000
00010000
00000000
00200000
00000000
,
00301000
00010000
00000010
00000100
00002000
00003002
00000023
00002030
,
00003001
00000010
00001000
00010000
01000000
10000000
10010000
00000000
,
10000000
00100000
00010000
00001000
00000100
00000001
00001001
00000000
,
00000001
00000010
00000001
00000010
00000100
00001000
00000100
00010000
00001000
00100000
00010000
00100000
01000000
10000000
01000000
10000000
,
00020000
02030000
00200000
03300000
,
10010000
00000000
00000000
00000000
;
