#TITLE:DOUBLE IMPACT;
#ARTIST:DOUBLE IMPACT;
#BANNER:DOUBLE IMPACT.png;
#BACKGROUND:DOUBLE IMPACT-bg.png;
#CDTITLE:./CDTitles/GitaDora and jubeat Big Summer Festival.png;
#MUSIC:DOUBLE IMPACT.ogg;
#SAMPLESTART:15.396;
#SAMPLELENGTH:15;
#BPMS:0=265;
#STAGE:27;

//--------------- dance-single - Fred-104 ----------------
#NOTES:
     dance-single:
     Fred-104:
     Beginner:
     5:
     :
0000
0000
0000
0000
,
0000
0000
0000
0000
,
0000
0000
0000
0000
,
0000
0000
0000
0000
,
0000
0000
0000
0000
,
0000
0000
0000
0000
,
0000
0000
0000
0000
,
0000
0000
0000
0000
,
0000
0000
0000
0000
,
1000
0000
0000
0000
,
0000
0000
0000
0000
,
0001
0000
0000
0000
,
0000
0000
0000
0000
,
2002
0000
3003
0000
,
0220
0000
0330
0000
,
0001
0000
0001
0000
,
1000
0000
1000
0000
,
0001
0000
0000
0000
,
1000
0000
0000
0000
,
0010
0000
0000
0000
,
1000
0000
0000
0000
,
0001
0000
0000
0000
,
1000
0000
0000
0000
,
1000
0000
0010
0000
,
0010
0000
1000
0000
,
0100
0000
0000
0000
,
1000
0000
0000
0000
,
0001
0000
0000
0000
,
0010
0000
0000
0000
,
0001
0000
0100
0000
,
0001
0000
0100
0000
,
0010
0000
0010
0000
,
1000
0000
0100
0000
,
1000
0000
0000
0000
,
1000
0000
0000
0000
,
0010
0000
0010
0000
,
1000
0000
0100
0000
,
1000
0000
0001
0000
,
0100
0000
0001
0000
,
0010
0000
0010
0000
,
0001
0000
1000
0000
,
1001
0000
0000
0000
,
0001
0000
0000
0000
,
0100
0000
0010
0000
,
0010
0000
0100
0000
,
0001
0000
0010
0000
,
0001
0000
1000
0000
,
0200
0000
0000
0300
,
0020
0000
0000
0030
,
1001
0000
0000
0000
,
0000
0000
0000
0000
,
0110
0000
0000
0000
,
0000
0000
0000
0000
,
0110
0000
0000
0000
,
0000
0000
0000
0000
,
1001
0000
0000
0000
,
0000
0000
0000
0000
,
1100
0000
0000
0000
,
0000
0000
0000
0000
,
0101
0000
0000
0000
,
0000
0000
0000
0000
,
0011
0000
0000
0000
,
1010
0000
0000
0000
,
2002
0000
0000
3003
,
0000
0000
0000
0000
,
1000
0000
0100
0000
,
1000
0000
0001
0000
,
1000
0000
0001
0000
,
1001
0000
0000
0000
,
1000
0000
0100
0000
,
0100
0000
1000
0000
,
0001
0000
0010
0000
,
0001
0000
0010
0000
,
0100
0000
1000
0000
,
0010
0000
1000
0000
,
0010
0000
0001
0000
,
0100
0000
0001
0000
,
0100
0000
1000
0000
,
0100
0000
1000
0000
,
0001
0000
1000
0000
,
0001
0000
1000
0000
,
0100
0000
1000
0000
,
0010
0000
1000
0000
,
0100
0000
0010
0000
,
0110
0000
0000
0000
,
0001
0000
0001
0000
,
0010
0000
0001
0000
,
0010
0000
0010
0000
,
0100
0000
1000
0000
,
0010
0000
1000
0000
,
0100
0000
0010
0000
,
1000
0000
0010
0000
,
1001
0000
0000
0000
,
1000
0000
0100
0000
,
0100
0000
0001
0000
,
0001
0000
0010
0000
,
0010
0000
1000
0000
,
0001
0000
1000
0000
,
0100
0000
0100
0000
,
1000
0000
0001
0000
,
2002
0000
0000
3003
,
1000
0000
0100
0000
,
1000
0000
0010
0000
,
1000
0000
0100
0000
,
0100
0000
0010
0000
,
0001
0000
0100
0000
,
0001
0000
0100
0000
,
0002
0000
0000
0003
,
2000
0000
0000
3000
,
0000
0000
0000
0000
,
0000
0000
0000
0000
,
0001
0000
0000
0000
,
0000
0000
0000
0000
,
1000
0000
0000
0000
,
0000
0000
0000
0000
,
0001
0000
1000
0000
,
0001
0000
1000
0000
,
0010
0000
0100
0000
,
0010
0000
0100
0000
,
2002
0000
0000
3003
0000
0000
0000
0000
;

//--------------- dance-single - Fred-104 ----------------
#NOTES:
     dance-single:
     Fred-104:
     Easy:
     10:
     :
0000
0000
0000
0000
,
0000
0000
0000
0000
,
0000
0000
0000
0000
,
0000
0000
0000
0000
,
0000
0000
0000
0000
,
0000
0000
0000
0000
,
0000
0000
0000
0000
,
0000
0000
0000
0000
,
0000
0000
0000
0000
,
1000
0000
0000
0100
0000
0100
0000
1000
,
0000
0010
0000
0000
0100
0000
0001
0000
,
0001
0000
0000
0100
0000
0100
0000
0100
,
0000
0100
0000
0000
0010
0000
1000
0000
,
2002
3003
0220
0330
,
2002
3003
0220
0330
,
0001
0010
0001
0010
,
0001
1000
0100
1000
,
0100
0000
0000
1000
0000
0000
0100
0000
,
0000
0010
0000
0000
0100
0000
0001
0000
,
0010
0001
0100
0001
,
0010
0001
2002
3003
,
1000
0000
0000
0100
0000
0000
0100
0000
,
0000
0001
0000
0000
0001
0000
0010
0000
,
1000
0010
1000
0010
,
0100
0001
0202
0303
,
1001
0000
0000
0010
0000
0000
0001
0000
,
0000
0100
0000
0000
0010
0000
1000
0000
,
0100
1000
0001
1000
,
0100
0010
0220
0330
,
0001
0001
1000
1000
,
0100
1000
0010
0100
,
0010
0010
1000
0001
,
1000
0100
0220
0330
,
0001
0010
0001
0000
,
1000
0010
1000
0000
,
0001
0100
0001
0000
,
1000
0100
1000
0000
,
0001
0100
0001
0010
,
0001
0010
0001
1000
,
0001
0000
1000
0000
,
0010
0000
1000
0000
,
0100
1000
0100
0000
,
1000
0010
1000
0000
,
0001
0010
0001
0000
,
0100
0001
0100
0000
,
0001
0010
0100
0010
,
0100
1000
0010
0100
,
0001
1000
0100
1000
,
0002
0000
0000
0000
,
1003
0000
0000
2002
,
0000
3003
0010
0100
,
0010
0000
0000
2002
,
0000
3003
0100
0010
,
0100
0000
0000
2002
,
0000
3003
0001
1000
,
0001
0000
0000
1000
0000
0000
2002
0000
,
0000
3003
0001
1000
,
0100
0000
0000
2200
,
0000
3300
0010
0100
,
0001
0000
0000
0022
,
0000
0033
0010
0100
,
1000
0000
0000
2002
,
0000
3003
0001
0100
,
0001
0000
0000
0010
0000
0000
2002
0000
,
0000
3003
0000
0000
,
1000
0000
0000
0100
0000
0000
0100
0000
,
0010
0000
0000
0100
0000
0000
0100
0000
,
1000
0001
1000
0001
,
0100
0000
0000
0100
0000
0000
0100
0000
,
0001
0010
0001
0000
,
1000
0010
0100
0001
,
1000
0000
0100
0000
,
1000
0000
0000
0100
0000
0000
0100
0000
,
1000
0010
1000
0000
,
0001
0010
0001
0000
,
1000
0001
1000
0100
,
1000
0000
0000
0001
0000
0000
1000
0000
,
0001
0010
0001
0000
,
0100
0001
0100
0000
,
0010
1000
0010
0000
,
1000
0001
2000
0000
,
3001
0000
0100
0000
,
0010
0000
0100
0000
,
0001
0010
0001
0010
,
0001
0000
0000
1000
0000
0000
0001
0000
,
1000
1000
0100
0000
,
1000
0000
0100
0000
,
1000
0001
0010
0000
,
0001
0100
0010
0000
,
1000
0000
0001
0000
,
1000
0100
1000
0000
,
0001
1000
0100
0010
,
0001
0000
0000
1000
0000
0000
0001
0000
,
1000
0000
0000
0100
0000
0000
1000
0000
,
0001
0000
1000
0000
,
0100
0000
1000
0010
,
1000
0200
0000
0000
,
1300
0000
0010
0000
,
1000
0001
0100
0000
,
0001
1000
0100
0000
,
1000
0001
1000
0001
,
1000
0000
0010
0000
,
0100
0000
0001
0000
,
0010
0000
0100
0000
,
0010
0000
1000
0000
,
1100
0000
0110
0000
,
0011
0000
0101
0000
,
1001
0000
0110
0000
,
2002
0000
0000
3003
,
0000
0000
0000
0000
,
0000
0000
0000
0000
,
1000
0000
0000
1000
0000
0000
0000
0000
,
0000
0000
0000
0000
,
0001
0000
0000
0001
0000
0000
0000
0000
,
0000
0000
0000
0000
,
2002
3003
0220
0330
,
2200
3300
0022
0033
,
1000
1000
0010
0100
,
0001
0001
0010
0100
,
1000
0000
0000
1001
0000
0000
0000
0000
;

//--------------- dance-single - Fred-104 ----------------
#NOTES:
     dance-single:
     Fred-104:
     Medium:
     13:
     :
0000
0000
0000
0000
,
0000
0000
0000
0000
,
0000
0000
0000
0000
,
0000
0000
0000
0000
,
0000
0000
0000
0000
,
0000
0000
0000
0000
,
0000
0000
0000
0000
,
0000
0000
0000
0000
,
0000
0000
0000
0000
,
1000
0000
0001
0100
0000
0010
0000
0100
,
0000
0100
0000
0010
0100
0000
0001
0000
,
1000
0000
0100
1000
0000
0001
0000
1000
,
0000
1000
0000
0010
0100
0000
0001
0000
,
0202
0303
2020
3030
,
0022
0033
2200
3300
,
1000
0100
1000
0000
0001
0100
0001
0000
,
1000
0010
1000
0000
0001
0010
0001
0000
,
1001
0000
1000
0100
0000
1000
0100
0000
,
0010
0001
0000
1000
0001
0000
0100
0000
,
0001
0000
0010
0000
0001
0000
1000
0100
,
0000
0010
0000
0100
1000
0000
0001
0000
,
1000
0000
0100
1000
0000
0001
1000
0000
,
0010
0100
0000
0010
0100
0000
0001
0000
,
1000
0100
1000
0100
1000
0100
1000
0100
,
0010
0001
0010
0001
2000
0000
0000
0000
,
3001
0000
0010
0001
0000
0010
0001
0000
,
1000
0010
0000
0100
0001
0000
1000
0000
,
0001
0000
0100
0000
0010
0000
0100
0001
,
0000
0100
0000
0010
1000
0000
0001
0000
,
1000
0100
1000
0000
0001
0000
0100
0000
,
0010
0100
0010
0000
1000
0000
0001
0000
,
1001
0100
0010
0001
,
0100
0010
0100
0010
0100
0010
0100
0000
,
0001
0010
0001
0010
,
1000
0010
1000
0010
,
1000
0100
1000
0100
,
0001
0100
0001
0100
,
0001
1000
0001
0000
0100
0010
0100
0000
,
0001
1000
0100
0100
,
1000
0010
0100
0010
,
1000
0100
1000
0000
0001
0100
0001
0000
,
1000
0100
1000
0100
,
0001
0100
0001
0100
,
0001
0010
0001
0010
,
1000
0010
1000
0010
,
1100
0000
1010
0000
,
0011
0000
0101
0000
,
0220
0000
0000
0330
,
2002
0000
0000
3003
,
1000
0000
0000
0100
0000
0000
2200
0000
,
0000
0000
3300
0000
0001
0100
0001
0100
,
0001
0000
0000
0010
0000
0000
0022
0000
,
0000
0033
0100
0010
,
1000
0000
0000
0010
0000
0000
2020
0000
,
0000
3030
0001
1000
,
0001
0000
0000
0100
0000
0000
0220
0000
,
0000
0000
0330
0000
0010
0100
0010
0100
,
0001
0100
0001
0100
0000
0000
0202
0000
,
0000
0000
0303
0000
1000
0100
1000
0100
,
1000
0001
1000
0001
0000
0000
0220
0000
,
0000
0330
0100
0010
,
1000
0010
1000
0010
0000
0000
0220
0000
,
0000
0330
0001
1000
,
0001
1000
0001
1000
0000
0000
2002
0000
,
0000
0000
3003
0000
,
1000
0000
0010
1000
0000
0100
1000
0000
,
0001
0000
0000
1000
0000
0000
0001
0000
,
1000
0010
0100
0001
,
0100
0000
0000
0100
0000
0000
0100
0000
,
0001
1000
0100
1000
,
0010
0000
1000
0000
0100
0000
1000
0100
,
1000
0100
0010
0000
0001
0100
0001
0000
,
1000
0100
0000
0010
0001
0000
1000
0001
,
1000
0000
0001
0010
0001
0000
0100
0000
,
0001
0000
0100
0010
0100
0010
0100
0000
,
0001
0100
0001
0100
0010
1000
0001
0000
,
1000
0000
0000
0001
0000
0000
1001
0000
,
0001
0000
0010
0001
0010
0000
0100
0000
,
0010
0000
1000
0100
1000
0000
0001
0000
,
1000
0100
0010
0100
,
1000
0000
0001
0100
0002
0000
0000
0000
,
1003
0000
0000
0100
0000
0000
0100
0000
,
0010
0100
1000
0001
,
1000
0100
0100
1000
,
0001
0000
0000
1000
0000
0000
1001
0000
,
0001
0000
0000
0010
0000
0000
0100
0000
,
1000
0010
1000
0100
,
1000
0001
0010
0100
,
0001
1000
0100
0010
,
2000
0000
3001
0010
,
0001
0100
0001
0100
,
0010
0010
0100
0100
,
0100
0000
0000
0110
0000
0000
0110
0000
,
0010
0000
0001
1000
0000
1000
0001
0000
,
1000
0100
0100
1000
,
0001
1000
0010
0100
,
0001
1000
0002
0000
0000
0000
0000
0000
,
1003
0100
1000
0010
,
1000
0100
0010
0001
,
1000
0100
1000
0000
0001
0100
0001
0000
,
1000
1000
0001
0001
,
0100
0001
0100
0000
0001
0100
0001
0000
,
0010
1000
0010
0000
1000
0100
1000
0000
,
0010
0100
0010
0000
0001
1000
0001
0000
,
1000
0100
1000
0000
0001
0100
0001
0000
,
0101
0000
0011
0000
,
1010
0000
1100
0000
,
0100
0100
0010
0010
,
2002
0000
0000
3003
,
0000
0000
0000
0000
,
0000
0000
0000
0000
,
1000
0010
1000
0100
0000
0000
0000
0000
,
0000
0000
0000
0000
,
0001
0010
0001
0100
0000
0000
0000
0000
,
0000
0000
0000
0000
,
2002
0000
3003
0000
0100
0010
0100
0010
,
0200
0000
0320
0000
,
1030
0100
1000
0000
0001
0000
0100
0000
,
0010
0100
0010
0100
1000
0000
0001
0000
,
1000
0010
0100
0001
0000
0000
0000
0000
;

//--------------- dance-single - Fred-104 ----------------
#NOTES:
     dance-single:
     Fred-104:
     Hard:
     16:
     :
0000
0000
0000
0000
,
0000
0000
0000
0000
,
0000
0000
0000
0000
,
0000
0000
0000
0000
,
0000
0000
0000
0000
,
0000
0000
0000
0000
,
0000
0000
0000
0000
,
0000
0000
0000
0000
,
0000
0000
0000
0000
,
1000
0000
0010
1000
0000
1001
0000
0110
,
0000
1001
0000
0100
0010
0000
0100
0000
,
0001
0000
0010
0001
0000
1001
0000
0011
,
0000
1001
0000
0100
0010
0000
1000
0000
,
2002
0000
3003
0000
1000
0010
0100
0001
,
0202
0303
2200
3300
,
0001
0100
0001
0010
0100
1000
0010
0100
,
0001
1000
0100
0010
0001
1000
0100
0000
,
1000
0010
1000
0010
0100
0000
0010
1000
,
0000
0001
0010
0000
0001
0000
1000
0000
,
0001
0000
0010
0000
0001
0000
0100
0010
,
0000
1000
0000
0010
0100
0010
1000
0000
,
0001
0010
0001
1000
0000
0010
0100
0000
,
0010
1000
0000
0001
1000
0000
0100
0000
,
0010
0001
0010
0100
1000
0100
0010
0001
,
1000
0010
0100
0001
1000
0100
0001
0100
,
1000
0010
0100
0010
0000
1000
0100
0000
,
0010
0001
0000
1000
0010
0000
0100
0000
,
0001
0100
0001
0000
0100
0000
1000
0100
,
0000
0100
0000
0100
0001
0010
0100
0000
,
0001
0100
0001
0100
1000
0100
1000
0100
,
1000
0010
1000
0010
0001
0010
0001
0010
,
0001
0100
0010
1000
0001
0100
0010
1000
,
0001
0010
0100
1000
0010
0100
0001
1000
,
0001
0010
0001
0000
0001
0100
0001
0000
,
0001
1000
0001
0000
0001
0100
0001
0000
,
1000
0100
1000
0000
1000
0001
1000
0000
,
1000
0010
1000
0000
1000
0100
1000
0000
,
0001
0100
0001
0100
0010
1000
0010
1000
,
0100
0010
0001
1000
0010
0100
0001
1000
,
0001
0000
0100
0010
1000
0000
0010
0100
,
0001
0100
0010
1000
0010
1000
0001
0000
,
0100
0010
0100
0000
0100
1000
0100
0000
,
0100
0010
0100
0000
0100
0001
0100
0000
,
0001
0010
0100
0000
0100
1000
0010
0000
,
0010
0100
0001
0000
0001
0010
0100
0000
,
0100
1000
0010
0100
0001
1000
0100
0010
,
0100
1000
0010
0100
0010
1000
0001
0100
,
0001
0010
0100
1000
0010
0100
0001
1000
,
0001
0010
0001
0010
0100
1000
0100
1000
,
0001
0100
0010
0010
0000
0000
1200
0000
,
0000
0000
0000
0000
1300
0010
1000
0001
,
0100
0001
1000
1000
0000
0000
1002
0000
,
0000
0000
0103
0010
,
1000
0001
1000
1000
0000
0000
1010
0000
,
0202
0300
1000
1003
,
1000
0010
0100
0001
0000
0000
2002
0000
,
0000
0000
3003
0000
0001
1000
0001
1000
,
0100
0100
0010
0010
0000
0000
1002
0000
,
0000
0000
0000
0000
1003
0100
0010
0100
,
0001
0001
1000
1000
0000
0000
0210
0000
,
1000
0000
0001
1300
,
0001
0001
0100
0100
0000
0000
1010
0000
,
2002
0003
0001
3001
,
1000
0100
0010
0001
0000
0000
0202
0000
,
0000
0000
0303
0000
0001
0100
0001
0100
,
0001
0000
0010
0001
0000
1000
0100
0000
,
0010
0000
0000
1000
0000
0000
0100
0000
,
1000
0000
0010
1000
0100
0000
0010
0001
,
0100
0000
0000
0100
0000
0000
0110
0000
,
0001
0010
0001
1000
,
0100
0000
1000
0000
0010
0000
1000
0100
,
0000
0100
0010
0000
0001
0100
0010
0100
,
0001
0020
0000
1030
0020
0000
0031
0010
,
1000
0010
0001
1000
,
0010
1000
0100
1000
0010
0100
0001
0010
,
0100
0010
0001
0100
0010
0100
0001
0000
,
0011
0000
0000
1100
0000
0000
1001
0000
,
0001
0010
0001
0010
0001
1000
0001
1000
,
0100
1000
0100
1000
0010
1000
0010
1000
,
0100
0010
0001
0100
0010
1000
0010
0100
,
0001
0010
0100
1000
0002
0000
0000
0000
,
2003
0100
3010
2000
0010
3100
2000
0000
,
3002
0100
0013
0002
0010
0103
0002
0000
,
1003
0100
0010
0100
0010
0001
1000
0001
,
1001
0000
0000
0110
0000
0000
1001
0000
,
1000
0100
1000
0001
0100
0001
1000
0010
,
1000
0100
0010
0001
0100
0010
1000
0001
,
0010
0100
1000
0010
0100
0001
1000
0001
,
0010
0100
0010
0001
0100
0010
1000
0010
,
0100
0000
0010
0100
0000
0100
0010
1000
,
0001
1000
0100
0010
1000
0001
0010
0100
,
2000
3200
0320
0230
2300
3002
0203
0320
,
1030
0000
0000
1100
0000
0000
0101
0000
,
0001
0010
0001
1000
0000
0010
0100
0000
,
0010
0000
1000
0100
1000
0001
1000
0100
,
1000
0000
0001
0010
0001
1000
0001
0010
,
0001
0010
0100
1000
0001
0100
0010
0000
,
1000
0001
0010
0001
1000
0010
1000
0100
,
0010
0001
0100
0001
1000
0100
1000
0010
,
0100
0001
0010
0100
1000
0010
0100
0001
,
0011
1010
0101
1100
,
0001
0010
0001
0000
0001
0100
0001
0000
,
0001
0010
0001
0000
0001
1000
0001
0000
,
1000
0100
0010
0001
0100
0010
0100
0001
,
1000
0100
0010
0100
0001
0100
1000
0000
,
1100
0100
0110
0010
,
0011
0001
0101
0100
,
1010
1010
0101
0101
,
1001
1001
1001
1001
,
0000
0000
0000
0000
,
0000
0000
0000
0000
,
1000
1000
0100
1000
0000
0000
0000
0000
,
0000
0000
0000
0000
,
0001
0001
0010
0001
0000
0000
0000
0000
,
0000
0000
0000
0000
,
2010
0000
0000
0000
3001
0100
0010
0100
,
0002
0000
2003
0000
,
3001
0010
0001
0100
0010
1000
0010
0100
,
0001
0010
0001
0100
0010
0000
1000
0000
,
0001
0010
0100
1001
0000
0000
0000
0000
;

//--------------- dance-single - Fred-104 ----------------
#NOTES:
     dance-single:
     Fred-104:
     Challenge:
     18:
     :
0000
0000
0000
0000
,
0000
0000
0000
0000
,
0000
0000
0000
0000
,
0000
0000
0000
0000
,
0000
0000
0000
0000
,
0000
0000
0000
0000
,
0000
0000
0000
0000
,
0000
0000
0000
0000
,
0000
0000
0000
0000
,
1001
0000
0100
0010
0000
1010
0000
0011
,
0000
1010
0000
0001
1001
0000
1100
0000
,
1100
0000
0001
0010
0000
0101
0000
1100
,
0000
0101
0000
0100
1001
0000
0110
0000
,
2002
0000
3003
0000
0100
0010
0100
0010
,
2002
3003
0220
0330
,
1000
0100
0010
0100
1000
0010
0100
0001
0010
0100
1000
0100
,
0010
0001
0100
0010
0100
0001
1000
0001
0100
0020
0000
0000
,
1030
0100
1000
0010
0100
0010
1000
0100
,
1000
0010
0100
0010
1000
0001
0010
0001
,
0100
0010
1000
0000
0001
0000
0100
0010
,
0000
0011
0000
0001
0100
0000
0110
0000
,
0010
1000
0100
0010
0001
0100
0010
1000
,
0001
0010
0100
0010
0001
1000
0001
0010
,
0001
0010
0001
0010
0001
0100
0010
1000
0100
0010
0100
1000
,
0010
0100
0001
1000
0100
1000
0100
0010
0100
2000
0000
0000
,
3001
0010
0001
1000
0010
1000
0001
0010
,
0001
1000
0010
1000
0001
0010
0100
1000
,
0001
0100
1000
0000
0100
0000
0001
0100
,
0000
1100
0000
0001
0100
0000
0110
0000
,
1000
0001
1000
0010
0100
0010
1000
0100
,
0010
0000
0001
0000
1000
0010
1000
0010
0100
0000
0010
0000
1000
0000
0100
0000
,
1000
0100
1000
0100
0010
0100
0010
0001
0010
0001
1000
0001
,
0010
0100
1000
0100
0010
0001
0100
0010
1000
0020
0000
0000
,
0130
0100
0001
0010
0100
1000
0001
0100
,
0010
0100
0001
0010
0100
1000
0001
0100
,
1000
0100
0010
1000
0100
0010
0100
1000
,
0010
0100
0010
0001
0010
0001
0010
0100
,
0010
1000
0100
0010
0001
0100
0010
0100
,
0001
0000
1000
0000
0100
1000
0100
1000
0100
0000
0010
0000
0100
0000
0010
0000
,
0001
0100
0001
0010
0100
0010
0001
1000
,
0010
0000
0000
0100
0000
0000
0001
0000
0000
0010
0000
0000
0001
0000
0100
0000
0010
0000
1000
0000
0010
0000
0100
0000
,
0001
0100
0001
0010
0001
0100
0001
0010
,
0100
1000
0100
0001
1000
0010
0001
0010
,
0001
0100
0010
0100
1000
0100
0010
1000
,
0100
0010
0100
1000
0010
0100
0001
1000
,
0001
0010
0001
0010
0100
1000
0100
1000
0010
1000
0001
1000
,
0100
0010
0001
1000
0001
1000
0001
0100
0010
1000
0010
0100
,
0002
0000
0000
0000
,
2000
0000
0000
3003
,
0100
0100
0100
0010
0000
0000
2002
0000
,
0000
0000
3003
0000
0001
1000
0001
1000
,
0010
0010
0010
0100
0000
0000
2020
0000
,
0000
3030
0001
0100
,
0001
0001
0001
0010
0000
0000
0012
0000
,
2000
0003
3100
0010
,
0100
0100
0100
1000
0000
0000
2020
0000
,
0000
0000
3030
0000
1000
0100
0001
0100
,
1000
1000
1000
1000
0000
0000
0102
0000
,
0000
0000
0000
0000
0013
0001
0010
0001
,
0010
0010
0010
0100
0000
0000
2010
0000
,
0001
0000
0001
3001
,
0100
0100
0001
0001
0000
0000
0110
0000
,
2002
3003
0100
0010
,
0001
0001
0100
1000
0000
0000
2002
0000
,
0000
0000
3003
0000
0100
0100
0100
0100
,
0010
0000
0001
0010
0000
1000
0010
0000
,
0001
0100
0000
1000
0100
0000
0001
0000
,
1000
0000
0100
1000
0100
0000
1000
0000
0001
0000
0100
0000
0010
0000
0100
0000
,
0200
0000
0300
0200
0000
0300
0200
0000
,
0301
0000
0010
0000
0001
0000
0010
0000
0001
0000
1000
0000
0001
0000
0010
0000
0001
0000
0100
0000
0000
0010
0000
0000
,
1000
0100
0010
0001
0100
0000
0010
0100
,
0000
0001
0010
0000
1000
0010
0001
0010
,
1000
0100
0000
0100
0001
0000
0001
0100
,
2000
0010
0100
3100
,
0001
0001
0100
0010
1000
0100
0010
0001
,
1000
0100
0010
0001
0010
0100
1000
0001
0100
0001
0000
0000
,
0011
0100
1000
1010
0100
0001
1001
0000
,
0001
0010
0001
0010
0001
0100
0001
0100
0010
1000
0010
1000
,
0100
0010
0001
1000
0001
0100
0001
0010
0001
1000
0010
1000
,
0001
0010
0001
0010
0001
0000
0100
0000
0010
1000
0010
1000
0010
0000
1000
0000
,
0100
0010
0100
0010
0001
0000
0100
0000
0020
0000
0000
0000
0000
0000
0000
0000
,
2030
0100
0010
3100
0002
0100
0010
0003
,
0002
0100
0010
0103
2000
0100
0010
3000
,
0010
0000
0100
0000
0010
0000
0100
0000
0000
1000
0000
0000
0001
0000
0000
1000
0000
0000
0100
0000
0000
0010
0000
0000
,
0011
0000
0000
1010
0000
0000
0101
0000
,
0001
0010
0100
0001
0010
0100
0001
0010
,
0001
0100
0010
1000
0010
0100
0010
1000
,
0001
0000
1000
0000
0100
0000
1000
0100
1000
0000
0010
0000
1000
0000
0010
0000
,
0100
0000
0001
0000
0010
0000
0001
1000
0001
0000
0010
0000
0001
0000
1000
0000
,
1002
0000
0000
0000
1003
0000
0100
0000
1000
0001
1000
0001
1000
0000
0000
0000
,
0001
0010
0001
1000
0010
0100
0010
1000
,
0002
0003
0020
0030
2000
3000
0020
0030
0200
0300
2000
3000
0002
0003
0200
0300
,
1001
0000
0000
0110
0000
0000
1001
0000
,
0200
0001
1300
0200
1000
0301
0200
0001
,
1300
0000
0000
0010
0000
0000
0100
0000
0010
0000
0100
0000
0010
0000
1000
0000
0010
0000
1000
0000
0000
0001
0000
0000
,
2000
0000
3100
1000
0001
0010
0100
0010
,
0001
0100
2000
0000
0000
0000
0000
0000
,
3100
0001
0010
0100
1000
0010
0100
0010
,
1000
0010
0001
0010
0001
0010
0100
0010
,
0100
1000
0001
0010
0001
1000
0010
0100
,
0101
1100
0011
1010
,
0001
0010
0001
1000
0100
0010
0001
0001
,
1000
0010
0100
0010
1000
0001
0010
0010
,
0001
0100
0010
0100
0001
1000
0100
0100
,
1000
0010
0100
0010
0100
0001
1000
1000
,
1100
0101
1100
0101
,
1010
0011
1010
0011
,
1001
1001
0110
0110
,
1001
0110
0110
1001
,
0000
0000
0000
0000
,
0000
0000
0000
0000
,
1100
0100
0010
0011
0000
0000
0000
0000
,
0000
0000
0000
0000
,
0101
0100
0010
1010
0000
0000
0000
0000
,
0000
0000
0000
0000
,
2020
0000
3030
0000
0001
0001
0100
0010
,
2002
3003
0220
0330
,
1000
0000
0001
1000
0001
0000
0010
0000
0100
0000
0010
0000
0001
0000
1000
0000
,
0001
0000
0010
0000
0100
0000
1000
0000
0000
0010
0000
0000
0100
0000
0001
0000
1000
0000
0010
0000
0000
0100
0000
0000
,
0001
1000
0001
1001
0000
0000
0000
0000
;

//--------------- dance-double - Fred-104 ----------------
#NOTES:
     dance-double:
     Fred-104:
     Easy:
     11:
     :
00000000
00000000
00000000
00000000
,
00000000
00000000
00000000
00000000
,
00000000
00000000
00000000
00000000
,
00000000
00000000
00000000
00000000
,
00000000
00000000
00000000
00000000
,
00000000
00000000
00000000
00000000
,
00000000
00000000
00000000
00000000
,
00000000
00000000
00000000
00000000
,
00000000
00000000
00000000
00000000
,
00100000
00000000
00000000
10000000
00000000
10000000
00000000
00100000
,
00000000
01000000
00000000
00000000
00010000
00000000
00100000
00000000
,
10000000
00000000
00000000
01000000
00000000
01000000
00000000
00010000
,
00000000
00010000
00000000
00000000
00001000
00000000
00010000
00000000
,
00022000
00033000
00002020
00003030
,
00000202
00000303
00002002
00003003
,
00000001
00000010
00000100
00000100
,
00010000
00001000
00010000
00100000
,
10000000
00000000
00000000
00100000
00000000
00000000
10000000
00000000
,
00000000
01000000
00000000
00000000
00100000
00000000
00001000
00000000
,
00010000
01000000
00001000
00010000
,
00001000
00000100
00000220
00000330
,
00001000
00000000
00000000
00000100
00000000
00000000
00000001
00000000
,
00000000
00000010
00000000
00000000
00001000
00000000
00010000
00000000
,
00001000
00100000
00010000
01000000
,
00100000
10000000
22000000
33000000
,
01100000
00000000
00000000
01000000
00000000
00000000
00010000
00000000
,
00000000
00001000
00000000
00000000
00010000
00000000
00000010
00000000
,
00000100
00000010
00001000
00000001
,
00000010
00000100
00000220
00000330
,
00000001
00000001
00001000
00001000
,
00010000
01000000
00100000
10000000
,
01000000
01000000
00010000
00010000
,
00001000
00000010
00002002
00003003
,
00000001
00000010
00001000
00000000
,
00001000
00010000
00100000
00000000
,
00010000
00100000
10000000
00000000
,
10000000
00100000
00010000
00000000
,
00001000
00010000
00001000
00010000
,
00000100
00001000
00000100
00000010
,
00000001
00000000
00000010
00000000
,
00001000
00000000
00000010
00000000
,
00000001
00000100
00001000
00000000
,
00001000
00010000
01000000
00000000
,
00010000
01000000
10000000
00000000
,
10000000
01000000
00010000
00000000
,
01000000
00010000
00100000
00001000
,
00010000
00000100
00010000
00001000
,
00000100
00000001
00001000
00000100
,
00000020
00000000
00000000
00000000
,
00000130
00000000
00000000
00002002
,
00000000
00003003
00000010
00001000
,
00010000
00000000
00000000
02020000
,
00000000
03030000
01000000
00100000
,
10000000
00000000
00000000
22000000
,
00000000
33000000
01000000
00100000
,
00001000
00000000
00000000
00010000
00000000
00000000
00022000
00000000
,
00000000
00033000
00010000
00001000
,
00000010
00000000
00000000
00000022
,
00000000
00000033
00000001
00000100
,
00001000
00000000
00000000
00022000
,
00000000
00033000
00010000
01000000
,
10000000
00000000
00000000
20020000
,
00000000
30030000
10000000
00100000
,
00010000
00000000
00000000
00001000
00000000
00000000
00002020
00000000
,
00000000
00003030
00000000
00000000
,
00000001
00000000
00000000
00000100
00000000
00000000
00000010
00000000
,
00010000
00000000
00000000
00001000
00000000
00000000
00100000
00000000
,
00010000
00001000
00010000
00000100
,
00001000
00000000
00000000
00001000
00000000
00000000
00001000
00000000
,
00000010
00010000
00001000
00000000
,
00001000
00000100
00000010
00000001
,
00000100
00000000
00000010
00000000
,
00001000
00000000
00000000
00001000
00000000
00000000
00010000
00000000
,
01000000
00100000
10000000
00000000
,
01000000
00100000
00010000
00000000
,
01000000
00010000
00001000
00010000
,
00001000
00000000
00000000
00001000
00000000
00000000
00000010
00000000
,
00000100
00000001
00000010
00000000
,
00000001
00000010
00000100
00000000
,
00010000
01000000
00100000
00000000
,
10000000
00100000
02000000
00000000
,
03010000
00000000
10000000
00000000
,
01000000
00000000
00010000
00000000
,
00001000
00010000
00001000
00000100
,
00000010
00000000
00000000
00000001
00000000
00000000
00000100
00000000
,
00000010
00000100
00000010
00000000
,
00001000
00000000
00000100
00000000
,
00010000
00001000
00100000
00000000
,
00010000
10000000
01000000
00000000
,
00100000
00000000
01000000
00000000
,
00100000
01000000
00100000
00000000
,
10000000
00100000
01000000
00010000
,
00001000
00000000
00000000
00010000
00000000
00000000
00010000
00000000
,
00001000
00000000
00000000
00000100
00000000
00000000
00000100
00000000
,
00000001
00000000
00000100
00000000
,
00000010
00000000
00001000
00010000
,
00100000
00200000
00000000
00000000
,
10300000
00000000
00100000
00000000
,
10000000
01000000
00010000
00000000
,
00001000
00010000
00001000
00000000
,
00001000
00000100
00000100
00000001
,
00001000
00000000
00000010
00000000
,
00000100
00000000
00000001
00000000
,
00000010
00000000
00001000
00000000
,
00010000
00000000
00100000
00000000
,
11000000
00000000
01010000
00000000
,
00011000
00000000
00001010
00000000
,
00000011
00000000
00001100
00000000
,
00002002
00000000
00000000
00003003
,
00000000
00000000
00000000
00000000
,
00000000
00000000
00000000
00000000
,
00100000
00000000
00000000
00100000
00000000
00000000
00000000
00000000
,
00000000
00000000
00000000
00000000
,
00000100
00000000
00000000
00000100
00000000
00000000
00000000
00000000
,
00000000
00000000
00000000
00000000
,
02020000
03030000
02002000
03003000
,
00020020
00030030
00002020
00003030
,
00000100
00000100
00000001
00001000
,
00000010
00010000
00001000
01000000
,
00100000
00000000
00000000
10010000
00000000
00000000
00000000
00000000
;

//--------------- dance-double - Fred-104 ----------------
#NOTES:
     dance-double:
     Fred-104:
     Medium:
     14:
     :
00000000
00000000
00000000
00000000
,
00000000
00000000
00000000
00000000
,
00000000
00000000
00000000
00000000
,
00000000
00000000
00000000
00000000
,
00000000
00000000
00000000
00000000
,
00000000
00000000
00000000
00000000
,
00000000
00000000
00000000
00000000
,
00000000
00000000
00000000
00000000
,
00000000
00000000
00000000
00000000
,
00001000
00000000
00010000
00100000
00000000
01000000
00000000
01000000
,
00000000
00100000
00000000
00010000
10000000
00000000
01000000
00000000
,
00010000
00000000
00001000
00010000
00000000
00001000
00000000
00000100
,
00000000
00000100
00000000
00000001
00000010
00000000
00000100
00000000
,
00000220
00000330
00002020
00003030
,
00022000
00033000
00220000
00330000
,
00001000
00010000
00001000
00000000
01000000
00010000
01000000
00000000
,
00010000
10000000
00010000
00000000
10000000
01000000
10000000
00000000
,
10100000
00000000
10000000
01000000
00000000
00010000
01000000
00000000
,
10000000
01000000
00000000
00100000
01000000
00000000
00010000
00000000
,
00100000
00000000
00001000
00000000
00010000
00000000
00001000
00000100
,
00000000
00000100
00000000
00000001
00000010
00000000
00000100
00000000
,
00001000
00000000
00000001
00000010
00000000
00001000
00000010
00000000
,
00000001
00000010
00000000
00000010
00001000
00000000
00010000
00000000
,
00001000
00010000
00001000
00010000
00001000
00100000
00001000
00100000
,
00010000
01000000
00100000
10000000
00020000
00000000
00000000
00000000
,
10030000
00000000
00100000
10000000
00000000
00100000
00010000
00000000
,
00010000
00001000
00000000
00001000
00000010
00000000
00000100
00000000
,
00000001
00000000
00000100
00000000
00001000
00000000
00000100
00000001
,
00000000
00000001
00000000
00000010
00000100
00000000
00010000
00000000
,
00001000
00010000
00001000
00000000
00100000
00010000
00100000
00000000
,
00010000
00000000
01000000
00100000
01000000
00100000
01000000
00100000
,
10000000
11000000
00100000
01100000
,
01000000
00000000
00010000
00000000
00001000
00010000
00001000
00000000
,
00011000
00001000
00000100
00000010
,
00000100
00000010
00000001
00000010
,
00000001
00000010
00001000
00000010
,
00001000
00010000
00001000
00010000
,
00001000
00100000
00001000
00000000
00100000
00010000
00100000
00000000
,
00010000
00000000
10000000
01000000
10000000
01000000
10000000
01000000
,
00100000
00010000
00001000
01000000
,
00001000
00010000
00001000
00000000
00010000
00001000
00010000
00000000
,
00011000
00001000
00010000
00100000
,
00010000
00100000
10000000
00100000
,
10000000
01000000
10000000
01000000
,
00010000
00001000
00010000
00001000
,
00011000
00000000
00001010
00000000
,
00000011
00000000
00000101
00000000
,
00002200
00000000
00000000
00003300
,
00022000
00000000
00000000
00033000
,
00010000
00000000
00000000
01000000
00000000
00000000
02200000
00000000
,
00000000
03300000
10000000
00100000
,
01000000
00000000
00000000
00100000
00000000
00000000
00220000
00000000
,
00000000
00330000
00001000
00010000
,
00001000
00000000
00000000
00000010
00000000
00000000
00000220
00000000
,
00000000
00000330
00000001
00000100
,
00000001
00000000
00000000
00001000
00000000
00000000
00022000
00000000
,
00000000
00000000
00033000
00000000
00001000
00100000
00010000
01000000
,
00100000
01000000
00100000
01000000
00000000
00000000
22000000
00000000
,
00000000
00000000
33000000
00000000
00100000
10000000
00100000
10000000
,
00010000
00100000
00010000
01000000
00000000
00000000
00022000
00000000
,
00000000
00033000
00001000
00000100
,
00000010
00000100
00000001
00000010
00000000
00000000
00000220
00000000
,
00000000
00000330
00000001
00000100
,
00000010
00001000
00000100
00010000
00000000
00000000
00022000
00000000
,
00000000
00000000
00033000
00000000
,
00001000
00000000
00010000
00100000
00000000
01000000
00100000
00000000
,
00010000
00000000
00000000
01000000
00000000
00000000
00100000
00000000
,
10000000
01000000
01000000
00010000
,
00002000
00000000
00003000
00002000
00000000
00003000
00002000
00000000
,
00003010
00000010
00000100
00000001
,
00000010
00000000
00000010
00000000
00001000
00000000
00010000
00001000
,
00000000
00001000
00100000
00000000
00010000
00000000
01000000
00000000
,
00100000
01000000
00000000
00010000
10000000
00000000
00100000
01000000
,
00010000
10000000
01000000
01000000
,
10000000
00100000
01000000
00000000
00010000
01000000
00100000
00000000
,
00001000
00010000
00000010
00001000
00000100
00000010
00000001
00000000
,
00000101
00000000
00000000
00001100
00000000
00000000
00000101
00000000
,
00000001
00000000
00000010
00000001
00001000
00000000
00000001
00000000
,
00000100
00000000
00000010
00001000
00000100
00000000
00010000
00000000
,
00001000
00010000
00100000
00000000
00010000
01000000
00100000
00000000
,
10000000
01000000
20020000
30030000
,
00001000
00000000
00000000
00010000
00000000
00000000
01000000
00000000
,
10000000
01000000
01000000
00010000
,
00000100
00000100
00000010
00000001
,
00000100
00000000
00000000
00000010
00000000
00000000
00000110
00000000
,
00001000
00000000
00000000
00000001
00000000
00000000
00000010
00000000
,
00000001
00000100
00000100
00000010
,
00001000
00100000
00001000
00000010
,
00001000
00000100
00010000
01000000
,
00020000
00000000
01030000
00100000
,
10000000
01000000
01000000
00010000
,
00100000
01000000
10000000
00010000
,
01010000
00000000
00000000
01010000
00000000
00000000
10010000
00000000
,
01000000
00000000
00010000
00001000
00000000
00001000
00010000
00000000
,
00001000
00010000
00000100
00000100
,
00000010
00000001
00001000
00000001
,
00000100
00000010
00000200
00000000
00000000
00000000
00000000
00000000
,
00000301
00000010
00000010
00000001
,
00000100
00000100
00001000
00010000
,
00001000
00010000
00100000
00000000
00010000
00001000
00000010
00000000
,
00001000
00001000
00010000
00010000
,
00001000
00010000
00001000
00000000
00100000
00010000
01000000
00000000
,
00100000
10000000
01000000
00000000
00100000
01000000
00100000
00000000
,
00001000
00010000
00001000
00000000
00100000
00001000
00010000
00000000
,
00000010
00001000
00000010
00000000
00000100
00000001
00000100
00000000
,
00000101
00000000
00000011
00000000
,
00001010
00000000
00011000
00000000
,
00010000
00100000
01000000
10000000
,
20020000
00000000
00000000
30030000
,
00000000
00000000
00000000
00000000
,
00000000
00000000
00000000
00000000
,
10000000
01000000
00100000
00010000
00000000
00000000
00000000
00000000
,
00000000
00000000
00000000
00000000
,
00001000
00000100
00000010
00000001
00000000
00000000
00000000
00000000
,
00000000
00000000
00000000
00000000
,
00022000
00000000
00033000
00000000
01000000
00100000
01000000
00100000
,
02000000
00000000
03200000
00000000
,
10300000
01000000
00100000
00000000
00001000
00000000
00010000
00000000
,
00001000
00100000
00001000
00010000
00000010
00000000
00000100
00000000
,
00000010
00000100
00000001
00001000
00000000
00000000
00000000
00000000
;

//--------------- dance-double - Fred-104 ----------------
#NOTES:
     dance-double:
     Fred-104:
     Hard:
     16:
     :
00000000
00000000
00000000
00000000
,
00000000
00000000
00000000
00000000
,
00000000
00000000
00000000
00000000
,
00000000
00000000
00000000
00000000
,
00000000
00000000
00000000
00000000
,
00000000
00000000
00000000
00000000
,
00000000
00000000
00000000
00000000
,
00000000
00000000
00000000
00000000
,
00000000
00000000
00000000
00000000
,
00001000
00000000
00010000
00100000
00000000
00110000
00000000
01100000
,
00000000
01100000
00000000
00100000
10000000
00000000
00010000
00000000
,
10000000
00000000
01000000
00100000
00000000
00110000
00000000
00101000
,
00000000
00011000
00000000
00000010
00001000
00000000
00000010
00000000
,
00000220
00000000
00000330
00000000
00000001
00000100
00000001
00000100
,
00000020
00000000
00002030
00000000
,
00003100
00010000
00001000
00100000
01000000
00100000
00010000
00000000
,
01000000
00100000
10000000
00100000
01000000
00010000
10000000
00000000
,
01000000
00100000
00010000
00100000
01000000
00000000
00001000
00010000
,
00000000
00000100
00001000
00000000
00000010
00000000
00000100
00000000
,
00010000
00000000
00000010
00000000
00000100
00000000
00000010
00000001
,
00000000
00000101
00000000
00000100
00000010
00000000
00001000
00000000
,
00000100
00010000
00001000
00010000
00000000
00001000
00100000
00000000
,
00010000
01000000
00000000
00100000
10000000
00000000
00010000
00000000
,
10000000
01000000
10000000
00100000
01000000
00010000
00100000
01000000
,
00010000
00001000
00010000
00001000
00000200
00000000
00000000
00000000
,
00000301
00000010
00000100
00000010
00000000
00000001
00000100
00000000
,
00001000
00000100
00000000
00000001
00000010
00000000
00000100
00000000
,
00010000
00001000
00010000
00000000
00001000
00000000
00010000
00100000
,
00000000
01100000
00000000
01000000
00100000
00000000
01000000
00000000
,
10000000
00010000
01000000
00100000
10000000
01000000
10000000
01000000
,
00010000
00001000
00010000
00001000
00000100
00000001
00000100
00000001
,
00000010
00000100
00001000
00000001
00000100
00000010
00001000
00000100
,
00010000
00001000
00010000
00100000
10000000
00010000
01000000
00000000
,
00100000
01000000
00100000
00000000
10000000
01000000
10000000
00000000
,
00010000
01000000
00010000
00000000
00001000
00010000
00001000
00000000
,
00010000
00000100
00010000
00000000
00000010
00001000
00000010
00000000
,
00001000
00000100
00001000
00000000
00000001
00000100
00000001
00000000
,
00000100
00000010
00000100
00000001
00000010
00000100
00000010
00000001
,
00000100
00001000
00010000
00001000
00010000
01000000
10000000
00010000
,
00100000
00000000
00010000
10000000
00010000
00000000
10000000
01000000
,
00100000
00001000
00010000
00001000
00010000
00000000
00000100
00000000
,
00010000
00001000
00010000
00000000
00000010
00001000
00000010
00000000
,
00001000
00000100
00001000
00000000
00000001
00000100
00000001
00000000
,
00000010
00000001
00000010
00000000
00000100
00001000
00000100
00000000
,
00010000
00001000
00010000
00000000
01000000
00100000
01000000
00000000
,
00010000
10000000
01000000
10000000
00100000
01000000
00010000
00100000
,
00001000
00010000
00000010
00001000
00000100
00000010
00000001
00001000
,
00000001
00000010
00000001
00000100
00000001
00000010
00000100
00010000
,
00001000
00010000
01000000
00010000
01000000
00100000
10000000
00010000
,
10000000
01000000
00100000
00100000
00000000
00000000
00022000
00000000
,
00000000
00000000
00033000
00000000
00010000
00001000
00010000
00000010
,
00001000
00000100
00000010
00000010
00000000
00000000
00000202
00000000
,
00000000
00000303
00000010
00001000
,
00000100
00010000
00001000
00010000
00000000
00000000
00011000
00000000
,
00022000
00033000
01000000
00010000
,
10000000
01000000
10000000
10000000
00000000
00000000
20020000
00000000
,
00000000
00000000
30030000
00000000
01000000
00100000
00001000
00010000
,
00001000
00001000
00010000
00010000
00000000
00000000
00022000
00000000
,
00000000
00000000
00033000
00000000
00001000
00000100
00000010
00000001
,
00000100
00000100
00000010
00000010
00000000
00000000
00000101
00000000
,
00002200
00003300
00010000
00001000
,
00010000
00010000
00001000
00001000
00000000
00000000
00110000
00000000
,
02200000
03300000
10000000
00010000
,
10000000
01000000
00100000
00001000
00000000
00000000
00022000
00000000
,
00000000
00000000
00033000
00000000
00010000
00001000
00010000
00001000
,
00010000
00000000
00001000
00000100
00000000
00000010
00000001
00000000
,
00000100
00000000
00000000
00001000
00000000
00000000
00000100
00000000
,
00000001
00000000
00000100
00000010
00000100
00000000
00000001
00000000
,
00002000
00000000
00003000
00002000
00000000
00003000
00002000
00000000
,
00013000
00001000
00100000
00010000
00100000
00001000
00010000
00001000
,
00100000
00010000
01000000
00000000
00100000
00000000
10000000
01000000
,
00000000
00010000
01000000
00000000
10000000
00100000
00010000
00000000
,
00200000
10000000
00300000
00200000
00010000
00300000
01000000
10000000
,
00010000
01000000
01000000
00100000
,
01000000
00010000
00100000
00001000
00010000
00001000
00010000
00000100
,
00010000
00001000
00000100
00000001
00001000
00000100
00000010
00000000
,
00000001
00000000
00000100
00001000
00000000
00000100
00000001
00000000
,
00000001
00000100
00000010
00000100
00000001
00000100
00000010
00001000
,
00000100
00001000
00010000
00001000
00010000
00100000
10000000
00010000
,
01000000
00100000
01000000
10000000
01000000
00010000
10000000
00100000
,
01000000
00010000
00001000
00100000
00002000
00000000
00000000
00000000
,
00013000
00001000
00000010
00000100
00000001
00000010
00000200
00000000
,
00000301
00000100
00000010
00001000
00010000
00100000
02000000
00000000
,
13000000
00100000
01000000
00100000
10000000
01000000
00100000
00010000
,
00100000
00000000
00001000
00010000
00000000
00100000
01000000
00000000
,
00100000
01000000
10000000
00010000
00100000
00010000
10000000
01000000
,
00100000
00010000
01000000
00100000
00001000
00010000
00001000
00010000
,
00000010
00001000
00000010
00000100
00000001
00000010
00000100
00010000
,
00001000
00010000
00100000
01000000
10000000
00010000
01000000
10000000
,
01000000
00000000
00010000
00001000
00000000
00000100
00000001
00000100
,
00000010
00001000
00000100
00001000
00010000
00001000
00010000
01000000
,
00020000
00230000
02300000
03200000
00320000
20030000
32000000
23000000
,
30010000
00000000
00000000
01010000
00000000
00000000
10010000
00000000
,
10000000
01000000
00100000
01000000
00000000
00010000
01000000
00000000
,
00100000
00000000
00001000
00010000
00000010
00010000
00001000
00010000
,
00000010
00000000
00001000
00000100
00000010
00000001
00000100
00000010
,
00001000
00000001
00000010
00000000
00000001
00000000
00000001
00000000
,
00000100
00000010
00001000
00000100
00001000
00000100
00000010
00000100
,
00000001
00000010
00000001
00001000
00000100
00001000
00010000
00001000
,
00010000
00100000
10000000
00010000
01000000
00100000
10000000
01000000
,
01100000
01100000
00110000
00101000
,
00010000
00001000
00010000
00000000
00000100
00001000
00000100
00000000
,
00001000
00000010
00001000
00000000
00000001
00000010
00000001
00000000
,
00001000
00000010
00000100
00000001
00000010
00000100
00010000
00001000
,
00010000
00000100
00010000
00001000
00100000
00010000
00100000
00000000
,
00110000
00110000
10100000
10100000
,
11000000
11000000
01010000
01010000
,
00011000
00011000
00001010
00001010
,
00000011
00001010
00000011
00001001
,
00000000
00000000
00000000
00000000
,
00000000
00000000
00000000
00000000
,
01000000
00100000
01000000
01000000
00000000
00000000
00000000
00000000
,
00000000
00000000
00000000
00000000
,
00000100
00000010
00000100
00000100
00000000
00000000
00000000
00000000
,
00000000
00000000
00000000
00000000
,
02200000
00000000
03300000
00000000
10000000
00100000
01000000
00010000
,
20000000
00000000
32000000
00000000
,
03100000
01000000
00100000
10000000
01000000
00100000
00001000
00010000
,
00001000
00010000
00001000
00000100
00000001
00000000
00001000
00000000
,
00000010
00000100
00000001
00001001
00000000
00000000
00000000
00000000
;

//--------------- dance-double - Fred-104 ----------------
#NOTES:
     dance-double:
     Fred-104:
     Challenge:
     18:
     :
00000000
00000000
00000000
00000000
,
00000000
00000000
00000000
00000000
,
00000000
00000000
00000000
00000000
,
00000000
00000000
00000000
00000000
,
00000000
00000000
00000000
00000000
,
00000000
00000000
00000000
00000000
,
00000000
00000000
00000000
00000000
,
00000000
00000000
00000000
00000000
,
00000000
00000000
00000000
00000000
,
00000101
00000000
00000100
00000010
00000000
00001010
00000000
00011000
,
00000000
00101000
00000000
00100000
01000000
00000000
01100000
00000000
,
11000000
00000000
01000000
00100000
00000000
00110000
00000000
00101000
,
00000000
00010010
00000000
00000010
00000100
00000000
00000110
00000000
,
00002002
00000000
00003003
00000000
00000001
00000100
00001000
00010000
,
00022000
00033000
02200000
03300000
,
10000000
01000000
10000000
00100000
10000000
01000000
00100000
00010000
00001000
01000000
00001000
00010000
,
00000010
00001000
00000100
00000010
00000001
00000100
00000010
00001000
00000100
00002000
00000000
00000000
,
00003001
00000010
00000001
00000100
00000010
00000100
00000001
00000010
,
00000001
00000100
00000010
00000100
00000001
00000010
00001000
00010000
,
00001000
00100000
00010000
00000000
01000000
00000000
00100000
00010000
,
00000000
00011000
00000000
00001000
00100000
00000000
00110000
00000000
,
00010000
01000000
00100000
10000000
01000000
00100000
00010000
01000000
,
10000000
01000000
00010000
00100000
01000000
10000000
00100000
01000000
,
00010000
00100000
00010000
01000000
00100000
10000000
01000000
00100000
00001000
00010000
00000010
00001000
,
00000010
00000100
00000010
00001000
00000001
00000010
00000200
00000000
00000000
00000000
00000000
00000000
,
00000310
00000100
00001000
00000010
00000100
00000001
00001000
00000100
,
00000010
00001000
00010000
00100000
00001000
00010000
01000000
00100000
,
01000000
00010000
10000000
00000000
01000000
00000000
00100000
00001000
,
00000000
00011000
00000000
00000100
00000010
00000000
00000011
00000000
,
00000001
00000010
00000001
00000100
00000010
00000100
00000010
00001000
,
00000100
00000000
00010000
00000000
00001000
00010000
00001000
00010000
00001000
00000000
00010000
00000000
00001000
00000000
01000000
00000000
,
00100000
00000000
01000000
00000000
00100000
00000000
10000000
00000000
00000000
01000000
00000000
00000000
00100000
00000000
01000000
00000000
00100000
00000000
00010000
00000000
00000000
00100000
00000000
00000000
,
00001000
00010000
00001000
00010000
00000100
00001000
00000010
00000100
00000001
00002000
00000000
00000000
,
00003001
00000010
00000100
00001000
00000100
00010000
00001000
01000000
,
00010000
00100000
01000000
10000000
00100000
01000000
00010000
10000000
,
00100000
00010000
00001000
00000100
00000001
00000100
00000001
00001000
,
00000100
00010000
00001000
00100000
00010000
00100000
00010000
10000000
,
00010000
10000000
10000000
00100000
01000000
00010000
01000000
00001000
,
00010000
00000000
00000100
00000000
00001000
00000010
00001000
00000010
00000100
00000000
00000001
00000000
00000010
00000000
00000100
00000000
,
00001000
00000001
00000010
00001000
00010000
01000000
10000000
01000000
,
10000000
00000000
00000000
00010000
00000000
00000000
01000000
00000000
00000000
00001000
00000000
00000000
00010000
00000000
00001000
00000000
00010000
00000000
00001000
00000000
00010000
00000000
00000010
00000000
,
00010000
00001000
00000010
00001000
00010000
01000000
00010000
00001000
,
00010000
00000100
00001000
00000010
00010000
00001000
00100000
00001000
,
00010000
00000010
00001000
00000010
00000100
00000010
00000001
00000010
,
00001000
00000001
00000100
00001000
00010000
01000000
10000000
10000000
,
00010000
00000000
10000000
00000000
00100000
00000000
10000000
00000000
00000000
01000000
00000000
00000000
00100000
00000000
00010000
00000000
01000000
00000000
00010000
00000000
00000000
00100000
00000000
00000000
,
00001000
00000000
00010000
00000000
00000100
00000000
00001000
00000000
00000000
00000010
00000000
00000000
00000100
00000000
00000001
00000000
00000100
00000000
00000010
00000000
00001000
00000000
00000010
00000000
,
00000200
00000000
00000000
00000000
,
00000020
00000000
00000000
00000330
,
00000001
00000001
00000001
00000001
00000000
00000000
00000220
00000000
,
00000000
00000000
00000330
00000000
00001000
00010000
00001000
00010000
,
00001000
00001000
00001000
00001000
00000000
00000000
00202000
00000000
,
00000000
00303000
00010000
01000000
,
00100000
00100000
00100000
00100000
00000000
00000000
11000000
00000000
,
02200000
03300000
00100000
01000000
,
00010000
00010000
00010000
00010000
00000000
00000000
20020000
00000000
,
00000000
00000000
30030000
00000000
10000000
01000000
00010000
00001000
,
00001000
00000010
00000001
00001000
00000000
00000000
00000202
00000000
,
00000000
00000000
00000303
00000000
00000001
00000100
00001000
00001000
,
00010000
00100000
10000000
00010000
00000000
00000000
11000000
00000000
,
02200000
03300000
00100000
00010000
,
01000000
00010000
00001000
00000010
00000000
00000000
00000110
00000000
,
00002002
00003003
00000100
00000010
,
00000001
00000100
00001000
00010000
00000000
00000000
00022000
00000000
,
00000000
00000000
00033000
00000000
00001000
00001000
00001000
00001000
,
00010000
00000000
01000000
10000000
00000000
00100000
00010000
00000000
,
00010000
00001000
00000000
00000010
00000001
00000000
00000100
00000000
,
00000010
00000000
00000100
00000010
00000100
00000000
00000001
00000000
00000010
00000000
00000001
00000000
00000100
00000000
00000010
00000000
,
00002000
00000000
00003000
00002000
00000000
00003000
00002000
00000000
,
00013000
00000000
00001000
00000000
00100000
00000000
00010000
00000000
01000000
00000000
00100000
00000000
10000000
00000000
01000000
00000000
00100000
00000000
01000000
00000000
00000000
00010000
00000000
00000000
,
10000000
00100000
01000000
00100000
10000000
00000000
01000000
00100000
,
00000000
00001000
00010000
00000000
00001000
00010000
00000100
00001000
,
00000010
00000100
00000000
00000001
00001000
00000000
00000100
00000010
,
00000002
00000100
00002003
00000100
,
00003001
00000010
00000100
00001000
00000010
00000100
00000001
00000000
,
00001000
00000100
00000010
00001000
00000100
00010000
00001000
00010000
01000000
00200000
00000000
00000000
,
10300000
01000000
00010000
00001000
00000010
00000001
00001001
00000000
,
00000001
00000100
00000001
00000100
00000010
00001000
00000010
00000100
00000001
00000010
00000100
00010000
,
00001000
00100000
00001000
00010000
00001000
01000000
00001000
00010000
00100000
01000000
00010000
00100000
,
01000000
00000000
10000000
00000000
00100000
00000000
01000000
00000000
00000000
00100000
00000000
00000000
10000000
00000000
01000000
00000000
00100000
00000000
00001000
00000000
00000000
00010000
00000000
00000000
,
00001000
00000010
00000100
00000000
00000001
00000000
00000010
00000000
00000200
00000000
00000000
00000000
00000000
00000000
00000000
00000000
,
00002300
00000010
00000100
00003010
00000002
00000010
00000100
00000003
,
00002000
00000100
00000010
00003100
00000002
00000100
00000010
00000003
,
00001000
00000000
00000100
00000000
00000010
00000000
00000001
00000000
00000000
00000100
00000000
00000000
00000010
00000000
00000000
00001000
00000000
00000000
00000010
00000000
00000000
00000100
00000000
00000000
,
00000110
00000000
00000000
00001001
00000000
00000000
00000110
00000000
,
00000001
00000010
00001000
00000001
00000100
00001000
00010000
00100000
,
00010000
01000000
00100000
01000000
00010000
01000000
00100000
10000000
,
01000000
00000000
00100000
00000000
00010000
00000000
01000000
00100000
01000000
00000000
00010000
00000000
01000000
00000000
00100000
00000000
,
01000000
00000000
00010000
00000000
00001000
00000000
00010000
00001000
00010000
00000000
00001000
00000000
00000100
00000000
00000010
00000000
,
00000210
00000000
00000000
00000000
00000310
00000000
00000001
00000000
00001000
00000100
00001000
00000100
00001000
00000000
00000000
00000000
,
00000010
00000100
00000010
00001000
00000010
00000100
00000001
00000010
,
00000002
00000023
00000230
00002300
00023000
00230000
02300000
23000000
,
30010000
00000000
00000000
01100000
00000000
00000000
10010000
00000000
,
00200000
10000000
00310000
00200000
00010000
10300000
00200000
10000000
,
00310000
00000000
00000000
01000000
00000000
00000000
00001000
00000000
00010000
00000000
00001000
00000000
00010000
00000000
00100000
00000000
01000000
00000000
00100000
00000000
00000000
00010000
00000000
00000000
,
00002000
00000000
00013000
00001000
00000100
00000001
00000010
00000100
,
00010000
00001000
00022000
00000000
00000000
00000000
00033000
00000000
,
00001000
00010000
00000100
00001000
00000010
00000100
00000010
00000001
,
00000010
00000100
00000010
00001000
00000100
00010000
00001000
00100000
,
00001000
00010000
01000000
10000000
01000000
00010000
01000000
00100000
,
01100000
01010000
00011000
00001010
,
00000100
00000010
00001000
00000100
00000010
00000100
00000001
00000001
,
00000100
00000010
00000100
00000001
00000010
00000100
00010000
00010000
,
00001000
00100000
00010000
00100000
01000000
00100000
10000000
10000000
,
01000000
00100000
00001000
00010000
00000100
00000010
00000001
00000001
,
00000101
00001100
00011000
01010000
,
11000000
10100000
00110000
00011000
,
00001010
00000011
00000101
00001100
,
00011000
00011000
00011000
00011000
,
00000000
00000000
00000000
00000000
,
00000000
00000000
00000000
00000000
,
01000000
01000000
00100000
01100000
00000000
00000000
00000000
00000000
,
00000000
00000000
00000000
00000000
,
00000010
00000010
00000100
00000110
00000000
00000000
00000000
00000000
,
00000000
00000000
00000000
00000000
,
20020000
00000000
30030000
00000000
10000000
00100000
00010000
00001000
,
00022000
00033000
00000220
00000330
,
00001000
00000000
00000100
00000010
00000100
00000000
00001000
00000000
00000001
00000000
00000100
00000000
00001000
00000000
00010000
00000000
,
00000010
00010000
00001000
00010000
01000000
10000000
00100000
01000000
,
00100000
00100000
01000000
10010000
00000000
00000000
00000000
00000000
;
