#VERSION:0.83;
#TITLE:DEVOTION;
#ARTIST:AJURIKA feat.SAK.;
#BANNER:DEVOTION.png;
#BACKGROUND:DEVOTION-bg.png;
#CDTITLE:./CDTitles/maimai DX BUDDiES PLUS.png;
#MUSIC:DEVOTION.ogg;
#SAMPLESTART:52.43;
#SAMPLELENGTH:15;
#BPMS:0=167;

//--------------- dance-single - Fred-104 ----------------
#NOTEDATA:;
#STEPSTYPE:dance-single;
#DESCRIPTION:Fred-104;
#DIFFICULTY:Beginner;
#METER:4;
#CREDIT:Fred-104;
#NOTES:
0000
0000
0000
0000
,
0000
0000
0000
0000
,
0000
0000
0000
0000
,
1000
0000
0000
0000
,
1000
0000
0000
0000
,
0001
0000
0000
0000
,
0100
0000
0000
0000
,
0100
0000
0100
0000
,
0010
0000
0010
0000
,
1000
0000
1000
0000
,
0002
0000
0003
0000
,
1001
0000
0001
0000
,
0010
0000
0010
0000
,
0200
0000
0000
0300
,
0200
0300
0200
0300
,
1000
0000
0001
0000
,
1000
0000
1000
0000
,
0020
0000
0000
0030
,
0110
0000
0000
0000
,
0001
0000
0010
0000
,
1000
0000
1000
0000
,
0010
0000
0100
0000
,
0010
0000
0001
0000
,
1000
0000
0010
0000
,
0001
0000
0001
0000
,
0010
0000
1000
0000
,
1001
0000
0000
0000
,
0002
0000
0000
0003
,
0001
0000
0100
0100
,
0010
0000
0010
0000
,
1001
0000
1001
0000
,
1001
0000
1000
0000
,
0100
0000
0100
0000
,
0020
0000
0000
0030
,
0002
0000
1003
1000
,
1001
0000
0000
0000
,
1001
0000
1000
1000
,
0001
0000
0010
0000
,
0100
0000
0100
0000
,
0010
0000
0010
0000
,
0001
0000
0001
0000
,
2000
0000
0000
3000
,
0002
0000
0000
0003
,
1000
1000
1000
1000
,
1001
0000
1001
0000
,
0002
0003
0001
0000
,
0100
0000
0100
0000
,
1000
0000
1000
0000
,
0010
0000
0010
0000
,
0001
0000
0001
0000
,
1000
0000
1000
0000
,
0100
0000
0100
0000
,
0010
0010
0010
0010
,
0010
0000
0010
0000
,
0002
0003
0001
0000
,
1000
0000
1000
0000
,
0002
0003
1000
1000
,
0010
0000
0010
0000
,
0100
0000
0100
0000
,
0002
0000
0000
0003
,
1000
1000
1000
1000
,
1001
0000
0000
0000
,
0001
0000
0000
0000
,
1000
0000
0000
0000
,
0001
0000
0001
0000
,
1001
0000
0000
0000
,
1000
0000
0010
0000
,
1000
0000
0001
0000
,
1000
1000
0000
1000
,
0001
0000
0001
0000
,
2000
0000
0000
3000
,
0002
0000
0000
0003
,
1000
1000
1000
0000
,
0002
0003
1001
0000
,
1000
0000
0100
0000
,
0001
0000
0001
0000
,
0010
0000
0010
0000
,
1000
1000
1000
1000
,
1000
0000
1000
0000
,
0001
0000
0001
0000
,
0100
0000
0100
0000
,
0010
0000
0100
0000
,
0001
0000
1000
0000
,
0001
0000
1000
0000
,
0001
0001
0001
0001
,
2002
0000
0000
0000
,
3003
0000
0000
0000
;

//--------------- dance-single - Fred-104 ----------------
#NOTEDATA:;
#STEPSTYPE:dance-single;
#DESCRIPTION:Fred-104;
#DIFFICULTY:Easy;
#METER:9;
#CREDIT:Fred-104;
#NOTES:
0000
0000
0000
0000
,
0000
0000
0000
0000
,
0000
0000
0000
0000
,
0000
0000
0000
0000
,
0000
0000
0000
0000
,
0000
0000
0000
0000
,
0000
0000
0000
0000
,
0001
0000
0010
0000
0100
0010
0100
0000
,
1000
0000
0001
0000
0100
0010
0100
0000
,
0010
0000
1000
0000
0100
0010
0100
0000
,
0010
0001
0010
0000
0001
1000
0001
0000
,
1001
1000
0100
0000
,
0001
0100
1000
0001
,
1000
0000
1000
0001
0000
0001
0000
0000
,
0001
0000
0001
0000
0100
0010
0100
0000
,
1001
0001
0010
0000
,
0100
0000
0001
0000
0100
1000
0001
0000
,
1000
0000
1000
0010
0000
0010
0000
0000
,
0100
0001
0100
0001
0000
1000
0001
0000
,
1000
0000
0000
1000
0000
0000
0100
0000
,
0010
0001
1000
0001
,
0100
0000
0000
0100
0000
0000
0100
0000
,
0010
0000
1000
0000
0010
1000
0001
0000
,
0010
0000
0000
0100
0000
0000
1000
0000
,
0010
0100
0001
1000
,
0100
0000
0000
0010
0000
0000
0001
0000
,
0100
0010
0100
0010
0000
0110
0000
0000
,
0100
1001
0100
1001
,
0100
0100
1001
1001
,
1000
0000
0001
0000
0010
0100
0010
0000
,
0001
0100
0220
0330
,
0002
2003
3200
0320
,
0031
0010
0001
0000
0100
0010
0100
0000
,
0010
0000
0000
0010
0000
0000
0100
0000
0000
0100
0000
0000
0010
0000
0000
0000
,
1000
0000
0001
0000
0010
0100
1000
0000
,
0010
0000
0000
0010
0000
0000
0100
0000
0000
0100
0000
0000
0010
0000
0000
0000
,
0220
0030
0300
0000
0001
0000
0001
0000
,
1001
0000
0000
1000
0000
0000
0010
0000
,
0100
0100
0001
0010
,
0001
0001
0100
0010
,
0100
0000
0000
0001
0000
0000
1000
0000
,
0001
0000
0000
0100
0000
0000
1000
0000
,
1000
0000
0000
0100
0000
0000
0001
0000
,
1000
0100
0010
0001
,
0010
0000
0000
0010
0000
0000
0010
0000
0001
0000
0000
0000
1001
0000
0000
0000
,
1000
0000
0000
0001
0000
0000
0100
0000
,
0001
0010
0100
1000
,
0001
0100
0010
0100
,
0001
1000
0100
0010
,
0001
0000
0000
0010
0000
0000
1000
0000
,
1000
0000
0000
0010
0000
0000
0001
0000
,
1000
0010
0100
0001
,
0010
0000
0100
0000
1000
0001
1000
0000
,
0001
0000
0001
0000
0100
0010
0100
0000
,
0001
0000
0001
0000
0010
0100
0010
0000
,
0100
0000
1000
0001
1000
0001
0100
0000
,
0010
0100
0220
0330
,
0001
0000
1000
0000
0100
0010
0100
0000
,
0010
0000
0010
0001
0000
1000
0001
0000
,
0100
0000
0000
0100
0000
0000
0010
0000
0000
0010
0000
0000
0100
0000
0000
0000
,
0010
0000
0010
0000
0100
0010
0100
0020
,
0200
0000
0030
0300
,
1001
0000
0000
0000
,
0001
0000
0000
0001
0000
0000
0001
0000
0000
0000
0000
0000
1001
0000
0000
0000
,
1000
0100
1000
0000
0001
0100
0001
0000
,
1000
0000
0000
1000
0000
0000
1000
0000
0100
0000
0000
0000
0110
0000
0000
0000
,
0001
0000
0000
0100
0000
0000
1000
0000
,
1000
0000
0000
0100
0000
0000
0001
0000
,
1001
0000
0000
0110
0000
0000
1001
0000
,
1000
0000
0000
1000
0000
0000
1000
0000
0010
0000
0100
0000
0010
0000
0000
0000
,
0100
0000
0000
0100
0000
0000
0001
0000
0000
0001
0000
0000
0010
0000
0000
0000
,
0001
0000
0000
0001
0000
0000
1000
0000
0000
1000
0000
0000
0010
0000
0100
0000
,
0001
1000
0100
0110
,
0001
0000
0000
0001
0000
0000
0100
0000
0010
0000
0000
0000
0110
0000
0000
0000
,
1000
0000
0000
0010
0000
0000
0001
0000
,
0001
0000
0000
0010
0000
0000
1000
0000
,
0001
0010
0100
1000
,
0001
0100
0001
0000
1000
0010
1000
0000
,
0001
0000
0010
0000
0100
0010
0100
0000
,
1000
0000
0010
0000
0100
0010
0100
0000
,
0001
0000
1000
0000
0100
0010
0100
0000
,
0010
0001
0010
0000
0001
1000
0001
0000
,
0100
0100
0010
0010
,
1000
1000
0001
0001
,
0010
0100
0010
0000
0100
1000
0100
0000
,
1000
0001
1000
0000
0001
0100
0010
0000
,
1001
0000
0000
0000
;

//--------------- dance-single - Fred-104 ----------------
#NOTEDATA:;
#STEPSTYPE:dance-single;
#DESCRIPTION:Fred-104;
#DIFFICULTY:Medium;
#METER:13;
#CREDIT:Fred-104;
#NOTES:
0000
0000
0000
0000
,
0000
0000
0000
0000
,
0000
0000
0000
0000
,
0000
0000
0000
0000
,
0000
0000
0000
0000
,
0000
0000
0000
0000
,
0000
0000
0000
0000
,
1000
0000
0000
0000
0100
0000
0100
0000
0010
0000
0000
0001
0000
0000
1000
0000
,
0001
0000
0000
0000
0100
0000
0100
0000
0010
0000
0000
1000
0000
0000
0010
0000
,
0100
0000
0000
0000
0001
0000
0001
0000
0010
0000
0000
0100
0000
0000
1000
0000
,
0001
0100
0000
0001
0100
0000
0010
0000
1000
0000
0001
1000
0000
0001
1000
0000
,
1001
0000
0001
0000
0010
0020
0000
0130
,
0001
0100
1000
0002
0000
0203
0000
0310
,
1000
0100
0001
0100
0000
1000
0000
1000
,
0001
0100
1000
0100
0001
1000
0100
0010
,
0011
0000
0000
0000
1000
0000
0000
0000
0001
0000
0001
0100
0000
0000
0100
0000
,
0010
0001
0010
2000
0000
3020
0000
0230
,
0301
0010
1000
0010
0000
0001
0000
0001
,
1000
0000
1000
0000
0010
0000
0010
0000
0000
0010
0100
0000
0010
0000
1000
0001
,
2000
0000
3100
0020
0000
1030
0010
0001
,
1000
0001
0100
0000
0010
1000
0001
0010
,
0200
0000
0301
0200
0000
0310
0001
1000
,
0010
1000
0100
1000
0001
0100
0010
0010
,
0110
0000
1000
0200
0000
0301
1000
0020
,
0000
0130
1000
0001
0100
0010
1000
0001
,
0020
0000
1030
0020
0000
0130
0010
0001
,
1000
0000
1000
0000
0001
0000
0001
0000
0100
0000
0001
0000
1000
0001
1000
0001
,
1000
0100
0110
0000
0001
0100
0110
0000
,
1010
0000
1010
0000
0001
1000
1001
0000
,
1000
0100
0010
0100
0001
0100
0010
0001
,
1000
0000
0000
0001
0000
0100
0000
0000
0110
0000
0000
0000
1001
0000
0000
0000
,
1000
0100
1000
0001
0100
0001
1000
0100
,
0010
0010
0010
1000
0010
0001
1000
0001
,
1000
0000
0000
1100
0000
0000
0001
0000
0000
0101
0000
0000
1000
0000
0001
0000
,
0010
0100
1000
0001
0100
0100
0010
0010
,
1000
0000
0000
1010
0000
0000
0001
0000
0000
0011
0000
0000
1000
0000
0002
0000
,
0200
0003
0300
0000
0100
0000
0100
0000
,
1001
0000
0001
0010
0100
1000
0010
1000
,
0001
0000
0000
1000
0000
0000
0100
0000
0001
0000
0100
0000
0010
0000
0000
0000
,
0001
1000
0100
0001
1000
0010
0001
0000
,
1000
0100
0010
0100
1000
0001
1000
0000
,
0002
0000
0013
2000
0000
3010
0002
0000
,
2003
0000
3010
0002
0000
0013
2000
0000
,
3001
0010
0100
1000
0001
0100
0010
1000
,
0100
0000
0000
0010
0000
0000
0011
0000
0001
0000
1000
0000
1001
0000
0000
0000
,
1000
0000
0100
0010
0001
0100
0010
1000
,
0001
0000
0000
0010
0000
0000
1000
0000
0010
0000
0100
0000
0010
0000
0000
0000
,
0001
1000
0010
0001
1000
0100
0001
0010
,
0100
0010
0100
1000
0010
0100
0001
0000
,
1000
0100
0010
0001
0100
0010
1000
1000
,
0001
0010
0100
1000
0010
0100
0001
0001
,
1000
1000
0100
0010
0001
0001
0100
0010
,
1000
0000
0001
0000
0010
0000
0100
0000
1000
0000
0001
0000
1000
0001
1000
0001
,
1000
0000
1001
0000
0001
0100
0010
0100
,
0002
0000
0013
0010
0100
0100
1000
0001
,
0100
0010
0100
0100
0100
0001
1000
0100
,
0010
0000
0000
0001
0000
0000
0100
0000
0110
0000
0000
0000
0110
0000
0000
0000
,
1000
0100
1000
0100
0010
0001
0011
0000
,
1000
0001
0100
1000
0001
1000
0100
0001
,
0010
0000
0000
0011
0000
0000
0100
0000
0000
1100
0000
0000
1000
0000
0001
0000
,
0100
0000
0100
0000
0010
0000
0010
0000
0100
0010
0100
0010
0100
0010
0100
0020
,
0200
0000
0030
0300
,
1001
0000
0000
0000
,
1100
0000
0000
0110
0000
0000
0011
0000
0000
0000
0000
0000
1000
0000
0000
0000
,
0001
0000
0100
0000
0010
0000
1000
0000
0001
0000
0100
0000
0010
1000
0010
1000
,
0001
0000
0000
0010
0000
0000
0110
0000
1000
0000
0001
0000
1001
0000
0000
0000
,
1000
0100
0010
0001
0100
0010
0100
0001
,
0010
0100
0001
0100
0010
0001
1000
0001
,
1001
0000
0000
0101
0000
1000
0100
0100
,
0010
0000
0001
0010
0000
0000
0011
0000
0001
0000
0100
0000
0010
0000
1000
0000
,
1010
0000
0000
1000
0000
0000
0001
0000
0000
1000
0000
0000
0100
0000
0010
0000
,
0011
0000
0000
0110
0000
0000
1100
0000
0000
1001
0000
0000
0001
0000
0100
0000
,
0010
0000
0010
0000
0100
0000
0100
0000
0001
1000
0000
0000
1001
0000
0000
0000
,
1010
0000
0000
0101
0000
0000
1100
0000
0100
0000
0000
0000
0110
0000
0000
0000
,
0001
1000
0100
0001
1000
0001
0100
1000
,
0001
1000
0010
0001
1000
0001
0010
1000
,
0001
0001
0010
0100
1000
1000
0010
0100
,
0001
0000
1000
0000
0100
0000
0010
0000
0001
1000
0001
1000
0001
1000
0001
1000
,
0001
0000
0000
0000
1000
0000
0001
0000
0100
0000
0000
0010
0000
0000
1000
0000
,
0001
0000
0000
0000
0010
0000
0100
0000
1000
0000
0000
0010
0000
0000
1000
0000
,
0100
0000
0000
0000
0010
0000
0001
0000
1000
0000
0000
0010
0000
0000
0100
0000
,
0001
0100
0000
0001
0100
0000
0010
0000
1000
0000
0001
1000
0000
0001
1000
0000
,
0100
0010
0100
0010
0001
1000
0001
1000
,
0010
0100
0001
1000
0010
0100
0001
1000
,
0100
0010
0001
0100
0010
1000
0001
0010
,
0100
1000
0000
0100
1000
0000
0001
0000
0100
0000
0010
1000
0000
0010
2000
0000
,
3000
0000
0000
0000
;

//--------------- dance-single - Fred-104 ----------------
#NOTEDATA:;
#STEPSTYPE:dance-single;
#DESCRIPTION:Fred-104;
#DIFFICULTY:Hard;
#METER:16;
#CREDIT:Fred-104;
#NOTES:
0000
0000
0000
0000
,
0000
0000
0000
0000
,
0000
0000
0000
0000
,
0000
0000
0000
0000
,
0000
0000
0000
0000
,
0000
0000
0000
0000
,
0000
0000
0000
0000
,
0001
0000
0010
0000
1000
0000
0010
0000
0001
0000
0000
0010
0000
0000
0100
0000
,
1000
0000
0001
0000
0100
0000
1000
0000
0100
0000
0000
0001
0000
0000
0100
0000
,
0010
0000
1000
0000
0001
0000
0010
0000
0100
0000
0000
1000
0000
0000
0001
0000
,
0100
0010
0000
0010
1000
0010
1000
0010
0100
0001
1000
0001
0010
0001
1000
0000
,
1001
0000
0002
1003
0020
2030
3100
0020
,
0032
0203
0320
0032
1003
0200
0301
2000
,
3002
2003
3200
0302
1003
0002
0103
2000
,
3002
0000
0203
0000
0320
0000
2030
0000
3001
0010
0001
0010
0100
1000
0100
1000
,
0100
0000
0000
0000
2000
0000
3001
0000
0200
0000
0301
2000
0000
0000
3002
0000
,
0203
0320
0032
2003
3001
0020
1030
0002
,
0023
2030
3002
0203
0310
0002
1003
0020
,
1030
0001
1000
0001
0010
0100
1000
0000
0000
1000
0001
0000
0100
0000
0010
1000
,
0020
0000
1000
0000
1030
0000
0200
0000
0010
0000
0310
0000
0001
1000
0002
0000
,
0013
0100
1000
0010
0100
2000
3002
0023
,
2030
0001
3001
0020
0100
0130
0001
0200
,
1300
0000
0001
0000
0100
0000
0010
0000
0100
0000
0001
0000
0100
0010
0100
0010
,
0200
0001
0301
2000
0100
3200
0010
0320
,
0130
1000
0001
0100
1000
0200
0302
0023
,
0230
0301
1000
0020
0130
0010
0001
1000
,
0010
1000
0010
1000
0001
0100
0001
0100
0001
1000
0001
1000
0100
0010
0100
0010
,
0001
0000
0010
0000
0012
0000
0000
0000
1003
0000
0001
0000
1000
0001
1000
0001
,
0200
0000
0300
0000
0200
0000
0300
0000
0010
1000
0010
1000
0001
1000
0001
1000
,
0100
0000
0010
0000
0001
0010
0001
0010
0100
0000
0001
0000
0100
0000
1000
0000
,
1001
0000
0000
1010
0000
0101
0000
0000
1000
0100
0010
0001
2000
0000
0000
0000
,
3001
0010
0100
1000
0010
1000
0100
0010
,
0001
1000
0001
1000
0010
0000
1000
0000
0001
0000
0010
0000
0100
1000
0100
1000
,
0100
0000
0000
1100
0000
0000
0101
0000
0000
0011
0000
0000
1010
0000
1000
0001
,
1000
0000
0100
0000
0010
0000
0001
0000
1000
0100
1000
0100
0010
0001
0010
0001
,
0010
0000
0000
0011
0000
0000
1010
0000
0000
1100
0000
0000
0101
0000
0001
0000
,
0220
0030
0300
0000
0001
0000
1001
0000
,
1000
0100
0001
1000
0010
0001
1000
0001
,
0010
0000
0000
0100
0000
0000
1000
0000
0001
0000
0100
0000
0010
0000
0000
0000
,
1000
0100
0001
1000
0010
0100
1000
0001
,
0200
0000
0310
0000
0001
0000
0020
0000
0130
0000
0001
0000
1000
0100
0010
0001
,
1000
0100
0100
0001
0100
0100
1100
0000
,
0001
0100
0100
1000
0100
0100
0101
0000
,
1000
0100
1000
0000
0001
0010
0001
0000
1000
0010
0100
0001
1000
0100
0010
0100
,
0010
0000
0000
0011
0000
0000
1001
0000
1000
0001
0100
0010
1000
0000
0001
1000
,
0001
0100
1000
0001
0010
0100
0001
1000
,
0100
0000
0010
0001
0000
0001
0100
0000
0001
0000
0010
0000
0100
0000
1000
0000
,
0001
0100
1000
0001
1000
0100
0010
1000
,
0002
0000
0013
0000
1000
0000
0020
0000
0130
0000
0010
0000
0001
1000
0001
1000
,
0001
0000
0100
0010
0100
0000
0010
1000
0010
0000
1000
0001
1000
0000
0100
0000
,
0010
0000
0001
1000
0001
0000
0100
0001
0100
0000
0010
1000
0010
0000
1000
0000
,
0001
0000
0010
0100
0010
0100
1000
0100
1000
0000
0010
0100
0010
0100
0001
0100
,
0001
0000
1000
0000
0100
0000
0010
0000
0001
1000
0001
1000
0010
1000
0010
0000
,
2010
0000
3002
0000
0023
0000
0230
0000
1300
0000
0100
0000
0010
0100
0010
0100
,
0020
0000
0000
0000
2030
0000
3020
0000
0031
0000
1000
0010
2000
0000
3020
0000
,
0130
0000
0001
0000
0100
0010
0100
0010
0200
0000
0302
0000
2003
0000
3002
0000
,
0013
0000
0000
0010
0000
0000
0010
0000
0001
0000
1000
0000
0010
1000
0010
1000
,
0002
2003
3200
0320
2030
3002
0203
2300
,
3020
0000
0130
0001
0200
0000
0320
0000
1030
0000
0001
0000
0010
0100
1000
0100
,
0010
0000
0000
0011
0000
0000
1010
0000
0000
1100
0000
0000
0101
0000
0001
0000
,
1000
0010
1000
0010
0100
0001
0100
0001
1000
0100
0010
0001
0010
0100
1000
0001
,
0200
0000
0000
0000
0000
0000
0000
0000
0310
0000
0100
0000
0010
0100
0010
0000
,
1001
0000
0000
0000
,
1010
0000
0000
0101
0000
0000
1100
0000
0000
0000
0000
0000
1001
0000
0000
0000
,
1000
0000
0100
0000
0001
0000
0100
0000
1000
0000
0100
0000
0010
0001
0010
0001
,
0010
0000
0000
0011
0000
0000
1001
0000
0001
1000
0001
0100
0010
1000
0001
1000
,
0001
0100
1000
0001
1000
0100
0010
1000
,
0001
0010
0100
0001
1000
0010
0100
1000
,
1001
0000
0000
0000
1000
0000
1010
0000
0000
0000
0010
0000
0100
0001
0100
0001
,
0100
0000
0001
0010
0000
0100
1000
0000
0010
0000
0100
0000
0001
0000
1000
0100
,
0010
0000
0001
1000
0000
0010
0100
0000
0001
1000
0000
0010
0100
0000
0001
0000
,
1001
0000
0000
1010
0000
0000
0101
0000
0000
1100
0000
0000
0011
0000
0010
0000
,
0110
0000
0000
0000
0000
0000
0100
0000
0000
0000
0000
0000
1000
0000
0000
0100
0000
0000
0010
0000
0000
0001
0000
0000
1000
0000
0000
0001
0000
0000
0000
0000
0000
0000
0000
0000
1001
0000
0000
0000
0000
0000
0001
0000
0100
0000
0001
0000
,
0100
0000
0000
0110
0000
0000
1001
0000
0001
0100
0010
1000
0001
0100
0001
1000
,
0001
0000
0010
1000
0010
0000
1000
0001
0100
0000
0001
0100
1000
0000
0001
0000
,
1000
0000
0010
0001
0010
0000
0001
1000
0100
0000
1000
0100
0001
0000
1000
0000
,
0001
0000
1000
0100
1000
0100
0010
0001
1000
0000
0001
0100
0001
0100
0010
1000
,
0001
0010
0001
0010
0100
1000
0100
1000
0001
0100
0001
0100
0010
1000
0001
0000
,
2001
0000
0000
0000
3001
0000
0010
0000
1000
0000
0001
0100
0000
0010
0001
0000
,
0021
0000
0000
0000
0031
0000
1000
0000
0010
0000
0001
1000
0000
0100
0010
0000
,
2010
0000
0000
0000
3001
0000
1000
0000
0001
0000
0010
1000
0000
0001
0100
0000
,
1000
0001
0000
0001
0100
0010
0100
0010
0100
0001
0100
0001
0000
0001
1000
0000
,
0001
0001
0010
0010
0100
0100
1000
1000
,
0001
0001
0100
0100
0010
0010
1000
1000
,
0001
0010
0001
0010
0100
0010
0100
0010
0100
1000
0100
1000
0001
1000
0001
1000
,
0010
0100
0010
0100
0001
1000
0001
1000
0010
0100
0001
1000
0001
1000
0100
0020
,
0030
0000
0000
0000
;

//--------------- dance-double - Fred-104 ----------------
#NOTEDATA:;
#STEPSTYPE:dance-double;
#DESCRIPTION:Fred-104;
#DIFFICULTY:Easy;
#METER:9;
#CREDIT:Fred-104;
#NOTES:
00000000
00000000
00000000
00000000
,
00000000
00000000
00000000
00000000
,
00000000
00000000
00000000
00000000
,
00000000
00000000
00000000
00000000
,
00000000
00000000
00000000
00000000
,
00000000
00000000
00000000
00000000
,
00000000
00000000
00000000
00000000
,
10000000
00000000
00010000
00000000
01000000
00100000
01000000
00000000
,
00100000
00000000
00010000
00000000
00001000
00010000
00001000
00000000
,
00000010
00000000
00000001
00000000
00001000
00000010
00000100
00000000
,
00000010
00001000
00000001
00000000
00000010
00000100
00001000
00000000
,
00001001
00000001
00000100
00000000
,
00001000
00010000
00001000
00100000
,
00010000
00000000
00000000
00010000
00000000
00010000
00000000
00000000
,
01000000
00000000
00100000
00000000
01000000
00010000
01000000
00000000
,
01100000
00100000
10000000
00000000
,
01000000
00100000
00001000
00010000
,
00001000
00000000
00000000
00010000
00000000
00010000
00000000
00000000
,
00001000
00100000
00001000
00100000
00000000
00010000
10000000
00000000
,
00010000
00000000
00000000
10000000
00000000
00000000
00100000
00000000
,
01000000
00000000
00100000
00000000
00010000
00001000
00010000
00000000
,
00000100
00000000
00000000
00000010
00000000
00000000
00000001
00000000
,
00001000
00000001
00000100
00001000
,
00010000
00000000
00000000
00001000
00000000
00000000
00010000
00000000
,
00001000
00000000
01000000
00000000
00010000
00100000
00010000
00000000
,
10000000
00000000
00000000
01000000
00000000
00000000
00100000
00000000
,
00001000
00010000
00001000
00010000
00000000
00011000
00000000
00000000
,
00001000
00110000
00001000
01010000
,
00001000
00000000
00110000
00000000
00001000
00010000
00001000
00000000
,
00010000
00000000
00100000
00000000
01000000
00100000
01000000
00000000
,
00010000
10000000
20020000
30030000
,
20000000
32000000
03200000
00302000
,
00013000
00000100
00001000
00000000
00000100
00000010
00000001
00000000
,
00001000
00000000
00000000
00001000
00000000
00000000
00000001
00000000
00000000
00000001
00000000
00000000
00001000
00000000
00000000
00000000
,
00000001
00000100
00001000
00010000
,
00001000
00000000
00000000
00001000
00000000
00000000
00010000
00000000
00000000
00010000
00000000
00000000
00001000
00000000
00000000
00000000
,
02200000
00300000
03000000
00000000
00010000
00000000
00010000
00000000
,
10000000
00000000
00000000
00100000
00000000
00000000
00010000
00000000
,
00001000
00000000
00010000
00000000
00000100
00001000
00000100
00000000
,
00000010
00000001
00000001
00001000
,
00000001
00000000
00000000
00000100
00000000
00000000
00000001
00000000
,
00000001
00000000
00000000
00000010
00000000
00000000
00001000
00000000
,
00010000
00000000
00000000
01000000
00000000
00000000
10000000
00000000
,
00010000
01000000
00100000
10000000
,
01000000
00000000
00000000
00100000
00000000
00000000
00100000
00000000
00001000
00000000
00000000
00000000
00010000
00000000
00000000
00000000
,
00001000
00000000
00000000
00010000
00000000
00000000
00001000
00000000
,
01000000
00010000
00100000
00010000
,
01000000
00100000
10000000
01000000
,
00100000
00010000
10000000
00010000
,
10000000
00000000
00000000
00100000
00000000
00000000
00010000
00000000
,
00001000
00000000
00000000
00000100
00000000
00000000
00000001
00000000
,
00000010
00000100
00001000
00000001
,
00000100
00000000
00001000
00000000
00010000
00001000
00010000
00000000
,
00001000
00000000
00001000
00000000
00010000
00000010
00010000
00000000
,
00001000
00000000
00001000
00000000
00100000
00010000
00100000
00000000
,
00010000
00000000
10000000
01000000
10000000
01000000
10000000
00000000
,
00100000
00010000
00022000
00033000
,
00010000
00000000
00000100
00000000
00000010
00000100
00000010
00000000
,
00000001
00000000
00000000
00000100
00000000
00000100
00000010
00000000
,
00001000
00000000
00000000
00000001
00000000
00000000
00000010
00000000
00000000
00000100
00000000
00000000
00001000
00000000
00000000
00000000
,
00000100
00010000
00001000
01000000
,
02200000
00000000
00300000
03000000
,
10010000
00000000
00000000
00000000
,
10000000
00000000
00000000
10000000
00000000
00000000
10000000
00000000
00000000
00000000
00000000
00000000
00010000
00000000
00000000
00000000
,
10000000
00000000
01000000
00000000
00010000
00000000
00001000
00010000
,
00001000
00000000
00000000
00001000
00000000
00000000
00001000
00000000
00010000
00000000
00000000
00000000
00011000
00000000
00000000
00000000
,
00010000
00000000
00000000
00001000
00000000
00000000
00000100
00000000
,
00001000
00000000
00000000
00010000
00000000
00000000
00001000
00000000
,
00011000
00000000
00000000
00011000
00000000
00000000
00011000
00000000
,
00001000
00000000
00000000
00001000
00000000
00000000
00001000
00000000
00010000
00000000
00000000
00000000
00100000
00000000
00000000
00000000
,
10000000
00000000
00000000
10000000
00000000
00000000
10000000
00000000
00000000
10000000
00000000
00000000
01000000
00000000
00000000
00000000
,
00100000
00000000
00000000
00100000
00000000
00000000
00001000
00000000
00000000
00001000
00000000
00000000
00010000
00000000
00000000
00000000
,
00000100
00000010
00001000
00011000
,
00010000
00000000
00000000
00010000
00000000
00000000
00001000
00000000
00010000
00000000
00000000
00000000
00011000
00000000
00000000
00000000
,
00010000
00000000
00000000
00001000
00000000
00000000
00000100
00000000
,
00000001
00000000
00000000
00001000
00000000
00000000
00000001
00000000
,
00000010
00000100
00010000
00001000
,
00100000
00000000
00001000
00000000
00010000
00000100
00000010
00000000
,
00000001
00000000
00001000
00000000
00000100
00000010
00000100
00000000
,
00000010
00000000
00001000
00000000
00010000
00001000
00010000
00000000
,
00100000
00000000
10000000
00000000
00010000
00100000
01000000
00000000
,
00100000
00010000
10000000
00000000
00100000
01000000
00010000
00000000
,
10000000
10000000
01000000
01000000
,
00010000
00010000
00001000
00001000
,
00010000
00001000
00010000
00000000
00000100
00001000
00000100
00000000
,
00000010
00000001
00000100
00000000
00000010
00001000
00000100
00000000
,
00001001
00000000
00000000
00000000
;

//--------------- dance-double - Fred-104 ----------------
#NOTEDATA:;
#STEPSTYPE:dance-double;
#DESCRIPTION:Fred-104;
#DIFFICULTY:Medium;
#METER:13;
#CREDIT:Fred-104;
#NOTES:
00000000
00000000
00000000
00000000
,
00000000
00000000
00000000
00000000
,
00000000
00000000
00000000
00000000
,
00000000
00000000
00000000
00000000
,
00000000
00000000
00000000
00000000
,
00000000
00000000
00000000
00000000
,
00000000
00000000
00000000
00000000
,
00001000
00000000
00100000
00000000
00010000
00000000
00000000
00000000
00100000
00000000
00000000
01000000
00000000
00000000
10000000
00000000
,
00010000
00000000
01000000
00000000
00100000
00000000
00000000
00000000
00010000
00000000
00000000
00001000
00000000
00000000
00010000
00000000
,
00000100
00000000
00000010
00000000
00000100
00000000
00000000
00000000
00001000
00000000
00000000
00000001
00000000
00000000
00000100
00000000
,
00001000
00010000
00000000
00001000
00010000
00000000
00001000
00000000
00100000
00000000
00010000
10000000
00000000
00100000
01000000
00000000
,
01010000
00000000
10010000
00000000
10000000
01000000
00100000
00010000
,
01000000
00100000
00010000
00001000
00010000
00000100
00000010
00000001
,
00001000
00000001
00000100
00001000
00000000
00011000
00000000
00010000
,
00001000
00100000
01000000
00100000
00010000
10000000
00100000
00010000
,
00001000
00000000
00000000
00000000
00011000
00000000
00000000
00000000
00010000
00000000
00000000
00010000
00000000
00000000
00010000
00000000
,
00001000
00010000
01000000
10000000
01000000
00100000
00001000
00010000
,
00001000
01000000
00010000
10000000
00000000
10010000
00000000
10000000
,
01000000
00000000
01000000
00000000
01000000
00000000
01000000
00000000
00000000
00010000
00001000
00000000
00010000
00000000
00001000
00010000
,
00001000
00000000
00010000
00001000
00000100
00001000
00010000
00002000
,
00000000
00103000
00001000
00010000
00001000
00000100
00000010
00000100
,
00000001
00000000
00001000
00000100
00000010
00000001
00001000
00000010
,
00000001
00000000
00000010
00000000
00000100
00000000
00001000
00000000
00010000
00000000
00001000
00000000
00010000
00001000
00010000
00000000
,
00011000
00000000
00001000
00010000
01000000
00010000
00001000
00020000
,
00000000
00031000
00100000
00010000
10000000
00100000
01000000
00010000
,
00100000
00000000
10000000
00100000
00010000
10000000
00100000
00010000
,
00001000
00000000
00001000
00000000
00010000
00000000
00010000
00000000
00001000
00000000
00010000
00000000
00001000
00010000
00001000
00010000
,
00001000
00010000
00010100
00000000
00010000
00001000
01001000
00000000
,
00011000
00000000
00011000
00000000
00010000
00001000
00000100
00000001
,
00000010
00000100
00000010
00000100
00010000
00001000
00010000
00000100
,
00000010
00000000
00000000
00000001
00000000
00001000
00000000
00000000
00001001
00000000
00000000
00000000
00000110
00000000
00000000
00000000
,
00000001
00000010
00000100
00001000
00000010
00000100
00001000
00010000
,
00001000
00010000
01000000
00100000
00010000
01000000
00001000
00010000
,
00001000
00000000
00000000
00110000
00000000
00000000
00001000
00000000
00000000
01010000
00000000
00000000
00001000
00000000
00010000
00000000
,
00001000
00000100
00000001
00000010
00000100
00001000
00000100
00010000
,
00001000
00000000
00000000
00010010
00000000
00000000
00001000
00000000
00000000
00010100
00000000
00000000
00010000
00000000
00002000
00000000
,
00000200
00003000
00000300
00000000
00000001
00000000
00001000
00000000
,
00001001
00000000
00000001
00000100
00000001
00000100
00001000
00010000
,
00001000
01000000
00010000
00100000
00010000
01000000
00100000
00000000
,
10000000
01000000
00010000
01000000
10000000
00010000
10000000
00000000
,
01000000
00100000
00001000
00010000
00000100
00000010
00000001
00000000
,
00001000
00000001
00000100
00001000
00010000
00100000
20000000
00000000
,
30010000
10000000
01000000
00010000
00001000
00000010
00000002
00000000
,
00001003
00000001
00000100
00000001
00001000
00000100
00000010
00001000
,
00010000
00000000
00000000
00001000
00000000
00000000
00011000
00000000
00001000
00000000
00010000
00000000
00010100
00000000
00000000
00000000
,
00010000
00000000
00001000
00000010
00000100
00000010
00000001
00001000
,
00000001
00000000
00000000
00000100
00000000
00000000
00000010
00000000
00000100
00000000
00001000
00000000
00010000
00000000
00000000
00000000
,
00001000
00010000
00100000
00010000
00001000
00010000
01000000
00000000
,
10000000
00010000
01000000
00100000
10000000
01000000
00100000
00000000
,
00010000
10000000
01000000
00010000
00001000
00000010
00000001
00000001
,
00001000
00000001
00000100
00001000
00010000
00100000
10000000
10000000
,
00010000
00100000
01000000
00100000
00001000
00010000
00000100
00000010
,
00000100
00000000
00001000
00000000
00000001
00000000
00000100
00000000
00001000
00000000
00010000
00000000
00001000
00010000
00001000
00010000
,
00001000
00000000
00011000
00000000
00010000
00001000
00000100
00001000
,
00020000
00000000
00031000
00001000
00010000
00010000
00100000
01000000
,
10000000
01000000
00010000
00010000
00010000
10000000
00100000
00010000
,
00001000
00000000
00000000
00010000
00000000
00000000
00000100
00000000
00000010
00000000
00000000
00000000
00001001
00000000
00000000
00000000
,
00001000
00000001
00001000
00000001
00000100
00001000
00011000
00000000
,
00010000
00001000
00010000
00002000
00000000
00103000
01000000
00100000
,
00110000
00000000
00000000
10000000
00000000
00000000
01010000
00000000
00000000
10000000
00000000
00000000
00010000
00000000
10000000
00000000
,
01000000
00000000
00100000
00000000
01000000
00000000
00010000
00000000
00001000
00010000
00001000
00010000
00001000
00010000
00001000
00020000
,
00002000
00000000
00030000
00003000
,
00011000
00000000
00000000
00000000
,
00010100
00000000
00000000
00001100
00000000
00000000
00000101
00000000
00000000
00000000
00000000
00000000
00001000
00000000
00000000
00000000
,
00000001
00000000
00000010
00000000
00001000
00000000
00010000
00000000
00100000
00000000
10000000
00000000
01000000
00100000
01000000
00100000
,
01000000
00000000
00000000
00100000
00000000
00000000
00001000
00000000
00010000
00000000
00000000
00000000
00011000
00000000
00000000
00000000
,
00010000
00001000
00010000
00000100
00000010
00000001
00001000
00000010
,
00010000
00001000
00100000
01000000
00100000
10000000
00100000
00010000
,
00100000
00010000
10000000
10010000
00000000
10000000
01000000
00010000
,
00001000
00000000
00010000
00001000
00000000
00000000
00011000
00000000
00010000
00000000
00001000
00000000
00000100
00000000
00000001
00000000
,
00001001
00000000
00000000
00001000
00000000
00000000
00000001
00000000
00000000
00000010
00000000
00000000
00000100
00000000
00010000
00000000
,
00011000
00000000
00000000
00101000
00000000
00000000
00110000
00000000
00000000
01100000
00000000
00000000
10000000
00000000
00010000
00000000
,
00100000
00000000
01000000
00000000
00010000
00000000
00001000
00000000
00010000
00001000
00000000
00000000
00011000
00000000
00000000
00000000
,
00010010
00000000
00000000
00001010
00000000
00000000
00000101
00000000
00000100
00000000
00000000
00000000
00001001
00000000
00000000
00000000
,
00000001
00000010
00001000
00010000
01000000
10000000
00010000
00010000
,
10000000
00100000
00010000
00001000
00000100
00000001
00000001
00001000
,
00000100
00000100
00000010
00000001
00000100
00000100
00001000
00010000
,
00001000
01000000
00010000
00100000
00001000
00100000
00010000
10000000
,
10010000
00000000
00000000
00000000
10000000
00000000
01000000
00000000
00100000
00000000
00000000
00001000
00000000
00000000
00010000
00000000
,
00001000
00000000
00000000
00000000
00000100
00000000
00000010
00000000
00001000
00000000
00000000
00000001
00000000
00000000
00000010
00000000
,
00000100
00000000
00000000
00000000
00001000
00000000
00000001
00000000
00000100
00000000
00000000
00001000
00000000
00000000
00010000
00000000
,
00001000
00010000
00000000
00001000
00010000
00000000
00001000
00000000
01000000
00000000
00010000
10000000
00000000
00010000
10000000
00000000
,
01000000
00100000
01000000
00100000
00010000
10000000
00010000
10000000
,
00100000
00010000
00100000
00010000
00001000
00000100
00001000
00000100
,
00000001
00001000
00000100
00000010
00000001
00000100
00000010
00000100
,
00001000
00010000
00000000
00001000
00010000
00000000
00001000
00000000
00010000
00000000
00000100
00000010
00000000
00000001
00002000
00000000
,
00003000
00000000
00000000
00000000
;

//--------------- dance-double - Fred-104 ----------------
#NOTEDATA:;
#STEPSTYPE:dance-double;
#DESCRIPTION:Fred-104;
#DIFFICULTY:Hard;
#METER:16;
#CREDIT:Fred-104;
#NOTES:
00000000
00000000
00000000
00000000
,
00000000
00000000
00000000
00000000
,
00000000
00000000
00000000
00000000
,
00000000
00000000
00000000
00000000
,
00000000
00000000
00000000
00000000
,
00000000
00000000
00000000
00000000
,
00000000
00000000
00000000
00000000
,
00010000
00000000
00000000
00000000
00001000
00000000
00010000
00000000
01000000
00000000
00000000
00100000
00000000
00000000
00001000
00000000
,
00010000
00000000
00000000
00000000
00001000
00000000
00000100
00000000
00000010
00000000
00000000
00010000
00000000
00000000
00001000
00000000
,
00010000
00000000
00000000
00000000
00001000
00000000
00000010
00000000
00000001
00000000
00000000
00000100
00000000
00000000
00000010
00000000
,
00001000
00000001
00000000
00000001
00000010
00000100
00001000
00000100
00010000
00001000
00010000
00001000
00000000
00001000
00010000
00000000
,
00011000
00000000
00002000
00000000
00023000
00032000
00003010
00000200
,
00002300
00003002
00000203
00002300
00013000
00002000
00103000
00002000
,
00023000
00230000
02300000
23000000
31000000
00020000
00130000
02000000
,
03020000
00000000
00030200
00000000
00000320
00000000
00000032
00000000
00001003
00000010
00001000
00000010
00000100
00000001
00000100
00000000
,
00000120
00000000
00000000
00000000
00002030
00000000
00003001
00000000
00000020
00000000
00001030
00020000
00000000
00000000
00032000
00000000
,
00023000
00032000
00023000
02030000
03100000
00020000
00030010
00002000
,
00023000
00032000
02003000
03200000
00310000
20000000
31000000
00020000
,
10030000
01000000
10000000
01000000
10000000
01000000
00100000
00000000
00000000
00100000
00001000
00000000
00010000
00000000
00001000
00000100
,
00000020
00001000
00001030
00000200
00000010
00000310
00000002
00002003
,
00003010
00000100
00001000
00010000
00001000
02000000
03200000
00320000
,
00030020
00001000
00001030
00000200
00000010
00000310
00000001
00002000
,
00003001
00000000
00000100
00000000
00001000
00000000
00010000
00000000
00100000
00000000
10000000
00000000
00010000
10000000
00010000
10000000
,
00020000
00100000
00130000
02000000
00010000
03010000
02000000
23000000
,
30010000
01000000
00100000
01000000
00100000
00020000
00032000
00023000
,
00030200
00001300
00000010
00000200
00000301
00000010
00000100
00010000
,
00001000
00100000
00001000
00100000
00010000
10000000
00010000
00000000
01000000
00010000
01000000
00001000
00010000
00001000
00010000
00000000
,
00001000
00000000
00010000
00000000
00000200
00000000
00000000
00000000
00000310
00000000
00000001
00000000
00001000
00000010
00001000
00000010
,
00000200
00000000
00000300
00000000
00000200
00000000
00000300
00000000
00000001
00001000
00000001
00001000
00000100
00010000
00001000
00000000
,
00010000
00000000
00100000
00000000
01000000
00100000
10000000
00100000
10000000
00000000
00010000
00000000
00100000
00000000
01000000
00000000
,
00010000
00000000
00000000
00001000
00000000
00001000
00000000
00000000
00011000
00000000
00000000
00000000
00010000
00001000
00010000
00001000
,
00010000
00001000
00000100
00000001
00001000
00000001
00000100
00001000
,
00010000
00001000
00010000
00001000
00010000
00000000
01000000
00000000
00100000
00000000
01000000
00000000
10000000
00010000
10000000
00010000
,
10000000
00000000
00000000
11000000
00000000
00000000
01010000
00000000
00000000
00011000
00000000
00000000
00001010
00000000
00000010
00000001
,
00001000
00000000
00000001
00000000
00000100
00000000
00001000
00000000
00010000
00001000
00010000
00001000
00010000
00000100
00010000
00000100
,
00010000
00000000
00000000
00011000
00000000
00000000
01010000
00000000
00000000
11000000
00000000
00000000
10100000
00000000
00100000
00000000
,
02200000
00300000
03000000
00000000
00001000
00000000
00011000
00000000
,
00010000
00001000
00000010
00000001
00001000
00000001
00000010
00001000
,
00010000
00000000
00000000
00001000
00000000
00000000
00010000
00000000
00100000
00000000
01000000
00000000
00010000
00000000
00000000
00000000
,
10000000
01000000
00100000
01000000
00010000
00001000
00000010
00000001
,
00000200
00000000
00000310
00000000
00000001
00000000
00002000
00000000
00003100
00000000
00000010
00000000
00010000
00001000
00010000
00000000
,
00001000
00010000
00100000
10000000
01000000
00010000
00011000
00000000
,
00010000
00001000
00000010
00000001
00000100
00001000
00011000
00000000
,
00010000
00001000
00010000
00000000
00000010
00001000
00000010
00000000
00000100
00000001
00000100
00000001
00001000
00000100
00010000
00001000
,
00010000
00000000
00000000
00001000
00000000
00000000
00011000
00000000
00010000
00001000
00010000
00001000
00010000
00000000
00001000
01000000
,
00001000
00010000
00100000
01000000
00100000
10000000
01000000
00100000
,
00001000
00000000
00000000
00000010
00000000
00000000
00001000
00000000
00010000
00000000
00000100
00000000
00000010
00000000
00000000
00000000
,
00000001
00001000
00000010
00000100
00001000
00010000
00100000
10000000
,
00020000
00000000
00130000
00000000
01000000
00000000
00020000
00000000
00031000
00000000
00000010
00000000
00000100
00001000
00000100
00001000
,
00000001
00000000
00000100
00000010
00000100
00000000
00001000
00010000
00001000
00000000
00010000
00001000
00100000
00000000
01000000
00000000
,
10000000
00000000
00100000
01000000
00100000
00000000
00010000
00001000
00010000
00000000
00001000
00010000
00000100
00000000
00000010
00000000
,
00000001
00000000
00001000
00000001
00001000
00000001
00000010
00000100
00001000
00000000
00000100
00010000
00001000
00010000
00001000
00010000
,
00100000
00000000
01000000
00000000
00010000
00000000
10000000
00000000
01000000
00100000
01000000
00100000
00001000
00010000
00001000
00000000
,
00020000
00000000
00032000
00000000
02003000
00000000
03002000
00000000
00013000
00000000
00001000
00000000
00000100
00000010
00000100
00000010
,
00002000
00000000
00000000
00000000
00003020
00000000
00000032
00000000
00001003
00000000
00000100
00000010
00002000
00000000
00003002
00000000
,
00000013
00000000
00000100
00000000
00001000
00000001
00001000
00000001
00000200
00000000
00000320
00000000
00000230
00000000
00002300
00000000
,
00013000
00000000
00000000
00100000
00000000
00000000
10000000
00000000
00020000
00000000
00000000
00000000
00130000
00001000
00010000
00001000
,
00020000
00032000
00003020
00000032
00002003
00003002
00000203
00002300
,
00023000
00000000
00031000
00100000
00002000
00000000
00023000
00000000
00030100
00000000
00000010
00000000
00000001
00001000
00000001
00001000
,
00000001
00000000
00000000
00000011
00000000
00000000
00001010
00000000
00000000
00011000
00000000
00000000
01001000
00000000
01000000
00000000
,
00010000
10000000
00010000
10000000
01000000
00100000
00010000
00000000
00100000
00001000
00100000
00001000
00010000
00000100
00000010
00000000
,
00000012
00000000
00000000
00000000
00001003
00000001
00000010
00000000
,
00001001
00000000
00000000
00000000
,
01001000
00000000
00000000
00010100
00000000
00000000
00101000
00000000
00000000
00000000
00000000
00000000
00001000
00000000
00000000
00000000
,
00010000
00000000
00001000
00000000
00000010
00000000
00001000
00000000
00010000
00000000
00001000
00000000
00010000
00001000
00010000
00001000
,
00010000
00000000
00000000
00011000
00000000
00000000
01001000
00000000
01000000
00010000
01000000
00010000
01000000
00001000
00010000
00000000
,
00001000
00010000
01000000
10000000
00100000
00010000
00011000
00000000
,
00010000
00001000
00000100
00000001
00000010
00001000
00011000
00000000
,
01100000
00000000
00000000
00000000
00010000
00000000
10010000
00000000
00000000
00000000
10000000
00000000
01000000
10000000
01000000
00100000
,
01000000
00000000
00100000
00001000
00000000
00010000
00001000
00000000
00000100
00000000
00000001
00000000
00001000
00000000
00000100
00000010
,
00000001
00000000
00000000
00000100
00000000
00000000
00001000
00000000
00000000
00010000
00000000
00000000
00100000
00000000
10000000
00000000
,
11000000
00000000
00000000
01010000
00000000
00000000
10100000
00000000
00000000
00110000
00000000
00000000
10010000
00000000
10000000
00000000
,
11000000
00000000
00000000
00000000
00000000
00000000
01000000
00000000
00000000
00000000
00000000
00000000
00100000
00000000
00000000
00010000
00000000
00000000
00100000
00000000
00000000
00001000
00000000
00000000
00010000
00000000
00000000
00001000
00000000
00000000
00000000
00000000
00000000
00000000
00000000
00000000
00011000
00000000
00000000
00000000
00000000
00000000
00001000
00000000
00010000
00000000
00001000
00000000
,
00010000
00000000
00000000
00000100
00000000
00000000
00001001
00000000
00001000
00000100
00001000
00000100
00000010
00000001
00000010
00000001
,
00001000
00000000
00000001
00000100
00000001
00000000
00000010
00000100
00000010
00000000
00001000
00010000
00001000
00000000
01000000
00000000
,
00010000
00000000
10000000
01000000
10000000
00000000
00100000
01000000
00100000
00000000
00010000
00001000
00010000
00000000
00000100
00000000
,
00000010
00000000
00000001
00001000
00000001
00001000
00000001
00000010
00000100
00000000
00010000
00001000
00010000
00001000
01000000
00010000
,
10000000
01000000
10000000
01000000
00100000
00010000
00100000
00000000
00001000
00010000
00000100
00001000
00000100
00000010
00000001
00000000
,
00001001
00000000
00001000
00000000
00000001
00000000
00000100
00000000
00001000
00000000
00010000
00001000
00000000
00001000
00010000
00000000
,
00001000
00000000
01000000
00000000
00010000
00000000
00100000
00000000
00001000
00000000
00100000
01000000
00000000
01000000
00100000
00000000
,
00010000
00000000
10000000
00000000
00100000
00000000
00010000
00000000
00001000
00000000
00010000
00000100
00000000
00000100
00000010
00000000
,
00000001
00001000
00000000
00001000
00000001
00000010
00000100
00001000
00000100
00000010
00000100
00000010
00000000
00000001
00001000
00000000
,
00000001
00000001
00000100
00000100
00000010
00000010
00001000
00001000
,
00010000
00010000
01000000
01000000
00100000
00100000
10000000
10000000
,
00010000
10000000
00010000
10000000
01000000
00100000
00001000
00000000
00010000
00000010
00001000
00000010
00000100
00000010
00001000
00000000
,
00000001
00001000
00000001
00001000
00000100
00000010
00000100
00000010
00000001
00001000
00000010
00010000
00001000
00100000
01000000
20000000
,
30000000
00000000
00000000
00000000
;
