#TITLE:DEADLOCK;
#ARTIST:MAX MAXIMIZER;
#BANNER:DEADLOCK.png;
#BACKGROUND:DEADLOCK-bg.png;
#CDTITLE:./CDTitles/REFLEC BEAT.png;
#MUSIC:DEADLOCK.ogg;
#SAMPLESTART:65.451;
#SAMPLELENGTH:15;
#DISPLAYBPM:93.5:187;
#BPMS:0=187,19.5=155.833,19.916667=124.667,20.25=93.5,21=187,29=374,30=187,34.5=155.833,34.916667=124.667,35.25=93.5,36=187;
#STOPS:14=0.04,14.125=0.04,14.25=0.04,14.375=0.04,14.5=0.04,14.625=0.04,14.75=0.041,14.875=0.04,29=0.04,29.25=0.04,29.5=0.04,29.75=0.04,66.5=0.321;
#TIMESIGNATURES:0=4=4,12=3=4,15=4=4,19=3=4,22=4=4,34=3=4,37=4=4,65=3=4,68=4=4;
#BGSTAGE:28;

//--------------- dance-single - Fred-104 ----------------
#NOTES:
     dance-single:
     Fred-104:
     Beginner:
     6:
     :
0000
0000
0000
0000
,
0000
0000
0000
0000
,
1000
0000
0001
0000
,
1001
0000
2000
3001
,
0000
1000
0001
2002
,
0000
3003
0001
0000
,
1000
0000
0010
0000
,
1000
0002
1003
0000
,
0001
1000
2002
0000
,
3003
1000
0000
0010
,
0000
1000
0000
0100
,
0100
0100
0000
0010
,
0000
0001
0000
1000
,
1000
1000
0000
0001
,
0000
0010
0000
0001
,
0001
0001
0000
0100
,
0000
0000
0001
0000
0000
1001
0000
0000
,
1000
0000
0010
0000
,
0001
0000
0100
0000
,
1000
0000
0010
0000
,
0001
0000
0100
0000
,
1000
0000
0100
0000
,
0001
0000
0010
0000
,
1000
0000
0001
0000
,
0100
0100
0010
0010
,
1000
0000
0010
0000
,
0001
0000
0100
0000
,
1000
0000
0010
0000
,
0001
0000
0100
0000
,
1000
0000
0100
0000
,
0001
0000
0010
0000
,
1000
0000
0001
0000
,
1000
1000
0001
0001
,
2002
0000
0000
0000
,
3003
0000
0000
0000
,
0220
0000
0000
0000
,
0330
0000
0000
0000
,
2002
0000
0000
0000
,
3003
0000
0000
0000
,
0220
0000
0000
0000
,
0330
0000
0000
0000
,
1000
0100
1000
0000
,
0010
1000
0010
0000
,
0100
0001
0100
0000
,
0001
0010
0001
0000
,
1000
0000
0100
0000
,
0001
0000
0010
0000
,
1000
1000
0001
0001
,
0100
0100
0010
0010
,
2002
0000
3003
0000
,
1000
0000
0010
0000
,
1000
0000
0100
0010
,
0100
0000
0010
0000
,
0002
0000
2003
0000
,
3001
0000
0010
0000
,
0001
0000
0100
0010
,
0100
0000
0001
0000
,
2000
0000
3002
0000
,
1003
0000
0010
0000
,
0001
0000
0100
1000
,
2002
0000
0000
3003
,
0002
0000
2003
0000
,
3002
0000
2003
0000
,
3002
0000
2003
0000
,
3001
0100
0001
0100
,
0010
1000
0010
1000
,
0001
0000
1000
0000
,
0020
0000
0000
0030
,
1000
0000
0001
0000
,
0200
0000
0000
0300
,
0001
0000
0010
0000
,
0001
0000
1000
0000
,
0001
0001
0100
0100
,
0010
0010
1000
1000
,
2002
0000
0000
3003
,
0220
0000
0000
0330
,
2002
0000
0000
3003
,
0220
0000
0000
0330
,
2002
0000
0000
0000
,
0000
0000
0000
0000
,
0000
0000
0000
0000
,
0000
0000
0000
0000
,
3003
0000
0000
0000
;

//--------------- dance-single - Fred-104 ----------------
#NOTES:
     dance-single:
     Fred-104:
     Easy:
     9:
     :
0000
0000
0000
0000
,
0000
0000
0000
0000
,
0001
0001
1000
1000
,
1001
0000
0002
1003
,
0010
1000
0100
2002
,
0000
3003
0001
0010
,
0001
0000
0100
0000
0001
0010
0001
0000
,
1000
0002
0103
0010
,
0100
0001
1000
0000
2002
0000
0000
0000
,
3003
0000
1000
0100
1000
0000
0010
0000
,
0100
0001
0010
0002
,
2003
0000
3001
0000
0100
0010
0100
0000
,
0001
0000
1000
0000
0000
0001
0000
0000
,
0100
0000
0010
0000
1000
0000
0100
1000
,
0010
0000
0100
0000
0001
0000
1000
0001
,
1000
0000
0001
0000
0100
0010
0100
0000
,
0001
0000
1000
0000
0000
1001
0000
0000
,
0002
0023
0032
0023
,
0230
2300
3200
2300
,
3002
0203
0302
0203
,
0320
2030
3020
2030
,
3002
0203
0302
0203
,
2300
3020
2030
3020
,
0032
0023
0230
2300
,
3001
0100
0001
0000
1000
0010
1000
0000
,
0002
0023
0032
0023
,
2030
3200
2300
3200
,
0302
0023
0032
0023
,
2030
3200
2300
3200
,
0302
0023
0230
2300
,
3002
0203
0320
2030
,
3200
0320
0032
2003
,
3001
0010
0001
0000
1000
0100
1000
0000
,
2002
0000
0000
3003
,
0220
0000
0000
0330
,
2002
0000
0000
3003
,
0220
0000
0000
0330
,
2020
0000
0000
3030
,
0202
0000
0000
0303
,
2200
0000
0000
3300
,
0022
0000
0000
0033
,
2000
3200
0302
0203
,
2300
3200
0320
0230
,
2300
3020
0032
0023
,
2030
3020
0230
0320
,
1030
0100
1000
0000
0001
0010
0001
0000
,
0100
0010
0100
0000
0001
1000
0001
0000
,
1000
0100
0001
0010
,
1000
0010
1000
0001
0100
0010
0100
0000
,
2002
0000
3003
0000
,
1000
0000
0000
0010
0000
0000
1000
0000
,
0000
0100
0000
0000
0010
0000
0001
0000
,
0100
0000
0000
0001
0000
0000
0010
0000
,
0001
0100
1000
0010
,
0001
0000
0000
1000
0000
0000
0010
0000
,
0000
0100
0000
0000
0010
0000
1000
0000
,
0100
0000
0000
0010
0000
0000
0001
0000
,
1000
0000
1000
0000
1000
0000
0001
0000
0001
0000
0001
0000
,
1000
0000
0000
0100
0000
0000
0001
0000
,
0000
0010
0000
0000
1000
0000
0001
0000
,
2002
0000
0000
3003
,
1000
0000
1000
0000
1000
0000
0001
0000
0001
0000
0001
0000
,
1000
0000
0100
0000
1000
0000
0001
0000
0100
0000
0001
0000
,
0010
0000
0100
0000
0010
0000
0001
0000
0100
0000
0010
0000
,
1000
1000
0100
0000
0010
0010
0001
0000
,
0100
0010
0100
0000
0001
1000
0001
0000
,
1001
0000
1000
0000
0010
0100
0001
0000
,
0010
0000
0001
0100
0000
0000
0110
0000
,
0010
0000
1000
0000
0001
0010
0100
0000
,
1000
0000
0010
0100
0000
0000
0110
0000
,
0100
0001
0100
0000
0001
0010
0001
0000
,
0100
0010
0100
0000
0010
1000
0010
0000
,
1000
0100
0001
0010
,
1000
0100
1000
0000
0001
0010
0001
0000
,
2002
0000
0000
3003
,
0220
0000
0000
0330
,
2002
0000
0000
3003
,
0220
0000
0000
0330
,
2002
0000
0000
0000
,
0000
0000
0000
0000
,
0000
0000
0000
0000
,
0000
0000
0000
0000
,
3003
0000
0000
0000
;

//--------------- dance-single - Fred-104 ----------------
#NOTES:
     dance-single:
     Fred-104:
     Medium:
     12:
     :
0000
0000
0000
0000
,
0000
0000
0000
0000
,
0001
0010
0001
1000
,
0001
1001
0000
0000
2000
0000
3001
0000
,
0100
0010
0100
0202
,
0000
0000
0303
0000
0001
0010
0001
0000
,
1000
0010
0100
0000
0010
1000
0001
0000
,
1000
0000
0002
0000
1003
0010
0100
0000
,
0010
1000
2002
0000
,
3003
0000
0001
0010
0001
0000
0100
0010
,
0100
0000
0001
0010
0001
1000
0020
0000
,
0230
0000
0301
1000
0100
0000
1000
0010
,
0100
0000
0010
1000
0100
1000
0000
0001
,
1000
0000
0100
0010
0001
0000
0100
0010
,
1000
0000
0001
0010
0100
1000
0000
0001
,
0100
0000
0010
1000
0100
0000
1000
0010
,
0100
0000
0001
1000
0001
2002
3003
0000
,
1100
1100
1010
1010
,
0101
0101
0011
0011
,
0101
0101
1010
1010
,
1100
1100
0110
1001
,
1100
1100
0110
0110
,
0011
0011
0101
0101
,
1010
1010
0110
1001
,
0001
0010
0001
1000
0010
0100
0001
1000
,
1100
1010
1100
1010
,
0101
0011
0101
0011
,
0101
1001
1100
1001
,
0101
0110
1010
1001
,
1100
0110
0101
0110
,
1010
0110
0011
0110
,
1010
0101
0110
1001
,
0001
0010
0001
1000
0010
0100
0001
1000
,
0002
0000
0000
0000
,
0203
0000
0000
0000
,
0320
0000
0000
0000
,
2030
0000
0000
0000
,
3200
0000
0000
0000
,
0320
0000
0000
0000
,
0032
0000
0000
0003
,
2002
0000
0000
3003
,
1100
1001
0101
1001
,
1010
1001
0011
1001
,
1100
0110
0101
0110
,
1010
0110
0011
0110
,
1000
0000
0010
0100
0000
0000
0001
0000
0010
0100
0000
0000
,
0010
0000
0001
0100
0000
0000
0010
0000
1000
0100
0000
0000
,
1000
0010
0100
0010
1000
0100
0010
0001
,
0100
0100
0010
0010
1000
0001
1000
0001
,
2002
0000
3003
0000
,
1000
0100
1000
0001
0010
0001
1000
0010
,
1000
0001
0100
0001
2000
0000
3002
0000
,
1003
0100
0010
0001
0100
0010
1000
0001
,
0020
0032
2003
3002
,
1003
0010
1000
0001
0100
0001
1000
0100
,
1000
0001
0010
0001
0200
0000
0320
0000
,
1030
0010
0100
0001
0010
0100
1000
0001
,
1000
0000
0100
0000
0010
0000
0001
0000
0100
0000
0010
0000
,
1000
0100
1000
0100
0001
0100
1000
0010
,
1000
0010
0001
0010
1000
0001
1000
0000
,
2002
0000
0000
3003
,
1000
0000
1000
0000
1000
0000
0001
0000
0001
0000
0001
0000
,
1000
0000
0100
0000
1000
0000
0010
0000
0100
0000
0010
0000
,
1000
0000
0001
0000
1000
0000
0001
0000
0010
0000
0100
0000
,
1000
0100
1000
0000
0001
0100
0001
0000
,
1000
0010
1000
0001
0010
0001
0100
0010
,
0100
0001
1000
0100
,
0010
0000
0001
0100
0000
0000
1001
0000
,
1000
0010
0100
0010
,
1000
0000
0100
0010
0000
0000
0011
0000
,
0001
0100
1000
0100
,
0001
0010
1000
0010
,
0001
0100
0001
0000
1000
0010
1000
0000
,
0001
0010
0001
1000
0100
1000
0001
0000
,
2002
0000
0000
3003
,
2020
0000
0000
3030
,
0202
0000
0000
0303
,
2200
0000
0000
3300
,
2002
0000
0000
0000
,
0000
0000
0000
0000
,
0000
0000
0000
0000
,
0000
0000
0000
0000
,
3003
0000
0000
0000
;

//--------------- dance-single - Fred-104 ----------------
#NOTES:
     dance-single:
     Fred-104:
     Hard:
     16:
     :
0000
0000
0000
0000
,
0000
0000
0000
0000
,
0001
0100
0010
1000
,
1100
0000
0000
0000
1001
0000
0000
0000
0000
0000
0000
0000
0000
0000
0000
0000
0002
0003
0200
0300
0020
0030
2000
3000
1001
0000
0000
0000
0000
0000
0000
0000
,
0110
0000
0000
0000
1001
0000
0000
1000
0100
0000
0010
0000
0022
0000
0000
0000
,
0000
0000
0033
0000
0001
0010
0001
1000
,
0010
0000
0100
0000
0001
0000
1000
0000
0001
0000
0100
0010
0100
0000
0001
0000
,
0100
0000
0000
0000
0010
0000
0000
0000
2000
3000
0200
0300
2000
3000
0200
0300
0010
0000
0000
0000
0100
0000
0000
0000
1000
0000
0000
0000
0010
0000
0000
0000
,
0100
0000
0000
0001
0010
0000
0001
0000
2002
0000
0000
0000
0000
0000
0000
0000
,
3003
0000
0000
0000
1000
0000
0001
0100
0001
0000
0010
0000
0100
0000
0010
0000
,
0001
1000
0001
0000
0100
0000
0010
1000
0010
0000
0100
0000
0001
0010
0001
0000
,
1000
0100
1000
0000
0001
0000
0010
0000
0100
1000
0100
0000
1000
0000
0001
0000
,
0100
0000
0010
0000
0100
0000
0001
0010
0100
0000
1000
0000
0001
0000
0100
0000
,
0110
0000
0000
0000
0001
0000
1000
0000
0010
1000
0010
0000
0100
0000
0001
0000
,
0010
0100
0010
0000
0001
0000
0100
0001
0010
0000
0001
0000
0100
0000
0010
1000
,
0001
0000
1000
0000
1100
0000
0100
0000
0110
0000
0010
0001
1000
0000
0001
0000
,
0100
0010
1000
0000
0001
1000
0001
1000
0001
0000
2002
0000
3003
0000
0000
0000
,
1000
0100
1000
0001
0100
0001
1000
0010
1000
0001
0010
0001
,
1000
0100
0010
0001
0010
0100
1000
0010
0100
0001
0100
0010
,
1000
0001
0010
0001
1000
0010
1000
0100
1000
0001
0100
0001
,
1000
0100
0010
0001
0010
0100
1000
0000
0000
1001
0000
0000
,
0001
0010
0001
1000
0100
1000
0001
0100
0001
1000
0010
1000
,
0001
0100
0010
1000
0010
0100
0001
0010
0100
1000
0100
0010
,
0001
1000
0100
0010
0100
1000
0001
0100
0010
0100
0001
1000
,
0001
0000
0011
0000
1000
0000
1100
0000
0001
0100
0001
0100
0010
1000
0010
1000
,
0100
0010
0001
0100
0010
1000
0010
0100
0001
0010
0100
1000
,
0001
0010
0100
1000
0001
1000
0001
0100
0010
1000
0001
1000
,
0001
0100
0010
0100
0001
0010
0001
0010
0100
0010
0001
1000
,
0001
0100
0010
1000
0010
0100
0001
0000
0000
1001
0000
0000
,
1000
0100
0010
0100
1000
0001
1000
0010
0100
0010
1000
0001
,
1000
0100
0010
0100
0010
0001
1000
0010
0100
0010
0100
0001
,
1000
0100
0010
0001
0100
0010
1000
0010
0100
0001
0010
0100
,
1000
0000
1010
0000
0001
0000
0101
0000
1000
0100
1000
0100
0010
0001
0010
0001
,
2000
0000
0000
0000
,
3020
0000
0000
0000
,
0032
0000
0000
0000
,
0203
0000
0000
0000
,
2300
0000
0000
0000
,
3002
0000
0000
0003
,
2002
0000
0000
3003
,
0220
0000
0000
0330
,
1000
0100
0010
0001
0000
0000
1000
0100
0010
0001
0000
0000
,
1000
0010
0100
0001
0100
0010
1000
0100
0010
0001
0000
0000
,
0001
0100
0010
1000
0000
0000
0001
0100
0010
1000
0000
0000
,
0001
0010
0100
1000
0100
0010
0001
0100
0010
1000
0000
0000
,
0001
0010
0001
1000
0010
1000
0001
0100
0001
1000
0100
1000
,
0010
0100
0001
0100
0010
1000
0100
0010
0001
1000
0010
0100
,
0001
0010
0001
0000
1000
0100
1000
0000
0001
0100
0001
0000
1000
0010
1000
0000
,
0001
0010
0100
0000
1000
0010
0100
0000
0001
1000
0001
1000
0100
0010
0100
0010
,
0002
0000
2000
3003
,
1000
0010
0010
1000
0100
0100
1000
0010
,
0010
0000
1000
0000
0100
0000
0100
0000
1000
0100
1000
0000
0001
0010
0001
0000
,
1000
0010
0010
0100
0010
0010
1000
0100
,
1000
0000
0100
0000
0010
0000
0001
0000
0100
0000
0010
0000
1000
0000
0100
0000
0010
0000
0001
0000
0000
1000
0000
0000
,
0001
0010
0010
0100
0010
0010
0001
0100
,
0100
0000
0010
0000
0100
0000
0100
0000
0001
0100
0001
0000
1000
0010
1000
0000
,
0001
0100
0100
0010
0100
0100
0001
0010
,
0001
0000
1000
0000
0100
0000
1000
0000
0001
0000
0010
0000
,
0001
0100
1000
0001
0010
1000
0001
0100
,
1000
0000
0001
0000
0010
0000
1000
0000
0001
0010
0100
0000
1000
0100
0010
0000
,
2002
0000
0000
3003
,
1000
0000
0100
0000
0110
0000
0001
0000
0100
0000
0110
0000
,
1000
0000
0010
0000
1010
0000
0001
0000
0010
0000
0011
0000
,
1000
0000
0100
0000
1100
0000
0001
0000
0100
0000
0101
0000
,
0001
0010
0001
0000
0100
0010
0100
0000
0001
0100
0001
0000
0010
0100
0010
0000
,
0001
0100
0001
0000
1000
0010
1000
0000
0001
0010
0001
0010
0100
1000
0100
1000
,
0100
1000
0010
0100
0001
1000
0100
1000
,
0001
0000
0100
0010
0100
0000
0002
0000
0000
0000
1003
0000
1001
0000
0000
0000
,
1000
0100
1000
0010
0100
0001
1000
0100
,
0010
0000
0001
0100
0001
0000
0200
0000
0000
0000
0310
0000
0110
0000
0000
0000
,
1000
0100
1000
0010
0100
0010
1000
0001
0100
0001
0010
0100
,
0010
0001
1000
0010
0100
0001
0100
0010
1000
0100
0010
0001
,
1000
0100
0010
0001
0100
0010
1000
0010
0100
0001
0010
0100
,
1000
0010
1000
0000
0001
0100
0001
0000
1000
0100
1000
0100
0010
0001
0010
0001
,
0020
0000
0000
0000
,
0032
0000
0000
0000
,
2003
0000
0000
0000
,
3200
0000
0000
0000
0000
0000
0000
0000
0000
0000
0000
0000
1300
0001
1000
0000
,
2002
0000
0000
0000
,
0000
0000
0000
0000
,
0000
0000
0000
0000
,
0000
0000
0000
0000
,
3003
0000
0000
0000
;

//--------------- dance-single - Fred-104† ----------------
#NOTES:
     dance-single:
     Fred-104†:
     Challenge:
     18:
     :
0000
0000
0000
0000
,
0000
0000
0000
0000
,
1000
0010
0100
0010
,
1001
0000
0000
0000
0000
0000
0000
0000
1001
0000
0000
0000
0000
0000
0000
0000
0000
0000
0000
0000
0000
0000
0000
0000
0000
0000
0000
0000
0000
0000
0000
0000
0002
0003
0020
0030
0200
0300
2000
3000
0002
0003
0020
0030
0200
0300
2000
3000
0001
0000
0000
0000
0000
0000
0000
0000
0000
0000
0000
0000
0000
0000
0000
0000
,
0101
0000
0000
0000
0110
0000
0000
0001
1000
0000
0100
0000
0220
0000
0000
0000
,
0000
0000
0000
0000
0330
0000
0000
0000
1010
0000
1000
0001
0010
0000
0001
0000
,
0101
0000
0100
0010
1000
0000
0100
0000
0110
0000
0010
0001
1000
0000
0010
0000
,
0110
0000
0000
0000
0000
0000
0000
0000
1001
0000
0000
0000
0000
0000
0000
0000
2000
3000
0000
0000
0020
0030
0000
0000
0200
0300
0000
0000
0002
0003
0000
0000
1000
0000
0000
0000
0000
0000
0000
0000
0100
0000
0000
0000
0010
0000
0000
0000
0001
0000
0000
0000
0000
0000
0000
0000
0100
0000
0000
0000
0000
0000
0000
0000
,
0101
0000
0000
0010
1000
0000
0001
0000
2002
0000
0000
0000
0000
0000
0000
0000
,
3003
0000
0000
0000
0000
0000
1000
0000
0000
0001
0010
0001
0100
0000
0000
0010
0000
0000
1000
0000
0000
0100
0000
0000
,
0010
0000
0001
0000
1000
0000
0001
0000
0000
0000
0000
0000
1000
0000
0000
0010
0000
0000
0100
0000
0000
0001
0000
0000
1000
0000
0000
0000
0000
0000
0100
0000
0000
0000
0000
0000
1000
0000
0001
0000
0010
0000
0001
0000
0000
0000
0000
0000
,
0100
0001
1000
0001
0000
0000
0100
0000
0000
0001
0000
0000
1000
0010
1000
0001
0000
0000
0100
0000
0000
0010
0000
0000
,
1000
0000
0000
0001
0000
0000
1000
0000
0000
0100
1000
0001
1000
0000
0000
0011
0000
0000
1010
0000
0000
0001
0000
0000
,
1001
0000
0000
0110
0000
0000
1001
0000
0000
0001
0000
0000
1000
0100
0010
0001
0000
0000
1000
0000
0000
0010
0000
0000
,
0100
0000
0001
0000
0010
0000
0001
0000
0000
0000
0000
0000
0100
0000
0000
0000
0000
0000
0001
0000
0000
0010
0000
0000
0100
0000
0000
0000
0000
0000
1100
0000
0000
0000
0000
0000
1000
0000
0000
0000
0000
0000
0010
0000
1000
0000
0001
0000
,
1000
0000
0000
0100
0000
0000
0110
0000
0000
0010
0000
0000
0011
0000
0000
0001
0100
0010
0100
0000
0000
0001
0000
0000
,
1000
0000
0100
0000
0010
0000
0001
0000
0000
0000
0000
0000
1000
0000
0000
0001
0000
0000
0100
0000
0000
0010
0000
0000
1000
0000
0000
0000
0000
0000
2002
0000
0000
0000
0000
0000
3003
0000
0000
0000
0000
0000
0000
0000
0000
0000
0000
0000
,
1000
0100
0010
1000
0010
0001
1000
0001
0100
1000
0100
0010
,
1000
0100
0010
1000
0010
0100
1000
0001
0100
0010
0001
0010
,
0100
0001
1000
0100
0010
0001
1000
0010
0001
0010
0100
0010
,
1000
0001
0010
0100
1000
0010
0100
0001
1000
1001
0000
0000
,
0001
0100
0010
0001
0010
1000
0001
1000
0100
0001
0100
0010
,
0001
0100
0010
0001
0010
0100
0001
1000
0100
0010
1000
0010
,
0100
1000
0001
0100
0010
1000
0001
0010
1000
0010
0100
0010
,
0001
0000
0101
0000
1000
0000
1010
0000
1000
0100
0010
0001
0100
0010
1000
0001
,
1000
0100
0100
0001
0100
0100
1000
0010
0010
0001
0010
0010
,
1000
1000
0100
0001
0001
0100
1000
1000
0010
0001
0001
0010
,
1000
1000
0100
0010
0010
0001
0100
0100
1000
0001
0001
0100
,
1000
0010
0010
0001
0100
0100
1000
0001
1000
1001
0000
0000
,
0001
0010
0100
1000
1000
1000
0001
0100
0010
1000
1000
1000
,
0001
0100
0010
0100
0100
1000
0100
0010
0100
0010
0010
1000
,
0001
0001
0100
1000
1000
0100
0001
0001
0010
1000
1000
0010
,
0001
0000
0011
0000
1000
0000
1100
0000
0100
0010
0001
0100
0010
1000
0100
0010
,
0002
0000
0000
0000
,
2003
0000
0000
0000
,
3002
0000
0000
0000
,
2003
0000
0000
0000
,
3020
0000
0000
0000
,
0230
0000
0000
0300
,
2002
0000
0000
3003
,
0220
0000
0000
0330
,
0101
0001
1000
0010
0100
0001
1000
0100
0010
0001
1000
0010
,
1010
1000
0100
1000
0001
0100
0010
0100
0001
0010
0100
0010
,
0011
0001
1000
0010
0100
0001
1000
0100
0010
0001
1000
0100
,
1100
1000
0010
0100
0001
0100
0010
1000
0100
0010
0001
1000
,
1001
0001
0100
1000
0100
0001
0010
1000
0010
0001
0100
0010
,
0110
0100
0010
1000
0100
0010
0001
0100
0010
1000
0100
1000
,
0001
0010
0001
0010
0100
1000
0100
1000
0001
0100
0001
0100
0010
1000
0010
1000
,
0100
0010
0001
0100
0010
1000
0100
0010
0001
0100
0010
1000
0100
0010
0001
1000
,
2002
0000
0000
0000
0000
0000
0000
3003
1000
0100
0010
0001
1000
0100
0010
0001
,
1001
0000
1000
0100
0001
0000
1001
0000
0001
0100
1000
0000
1001
0000
1000
0010
,
0001
0000
1001
0000
0001
0010
1000
0000
1000
0010
0100
0001
1000
0100
0010
0001
,
1001
0000
0001
0100
1000
0000
1001
0000
1000
0100
0001
0000
1000
0001
1000
0000
,
0001
0010
1000
0001
0100
1000
0001
0010
0100
1000
0001
0100
,
0110
0000
1000
0100
0001
0000
0110
0000
0001
0100
1000
0000
0110
0000
1000
0010
,
0001
0000
0110
0000
0001
0010
1000
0000
1000
0100
0010
0001
1000
0100
0010
0001
,
1001
0000
1000
0010
0001
0000
1001
0000
0001
0010
1000
0000
0001
1000
0001
0000
,
0101
0000
0110
0000
1010
0000
1100
0000
0110
0000
0011
0000
,
1010
0000
1000
0100
0001
0000
0011
0000
0001
0100
1000
0000
1100
0000
1000
0010
,
0001
0000
0101
0000
0001
0010
1000
0000
0001
0100
0010
1000
0100
0010
0001
1000
,
2002
0000
0000
3003
,
1010
0000
0101
0000
1100
0000
0011
0000
1010
0000
0101
0000
,
1001
0000
1100
0000
0101
0000
1010
0000
0011
0000
1010
0000
,
1100
0000
0101
0000
1010
0000
0011
0000
1010
0000
0101
0000
,
0001
0010
0100
1000
0001
0010
0100
1000
0001
0100
0010
1000
0001
0100
0010
1000
,
0100
0010
0001
0100
0010
1000
0010
0100
0001
1000
0100
0010
0001
0010
0100
1000
,
0001
0000
0000
0010
0001
1000
0001
0000
0000
0100
0000
0000
0010
0000
0000
1000
0000
0000
0100
0010
0001
0010
0000
0000
,
0001
0000
0100
0010
0100
0000
0102
0000
0000
0000
0013
0000
0100
0000
1000
0000
,
0001
0000
0000
0000
0000
0000
1000
0000
0000
0000
0000
0000
0100
0000
1000
0000
0100
0000
0010
0000
0000
0000
0000
0000
0001
0000
0000
0000
0000
0000
0100
0000
0000
0001
0000
0000
0010
0000
0000
0000
0000
0000
0001
0000
0000
0000
0000
0000
,
1000
0000
0010
0100
0010
0000
2010
0000
0000
0000
3001
0000
0100
0000
0010
0000
,
0100
0001
0010
0001
1000
0010
0100
0010
1000
0100
0001
0100
,
1000
0001
0010
0100
0001
0100
1000
0001
1000
0010
0100
1000
,
0100
0001
0100
0010
1000
0001
1000
0100
0100
0001
0010
0010
,
1000
0000
0000
0001
0000
0000
0010
0000
0000
0001
0000
0000
0100
0000
0000
0001
0000
0000
0100
0000
0000
0010
0000
0000
1000
0000
0000
0010
0000
0000
0100
0000
0000
0001
0000
0000
1000
0000
0100
0000
0010
0000
0001
0000
0010
0000
0100
0000
,
2000
0000
0000
0000
,
3002
0000
0000
0000
0000
0000
0103
0010
,
0220
0000
0000
0000
0330
0000
0100
0001
,
2002
0000
0000
0000
0000
0000
0000
0000
3003
0000
0000
0000
1000
0001
1000
0000
,
2002
0000
0000
0000
,
0000
0000
0000
0000
,
0000
0000
0000
0000
,
0000
0000
0000
0000
,
3003
0000
0000
0000
;

//--------------- dance-double - Fred-104 ----------------
#NOTES:
     dance-double:
     Fred-104:
     Easy:
     9:
     :
00000000
00000000
00000000
00000000
,
00000000
00000000
00000000
00000000
,
00000001
00000010
00001000
00010000
,
00011000
00000000
00200000
10300000
,
00010000
10000000
01000000
02200000
,
00000000
03300000
10000000
01000000
,
00100000
00000000
01000000
00000000
00100000
00100000
00100000
00000000
,
00001000
00020000
00031000
00000010
,
00000100
00001000
00000001
00000000
00002002
00000000
00000000
00000000
,
00003003
00000000
00000001
00000010
00000010
00000000
00000001
00000000
,
00000100
00001000
00010000
02000000
,
03200000
00000000
00310000
00000000
01000000
01000000
01000000
00000000
,
00100000
00000000
10000000
00000000
00000000
00010000
00000000
00000000
,
01000000
00000000
00100000
00000000
10000000
00000000
01000000
00100000
,
01000000
00000000
00100000
00000000
00001000
00000000
00010000
00000010
,
00001000
00000000
00000100
00000000
00001000
00000100
00001000
00000000
,
00000010
00000000
00010000
00000000
00000000
00011000
00000000
00000000
,
00020000
00032000
00003020
00000032
,
00002003
00003200
00000320
00000032
,
00000203
00002300
00023000
02030000
,
03200000
00320000
20030000
30020000
,
20030000
32000000
03020000
00032000
,
00003020
00000032
00000203
00002300
,
00023000
00230000
20300000
30020000
,
01030000
00100000
01000000
00000000
00100000
10000000
00100000
00000000
,
02000000
03002000
00023000
00030200
,
00020300
00030020
00002030
00003200
,
00020300
00032000
02003000
03200000
,
00320000
00032000
00003200
00000320
,
00020030
00032000
00003200
00000302
,
00002003
00003200
00000320
00000032
,
00002003
00003020
00020030
00032000
,
00103000
00001000
00100000
00000000
00010000
10000000
00010000
00000000
,
20020000
00000000
00000000
30030000
,
22000000
00000000
00000000
33000000
,
02200000
00000000
00000000
03300000
,
00202000
00000000
00000000
00303000
,
00020020
00000000
00000000
00030030
,
02002000
00000000
00000000
03003000
,
00020200
00000000
00000000
00030300
,
00002002
00000000
00000000
00003003
,
00000002
00000203
00002300
00003200
,
00000302
00000203
00002300
00023000
,
02030000
03020000
00032000
00003200
,
00002300
00023000
02030000
23000000
,
30010000
01000000
00010000
00000000
10000000
00100000
10000000
00000000
,
00100000
01000000
00100000
00000000
01000000
00010000
01000000
00000000
,
00010000
00100000
00001000
00000000
00010000
00000100
00001000
00000000
,
00000002
00000023
00002030
00013000
,
00022000
00000000
00033000
00000000
,
00010000
00000000
00000000
00001000
00000000
00000000
00000010
00000000
,
00000000
00001000
00000000
00000000
00010000
00000000
00001000
00000000
,
00010000
00000000
00000000
01000000
00000000
00000000
00010000
00000000
,
00001000
00010000
00100000
00010000
,
00001000
00000000
00000000
00010000
00000000
00000000
01000000
00000000
,
00000000
00010000
00000000
00000000
00001000
00000000
00010000
00000000
,
00100000
00000000
00000000
00010000
00000000
00000000
00001000
00000000
,
00010000
00000000
00001000
00000000
00000010
00000000
00000001
00000000
00001000
00000000
00000100
00000000
,
00000010
00000000
00000000
00000001
00000000
00000000
00000100
00000000
,
00000000
00001000
00000000
00000000
00010000
00000000
01000000
00000000
,
20020000
00000000
00000000
30030000
,
10000000
00000000
01000000
00000000
00010000
00000000
10000000
00000000
00100000
00000000
00010000
00000000
,
10000000
00000000
01000000
00000000
00100000
00000000
00010000
00000000
00100000
00000000
00001000
00000000
,
00010000
00000000
00000100
00000000
00001000
00000000
00000010
00000000
00000100
00000000
00000001
00000000
,
00000010
00000001
00001000
00000000
00000010
00000100
00000001
00000000
,
00001000
00000100
00000010
00000000
00000100
00010000
00001000
00000000
,
00020000
00032000
00003020
00002030
,
00023000
00032000
00003200
00002300
,
00023000
00032000
02003000
03002000
,
00023000
00032000
00203000
00302000
,
00013000
00001000
00010000
00000000
00000100
00001000
00000010
00000000
,
00001000
00000010
00000100
00000000
00000010
00001000
00000001
00000000
,
00000100
00000001
00000100
00000000
00000001
00000010
00000001
00000000
,
00000100
00000010
00001000
00000000
00000001
00001000
00000001
00000000
,
00000202
00000000
00000000
00000303
,
00002020
00000000
00000000
00003030
,
00020200
00000000
00000000
00030300
,
00020020
00000000
00000000
00030030
,
00022000
00000000
00000000
00000000
,
00000000
00000000
00000000
00000000
,
00000000
00000000
00000000
00000000
,
00000000
00000000
00000000
00000000
,
00033000
00000000
00000000
00000000
;

//--------------- dance-double - Fred-104 ----------------
#NOTES:
     dance-double:
     Fred-104:
     Medium:
     13:
     :
00000000
00000000
00000000
00000000
,
00000000
00000000
00000000
00000000
,
00001000
00010000
00001000
00100000
,
00010000
01010000
00000000
00000000
20000000
00000000
31000000
00000000
,
00010000
00000000
00001000
00000010
00000100
00000000
00002200
00000000
,
00000000
00003300
00000110
00000010
,
00000001
00001000
00000001
00000000
00000100
00000010
00001000
00000000
,
00000100
00020000
00031000
01000000
,
00010000
00100000
00001000
00000000
00022000
00000000
00000000
00000000
,
00033000
00000000
00010000
00001000
00010000
00000000
00001000
00000010
,
00001000
00000000
00010000
00000100
00001000
00000100
00020000
00000000
,
00032000
00000000
00013000
00001000
00010000
00000000
00001000
00100000
,
00001000
00000000
00010000
00001000
01000000
00001000
00000000
00100000
,
00010000
00000000
01000000
00010000
00100000
00000000
00001000
00010000
,
00000010
00000000
00001000
00000100
00010000
00000100
00000000
00001000
,
00000010
00000000
00000100
00001000
00010000
00000000
00100000
01000000
,
00010000
00000000
10000000
00000000
00010000
20020000
30030000
00000000
,
11000000
11000000
01010000
01010000
,
00011000
00011000
00001010
00001010
,
00000011
00000011
00000101
00000101
,
00001100
00001100
00011000
00011000
,
00110000
00110000
10100000
10100000
,
10010000
10010000
01100000
01100000
,
10100000
01010000
00101000
00011000
,
00010000
00001000
00000010
00000001
00001000
00000100
00000010
00000001
,
00000101
00001001
00000101
00001001
,
00001010
00010010
00011000
00010010
,
00011000
01001000
00011000
00101000
,
00011000
00010100
00011000
00010010
,
00011000
00110000
00011000
00001010
,
00011000
01010000
00011000
00001100
,
00011000
00010100
00011000
00101000
,
00001000
00010000
00001000
00100000
00010000
10000000
00100000
10000000
,
02000000
00000000
00000000
00000000
,
03200000
00000000
00000000
00000000
,
00302000
00000000
00000000
00000000
,
00023000
00000000
00000000
00000000
,
00030020
00000000
00000000
00000000
,
00002030
00000000
00000000
00003000
,
00002002
00000000
00000000
00003003
,
00000220
00000000
00000000
00000330
,
00000001
00000000
00000001
00000100
00000000
00000000
00000100
00000000
00000100
00000010
00000000
00000000
,
00000010
00000000
00000010
00001000
00000000
00000000
00001000
00000000
00001000
00000100
00000000
00000000
,
00010000
00000000
00001000
00100000
00000000
00000000
00010000
00000000
00001000
01000000
00000000
00000000
,
00010000
00000000
01000000
00100000
00000000
00000000
10000000
00000000
01000000
00100000
00000000
00000000
,
00110000
00101000
00011000
00010010
,
00010100
00011000
01001000
01010000
,
00010000
00100000
10000000
00100000
00010000
00100000
10000000
00100000
,
00020000
02030000
03002000
00013000
,
00022000
00000000
00033000
00000000
,
00010000
00010000
00000000
00001000
00001000
00000000
00010000
00010000
,
00000000
00000010
00000010
00000000
00001000
00000100
00000010
00000001
,
00000100
00000100
00000000
00000010
00000010
00000000
00001000
00001000
,
00000002
00000203
00002300
00023000
,
00031000
00001000
00000000
00010000
00010000
00000000
01000000
01000000
,
00000000
00100000
00100000
00000000
00010000
10000000
00010000
01000000
,
00100000
00100000
00000000
10000000
10000000
00000000
01000000
00100000
,
00001000
00000000
00010000
00000000
00000100
00000000
00000010
00000000
00000001
00000000
00001000
00000000
,
00000001
00000001
00000000
00000100
00000100
00000000
00001000
00001000
,
00000000
00010000
00010000
00000000
01000000
00100000
00010000
10000000
,
20020000
00000000
00000000
30030000
,
10000000
00000000
01000000
00000000
00010000
00000000
00001000
00000000
00000010
00000000
00000001
00000000
,
00001000
00000000
00000100
00000000
00001100
00000000
00000001
00000000
00000100
00000000
00000101
00000000
,
00001000
00000000
00000001
00000000
00000011
00000000
00000001
00000000
00000100
00000000
00000110
00000000
,
00000001
00000010
00000100
00000010
00000001
00001000
00000010
00010000
,
00001000
00100000
00010000
10000000
00100000
01000000
00010000
10000000
,
01000000
10000000
00100000
00000000
01000000
00010000
00100000
00010000
,
01000000
00001000
00010000
00001000
00000000
00000100
00000010
00000000
,
00001000
00000100
00000010
00000001
00000100
00000001
00000010
00000001
,
00000100
00001000
00010000
01000000
00000000
00100000
00010000
00000000
,
10000000
00010000
00100000
00010000
10000000
00010000
01000000
00100000
,
10000000
01000000
00100000
00010000
01000000
00001000
00010000
00000000
,
00001000
00000010
00000100
00001000
00000001
00000010
00000100
00001000
,
00000001
00000100
00001000
00010000
00100000
10000000
00010000
00100000
,
02200000
00000000
00000000
03300000
,
20020000
00000000
00000000
30030000
,
02002000
00000000
00000000
03003000
,
00020200
00000000
00000000
00030300
,
00002200
00000000
00000000
00000000
,
00000000
00000000
00000000
00000000
,
00000000
00000000
00000000
00000000
,
00000000
00000000
00000000
00000000
,
00003300
00000000
00000000
00000000
;

//--------------- dance-double - Fred-104 ----------------
#NOTES:
     dance-double:
     Fred-104:
     Hard:
     16:
     :
00000000
00000000
00000000
00000000
,
00000000
00000000
00000000
00000000
,
00010000
00001000
00010000
00000100
,
00011000
00000000
00011000
00000000
00000000
00000000
00000000
00000000
00001000
00010000
00100000
10000000
00010000
00000000
00000000
00000000
,
00100000
00000000
00000000
00000000
01000000
00000000
00000000
10000000
00100000
00000000
01000000
00000000
20020000
00000000
00000000
00000000
,
00000000
00000000
30030000
00000000
00010000
00100000
00010000
01000000
,
00001000
00000000
00010000
00000000
00000100
00000000
00001000
00000000
00000001
00000000
00000100
00000010
00000100
00000000
00000001
00000000
,
00001000
00000000
00000000
00000000
00000100
00000000
00000000
00000000
00002000
00003000
00000002
00000003
00002000
00003000
00000002
00000003
00001000
00000000
00000000
00000000
00000100
00000000
00000000
00000000
00000010
00000000
00000000
00000000
00000001
00000000
00000000
00000000
,
00000100
00000000
00000000
00001000
00010000
00000000
01000000
00000000
02200000
00000000
00000000
00000000
00000000
00000000
00000000
00000000
,
03300000
00000000
00000000
00000000
00010000
00000000
01000000
00100000
01000000
00000000
00010000
00000000
00100000
00000000
00010000
00000000
,
01000000
00001000
01000000
00000000
00001000
00000000
00010000
00000100
00010000
00000000
00000100
00000000
00001000
00000010
00001000
00000000
,
00000001
00000010
00000001
00000000
00000100
00000000
00000010
00000000
00001000
00000001
00001000
00000000
00000001
00000000
00000100
00000000
,
00000010
00000000
00000100
00000000
00001000
00000000
00010000
00100000
01000000
00000000
00010000
00000000
10000000
00000000
01000000
00000000
,
01100000
00000000
00000000
00000000
00100000
00000000
00010000
00000000
01000000
00001000
01000000
00000000
00001000
00000000
00010000
00000000
,
00000100
00001000
00000100
00000000
00010000
00000000
00001000
00010000
00000010
00000000
00001000
00000000
00000100
00000000
00010000
00001000
,
01000000
00000000
00010000
00000000
00100000
00000000
00010000
00000000
01000000
00000000
00001000
00010000
00000100
00000000
00001000
00000000
,
00000010
00001000
00000100
00000000
00010000
00001000
00010000
00001000
00010000
00000000
00022000
00000000
00033000
00000000
00000000
00000000
,
00010000
00001000
00010000
00000010
00001000
00000010
00010000
00001000
00010000
00001000
01000000
00001000
,
00100000
00010000
00100000
00001000
00010000
00001000
00010000
00000100
00010000
00000100
00001000
00000100
,
00000010
00000001
00001000
00000010
00000100
00000001
00000010
00000100
00001000
00000100
00010000
00001000
,
00100000
00010000
00100000
01000000
10000000
00100000
01000000
00010000
10000000
00010000
00000000
00000000
,
10000000
01000000
10000000
00010000
01000000
00010000
00100000
00001000
00100000
00001000
00010000
00001000
,
00010000
00000010
00010000
00000010
00001000
00000010
00000100
00000001
00000100
00000010
00001000
00000010
,
00000100
00000001
00000010
00000001
00000100
00000010
00001000
00000100
00010000
00000010
00010000
00001000
,
00100000
00000000
00100000
00000000
00010000
00000000
00010000
00000000
01000000
00100000
01000000
00100000
10000000
00100000
10000000
00100000
,
01000000
00010000
01000000
00100000
10000000
00010000
01000000
00100000
00010000
00001000
00000100
00000010
,
00001000
00000100
00000010
00000001
00001000
00000100
00001000
00000001
00000010
00000001
00001000
00000010
,
00000100
00000001
00000010
00000100
00000010
00000001
00001000
00000010
00001000
00000001
00000100
00000010
,
00000100
00001000
00010000
00100000
01000000
00010000
10000000
01000000
00100000
01000000
00000000
00000000
,
10000000
01000000
10000000
00010000
00100000
01000000
10000000
00100000
01000000
00010000
10000000
01000000
,
00100000
00010000
01000000
00010000
00100000
00001000
00010000
00000100
00001000
00000010
00001000
00000100
,
00010000
00001000
00000010
00000001
00001000
00000100
00000010
00000001
00000100
00000010
00001000
00000001
,
00000100
00000000
00000100
00000000
00000010
00000000
00000010
00000000
00001000
00000100
00001000
00000100
00010000
00001000
00010000
00001000
,
00020000
00000000
00000000
00000000
,
00032000
00000000
00000000
00000000
,
00023000
00000000
00000000
00000000
,
00032000
00000000
00000000
00000000
,
00023000
00000000
00000000
00000000
,
00032000
00000000
00000000
00003000
,
00022000
00000000
00000000
00033000
,
00000220
00000000
00000000
00000330
,
00001000
00000100
00000010
00000001
00000000
00000000
00001000
00000100
00000010
00000001
00000000
00000000
,
00000100
00000010
00001000
00000010
00000100
00000001
00000100
00000010
00001000
00000001
00000000
00000000
,
00000010
00000100
00001000
00000100
00000000
00000000
00010000
00001000
00100000
00010000
00000000
00000000
,
00100000
01000000
10000000
00010000
01000000
00100000
10000000
00100000
01000000
00010000
00000000
00000000
,
00100000
01000000
10000000
00100000
01000000
00100000
10000000
00100000
01000000
00010000
00000000
00000000
,
00100000
00001000
00010000
00001000
00000010
00000100
00001000
00000001
00001000
00000010
00000000
00000000
,
00000100
00000001
00000100
00000000
00000010
00001000
00000010
00000000
00010000
00001000
00010000
00000000
00001000
00100000
00001000
00000000
,
00100000
00010000
00100000
00000000
01000000
10000000
01000000
00000000
10000000
00100000
10000000
00100000
01000000
00010000
01000000
00010000
,
00200000
00000000
00002000
00303000
,
00001000
00010000
00010000
01000000
00001000
00001000
00000100
00010000
,
00010000
00000000
01000000
00000000
00001000
00000000
00001000
00000000
00000100
00001000
00000010
00000000
00001000
00000100
00010000
00000000
,
00000100
00010000
00010000
01000000
00001000
00001000
00000100
00010000
,
00001000
00010000
00000100
00001000
00000100
00010000
00001000
00100000
00010000
01000000
00001000
00010000
,
00000010
00010000
00010000
00100000
00001000
00001000
00000010
00010000
,
00010000
00000000
00100000
00000000
00001000
00000000
00001000
00000000
00000010
00010000
00001000
00000000
00100000
00001000
00010000
00000000
,
00000010
00001000
00001000
00100000
00010000
00010000
00000010
00010000
,
00001000
00000000
00010000
00000000
00001000
00000000
00000100
00000000
00000001
00000000
00001000
00000000
,
00000001
00000100
00000100
00010000
00000010
00000010
00000001
00000100
,
00000100
00000000
00010000
00000000
00000010
00000000
00000010
00000000
00000001
00000100
00000010
00000000
00001000
00000100
00000010
00000000
,
00002002
00000000
00000000
00003003
,
00000001
00000000
00000100
00000000
00001000
00000000
00010000
00000000
00100000
00000000
10000000
00000000
,
00010000
00000000
01000000
00000000
01100000
00000000
10000000
00000000
01000000
00000000
01100000
00000000
,
00100000
00000000
00001000
00000000
00011000
00000000
00010000
00000000
00000100
00000000
00000110
00000000
,
00000010
00000001
00000010
00000000
00000001
00000100
00000001
00000000
00001000
00000100
00001000
00000000
00000010
00001000
00000010
00000000
,
00000100
00000001
00000100
00000000
00000010
00001000
00000010
00000000
00001000
00000100
00001000
00000100
00010000
00001000
00010000
00001000
,
00010000
00001000
00100000
00010000
10000000
00100000
01000000
00010000
,
10000000
01000000
00010000
00001000
00000000
00000010
00000100
00000000
,
00001000
00000001
00000100
00000010
00001000
00000001
00000010
00000100
,
00000010
00001000
00010000
01000000
00000000
00100000
00010000
10000000
,
00010000
00100000
00010000
10000000
00100000
10000000
00010000
10000000
01000000
00100000
00000000
00000000
,
00001000
00010000
00001000
00010000
00000010
00001000
00000100
00001000
00000001
00000100
00000000
00000000
,
00000010
00001000
00000001
00000010
00000100
00001000
00000100
00010000
00001000
00100000
00010000
00100000
,
01000000
10000000
01000000
00000000
00100000
00010000
00100000
00000000
00001000
00010000
00001000
00010000
00000010
00001000
00000010
00001000
,
00000200
00000000
00000000
00000300
,
00000022
00000000
00000000
00000033
,
00002020
00000000
00000000
00003030
,
00022000
00000000
00000000
00033000
,
20020000
00000000
00000000
00000000
,
00000000
00000000
00000000
00000000
,
00000000
00000000
00000000
00000000
,
00000000
00000000
00000000
00000000
,
30030000
00000000
00000000
00000000
;

//--------------- dance-double - Fred-104† ----------------
#NOTES:
     dance-double:
     Fred-104†:
     Challenge:
     18:
     :
00000000
00000000
00000000
00000000
,
00000000
00000000
00000000
00000000
,
10000000
00010000
00001000
00000001
,
00000110
00000000
00000000
00000000
00000000
00000000
00000000
00000000
00001001
00000000
00000000
00000000
00000000
00000000
00000000
00000000
00000000
00000000
00000000
00000000
00000000
00000000
00000000
00000000
00000000
00000000
00000000
00000000
00000000
00000000
00000000
00000000
00000002
00000003
00000200
00000300
00000002
00000003
00000200
00000300
00000020
00000030
00002000
00003000
00000020
00000030
00002000
00003000
00000001
00000000
00000000
00000000
00000000
00000000
00000000
00000000
00000000
00000000
00000000
00000000
00000000
00000000
00000000
00000000
,
00001001
00000000
00000000
00000000
00000101
00000000
00000000
00000010
00001000
00000000
00000100
00000000
00020200
00000000
00000000
00000000
,
00000000
00000000
00000000
00000000
00030300
00000000
00000000
00000000
00011000
00000000
00001000
00100000
00010000
00000000
10000000
00000000
,
00100000
00000000
01000000
00010000
00100000
00000000
00010000
00000000
10000000
00000000
00100000
01000000
00010000
00000000
10000000
00000000
,
11000000
00000000
00000000
00000000
00000000
00000000
00000000
00000000
10010000
00000000
00000000
00000000
00000000
00000000
00000000
00000000
20000000
30000000
00000000
00000000
02000000
03000000
00000000
00000000
00200000
00300000
00000000
00000000
00002000
00003000
00000000
00000000
00010000
00000000
00000000
00000000
00000000
00000000
00000000
00000000
00001000
00000000
00000000
00000000
00000010
00000000
00000000
00000000
00000100
00000000
00000000
00000000
00000000
00000000
00000000
00000000
00010000
00000000
00000000
00000000
00000000
00000000
00000000
00000000
,
00001000
00000000
00000000
00100000
01000000
00000000
00010000
00000000
00022000
00000000
00000000
00000000
00000000
00000000
00000000
00000000
,
00033000
00000000
00000000
00000000
00000000
00000000
00010000
00000000
00000000
00000100
00001000
00000100
00001000
00000000
00000000
00000100
00000000
00000000
00000010
00000000
00000000
00000001
00000000
00000000
,
00001000
00000000
00000001
00000000
00001000
00000000
00000001
00000000
00000000
00000000
00000000
00000000
00000100
00000000
00000000
00000010
00000000
00000000
00000100
00000000
00000000
00001000
00000000
00000000
00010000
00000000
00000000
00000000
00000000
00000000
00100000
00000000
00000000
00000000
00000000
00000000
01000000
00000000
00010000
00000000
10000000
00000000
00010000
00000000
00000000
00000000
00000000
00000000
,
10000000
00100000
10000000
00100000
00000000
00000000
01000000
00000000
00000000
00100000
00000000
00000000
10000000
01000000
10000000
01000000
00000000
00000000
00100000
00000000
00000000
00001000
00000000
00000000
,
00010000
00000000
00000000
00001000
00000000
00000000
00100000
00000000
00000000
00010000
01000000
00010000
01000000
00000000
00000000
00100000
00000000
00000000
00010000
00000000
00000000
00001000
00000000
00000000
,
00000100
00000000
00000000
00000010
00000000
00000000
00010000
00000000
00000000
00001000
00000000
00000000
00010000
00000100
00001000
00000100
00000000
00000000
00010000
00000000
00000000
00000010
00000000
00000000
,
00001000
00000000
00000100
00000000
00001000
00000000
00000100
00000000
00000000
00000000
00000000
00000000
00000010
00000000
00000000
00000000
00000000
00000000
00000001
00000000
00000000
00000100
00000000
00000000
00001000
00000000
00000000
00000000
00000000
00000000
00010000
00000000
00000000
00000000
00000000
00000000
00100000
00000000
00000000
00000000
00000000
00000000
01000000
00000000
00010000
00000000
01000000
00000000
,
00010000
00000000
00000000
10000000
00000000
00000000
00010000
00000000
00000000
00100000
00000000
00000000
01000000
00000000
00000000
00100000
00010000
00100000
00010000
00000000
00000000
00100000
00000000
00000000
,
00001000
00000000
00010000
00000000
00001000
00000000
00010000
00000000
00000000
00000000
00000000
00000000
00001000
00000000
00000000
00010000
00000000
00000000
00000010
00000000
00000000
00001000
00000000
00000000
00000100
00000000
00000000
00000000
00000000
00000000
00000220
00000000
00000000
00000000
00000000
00000000
00000330
00000000
00000000
00000000
00000000
00000000
00000000
00000000
00000000
00000000
00000000
00000000
,
00000001
00000010
00001000
00010000
00100000
00010000
00001000
00000100
00001000
00010000
01000000
00010000
,
00001000
00000010
00000001
00000010
00001000
00010000
00100000
00010000
00001000
00000100
00001000
00010000
,
01000000
10000000
01000000
00010000
00001000
00010000
00100000
10000000
00100000
00010000
00001000
00010000
,
01000000
00010000
00001000
00000100
00001000
00010000
00001000
00000010
00000001
00001000
00000000
00000000
,
00000001
00000010
00001000
00010000
00100000
00010000
00001000
00000100
00001000
00010000
01000000
00010000
,
00001000
00000010
00001000
00010000
00001000
00000100
00001000
00010000
01000000
00010000
00001000
00010000
,
00100000
10000000
00100000
00010000
00001000
00010000
01000000
10000000
01000000
00010000
00001000
00010000
,
00001000
00000000
00011000
00000000
00010000
00000000
00011000
00000000
00001000
00010000
00000010
00001000
00000100
00010000
00001000
01000000
,
00010000
00100000
01000000
10000000
00010000
01000000
00100000
00010000
00100000
01000000
00010000
10000000
,
01000000
00100000
01000000
00010000
00001000
00000010
00000100
00001000
00000001
00000100
00000010
00001000
,
00000001
00000010
00000100
00010000
00001000
00000100
00000001
00000010
00000100
00010000
00001000
00000100
,
00000001
00000010
00001000
00010000
01000000
00100000
00010000
10000000
00100000
01100000
00000000
00000000
,
00010000
01000000
10000000
00010000
00100000
10000000
00010000
00100000
01000000
10000000
01000000
00100000
,
00010000
10000000
01000000
00010000
00001000
00000100
00000010
00001000
00000100
00000010
00000001
00001000
,
00000001
00000010
00001000
00010000
01000000
00100000
00010000
01000000
00100000
10000000
01000000
00100000
,
00010000
00000000
00110000
00000000
00100000
00000000
00101000
00000000
00001000
00010000
00000010
00001000
00000010
00000100
00000001
00001000
,
00000020
00000000
00000000
00000000
,
00000230
00000000
00000000
00000000
,
00000302
00000000
00000000
00000000
,
00002003
00000000
00000000
00000000
,
00003200
00000000
00000000
00000000
,
00020300
00000000
00000000
00030000
,
00022000
00000000
00000000
00033000
,
20020000
00000000
00000000
30030000
,
10000000
01000000
00100000
00001000
00010000
00100000
10000000
01000000
00100000
00001000
00010000
00100000
,
10000000
01000000
00010000
00001000
00000100
00000010
00001000
00000010
00000100
00000001
00001000
00000100
,
00000001
00000100
00001000
00000001
00000010
00000100
00010000
00001000
00000100
00000001
00000010
00000100
,
00000010
00000001
00000100
00001000
00010000
01000000
10000000
00010000
01000000
01100000
00000000
00000000
,
10000000
01000000
01000000
00010000
00100000
01000000
00100000
00010000
00001000
00000010
00000100
00000010
,
00001000
00010000
01000000
00100000
00010000
10000000
01000000
00010000
00001000
00000010
00000100
00001000
,
00000001
00000100
00000001
00000010
00000001
00001000
00000010
00000000
00010000
00001000
00100000
00010000
10000000
00100000
01000000
00000000
,
00010000
00100000
01000000
10000000
00100000
01000000
00010000
00100000
00001000
00010000
00000100
00001000
00000001
00000100
00000010
00001000
,
00002002
00000000
00000000
00000000
00000000
00000000
00000000
00003003
00000001
00001000
00000001
00001000
00000001
00001000
00000001
00001000
,
00000001
00000000
00000100
00001000
00000100
00000000
00000001
00000000
00000010
00001000
00000010
00000000
00000001
00000000
00000100
00001000
,
00010000
00000000
01000000
00000000
00100000
00010000
10000000
00000000
00010000
00100000
01000000
10000000
00010000
00100000
01000000
10000000
,
00010000
00000000
01000000
10000000
01000000
00000000
00010000
00000000
00100000
10000000
00100000
00000000
00001000
00010000
00001000
00000000
,
00010000
00000100
00000100
00000001
00000010
00000100
00010000
00000100
00000100
00000001
00000010
00000100
,
00010000
00000000
00001000
00000010
00000001
00000000
00001000
00000000
00000100
00000010
00000001
00000000
00000100
00000000
00000010
00000100
,
00001000
00000000
00010000
00000000
00100000
01000000
00010000
00000000
10000000
00010000
00100000
00010000
01000000
00001000
00010000
00001000
,
00100000
00000000
00010000
10000000
01000000
00000000
00010000
00000000
00001000
00000100
00000010
00000000
00001000
00000001
00000010
00000000
,
00000011
00000000
00001010
00000000
00011000
00000000
01010000
00000000
11000000
00000000
10010000
00000000
,
11000000
00000000
10000000
01000000
00010000
00000000
00011000
00000000
00001000
00000010
00000001
00000000
00001001
00000000
00000001
00000100
,
00001000
00000000
00011000
00000000
00010000
00100000
10000000
00000000
00010000
10000000
01000000
00100000
00010000
01000000
00001000
00010000
,
00022000
00000000
00000000
00033000
,
00011000
00000000
00010010
00000000
01001000
00000000
00010100
00000000
00101000
00000000
00011000
00000000
,
00010100
00000000
00001100
00000000
00000101
00000000
00000011
00000000
00001010
00000000
00011000
00000000
,
01010000
00000000
11000000
00000000
10010000
00000000
01010000
00000000
00101000
00000000
00010010
00000000
,
00010000
00001000
00010000
00000010
00001000
00000010
00010000
00001000
00100000
00010000
01000000
00001000
00010000
00000100
00001000
00000010
,
00000100
00000001
00000010
00000100
00000010
00001000
00010000
01000000
00100000
00010000
10000000
01000000
00010000
00001000
00000010
00000001
,
00001000
00000100
00000010
00000001
00000100
00000010
00001000
00000001
00000010
00000100
00000010
00000001
,
00000100
00001000
00010000
01000000
10000000
00010000
10000000
00100000
01000000
00010000
10000000
00010000
,
10000000
00100000
01000000
00010000
00100000
00001000
00010000
00000010
00001000
00000100
00010000
00000100
,
00001000
00000001
00000010
00001000
00010000
00100000
01000000
00010000
10000000
10010000
00000000
00000000
,
00010000
00100000
01000000
00100000
00010000
10000000
01000000
00100000
01000000
10000000
00010000
01000000
,
00001000
00010000
00001000
00100000
00001000
00010000
00001000
00000100
00000010
00001000
00000100
00000010
,
00000001
00000100
00001000
00010000
00100000
10000000
00010000
10000000
01000000
00010000
00001000
00000010
,
00000001
00000000
00000000
00001000
00000000
00000000
00000001
00000000
00000000
00000100
00000000
00000000
00000010
00000000
00000000
00001000
00000000
00000000
00000100
00000000
00000000
00010000
00000000
00000000
00001000
00000000
00000000
00100000
00000000
00000000
00010000
00000000
00000000
00100000
00000000
00000000
01000000
00000000
10000000
00000000
01000000
00000000
10000000
00000000
01000000
00000000
10000000
00000000
,
02000000
00000000
00000000
03000000
,
00220000
00000000
00000000
00330000
,
00022000
00000000
00000000
00033000
,
00002020
00000000
00000000
00003030
,
00002002
00000000
00000000
00000000
,
00000000
00000000
00000000
00000000
,
00000000
00000000
00000000
00000000
,
00000000
00000000
00000000
00000000
,
00003003
00000000
00000000
00000000
;
