#TITLE:Cyaegha;
#ARTIST:USAO;
#GENRE:Dubcore;
#ORIGIN:Arcaea;
#BANNER:Cyaegha.png;
#BACKGROUND:Cyaegha-bg.png;
#CDTITLE:./CDTitles/Arcaea.png;
#MUSIC:Cyaegha.ogg;
#SAMPLESTART:2.4;
#SAMPLELENGTH:15;
#BPMS:0=100,20=200,52=100,148=200;
#STAGE:29;

//--------------- dance-single - Fred-104 ----------------
#NOTES:
     dance-single:
     Fred-104:
     Beginner:
     5:
     :
0000
0000
0000
0000
,
0000
0000
0000
0000
,
0000
0000
0000
0000
,
1001
0000
0000
0000
,
0001
0000
1000
0001
,
1000
0000
0000
0000
,
0010
0000
0000
0000
,
0100
0000
0000
0000
,
0001
0000
1000
0000
,
0001
0000
0001
0000
,
1000
0000
1000
0000
,
0001
0001
0001
0001
,
1001
0000
0000
0000
,
1000
0010
1000
0000
,
0001
0100
0001
0000
,
0100
0010
0100
0000
,
0001
1000
0001
1000
,
0001
0100
0010
0000
,
1000
0010
1000
0000
,
0001
1000
0100
0000
,
1000
0010
1000
0001
,
1000
0100
1000
0000
,
0001
0100
0001
0000
,
0100
0010
0100
0000
,
0010
1000
0010
1000
,
0001
1000
0100
1000
,
0100
1000
0001
1000
,
0001
0010
0001
1000
,
0001
0100
0010
1000
,
1001
0000
0001
0000
,
0100
0000
0100
0000
,
0010
0000
0010
0000
,
1000
0000
1000
0000
,
0001
0100
0010
0000
,
0100
0010
1000
0001
,
1000
0100
0010
0000
,
0001
1000
0001
1000
,
2000
0000
3000
0000
,
0002
0000
0003
0000
,
0200
0000
0300
0000
,
0020
0000
0030
0000
,
1000
0000
0100
0000
,
0001
0000
0010
0000
,
1000
1000
0001
0001
,
1001
0000
0000
0000
,
1000
0000
1000
0000
,
0100
0000
0100
0000
,
0001
0000
0001
0000
,
0010
0000
0010
0000
,
1000
0000
0001
0000
,
1000
0000
0001
0000
,
1000
1000
1000
1000
,
1001
0000
0000
0000
,
0001
0000
0100
0000
,
0001
0000
0010
0000
,
0001
0000
1000
0000
,
0001
0001
0001
0000
,
1000
0000
0010
0000
,
1000
0000
0100
0000
,
1000
0000
0001
0000
,
0100
0100
0100
0000
,
0001
0000
1000
0000
,
0001
0000
0010
0000
,
0001
0000
0100
0000
,
0001
0000
1000
0000
,
0001
0000
0000
0000
,
1000
0000
0000
0000
,
0001
0000
1000
0000
,
1001
0000
0000
0000
,
0001
0000
0100
0000
,
0001
0000
0000
0000
,
1000
0000
0010
0000
,
0100
0000
0000
0000
,
0010
0000
1000
0000
,
0001
0000
0000
0000
,
1000
0000
0001
0000
,
1000
0000
0000
0000
,
1001
0000
0000
0000
,
0001
0000
0100
0000
,
0001
0000
0010
0000
,
0001
0000
1000
0000
,
0001
0001
0001
0000
,
1000
1000
1000
0000
,
0010
0010
0010
0000
,
0100
0100
0100
0100
,
1001
0000
0000
0000
;

//--------------- dance-single - Fred-104 ----------------
#NOTES:
     dance-single:
     Fred-104:
     Easy:
     9:
     :
0000
0000
0000
0000
,
0000
0000
0000
0000
,
0000
0000
0000
0000
,
1001
0000
0001
0000
0100
0010
0100
0000
,
0001
0010
0100
1000
0001
1000
0001
0000
,
1001
0000
0000
1000
0000
0000
0010
0000
,
0100
0000
0000
0001
0000
0000
0010
0000
,
0001
0000
0000
1000
0000
0000
0010
0000
,
1000
0100
1000
0001
,
1000
1000
0100
0100
,
0001
0001
0010
0010
,
1000
0100
0010
0001
,
1000
0000
0001
1000
0001
0000
0100
0000
,
1001
0000
0001
0000
0100
0010
0100
0000
,
0001
0000
0010
0000
0100
1000
0100
0000
,
1000
0000
0010
0000
1000
0001
1000
0000
,
0001
0100
0001
0000
1000
0010
1000
0000
,
0001
0010
0010
0000
0100
0010
0010
0000
,
0001
0100
0100
0000
1000
0100
0100
0000
,
0001
0010
0100
0000
0010
0001
1000
0000
,
0010
1000
0100
1000
0010
1000
0001
1000
,
0001
0000
0101
0000
0010
1000
0100
0000
,
1000
0000
1100
0000
0010
0001
0100
0000
,
0001
0000
0110
0000
0100
0010
1000
0000
,
0100
1000
0001
0100
0010
1000
0001
0000
,
1000
1100
0100
0000
0010
0011
0001
0000
,
0100
0101
0001
0000
0100
0110
0010
0000
,
1000
1010
0010
0000
1000
1100
1000
0000
,
0001
0000
1001
0000
0001
0000
0000
0000
0100
0000
0010
0000
0100
0010
0100
0000
,
1001
0001
0100
1000
,
0010
0001
1000
0001
,
1000
0010
0100
0010
,
1000
0100
1000
0000
0001
0100
0001
0000
,
1001
1000
0100
0100
0010
0010
0001
0001
,
0100
0100
0010
0010
0100
0100
0001
0001
,
1000
0100
0010
0001
0100
0010
0100
0001
,
1000
0010
0100
0001
1000
0100
0010
0000
,
0001
0000
0000
0101
0000
0000
0001
0000
,
1000
0000
0000
1100
0000
0000
1000
0000
,
0001
0000
0000
0011
0000
0000
0001
0000
,
1000
0000
0010
0000
1000
0001
1000
0000
,
0001
0100
0010
0100
,
0001
0010
0001
1000
,
0100
1000
0100
0000
1000
0001
1000
0000
,
0001
1000
0110
1001
,
2000
0000
0000
3010
0000
0000
0010
0000
,
0200
0000
0000
0301
0000
0000
0001
0000
,
0020
0000
0000
0130
0000
0000
0100
0000
,
1000
0000
0010
0000
1000
0100
1000
0000
,
0001
0001
0010
0010
,
1000
1000
0100
0100
,
0001
0010
0100
1000
,
0001
0000
0100
0010
0100
0000
0001
0000
,
1001
1000
0100
1000
,
0001
0000
0100
0010
0200
0000
0301
0000
,
0010
0001
1000
0001
,
0100
0000
0001
1000
0002
0000
0013
0000
,
0001
0001
0001
0000
0100
0000
0010
0000
,
1000
0010
1000
0100
,
1000
0010
0100
0001
,
2000
3002
1003
1001
,
0001
0000
0101
0000
0001
0100
0002
0000
,
0023
0230
2300
3002
,
0103
0000
0010
0000
0100
0010
0200
0000
,
0302
0000
2003
0000
3001
1000
0001
0000
,
1001
0000
0001
0000
,
0100
0010
1000
0000
,
0100
1000
0001
1000
,
0001
1000
2002
3003
,
0001
0010
0100
1000
,
0001
0000
0100
0000
0001
0010
0001
0000
,
0100
0010
0100
0001
,
1000
0000
0100
0000
0010
0100
0010
0000
,
0100
1000
0010
0100
,
0010
0000
1000
0000
0001
0100
0001
0000
,
0010
0100
0010
0001
,
0100
0000
0010
0000
1000
0001
1000
0000
,
0001
0000
1001
0000
0001
0100
0001
0000
,
0010
0100
0010
0001
,
0100
0000
0010
0000
0100
0010
0100
0000
,
0010
0000
1000
0000
0001
1000
0001
0000
,
1000
0000
1100
0000
1000
0010
0100
0000
,
0010
0000
1000
0000
0100
0010
0001
0000
,
0100
0010
0100
0000
0001
1000
0001
0000
,
0100
0010
0220
0330
,
1001
0000
0000
0000
;

//--------------- dance-single - Fred-104 ----------------
#NOTES:
     dance-single:
     Fred-104:
     Medium:
     13:
     :
0000
0000
0000
0000
,
0000
0000
0000
0000
,
0000
0000
0000
0000
,
1001
0000
1000
0000
0010
1000
0100
0000
,
0010
0000
0001
0000
1000
0000
0001
0000
0100
0010
0100
0010
0100
0010
0100
0000
,
0101
0000
0000
0001
0000
0000
0010
0000
,
1100
0000
0000
1000
0000
0000
0010
0000
,
0110
0000
0000
0100
0000
0000
0001
0000
,
0100
0000
0010
1000
0001
1000
0001
0000
,
1000
0100
0000
0100
0000
0001
0000
0001
,
0000
0010
0000
0010
0000
1000
0000
0001
,
0100
0001
0100
0001
0010
0100
0010
0100
,
1000
0000
0001
1000
0010
0100
0001
0000
,
1100
0000
0110
0000
1100
0000
1000
0020
0000
1030
0100
0000
0010
0001
0100
0000
,
0101
0000
0011
0000
0101
0000
0100
0020
0000
1030
0020
0000
1030
0001
1000
0000
,
1100
0000
1001
0000
1100
0000
1000
0200
0000
0310
0001
0000
0100
0010
0100
0000
,
0001
0010
0001
0000
1000
0010
1000
0000
0001
0000
0020
0032
2003
3002
0203
0000
,
0301
0000
0100
0010
0100
0010
0100
0000
0001
1000
0001
0000
1000
0010
1000
0000
,
0001
0000
0010
0100
0010
0100
0010
0000
0001
1000
0001
1000
0001
0000
2001
0000
,
3010
1000
0010
0000
0100
0001
0100
0000
0001
0010
0001
0000
1000
0100
1000
0000
,
0001
0100
0001
0100
0010
1000
0010
1000
0001
1000
0100
0010
0001
1000
0002
0000
,
1003
0000
1100
0000
1000
0100
0010
0001
1000
0000
0001
0100
0010
0000
0110
0000
,
0010
0000
1010
0000
1000
0100
1000
0001
0100
0000
0002
0013
0001
0100
0001
0000
,
0100
0000
0110
0000
0010
1000
0001
0000
1000
0100
1000
0010
0100
0010
1000
0010
,
0100
0001
1000
0000
0100
1000
0001
0000
1001
0000
0001
0100
0020
0000
0130
0010
,
1000
0000
1100
0000
1000
0010
0100
0000
0010
0000
0200
0301
0010
0000
0011
0000
,
0001
0000
0101
0000
0001
0010
0100
1000
0001
0000
0020
0031
0100
0001
1000
0000
,
0001
0000
1001
0000
1000
0100
1000
0100
0010
0100
0010
0100
0010
0001
0010
0001
,
1000
0000
0001
0000
0010
0000
0100
0000
1000
0000
0010
0000
0100
0000
0001
0000
0100
0000
0000
0000
0010
0000
0000
0000
1000
0001
1000
0001
1000
0000
0000
0000
,
1001
0000
0100
0000
0001
0010
1000
0000
,
0001
0000
0100
0000
1000
0010
0001
0000
,
1000
0001
0100
0001
1000
0001
0010
0001
,
1000
0100
0010
1000
0001
0100
0010
0001
,
1001
0000
1000
0010
0100
0000
0010
0000
1000
0000
0100
0010
0001
0000
0100
0000
,
0001
0000
0010
0001
0100
0000
0010
0000
1000
0000
0100
1000
0010
0000
1000
0000
,
0001
0101
0011
1001
1000
1100
1010
1001
,
0001
0000
0011
0000
0101
0000
0110
0000
0010
1000
0100
1000
0010
0100
0001
0000
,
1001
0000
0000
1100
0000
0000
0110
0000
,
0011
0000
0000
0101
0000
0000
1001
0000
,
1010
0000
0000
0101
0000
0000
1100
0000
,
0001
0000
0100
0010
1000
0001
0010
0000
,
0001
0100
0001
0100
0001
0010
0001
0010
,
0100
1000
0100
1000
0010
1000
0010
1000
,
0001
1000
0001
1000
0010
0100
0010
0100
,
0001
1000
0100
0010
0001
0000
1001
0000
,
1000
0000
0100
1000
0000
0010
0100
0000
,
0010
0000
1000
0100
0000
0010
0001
0000
,
0100
0000
0001
0010
0000
0001
0100
0000
,
0001
0100
0010
0100
0002
0000
0000
0000
,
1003
0100
0000
0100
0000
0001
0000
0001
,
0000
0010
0000
0010
0000
1000
0000
0001
,
1000
0100
1000
0010
1000
0100
1000
0001
,
0100
0000
0010
1000
0001
0000
1001
0000
,
1000
0010
1000
0000
0100
1000
0010
0000
,
0100
0010
0100
0001
0010
0000
0001
0000
,
0100
0001
0010
0000
0001
1000
0010
0000
,
1000
0010
0200
0000
0010
0000
0001
0000
,
0310
0100
0001
0000
1000
0001
0100
0000
,
0001
1000
0010
1000
0100
0000
1000
0000
,
0020
2030
3200
0320
,
0032
0000
0203
0000
0310
0010
1001
0000
,
0110
0000
1001
0000
0001
1000
0010
0000
,
1000
0000
0010
1000
0100
1000
0001
0000
,
0100
0010
0100
0000
0001
0010
0001
1000
,
0001
0000
0100
0010
1000
0010
0100
0000
,
0101
0001
0010
0100
,
1000
0010
0001
0100
,
1000
0010
1000
0010
0100
0001
0100
0001
,
1000
0000
0000
1000
0000
0000
0001
0000
0100
0000
0000
0000
0110
0000
0000
0000
,
0010
1000
0100
0000
1000
0010
0100
0000
,
0010
1000
0001
0000
0100
0001
0010
0000
,
0001
1000
0010
0000
1000
0001
0100
0000
,
0001
0010
0100
0000
1000
0010
0100
0000
,
0001
1000
0010
0000
1000
0001
0100
0000
,
0001
0010
0100
0000
1000
0100
0010
0000
,
0001
1000
0010
0000
1000
0100
0010
0000
,
0100
1000
0010
0100
0001
1000
0001
0000
,
1010
0000
0101
0000
0001
1000
0010
0000
,
1000
0010
0100
0010
1000
0000
0100
0000
,
0010
0001
1000
0000
0001
1000
0100
0000
,
1000
0010
0100
0001
1000
0001
0100
0000
,
0101
0000
0001
0010
0100
0000
1000
0100
,
0010
0000
0100
0000
1000
0000
0001
0000
0010
0000
0000
0001
0100
0000
0010
0000
,
0100
0001
0100
0010
0100
0001
1000
0010
,
1000
0000
0000
0100
0000
0000
1000
0000
0001
0000
0100
0000
0010
0000
0000
0000
,
1001
0000
0000
0000
;

//--------------- dance-single - Fred-104 ----------------
#NOTES:
     dance-single:
     Fred-104:
     Hard:
     17:
     :
0000
0000
0000
0000
,
0000
0000
0000
0000
,
0000
0000
0000
0000
,
1001
0000
0001
0010
0100
1000
0001
1000
,
0001
0000
0000
0000
0100
0000
0000
0000
0010
0000
0000
0000
0100
0000
0000
0000
0001
0000
1000
0000
0001
0000
1000
0000
0001
1000
0001
1000
0001
0000
0000
0000
,
1001
0000
0000
0000
0001
0000
0101
0000
0000
0000
0100
0000
0010
0000
1000
0100
,
1000
0000
0000
0000
0100
0000
0110
0000
0000
0000
0010
0000
0001
0000
0100
0001
,
0100
0000
0000
0000
0001
0000
0011
0000
0000
0000
0010
0000
0001
0000
1000
0100
,
1000
0000
0000
0000
0100
0000
1000
0000
0001
1000
0001
1000
0002
0000
0000
0000
,
1003
0100
1000
0100
0001
0010
0001
0010
,
1000
0100
1000
0100
0001
0010
0001
0010
,
1000
0000
0100
0000
0010
0000
0001
0000
1000
0100
1000
0010
0100
0001
0010
0001
,
1000
0000
0000
0000
0001
0000
0100
0000
0001
0010
0001
0010
0001
0000
1000
0000
,
1001
0000
0001
1000
0010
0000
1000
2000
0000
3001
0001
0100
0001
0010
0100
0010
,
0001
0000
0100
0010
1000
0000
0001
0002
0000
1003
2000
3010
0100
0001
0100
0001
,
1000
0000
0001
0010
1000
0000
0010
0002
0000
1003
0001
0100
0010
0100
0010
0100
,
0001
0100
0010
0100
0010
0100
0001
0000
2000
0000
3020
2030
3200
0320
0032
0003
,
1001
0000
1000
0100
0100
0100
1000
0000
0001
0010
0010
0010
0001
0100
0100
0100
,
0001
0000
0010
0000
0010
0000
0010
0000
0001
0000
1000
0000
0001
0000
0000
0000
1000
0000
0010
0000
1000
0001
1000
0001
1000
0000
0000
0000
1002
0000
0000
0000
,
1003
0001
1000
0001
0010
1000
0010
1000
0001
0100
0001
0100
1000
0001
1000
0001
,
1000
0000
0100
0000
0010
0000
0001
0000
0100
0000
0010
0000
0001
0000
0010
0000
1000
0000
1000
0000
0001
0000
0001
0000
1000
0001
1000
0001
1000
0000
0000
0000
,
1001
0000
0110
0000
2000
0010
3020
0000
0230
0000
0301
1000
0001
0000
1001
0000
,
1100
0000
0101
0000
1000
0010
0010
0010
0200
0000
0320
1030
1001
0000
0110
0000
,
1001
0000
1100
1000
0010
0100
0001
1000
0001
0010
0010
0010
0100
0010
0010
0010
,
0001
0000
1000
0000
0010
0000
0000
0000
1100
0000
1000
0000
0001
0000
0000
0000
0101
0000
0000
0000
0100
0000
0010
0000
2000
0000
0000
0000
3001
1000
0001
1000
,
0001
0100
0101
0000
1000
0100
0002
0000
0103
1000
1100
1000
0001
0100
0010
0100
,
0001
0010
0110
0000
1000
0010
0010
0010
0100
0001
0101
0100
0010
1000
0002
0000
,
1003
0000
1020
0000
1030
0100
0100
0100
1000
0010
0200
0000
0301
0100
2000
3100
,
0001
0000
0100
0000
0020
0000
0130
0000
0010
0000
1000
0000
0001
0000
1000
0000
0001
0000
0100
0000
0002
0000
0000
0000
1003
0001
1000
0001
1000
0000
0001
0000
,
1001
1000
0010
0100
0001
0100
0001
1000
,
0100
1000
0010
0100
0001
0100
0010
1000
,
0001
0010
0100
1000
0010
0100
0001
1000
,
0001
0000
0010
1000
0010
0000
0001
0000
1000
0000
0100
0001
0100
0000
1000
0000
,
1001
0000
0001
0010
0011
0000
0001
0000
0100
0000
0010
1000
1001
0001
0100
0000
,
0001
0000
0010
0100
1100
0000
1000
0000
0010
0000
0100
0001
0011
0001
1000
0000
,
1001
0000
0110
0000
1010
1000
0100
0000
0110
0000
0011
0000
0101
0001
0100
0000
,
0110
0000
1010
0000
1100
1000
0001
0001
1000
0100
0010
0001
1000
0010
0100
0001
,
0101
0000
0000
0000
0001
0000
0011
0000
0000
0000
0010
0000
0001
0000
1000
0010
,
1000
0000
0000
0000
0100
0000
0110
0000
0000
0000
0010
0000
0001
0000
1000
0001
,
1000
0000
0000
0000
0100
0000
1100
0000
0000
0000
1000
0000
0010
0000
0100
0001
,
0100
0000
0000
0000
0001
0000
1000
0000
0001
0000
0100
0010
0100
0000
0001
0000
,
1000
0000
0100
0000
1000
0010
1000
0010
0100
0000
0001
0000
0010
0001
0010
0001
,
0100
0000
0010
0000
0100
0001
0100
0001
0010
0000
0100
1000
0001
1000
0001
0000
,
1000
0100
0010
0001
0100
0001
0010
0100
1000
0001
0010
0001
0100
0010
0100
0001
,
1000
0100
0001
0100
0220
0330
2002
3003
,
1000
0000
0100
0000
0100
0000
1000
0000
0010
0000
0010
0000
1000
0001
0100
0001
,
1000
0000
0100
0000
0100
0000
0010
0000
0100
0000
0100
0000
1000
0001
0100
0001
,
1000
0000
0010
0000
0010
0000
0001
0000
0010
0000
0010
0000
1000
0100
0010
0001
,
1000
0000
0010
0000
0100
0000
0001
0010
0001
0000
1000
0001
0100
0000
0000
0000
,
1001
0001
0100
0010
0100
0001
1000
0100
,
0010
0001
0100
0010
1000
0100
0010
0100
,
1000
0000
0100
0000
0010
0000
0001
0000
0100
0010
0100
0001
1000
0001
0100
0001
,
0010
0000
0000
0000
0001
0000
1000
0000
0001
1000
0010
0100
0001
0000
1000
0000
,
1001
0000
0000
0000
0110
0000
0000
0000
1001
0000
0001
0100
0001
0000
0010
0000
,
0100
0000
1000
0010
1000
0000
0010
0000
0100
0000
0001
0000
0010
0000
0001
1000
,
0100
0000
0000
0000
1100
0000
0000
0000
0110
0000
0010
0001
0100
0000
0001
0000
,
1000
0000
0001
0100
0002
0000
0013
0000
0100
0000
1000
0000
0010
0000
1000
0001
,
0100
0000
0100
0000
0110
0000
0000
0000
1001
0000
0001
1000
0010
0000
1000
0000
,
0100
0000
0010
0001
1000
0000
0010
0000
0100
0000
0001
1000
0010
0000
1000
0001
,
0200
0000
0000
0000
0301
0100
0010
0000
0200
0000
0000
0000
0302
0000
1003
0001
,
2000
0000
3020
0000
0130
0100
1001
0000
,
0110
0000
0000
0000
1001
0000
0001
0000
0100
0001
0010
0000
0001
0000
1000
0000
,
2001
0000
0000
0000
3001
0100
0010
1000
0001
0000
1000
0100
1000
0000
0000
0000
,
0110
0000
0000
0000
0011
0000
0001
0000
1000
0001
0100
0000
0010
0000
0100
0000
,
0002
0000
0000
0000
0013
0100
1000
0001
1000
0010
0100
0001
0100
0001
0100
0000
,
0101
0001
0100
0001
0100
0010
1000
0010
,
1000
0100
0010
0001
0101
0000
1010
0000
,
1000
0100
1000
0010
0100
0010
1000
0001
,
1001
0000
0000
1010
0000
0000
0101
0000
1100
0000
0000
0000
0011
0000
0000
0000
,
2001
3001
0200
0310
0200
0301
0020
0031
,
2000
3100
0020
0031
0200
0310
0200
0301
,
0020
0130
2000
3010
0200
1300
0200
0301
,
2000
0000
3010
0000
0002
0000
0013
0000
0100
0001
0100
0001
2000
0000
3000
0000
,
2001
3001
2000
3010
0200
0310
0200
0301
,
2000
3010
0200
0301
2000
3100
0010
0001
,
0200
0310
0002
0013
2000
3001
0200
1300
,
0200
0000
0310
0000
2000
0000
3100
0000
0010
0001
0010
0001
2000
0000
3000
0000
,
1100
0000
0210
0310
0002
1003
0002
0103
,
0002
0013
0200
1300
0002
0103
0020
0130
,
0002
0013
0200
0301
2000
3010
0200
1300
,
0002
0000
0103
0000
0020
0000
1030
0000
0001
0010
0100
1000
0200
0000
0300
0000
,
1100
0000
0000
0000
1001
0000
0001
0100
0010
0000
0000
0000
0110
0000
0010
0000
,
1000
0000
0100
0000
0010
0000
0001
0100
0010
0000
0000
0100
0001
0000
1000
0000
,
0001
0010
1000
0010
0001
0100
1000
0100
,
0101
0000
0000
0011
0000
0000
1100
0000
1010
0000
0010
0100
0010
0000
1000
0000
,
1001
0000
0000
0000
;

//--------------- dance-double - Fred-104 ----------------
#NOTES:
     dance-double:
     Fred-104:
     Easy:
     9:
     :
00000000
00000000
00000000
00000000
,
00000000
00000000
00000000
00000000
,
00000000
00000000
00000000
00000000
,
00011000
00000000
00010000
00000000
00000100
00001000
00000100
00000000
,
00010000
00000100
00001000
00000001
00000100
00000010
00001000
00000000
,
00001001
00000000
00000000
00000001
00000000
00000000
00000100
00000000
,
00000010
00000000
00000000
00001000
00000000
00000000
00000100
00000000
,
00010000
00000000
00000000
00001000
00000000
00000000
00010000
00000000
,
00001000
01000000
00100000
01000000
,
00010000
00010000
00100000
00100000
,
01000000
01000000
10000000
10000000
,
00010000
01000000
00100000
10000000
,
01000000
00000000
00100000
00001000
00100000
00000000
00001000
00000000
,
00011000
00000000
00001000
00000000
00000100
00000010
00000001
00000000
,
00000100
00000000
00000010
00000000
00001000
00000001
00000010
00000000
,
00000001
00000000
00000100
00000000
00000010
00001000
00000100
00000000
,
00010000
00001000
01000000
00000000
00010000
00100000
01000000
00000000
,
10000000
01000000
00010000
00000000
10000000
00100000
00010000
00000000
,
00001000
00000100
00000001
00000000
00001000
00000010
00000001
00000000
,
00001000
00000010
00000100
00000000
00000001
00001000
00000010
00000000
,
00001000
00000001
00000010
00000100
00001000
00000100
00010000
01000000
,
00010000
00000000
00011000
00000000
01000000
00100000
01000000
00000000
,
00010000
00000000
11000000
00000000
01000000
00100000
00001000
00000000
,
00010000
00000000
00010010
00000000
00000010
00001000
00000100
00000000
,
00000010
00000001
00001000
00000001
00000100
00000010
00001000
00000000
,
00000001
00000011
00000001
00000000
00001000
00001100
00001000
00000000
,
00010000
00011000
00010000
00000000
01000000
01100000
01000000
00000000
,
10000000
11000000
10000000
00000000
00010000
01010000
00010000
00000000
,
01000000
00000000
01100000
00000000
01000000
00000000
00000000
00000000
00010000
00000000
10000000
00000000
00100000
10000000
00100000
00000000
,
01100000
00010000
10000000
01000000
,
00100000
00010000
00100000
00001000
,
00010000
00000100
00001000
00000001
,
00000100
00000010
00001000
00000001
,
00001001
00000001
00000010
00000010
00000100
00000100
00010000
00010000
,
00001000
00001000
00100000
00100000
01000000
01000000
10000000
10000000
,
00010000
01000000
00100000
01000000
00010000
00100000
00001000
00010000
,
00000100
00001000
00000010
00010000
00001000
00010000
00001000
00000000
,
00000100
00000000
00000000
00000110
00000000
00000000
00000100
00000000
,
00000001
00000000
00000000
00000011
00000000
00000000
00000001
00000000
,
00001000
00000000
00000000
00001010
00000000
00000000
00001000
00000000
,
00000001
00000000
00000100
00000000
00000010
00001000
00000010
00000000
,
00010000
00001000
00100000
01000000
,
00010000
00001000
00100000
01000000
,
00001000
00010000
00001000
00000000
00010000
00000100
00010000
00000000
,
00000010
00001000
00001010
00000101
,
00000002
00000000
00000000
00000013
00000000
00000000
00000001
00000000
,
00000200
00000000
00000000
00000310
00000000
00000000
00000100
00000000
,
00000020
00000000
00000000
00010030
00000000
00000000
00001000
00000000
,
00010000
00000000
00001000
00000000
00100000
00010000
00100000
00000000
,
00010000
00010000
01000000
01000000
,
00100000
00100000
10000000
10000000
,
00010000
00100000
00001000
00010000
,
00000010
00000000
00001000
00000010
00000100
00000000
00000001
00000000
,
00001001
00001000
00000010
00001000
,
00000001
00000000
00000010
00000100
00000020
00000000
00000031
00000000
,
00001000
00000010
00010000
00001000
,
00010000
00000000
00000100
00001000
00000200
00000000
00010300
00000000
,
00001000
00001000
00001000
00000000
00010000
00000000
00001000
00000000
,
00100000
00010000
01000000
00010000
,
00100000
00010000
01000000
00100000
,
20000000
30020000
10030000
10010000
,
01000000
00000000
01100000
00000000
00001000
00010000
00002000
00000000
,
00023000
00030020
00002030
00003200
,
00010300
00000000
00001000
00000000
00000100
00000001
00000200
00000000
,
00000302
00000000
00002003
00000000
00003001
00000010
00000001
00000000
,
00001001
00000000
00001000
00000000
,
00000010
00001000
00000100
00000000
,
00010000
00001000
00010000
00001000
,
00010000
00001000
00022000
00033000
,
00001000
00010000
00001000
00100000
,
00010000
10000000
00010000
00100000
,
01000000
10000000
01000000
00100000
,
00010000
00000000
01000000
00000000
00001000
00010000
00001000
00000000
,
00000010
00000001
00001000
00000001
,
00000100
00000010
00001000
00000100
,
00000010
00000100
00010000
00001000
,
00100000
00000000
01000000
00000000
00100000
00001000
00100000
00000000
,
00001000
00000000
00011000
00000000
00010000
00001000
00010000
00000000
,
00000100
00001000
00000010
00000100
,
00000001
00001000
00000100
00000010
,
00000001
00000000
00000100
00000000
00000010
00000100
00000010
00000000
,
00000001
00000000
00001001
00000000
00000001
00001000
00000100
00000000
,
00010000
00000000
00001000
00000000
00100000
01000000
00100000
00000000
,
00010000
10000000
00010000
00000000
01000000
00100000
01000000
00000000
,
00100000
10000000
22000000
33000000
,
10010000
00000000
00000000
00000000
;

//--------------- dance-double - Fred-104 ----------------
#NOTES:
     dance-double:
     Fred-104:
     Medium:
     13:
     :
00000000
00000000
00000000
00000000
,
00000000
00000000
00000000
00000000
,
00000000
00000000
00000000
00000000
,
10010000
00000000
00010000
10000000
01000000
00000000
10000000
00100000
,
01000000
00000000
00100000
00000000
10000000
00000000
01000000
00000000
00100000
00001000
00100000
00001000
00010000
00001000
00010000
00000000
,
00011000
00000000
00000000
00000010
00000000
00000000
00001000
00000000
,
00001001
00000000
00000000
00000001
00000000
00000000
00000100
00000000
,
00000110
00000000
00000000
00000010
00000000
00000000
00010000
00000000
,
00011000
00000000
00001000
00100000
00010000
10000000
00010000
00000000
,
10000000
01000000
00000000
01000000
00000000
00100000
00000000
00100000
,
00000000
00001000
00000000
00001000
00000000
00010000
00000000
00100000
,
10000000
01000000
10000000
00100000
01000000
00001000
00100000
00001000
,
00010000
00000000
00000100
00001000
00000001
00000100
00000010
00000000
,
00001001
00000000
00000011
00000000
00001001
00000000
00000001
00000200
00000000
00000310
00001000
00000000
00000100
00010000
00001000
00000000
,
00011000
00000000
00101000
00000000
00011000
00000000
00001000
00200000
00000000
00310000
20000000
00000000
31000000
00100000
01000000
00000000
,
11000000
00000000
01010000
00000000
11000000
00000000
10000000
02000000
00000000
03100000
00001000
00000000
00010000
00001000
00010000
00000000
,
00000010
00001000
00000010
00000000
00001000
00000100
00001000
00000000
00000001
00000000
00000200
00000320
00002030
00003020
00000230
00000000
,
00000301
00000000
00000100
00000010
00001000
00000010
00000100
00000000
00000001
00000010
00001000
00000000
00010000
01000000
10000000
00000000
,
00010000
00000000
01000000
00100000
01000000
00100000
01000000
00000000
00010000
10000000
00010000
10000000
00010000
00000000
20010000
00000000
,
30100000
10000000
01000000
00000000
00100000
00010000
01000000
00000000
00001000
00010000
00000100
00000000
00001000
00000001
00000010
00000000
,
00000001
00000100
00000001
00000100
00000010
00001000
00000010
00001000
00000100
00000010
00000001
00000100
00001000
00010000
00002000
00000000
,
00013000
00000000
00011000
00000000
00001000
00010000
00100000
10000000
00010000
00000000
01000000
00100000
01000000
00000000
01010000
00000000
,
01000000
00000000
01100000
00000000
00100000
10000000
00100000
01000000
00010000
00000000
20000000
31000000
00010000
00001000
00010000
00000000
,
00001000
00000000
00001010
00000000
00000010
00000001
00001000
00000000
00000001
00000100
00000010
00000100
00000001
00000100
00000010
00000000
,
00001000
00000100
00000001
00000000
00001000
00000010
00000001
00000000
00001001
00000000
00000001
00000100
00000020
00000000
00010030
00001000
,
00010000
00000000
00011000
00000000
00001000
00100000
01000000
00000000
00100000
00000000
00002000
00013000
00001000
00000000
00011000
00000000
,
00010000
00000000
00010100
00000000
00010000
00001000
00000010
00000100
00000010
00000000
00000200
00010300
00001000
00010000
00001000
00000000
,
00010000
00000000
00011000
00000000
00001000
00100000
00001000
00100000
00010000
01000000
00010000
01000000
00100000
01000000
00100000
01000000
,
00010000
00000000
00100000
00000000
01000000
00000000
00100000
00000000
00010000
00000000
01000000
00000000
00100000
00000000
10000000
00000000
01000000
00000000
00000000
00000000
00100000
00000000
00000000
00000000
00001000
00010000
00001000
00010000
00001000
00000000
00000000
00000000
,
00011000
00000000
00000010
00000000
00000001
00000100
00001000
00000000
,
00010000
00000000
00100000
00000000
10000000
01000000
00010000
00000000
,
00001000
00000000
00000100
00000000
00000001
00000010
00001000
00000000
,
00010000
00000000
01000000
00000000
10000000
00100000
00010000
00000000
,
00011000
00000000
00010000
00000100
00001000
00000000
00000010
00000000
00000100
00000000
00000001
00000010
00000100
00000010
00000001
00000000
,
00001000
00000000
00000001
00000010
00000100
00000000
00010000
00000000
00001000
00000000
00100000
00001000
00010000
00001000
01000000
00000000
,
00010000
00000000
00100000
10000000
00100000
00000000
00010000
00000000
10000000
00000000
01000000
00010000
01000000
10000000
00010000
00000000
,
01000000
00000000
00100000
10000000
01000000
00100000
00010000
00000000
01000000
00001000
00010000
00001000
00010000
00000100
00000010
00000000
,
00000011
00000000
00000000
00000101
00000000
00000000
00000110
00000000
,
00001010
00000000
00000000
00001100
00000000
00000000
00010100
00000000
,
00011000
00000000
00000000
01001000
00000000
00000000
00110000
00000000
,
00010000
00000000
01000000
00100000
10000000
00010000
01000000
00000000
,
00010000
10000000
01000000
10000000
00100000
01000000
00100000
00000000
,
10000000
01000000
00100000
00001000
00010000
00001000
00010000
00000000
,
00000010
00001000
00000100
00000010
00000001
00000100
00000010
00001000
,
00000100
00010000
00001000
01000000
00010000
00000000
00110000
00000000
,
00010000
01000000
01000000
00010000
00100000
00100000
00010000
00000000
,
01000000
00100000
00100000
10000000
00100000
00100000
01000000
00000000
,
00010000
00100000
00100000
00001000
00010000
00010000
00100000
00000000
,
00001000
00010000
00000010
00001000
00000200
00000000
00000000
00000000
,
00001300
00000100
00000000
00000010
00000000
00000001
00000000
00000100
,
00000000
00001000
00000000
00010000
00000000
00100000
00000000
10000000
,
00010000
01000000
00100000
10000000
01000000
00100000
00010000
00001000
,
00010000
00000000
00000100
00001000
00000010
00010000
00001000
00000000
,
00010000
00001000
00100000
00000000
00010000
10000000
00010000
00000000
,
01000000
00100000
10000000
00100000
01000000
00000000
00010000
00000000
,
10000000
01000000
00100000
00000000
00010000
00100000
01000000
00000000
,
10000000
00100000
01000000
00010000
00001000
00010000
00000100
00000000
,
00001000
00000010
00000100
00000000
00000010
00001000
00000100
00000000
,
00000010
00000001
00001000
00000001
00000100
00000010
00001000
00000000
,
00000002
00000203
00000320
00002030
,
00003200
00000000
00000320
00000000
00000031
00001000
00001001
00000000
,
00000110
00000000
00001001
00000000
00000001
00000010
00000100
00000000
,
00010000
00000000
00001000
00100000
00010000
10000000
00010000
00000000
,
01000000
00000000
01100000
00000000
00100000
10000000
01000000
10000000
,
00010000
00000000
01000000
00100000
01000000
00010000
00001000
00010000
,
00001000
00000010
00000001
00001000
,
00000001
00000100
00000010
00010000
,
00001000
00100000
00001000
00100000
00010000
10000000
00010000
10000000
,
01000000
00000000
00000000
01000000
00000000
00000000
01000000
00000000
10000000
00000000
00000000
00000000
10010000
00000000
00000000
00000000
,
11000000
00000000
00100000
00000000
00010000
01000000
00010000
00000000
,
00100000
00000000
00001000
00010000
00001000
00000000
00000010
00000000
,
00000100
00000000
00000101
00000000
00000001
00000010
00000100
00000000
,
00000010
00000000
00000001
00001000
00000010
00000100
00000001
00000000
,
00000100
00000000
00000110
00000000
00000010
00001000
00010000
00000000
,
00001000
00000000
00010000
00100000
10000000
00010000
01000000
00000000
,
00100000
00000000
01100000
00000000
00100000
10000000
00010000
00000000
,
10000000
01000000
00100000
01000000
10000000
00100000
01000000
00000000
,
01100000
00000000
10010000
00000000
00010000
01000000
00100000
00000000
,
10000000
00000000
01000000
00100000
00001000
00000000
00010000
00000000
,
00000100
00001000
00000010
00000000
00000100
00000001
00000010
00000000
,
00000100
00001000
00000010
00001000
00000100
00001000
00000001
00000000
,
00000100
00000000
00000001
00000010
00000001
00000000
00001000
00000010
,
00000100
00000010
00010000
00001000
00010000
00000000
00001000
00000000
,
00100000
00010000
10000000
00010000
01000000
00100000
10000000
01000000
,
00100000
00000000
00000000
00001000
00000000
00000000
00000010
00000000
00000001
00000000
00000000
00000000
00001100
00000000
00000000
00000000
,
00001001
00000000
00000000
00000000
;

//--------------- dance-double - Fred-104 ----------------
#NOTES:
     dance-double:
     Fred-104:
     Hard:
     16:
     :
00000000
00000000
00000000
00000000
,
00000000
00000000
00000000
00000000
,
00000000
00000000
00000000
00000000
,
00001010
00000000
00001000
00000001
00000100
00000010
00001000
00000100
,
00010000
00000000
00000000
00000000
00001000
00000000
00000000
00000000
01000000
00000000
00000000
00000000
00010000
00000000
00000000
00000000
00100000
00000000
00010000
00000000
10000000
00000000
00100000
00000000
01000000
00010000
01000000
00010000
01000000
00000000
00000000
00000000
,
01100000
00000000
00000000
00000000
00100000
00000000
10000000
00000000
00000000
00000000
01000000
00000000
10000000
00000000
01000000
00100000
,
01000000
00000000
00000000
00000000
00100000
00000000
00001000
00000000
00000000
00000000
00010000
00000000
00000010
00000000
00001000
00000100
,
00001000
00000000
00000000
00000000
00000100
00000000
00000010
00000000
00000000
00000000
00000001
00000000
00000100
00000000
00000010
00000100
,
00000010
00000000
00000000
00000000
00000100
00000000
00000001
00000000
00001000
00000001
00001000
00000001
00001000
00000000
00000000
00000000
,
00000001
00000100
00000001
00000100
00000010
00001000
00000010
00001000
,
00000100
00010000
00000100
00010000
00001000
00100000
00001000
00100000
,
00010000
00000000
01000000
00000000
00100000
00000000
10000000
00000000
01000000
00100000
01000000
00100000
00001000
00010000
00001000
00010000
,
00001000
00000000
00000000
00000000
00010000
00000000
00000010
00000000
00001000
00000010
00001000
00000010
00000100
00000000
00000001
00000000
,
00001001
00000000
00000001
00000010
00000100
00000000
00000010
00000002
00000000
00001003
00000001
00000100
00000010
00001000
00000100
00000000
,
00010100
00000000
00010000
00001000
00010000
00000000
00001000
00200000
00000000
00310000
20000000
30010000
01000000
00100000
10000000
00100000
,
01000000
00000000
00010000
10000000
01000000
00000000
00010000
02000000
00000000
13000000
00100000
01000000
00010000
01000000
00010000
01000000
,
00001000
00010000
00001000
00010000
00000100
00001000
00000100
00000000
00000020
00000000
00000032
00002003
00003020
00000230
00000301
00000000
,
00000101
00000000
00000001
00000010
00000100
00000010
00000001
00000000
00001000
00000010
00010000
00001000
00100000
00010000
10000000
00100000
,
01000000
00000000
00100000
00000000
10000000
00000000
00100000
00000000
01000000
00000000
00010000
00000000
10000000
00000000
00000000
00000000
01000000
00000000
00100000
00000000
00001000
00010000
00001000
00010000
00001000
00000000
00000000
00000000
00021000
00000000
00000000
00000000
,
00031000
00010000
00001000
00010000
00001000
00000010
00001000
00000010
00000001
00000010
00000001
00000010
00001000
00010000
00001000
00010000
,
00100000
00000000
10000000
00000000
00100000
00000000
10000000
00000000
00100000
00000000
00010000
00000000
00100000
00000000
00010000
00000000
00001000
00000000
00010000
00000000
00001000
00000000
00010000
00000000
00001000
00010000
00001000
00010000
00001000
00000000
00000000
00000000
,
00011000
00000000
00010100
00000000
00001000
00000010
00000200
00000000
00000320
00000000
00001030
00000100
00000010
00000000
00000011
00000000
,
00000101
00000000
00000011
00000000
00000001
00001000
00000010
00000100
00000002
00000000
00001003
00000100
00000010
00000001
00001000
00000000
,
00001100
00000000
00000001
00001000
00000010
00000100
00000010
00010000
00001000
00100000
00010000
00100000
00001000
00010000
00001000
01000000
,
00010000
00000000
00100000
00000000
01000000
00000000
00000000
00000000
10000000
00000000
00100000
00000000
01000000
00000000
00000000
00000000
01100000
00000000
00000000
00000000
00100000
00000000
10000000
00000000
02000000
00000000
00000000
00000000
03010000
00001000
00010000
00001000
,
00010000
00001000
00011000
00000000
00001000
00000010
00000002
00000000
00001003
00000000
00001001
00000001
00000010
00000000
00000100
00000000
,
00010000
00001000
00011000
00000000
00001000
00100000
00010000
10000000
00010000
00000000
01010000
00010000
01000000
00100000
01000000
00000000
,
00100000
10000000
00020000
00000000
10030000
01000000
10000000
00100000
01000000
00100000
20000000
31000000
00100000
00001000
00010000
00000100
,
00010000
00000000
00000100
00000000
00002000
00000000
00003100
00000000
00000010
00000000
00000001
00000000
00001000
00000000
00000010
00000000
00000100
00000000
00000001
00000000
00000200
00000000
00000000
00000000
00000301
00001000
00000001
00001000
00000001
00000000
00000100
00000000
,
00000110
00000010
00001000
00000100
00000010
00000001
00000100
00001000
,
00010000
00100000
10000000
00010000
01000000
00100000
10000000
00010000
,
10000000
01000000
00010000
00001000
00000010
00000001
00000100
00001000
,
00010000
00100000
10000000
01000000
00010000
00001000
00000010
00000001
,
00001001
00000000
00000001
00000100
00000010
00000000
00001000
00000000
00001100
00000000
00000100
00010000
00001000
00010000
00001000
00000000
,
00101000
00000000
00100000
00010000
10000000
00000000
00010000
00000000
01010000
00000000
01000000
00100000
10000000
00100000
01000000
00000000
,
00010000
00100000
01000000
00000000
00100000
00010000
10000000
00000000
00010000
01000000
10000000
00000000
00100000
00010000
00001000
00000000
,
00000010
00000001
00000100
00000000
00001000
00010000
00100000
00000000
10000000
00010000
01000000
00010000
10000000
01000000
00100000
00010000
,
00110000
00000000
00000000
00000000
00001000
00000000
00010000
00000000
00000000
00000000
00010000
00000000
00000100
00000000
00001000
00000001
,
00001000
00000000
00000000
00000000
00000010
00000000
00000100
00000000
00000000
00000000
00000100
00000000
00000001
00000000
00000010
00000001
,
00000010
00000000
00000000
00000000
00000001
00000000
00000100
00000000
00000000
00000000
00000100
00000000
00000010
00000000
00001000
00000100
,
00001000
00000000
00000000
00000000
00000100
00000000
00010000
00000000
00001000
00000000
00010000
01000000
00010000
00000000
01000000
00000000
,
00100000
00000000
10000000
00000000
01000000
00000000
10000000
00100000
10000000
00000000
01000000
00000000
00100000
00000000
00001000
00010000
,
00001000
00000000
00000010
00000000
00000100
00000000
00000001
00000010
00000001
00000000
00001000
00000001
00001000
00000001
00001000
00000000
,
00000001
00000100
00000001
00000000
00001000
00000010
00001000
00000000
00000100
00010000
00000100
00000000
00010000
00001000
00010000
00000000
,
00001000
00010000
00100000
10000000
00010000
00000000
10010000
00000000
,
10000000
01000000
01000000
00100000
01000000
01000000
11000000
00000000
,
00010000
00100000
00100000
00010000
00100000
00100000
00110000
00000000
,
00001000
00010000
00010000
00000010
00010000
00010000
00011000
00000000
,
00010000
00001000
00000100
00000001
00001000
00000001
00001001
00000000
,
00001000
00000010
00001000
00000010
00000100
00000001
00000100
00000001
,
00001000
00000100
00001000
00000100
00010000
00001000
00010000
00001000
,
00100000
00000000
00010000
00000000
10000000
00000000
00100000
00000000
01000000
00010000
01000000
00010000
10000000
00010000
10000000
00010000
,
01000000
00000000
00000000
00000000
00100000
00000000
10000000
00000000
01000000
00100000
01000000
00100000
00001000
00000000
00010000
00000000
,
00011000
00000000
00000000
00000000
00010010
00000000
00000000
00000000
00000010
00000000
00001000
00000010
00001000
00000000
00000010
00000000
,
00000100
00000000
00000001
00000100
00000001
00000000
00000010
00000000
00000100
00000000
00000010
00000000
00000001
00000000
00001000
00000001
,
00001000
00000000
00000000
00000000
00001001
00000000
00000000
00000000
00000001
00000000
00001000
00000010
00001000
00000000
00000100
00000000
,
00010000
00000000
00001000
00010000
00002000
00000000
00103000
00000000
01000000
00000000
00100000
00000000
00010000
00000000
10000000
00010000
,
10000000
00000000
10000000
00000000
10010000
00000000
00000000
00000000
00010000
00000000
00100000
01000000
00100000
00000000
00010000
00000000
,
10000000
00000000
00100000
10000000
00100000
00000000
01000000
00000000
00100000
00000000
00001000
00000000
00010000
00000000
00001000
00010000
,
00002000
00000000
00000000
00000000
00013000
00000010
00001000
00000000
00000020
00000000
00000000
00000000
00000230
00000000
00000301
00000010
,
00000002
00000000
00000203
00000000
00001300
00010000
00011000
00000000
,
01010000
00000000
00000000
00000000
11000000
00000000
10000000
00000000
00010000
00100000
00010000
00000000
01000000
00000000
00100000
00000000
,
10200000
00000000
00000000
00000000
10300000
00000000
01000000
00000000
00100000
00000000
00001000
00010000
00001000
00000000
00000000
00000000
,
00011000
00000000
00000000
00000000
00010010
00000000
00000000
00000000
00000010
00001000
00000010
00000000
00000100
00000000
00000001
00000000
,
00002000
00000000
00000000
00000000
00003100
00000010
00000100
00000010
00000001
00001000
00000001
00001000
00000001
00000000
00000000
00000000
,
00001001
00000001
00000100
00000001
00000100
00001000
00000100
00001000
,
00010000
01000000
10000000
00010000
10010000
00000000
01100000
00000000
,
00010000
10000000
00100000
10000000
01000000
00100000
00010000
01000000
,
01010000
00000000
00000000
01001000
00000000
00000000
00011000
00000000
00010100
00000000
00000000
00000000
00001001
00000000
00000000
00000000
,
00002000
00003100
00000020
00000031
00000200
00000310
00000200
00000301
,
00000020
00000031
00002000
00003001
00000200
00001300
00020000
00130000
,
20000000
30010000
02000000
03100000
20000000
30100000
02000000
03010000
,
20000000
00000000
31000000
00000000
00200000
00000000
00310000
00000000
02000000
00000000
03001000
00010000
00002000
00000000
00003000
00000000
,
00020000
00031000
00020000
00030010
00020000
00031000
00020000
00030100
,
00002000
00003100
00000020
00000031
00000200
00001300
00000100
00000001
,
00002000
00003100
00000020
00001030
00000020
00000031
00002000
00003001
,
00000200
00000000
00001300
00000000
00020000
00000000
01030000
00000000
10000000
00010000
10000000
00010000
20000000
00000000
30000000
00000000
,
11000000
00000000
02100000
03100000
00020000
10030000
00200000
01300000
,
00200000
10300000
02000000
03010000
00002000
00003010
00000002
00001003
,
00000002
00000103
00000020
00000130
00000002
00000013
00000200
00001300
,
00000200
00000000
00010300
00000000
00002000
00000000
00103000
00000000
00010000
10000000
00010000
10000000
02000000
00000000
03000000
00000000
,
11000000
00000000
00000000
00000000
01100000
00000000
00010000
00100000
00010000
00000000
00000000
00000000
00101000
00000000
00001000
00000000
,
00010000
00000000
00000010
00000000
00001000
00000000
00000100
00000010
00000100
00000000
00000000
00000010
00000001
00000000
00001000
00000000
,
00000001
00000010
00000100
00010000
00001000
00100000
01000000
10000000
,
10100000
00000000
00000000
01010000
00000000
00000000
11000000
00000000
01100000
00000000
00100000
00010000
00100000
00000000
00000000
00000000
,
00011000
00000000
00000000
00000000
;
