#TITLE:カーテンコール・メモリーズ;
#ARTIST:DJ TOTTO & Qrispy Joybox;
#TITLETRANSLIT:Curtain call memories;
#BANNER:Curtain call memories.png;
#BACKGROUND:Curtain call memories-bg.png;
#CDTITLE:./CDTitles/RB groovin'!! Upper.png;
#MUSIC:Curtain call memories.ogg;
#SAMPLESTART:54.106;
#SAMPLELENGTH:15;
#BPMS:0=173;
#STOPS:42.5=0.346,151=0.347,246=0.173,246.5=0.174,247=0.173,247.5=0.174;
#TIMESIGNATURES:0=4=4,40=3=4,43=4=4,151=3=4,154=4=4,246=2=4,248=4=4;
#BGSTAGE:16;

//--------------- dance-single - Fred-104 ----------------
#NOTES:
     dance-single:
     Fred-104:
     Beginner:
     2:
     :
0000
0000
0000
0000
,
0000
0000
0000
0000
,
0000
0000
0000
0000
,
0000
0000
0000
0000
,
0000
0000
0000
0000
,
0000
0000
0000
0000
,
0000
0000
0000
0000
,
0001
0000
0000
0000
,
0100
0000
0000
0000
,
0001
0000
0000
0000
,
1000
0000
0000
0000
,
0000
0000
0000
1000
,
0000
0001
0000
1000
,
0000
0000
0000
0001
,
0000
0010
0000
0001
,
0000
0000
0000
1000
,
0000
0001
0000
1000
,
0000
0000
0001
0000
,
0000
1000
0000
0001
,
0000
0000
0000
0100
,
0000
0001
0000
0100
,
0000
0000
0000
0001
,
0000
1000
0000
0001
,
0000
0000
0000
1000
,
0000
0010
0000
1000
,
0000
0000
0001
0000
,
0000
1000
0000
0002
,
0000
0000
0003
1000
,
0000
0100
0000
2000
,
0000
0000
3000
0001
,
0000
1000
0000
0002
,
0000
0000
0003
1000
,
0000
0001
0000
1000
,
0000
0000
1000
0000
,
0000
1000
0000
0001
,
0000
0001
0000
0001
,
0000
0001
0000
1001
,
0000
0000
0000
0000
,
0000
0000
1000
0000
,
0000
0000
0001
0000
,
0000
0000
1000
0000
,
0000
0000
0100
0000
,
0000
0000
1000
0000
,
0000
0000
0001
0000
,
0000
0000
1000
0000
,
1000
0000
0001
0000
,
0001
0000
1000
0000
,
0000
0000
0010
0000
,
0000
0000
1000
0000
,
0000
0000
0001
0000
,
0000
0000
1001
0000
,
0000
0000
0000
0000
,
0000
0000
1001
0000
,
0000
0000
0000
0000
,
0000
0000
1001
0000
,
0000
0000
0000
0000
,
0000
0000
0000
0000
,
0000
0000
0000
0000
,
0000
0000
1000
0000
,
0000
0000
0001
0000
,
0000
0000
2000
0000
,
0000
3000
0000
0000
,
0000
0000
0000
0000
,
1000
0000
0001
0000
,
0001
0000
0000
0000
,
1000
0000
0001
0000
,
1001
0000
0000
0000
,
0000
0000
0000
0000
,
1001
0000
0000
0000
,
0000
0000
0000
0000
,
1001
0000
0000
0000
,
0000
0000
0000
0000
,
0001
0000
0000
1000
,
0000
0000
0001
0000
,
1000
0000
0001
0000
,
2002
0000
0000
0000
,
0000
0000
0000
0000
,
3003
0000
0000
0000
;

//--------------- dance-single - Fred-104 ----------------
#NOTES:
     dance-single:
     Fred-104:
     Easy:
     6:
     :
0000
0000
0000
0000
,
0000
0000
0000
0000
,
0000
0000
0000
0000
,
0000
0000
0000
0000
,
0000
0000
0000
0000
,
0000
0000
0000
0000
,
0000
0000
0000
0000
,
1000
0000
0010
0000
,
1000
0000
0100
0000
,
0010
0000
0001
0000
,
1000
0000
1001
0000
,
0000
0001
0000
1000
,
0000
0010
0010
0010
,
0000
1000
0000
0100
,
0000
1000
1000
1000
,
0000
0001
0000
1000
,
0000
0010
0100
0001
,
0000
0000
1000
0000
,
0000
1001
0000
1000
,
1000
0010
0010
0100
,
0100
0001
0000
1000
,
0100
1000
0001
0100
,
0010
0100
0000
0001
,
0100
0110
0000
1000
,
0100
0110
0000
0001
,
0000
0000
1000
0000
,
0000
1001
0000
0001
,
0100
1000
0100
0001
,
0000
0001
0000
1000
,
0100
0001
0100
1000
,
0000
1000
0000
0002
,
0000
0013
0010
0001
,
0000
1000
0000
0000
0010
0000
1000
0000
,
0000
0001
0000
2000
,
0000
3000
0001
1001
,
0000
0110
0000
1001
,
0000
0110
0000
2002
,
0000
0000
0000
3003
,
0000
0000
0001
0000
,
1000
0000
0000
0010
0000
0000
0100
0000
,
0001
1000
0001
0000
,
1000
0000
0000
0010
0000
0000
0100
0000
,
0010
1000
0001
0000
,
1000
0000
0000
0010
0000
1000
0000
0000
,
0100
0010
0002
0000
,
2003
0000
0000
0000
3002
0000
0000
0003
,
1001
0000
0001
0010
,
0001
0000
0000
1000
0000
0000
0010
0000
,
1000
0100
1000
0001
,
0100
0000
0000
0010
0000
0000
0100
0000
,
0001
0000
1000
0000
1001
0000
0000
0110
,
0000
0000
0000
1001
0000
0000
0001
0000
,
0100
0000
0000
0000
0110
0000
0000
1001
,
0000
0000
0000
0110
0000
0000
0000
0000
,
1001
0000
1001
0000
,
0000
0000
0000
0000
,
0000
0000
0000
0000
,
0000
0000
0000
0000
,
0000
0000
0002
0000
,
0000
0003
2000
0000
,
0000
3000
0002
0000
,
0000
0000
0003
0000
2002
0000
0000
3003
,
1000
0000
0100
0000
1000
0000
0000
0001
,
0000
0100
0010
0100
,
0001
0000
0010
0000
0100
0000
0000
1000
,
0000
0010
1000
0100
,
1001
0000
0000
0110
0000
0000
0000
1001
,
0000
0000
0001
1000
,
1001
0000
0000
0110
0000
0000
0000
1001
,
0000
0000
1000
0001
,
1001
0000
0000
0110
0000
0000
0000
1001
,
0000
1000
0100
1000
,
0001
0000
0000
0001
0000
0000
1000
0000
,
0000
1000
0000
0000
1001
0000
0000
0000
,
0001
0000
1000
0000
,
2002
0000
0000
0000
,
0000
0000
0000
0000
,
3003
0000
0000
0000
;

//--------------- dance-single - Fred-104 ----------------
#NOTES:
     dance-single:
     Fred-104:
     Medium:
     10:
     :
0000
0000
0000
0000
,
0000
0000
0000
0000
,
0000
0000
0000
0000
,
0000
0000
0000
0000
,
0000
0000
0000
0000
,
0000
0000
0000
0000
,
0000
0000
0000
0000
,
0001
0000
0000
0010
0000
0000
0100
0000
,
0000
1000
0000
0000
0001
0000
0100
0000
,
0001
0000
0010
0001
,
1000
0010
1000
0000
1001
0000
0001
0000
,
0010
0010
0000
0001
0000
1000
0010
0000
,
1000
1000
0000
0010
0100
0000
0001
0100
,
0001
0000
0010
0010
0000
0001
1000
0000
,
0100
1000
0000
0010
1000
0010
1000
0000
,
0001
0000
1001
0000
0001
0100
0000
0001
,
0010
0000
0001
1000
0001
0000
1001
0000
,
0000
0110
0000
0000
1001
0000
0000
0110
,
0000
0000
2002
0000
3003
0000
0001
0010
,
0001
0010
0000
0100
0000
1000
0001
0000
,
1000
0010
0000
0010
0100
0000
0010
0100
,
0010
0100
0000
0001
0000
0010
0001
0000
,
1000
0001
0000
0100
0001
1000
0001
0000
,
1001
0000
1010
0000
0010
0100
0000
0001
,
0010
0000
0001
1000
0001
0000
1001
0000
,
0000
0110
0000
0000
1001
0000
0000
0110
,
0000
2002
3003
1000
,
0100
1000
0001
1000
0010
0000
0100
0000
,
0001
0010
0000
0010
0001
0000
1000
0010
,
1000
0000
0001
0100
0001
0000
1000
0001
,
0010
0000
0001
1000
0100
0000
1000
0100
,
0100
0000
0001
0100
0100
0000
1000
0000
,
0010
0100
0000
0010
1000
0000
1001
0000
,
0000
1010
0000
0000
0101
0000
0000
1100
,
0000
0011
0110
1001
,
0000
0001
1000
0000
0000
1000
0010
0000
,
0000
0010
0100
0000
0000
0100
0001
0010
,
0001
0000
1000
0100
1000
0000
1001
0000
,
0000
0000
0000
0000
1000
0100
1000
0000
,
0010
0000
0100
0001
0000
1000
0001
0000
,
0010
0100
0010
0000
0001
0100
0001
0000
,
0010
0000
0001
1000
0000
0100
0010
0000
,
0100
1000
0001
0100
0010
0000
1001
0000
,
1100
0000
0100
0010
0000
0001
0000
0100
,
0001
0000
0010
0000
0001
0000
1000
0000
0001
0000
0000
0010
0000
0000
0100
0000
,
1000
0000
0000
0010
0000
0000
0100
0000
0001
0000
0000
1000
0000
0000
0001
0000
,
2002
0000
3003
0000
1000
0100
1000
0100
,
0001
0000
0100
0001
0000
0100
1000
0000
,
0001
1000
0001
0000
1000
0010
1000
0010
,
0001
0000
0010
0001
0000
0010
1000
0000
,
0001
1000
0001
0000
1100
0000
0100
0100
,
0000
1001
0000
0011
0000
0001
0100
0000
,
0010
1000
0001
0000
1010
0000
0010
0100
,
0000
0101
0000
1001
0000
0001
0010
0001
,
1000
1000
0000
0000
2000
0000
0000
0000
,
3200
0000
0320
0000
,
0030
0000
0002
0000
,
0203
0000
0320
0000
,
0030
0000
1000
0100
,
1000
0000
0000
0001
0000
0010
0001
0000
,
0100
0010
0100
0000
0001
0000
0010
0000
,
0100
0000
1000
0000
0001
0001
1000
1000
,
1001
0000
0001
0100
0001
0000
0010
0100
,
0000
0100
1000
0000
0010
1000
0001
0000
,
1000
0000
0010
0100
0001
0000
0010
0001
,
0000
0001
1000
0000
0001
0100
0010
0000
,
1001
0000
1000
0010
0000
1010
0000
0101
,
0000
0001
0010
0000
0001
1000
0010
0000
,
0110
0000
0100
0001
0000
0011
0000
1100
,
0000
0001
1000
0000
0010
1000
0001
0000
,
1001
0000
1000
0100
0000
0110
0000
1001
,
0000
0001
0100
0000
0010
1000
0001
0000
,
2000
0000
0000
3020
0000
0000
0230
0000
,
0000
0302
0000
1003
0001
0000
1000
0000
,
1001
0000
0110
0000
,
2002
0000
0000
0000
,
0000
0000
0000
0000
,
3003
0000
0000
0000
;

//--------------- dance-single - Fred-104 ----------------
#NOTES:
     dance-single:
     Fred-104:
     Hard:
     15:
     :
0000
0000
0000
0000
,
0000
0000
0000
0000
,
0000
0000
0000
0000
,
0000
0000
0000
0000
,
0000
0000
0000
0000
,
0000
0000
0000
0000
,
0000
0000
0000
0000
,
1000
0000
0001
0010
0000
0100
0010
0000
,
0001
0000
0000
1000
0000
0000
0000
0000
0000
0010
0000
0000
1000
0000
0010
0000
0100
0000
0001
0000
1000
0000
0001
0000
,
0010
0000
0100
0000
1000
0000
0010
0100
0010
0000
1000
0001
1000
0001
1000
0000
,
0001
0000
0000
0000
0010
0000
0000
0000
0001
0000
0000
0000
0000
0000
0000
0000
0100
0000
0000
0000
0000
0000
0000
0000
0010
0000
0000
0000
1000
0000
0000
0000
0010
0000
0000
0000
0000
0000
0000
0000
2000
3000
0000
0000
0000
0000
0000
0000
0001
0000
0000
0000
0000
0000
0000
0000
0100
0000
0000
0000
0001
0000
0000
0000
,
0100
0000
0001
0010
0001
0000
0100
0001
0100
0000
0010
1000
0010
0000
1000
0100
,
1000
0000
0001
1000
0001
0000
0010
0000
0100
0000
2000
0000
0000
0000
3010
1000
,
0010
0000
1000
0100
1000
0000
0010
1000
0010
0000
0100
0001
0100
0000
0001
0010
,
0001
0000
2000
0000
0000
0000
3010
1000
0010
1000
0010
0000
0110
0000
0000
0000
,
1001
0000
1100
0000
0100
0020
0000
0031
,
1000
0000
0001
0000
0100
0001
0100
0000
0010
0000
1000
0000
1100
0000
0000
0000
,
0001
0101
0000
1000
1001
0000
0000
0110
,
0000
0000
0010
0000
1000
0001
1000
0000
0100
0000
0010
0000
0001
0000
1000
0100
,
1000
0000
0001
0010
0001
0000
1000
0010
1000
0000
0001
0100
0001
0000
1000
0001
,
1000
0000
0020
0000
0000
0000
0130
0001
0100
0000
0001
0000
1000
0000
0001
0100
,
0001
0000
1000
0010
1000
0000
0001
0010
0001
0000
1000
0100
1000
0000
0001
1000
,
0001
0000
0020
0000
0000
0000
0130
1000
0100
1000
0100
0000
1100
0000
0000
0000
,
0101
0000
1000
0100
0010
0002
0000
0103
,
0001
0000
0010
0000
0001
1000
0001
0000
0100
0000
0010
0000
1010
0000
0000
0000
,
0001
0011
0000
1000
1001
0000
0000
0110
,
0000
0000
0001
0000
1000
0000
0100
0000
0010
0000
0001
1000
0001
0000
0000
0000
,
1000
0000
0010
1000
0010
0000
1000
0100
1000
0000
0001
0000
0100
0000
0001
0000
,
0010
0000
0002
0000
0000
0000
1003
0001
1000
0001
1000
0000
0001
0000
0010
0100
,
0010
0000
0001
0100
0001
0000
0100
0010
0100
0000
0001
0010
0001
0000
1000
0000
,
0010
0000
0100
0000
0001
0000
1000
0000
0100
0000
0010
0000
0001
0000
1000
0010
,
1000
0000
1000
0010
1000
0000
0001
0000
0100
0000
0001
0000
0010
0000
1000
0000
,
0010
0000
0002
0000
0000
0000
1003
0010
1000
0010
0100
0000
0001
0000
1000
0100
,
1000
0000
0000
0000
0000
0000
0010
0000
0000
1000
0000
0000
0010
0000
0000
0000
0000
0000
1000
0000
0000
0010
0000
0000
1000
0000
0000
0000
0000
0000
0100
0000
0000
1000
0000
0000
0100
0000
0000
0000
1000
0000
0000
0000
0001
0000
0000
0000
,
0010
0002
0000
0103
0110
0000
0001
0010
,
0100
0000
1000
0010
1000
0000
0010
0000
0100
0000
0001
1000
0001
0000
1000
0000
,
0100
0000
0010
0100
0010
0000
0001
0000
1000
0000
0001
0100
0001
0010
0001
0010
,
0001
0010
0001
0010
0100
1000
0100
1000
0100
1000
0100
1000
0001
0000
0000
0000
,
0000
0000
0000
0000
0000
0000
0000
0000
0001
0010
0001
0010
0001
0000
0100
0000
,
0010
0000
0000
0000
1000
0000
1002
0000
0000
0000
1003
0100
2000
0000
0000
0000
,
3001
0100
0001
0100
0010
0000
0100
0000
0001
0000
0010
0001
0010
0000
0100
0000
,
2000
0000
0000
0000
3010
0000
0200
0000
0000
0000
0301
1000
0001
0000
0000
0000
,
1000
0100
1000
0000
0010
0000
0100
0000
0001
0000
0100
0000
1000
0000
0100
0001
,
0200
0000
0000
0000
0301
0000
2000
0000
0000
0000
3200
0000
0000
0000
0301
0100
,
0001
0000
0100
0000
1000
0000
0010
0000
1000
0000
0000
1100
0000
0000
0010
0000
,
0001
0000
0000
0101
0000
0000
0010
0000
1000
0000
0000
0100
0000
0000
0110
0000
,
2002
0000
0000
0000
3003
0000
0001
0100
0001
0000
1000
0010
0100
0000
0010
0000
,
2000
0000
0000
0000
3020
0000
0032
0000
0000
0000
0013
0100
0020
0000
0000
0000
,
1030
0000
0001
0100
0010
0000
1000
0001
0100
0000
0010
1000
0100
0000
0001
0000
,
0200
0000
0000
0000
0320
0000
0032
0000
0000
0000
1003
0001
0200
0000
0000
0000
,
0310
1000
0001
0000
1000
0000
0001
0000
1001
0000
0000
0000
1000
0000
1100
0000
,
0000
0101
0000
1010
0000
0001
1000
0010
,
0100
0001
1000
0100
0110
0000
0010
0011
,
0000
0000
1010
0000
0000
0000
0101
0000
0000
0000
0001
0010
0001
0000
1000
0000
,
0001
1001
0000
0000
2000
0000
0000
0000
,
3020
0000
0032
0000
,
0003
0000
2000
0000
,
3200
0000
0302
0000
,
0003
0000
0000
0000
1000
0010
1000
0100
,
2000
0000
0000
0000
3002
0000
0023
0000
0000
0000
0230
0000
0000
0000
0310
0001
,
0010
0001
1000
0010
1000
0100
0010
0001
,
0100
0000
0000
0000
0000
0000
0000
0000
0010
0000
0000
0000
0000
0000
0000
0000
1000
0000
0000
0000
0000
0000
0000
0000
0100
0000
0000
0000
0000
0000
0000
0000
2200
3300
0000
0000
0000
0000
0000
0000
0202
0303
0000
0000
0000
0000
0000
0000
0022
0033
0000
0000
0000
0000
0000
0000
2020
3030
0000
0000
0000
0000
0000
0000
,
1000
0000
0001
0100
0001
0000
1000
0000
0200
0000
0000
0000
0310
0000
0012
0000
,
0000
0000
1003
0010
0200
0000
0000
0000
0301
0000
0010
0001
0100
0000
0010
1000
,
0100
0000
1000
0001
0010
0000
0001
0000
0200
0000
0000
0000
0310
0000
2010
0000
,
0000
0000
3001
1000
0020
0000
0000
0000
1030
0100
0010
0000
0001
0010
0100
0000
,
1001
0000
1000
1010
0000
0011
0000
1100
,
0000
0000
0001
0100
0001
0100
0001
0100
0001
0000
0010
0000
0100
0000
1000
0000
,
1001
0000
0001
0011
0000
1010
0000
0101
,
0000
0000
1000
0100
1000
0000
0010
1000
0001
0000
0010
0100
0010
0000
0001
0000
,
1001
0000
0110
1010
0000
0101
0000
1100
,
0000
0000
0001
1000
0010
0000
1000
0100
0010
0000
0001
0000
1000
0000
0010
0000
,
2020
0000
3030
0202
0000
0303
2200
0000
,
3300
0000
0022
0000
0033
0000
0001
1000
0001
0000
0000
0000
1001
0000
0000
0000
,
1000
0000
0000
0000
0000
0000
0001
0010
0100
0000
0000
0000
0000
0000
1000
0002
,
2000
0000
0000
0000
,
0000
0000
0000
0000
,
3003
0000
0000
0000
;

//--------------- dance-double - Fred-104 ----------------
#NOTES:
     dance-double:
     Fred-104:
     Easy:
     6:
     :
00000000
00000000
00000000
00000000
,
00000000
00000000
00000000
00000000
,
00000000
00000000
00000000
00000000
,
00000000
00000000
00000000
00000000
,
00000000
00000000
00000000
00000000
,
00000000
00000000
00000000
00000000
,
00000000
00000000
00000000
00000000
,
00010000
00000000
10000000
00000000
,
00010000
00000000
01000000
00000000
,
00100000
00000000
01000000
00000000
,
00001000
00000000
00011000
00000000
,
00000000
00010000
00000000
00001000
,
00000000
00010000
00010000
00010000
,
00000000
00000010
00000000
00001000
,
00000000
00000010
00001000
00000010
,
00000000
00000100
00000000
00000001
,
00000000
00000100
00000001
00000100
,
00000000
00000000
00000001
00000000
,
00000000
00001001
00000000
00000001
,
00000100
00000001
00000100
00001000
,
00010000
00001000
00000000
00010000
,
01000000
00010000
01000000
00100000
,
00010000
10000000
00000000
01000000
,
00000000
01100000
00000000
00001000
,
00000000
00011000
00000000
00010000
,
00000000
00000000
00000100
00000000
,
00000000
00000110
00000000
00010000
,
00001000
00010000
00000010
00010000
,
00000000
00001000
00000000
00010000
,
00001000
00010000
00000100
00010000
,
00000000
00001000
00000000
00020000
,
00000000
00031000
00100000
00010000
,
00000000
00100000
00000000
00000000
01000000
00000000
10000000
00000000
,
00000000
00100000
00000000
02000000
,
00000000
03000000
00100000
01100000
,
00000000
00110000
00000000
00011000
,
00000000
00001100
00000000
00000220
,
00000000
00000000
00000000
00000330
,
00000000
00000000
00000001
00000000
,
00000100
00000000
00000000
00000001
00000000
00000000
00000100
00000000
,
00000010
00001000
00000001
00000000
,
00000010
00000000
00000000
00001000
00000000
00000000
00010000
00000000
,
00001000
00010000
00100000
00000000
,
01000000
00000000
00000000
00010000
00000000
10000000
00000000
00000000
,
00010000
10000000
02000000
00000000
,
03200000
00000000
00000000
00000000
00302000
00000000
00000000
00003000
,
00011000
00000000
00010000
00000100
,
00010000
00000000
00000000
00000010
00000000
00000000
00001000
00000000
,
00000100
00010000
00001000
00100000
,
00010000
00000000
00000000
01000000
00000000
00000000
00001000
00000000
,
00010000
00000000
00001000
00000000
00011000
00000000
00000000
00011000
,
00000000
00000000
00000000
00011000
00000000
00000000
00010000
00000000
,
00001000
00000000
00000000
00000000
00000110
00000000
00000000
00000110
,
00000000
00000000
00000000
00000110
00000000
00000000
00000000
00000000
,
00001001
00000000
00001001
00000000
,
00000000
00000000
00000000
00000000
,
00000000
00000000
00000000
00000000
,
00000000
00000000
00000000
00000000
,
00000000
00000000
00002000
00000000
,
00000000
00003000
00020000
00000000
,
00000000
00030000
00002000
00000000
,
00000000
00000000
00003000
00000000
00022000
00000000
00000000
00033000
,
00001000
00000000
00010000
00000000
01000000
00000000
00000000
00100000
,
00000000
00010000
10000000
00010000
,
10000000
00000000
01000000
00000000
00100000
00000000
00000000
00001000
,
00000000
00010000
00001000
00010000
,
00011000
00000000
00000000
00011000
00000000
00000000
00000000
00011000
,
00000000
00000000
00001000
00000100
,
00000110
00000000
00000000
00000110
00000000
00000000
00000000
00000110
,
00000000
00000000
00000001
00000100
,
00000110
00000000
00000000
00011000
00000000
00000000
00000000
01100000
,
00000000
01000000
00100000
10000000
,
01000000
00000000
00000000
01000000
00000000
00000000
00010000
00000000
,
00000000
00001000
00000000
00000000
00011000
00000000
00000000
00000000
,
00010000
00000000
00100000
00000000
,
20020000
00000000
00000000
00000000
,
00000000
00000000
00000000
00000000
,
30030000
00000000
00000000
00000000
;

//--------------- dance-double - Fred-104 ----------------
#NOTES:
     dance-double:
     Fred-104:
     Medium:
     10:
     :
00000000
00000000
00000000
00000000
,
00000000
00000000
00000000
00000000
,
00000000
00000000
00000000
00000000
,
00000000
00000000
00000000
00000000
,
00000000
00000000
00000000
00000000
,
00000000
00000000
00000000
00000000
,
00000000
00000000
00000000
00000000
,
00001000
00000000
00000000
00010000
00000000
00000000
00000010
00000000
,
00000000
00010000
00000000
00000000
00001000
00000000
00100000
00000000
,
00001000
00000000
00010000
00001000
,
01000000
00100000
01000000
00000000
01100000
00000000
01000000
00000000
,
00010000
00010000
00000000
00100000
00000000
00001000
00010000
00000000
,
00000010
00001000
00000000
00000100
00010000
00000000
00001000
00100000
,
00010000
00000000
01000000
00001000
00000000
00010000
00000100
00000000
,
00001000
00000010
00000000
00010000
00001000
00010000
00001000
00000000
,
00010000
00000000
00011000
00000000
00001000
00100000
00000000
00010000
,
01000000
00000000
00100000
01000000
00100000
00000000
01100000
00000000
,
00000000
00101000
00000000
00000000
00011000
00000000
00000000
00010100
,
00000000
00000000
00000220
00000000
00000330
00000000
00001000
00000010
,
00000100
00000010
00000000
00001000
00000000
00000001
00000010
00000000
,
00000100
00000010
00000000
00001000
00010000
00000000
00100000
01000000
,
00010000
01000000
00000000
00010000
00000000
10000000
01000000
00000000
,
00100000
01000000
00000000
01000000
10000000
00100000
01000000
00000000
,
01100000
00000000
00110000
00000000
01000000
00001000
00000000
00010000
,
00001000
00000000
00010000
00000010
00000100
00000000
00000110
00000000
,
00000000
00001100
00000000
00000000
00011000
00000000
00000000
00110000
,
00000000
02200000
03300000
10000000
,
00010000
10000000
01000000
10000000
00010000
00000000
10000000
00000000
,
01000000
00100000
00000000
00100000
00001000
00000000
00010000
00000100
,
00001000
00000000
00000100
00010000
00001000
00000000
00010000
00000010
,
00001000
00000000
00010000
00001000
00100000
00000000
00001000
00010000
,
01000000
00000000
00010000
00001000
00000100
00000000
00001000
00000000
,
00010000
00001000
00000000
00010000
00000100
00000000
00001100
00000000
,
00000000
00000110
00000000
00000000
00000011
00000000
00000000
00001010
,
00000000
00000000
00000101
00000000
00000100
00000010
00001000
00000000
,
00000001
00000010
00001000
00000000
00010000
00100000
10000000
00000000
,
10000000
01000000
00010000
00000000
00001000
00000100
00000001
00000000
,
00000010
00001000
00010000
00011000
,
00000000
00000000
00000000
00000000
00010000
01000000
00100000
00000000
,
01000000
00000000
00010000
00100000
00000000
01000000
00100000
00000000
,
00010000
10000000
00100000
00000000
01000000
00010000
10000000
00000000
,
01000000
00000000
00100000
00001000
00000000
00010000
00001000
00000000
,
00010000
00001000
00000010
00000100
00001000
00000000
00011000
00000000
,
00010000
00000000
00001000
00100000
00000000
00010000
00000000
01000000
,
00010000
00000000
00100000
00000000
01000000
00000000
00100000
00000000
00001000
00000000
00000000
00010000
00000000
00000000
00001000
00000000
,
01000000
00000000
00000000
00001000
00000000
00000000
00010000
00000000
00001000
00000000
00000000
00001000
00000000
00000000
00010000
00000000
,
00022000
00000000
00033000
00000000
00010000
00000100
00001000
00000100
,
00010000
00000000
00000010
00001000
00000000
00000010
00000100
00000000
,
00000001
10000010
00010100
00000000
00000010
00000001
00001000
00000001
,
00000010
00000000
00000100
00000010
00000000
00001000
00010000
00000000
,
00100000
01000000
00010000
00000000
10010000
00000000
00100000
00100000
,
00000000
01010000
00000000
00011000
00000000
00001000
00010000
00000000
,
00000010
00001000
00000100
00000000
00000110
00000000
00000001
00000001
,
00000000
00000101
00000000
00001001
00000000
00000001
00000010
00001000
,
00010000
00010000
00000000
00000000
00002000
00000000
00000000
00000000
,
00023000
00000000
00230000
00000000
,
00300000
00000000
02000000
00000000
,
03020000
00000000
20030000
00000000
,
30000000
00000000
00100000
10000000
,
00100000
00000000
00000000
01000000
00000000
00010000
01000000
00000000
,
00010000
00100000
01000000
00000000
10000000
00000000
00100000
00000000
,
00010000
00000000
00001000
00000000
00010000
00001000
00000010
00000100
,
00011000
00000000
00010000
00001000
00010000
00000000
00001000
00000010
,
00000000
00000100
00001000
00000000
00010000
00100000
01000000
00000000
,
00010000
00000000
00001000
00010000
00001000
00000000
00100000
00001000
,
00000000
00010000
00001000
00000000
00010000
00000010
00001000
00000000
,
00001010
00000000
00001000
00000100
00000000
00001100
00000000
00000011
,
00000000
00000001
00000100
00000000
00001000
00010000
01000000
00000000
,
11000000
00000000
10000000
00100000
00000000
10100000
00000000
01010000
,
00000000
10000000
00100000
00000000
00010000
00001000
00000010
00000000
,
00000110
00000000
00001000
00000100
00000000
00000110
00000000
00001001
,
00000000
00000001
00000010
00000000
00000100
00000010
00000001
00000000
,
00000200
00000000
00000000
00002300
00000000
00000000
00023000
00000000
,
00000000
02030000
00000000
13000000
00100000
00000000
10100000
00000000
,
01100000
00000000
01010000
00000000
,
00022000
00000000
00000000
00000000
,
00000000
00000000
00000000
00000000
,
00033000
00000000
00000000
00000000
;

//--------------- dance-double - Fred-104 ----------------
#NOTES:
     dance-double:
     Fred-104:
     Hard:
     14:
     :
00000000
00000000
00000000
00000000
,
00000000
00000000
00000000
00000000
,
00000000
00000000
00000000
00000000
,
00000000
00000000
00000000
00000000
,
00000000
00000000
00000000
00000000
,
00000000
00000000
00000000
00000000
,
00000000
00000000
00000000
00000000
,
00010000
00000000
00000100
00001000
00000000
00000100
00000010
00000000
,
00000001
00000000
00000000
00001000
00000000
00000000
00000000
00000000
00000000
00000001
00000000
00000000
00000010
00000000
00000001
00000000
00001000
00000000
00000001
00000000
00000100
00000000
00000001
00000000
,
00001000
00000000
00000001
00000000
00000100
00000000
00000010
00001000
00000010
00000000
00010000
00001000
00010000
00000000
00001000
00000000
,
00100000
00000000
00000000
00000000
00000000
00000000
00000000
00000000
00010000
00000000
00000000
00000000
00000000
00000000
00000000
00000000
00000000
00000000
00000000
00000000
00000000
00000000
00000000
00000000
01000000
00000000
00000000
00000000
00000000
00000000
00000000
00000000
00001000
00000000
00000000
00000000
00000000
00000000
00000000
00000000
00020000
00030000
00000000
00000000
00000000
00000000
00000000
00000000
00001000
00000000
00000000
00000000
00000000
00000000
00000000
00000000
00100000
00000000
00000000
00000000
00001000
00000000
00000000
00000000
,
00100000
00000000
00001000
00000000
00010000
00000000
00000010
00001000
00000010
00000000
00000100
00000000
00000001
00000000
00000010
00000000
,
00001000
00000000
00020000
00000000
00000000
00000000
00130000
00000000
01000000
00000000
00010000
00000000
10000000
00000000
00100000
01000000
,
00100000
00000000
10000000
00000000
01000000
00000000
00100000
00010000
00100000
00000000
00001000
00010000
00001000
00000000
00010000
00000000
,
00001000
00000000
00000020
00000000
00000000
00000000
00000031
00001000
00000001
00000000
00001000
00000000
00001010
00000000
00000000
00000000
,
00000101
00000000
00001100
00000000
00010000
00011000
00000000
00001000
,
00100000
00000000
00010000
00000000
01000000
00100000
01000000
00000000
00010000
00000000
10000000
00000000
11000000
00000000
00000000
00000000
,
00100000
00110000
00000000
00001000
00011000
00000000
00000000
00001010
,
00000000
00000000
00000100
00000000
00000001
00000010
00000001
00000000
00001000
00000000
00000001
00000000
00000100
00000000
00000001
00000010
,
00000001
00000000
00000010
00000000
00001000
00000000
00010000
00001000
00010000
00000000
00100000
00000000
01000000
00000000
00010000
10000000
,
00010000
00000000
02000000
00000000
00000000
00000000
03100000
01000000
00100000
00000000
10000000
00000000
00010000
00000000
10000000
01000000
,
10000000
00000000
00010000
00000000
00100000
00000000
00001000
00010000
00001000
00000000
00000010
00000000
00000100
00000000
00001000
00000001
,
00001000
00000000
00000020
00000000
00000000
00000000
00000130
00000001
00000100
00000000
00000010
00000000
00001010
00000000
00000000
00000000
,
00000101
00000000
00001100
00000000
00010000
00012000
00000000
00103000
,
00010000
00000000
10000000
00000000
01000000
00100000
01000000
00000000
10000000
00000000
00010000
00000000
01010000
00000000
00000000
00000000
,
10000000
10100000
00000000
00010000
00110000
00000000
00000000
00011000
,
00000000
00000000
00001000
00000000
00000010
00000000
00000001
00000000
00001000
00000000
00000001
00000010
00000001
00000000
00000000
00000000
,
00000100
00000000
00000010
00001000
00000010
00000000
00001000
00000100
00001000
00000000
00000001
00000000
00000100
00000000
00000010
00000000
,
00001000
00000000
00000200
00000000
00000000
00000000
00010300
00001000
00010000
00000000
00001000
00000000
00100000
00000000
00010000
01000000
,
00010000
00000000
01000000
00100000
01000000
00000000
00010000
10000000
00010000
00000000
00100000
00000000
00001000
00000000
00010000
00000000
,
00001000
00000000
01000000
00000000
00010000
00000000
00100000
00000000
00001000
00000000
00010000
00000000
00001000
00000000
00010000
00001000
,
00010000
00000000
00010000
00001000
00010000
00000000
00000100
00000000
00001000
00000000
00000100
00000000
00010000
00000000
00000010
00000000
,
00001000
00000000
00200000
00000000
00000000
00000000
00310000
00000000
00001000
00010000
00001000
00000000
00010000
00000000
00001000
00000000
,
00000010
00000000
00000000
00000100
00000000
00000000
00001000
00000000
00000000
00010000
00000000
00000000
00100000
00000000
00000000
01000000
00000000
00000000
00010000
00000000
00001000
00000000
00010000
00000000
,
00000100
00002000
00000000
00003001
00001001
00000000
00000001
00000010
,
00000001
00000000
00001000
00000100
00001000
00000000
00000010
00000000
00000100
00000000
00000001
00000100
00000001
00000000
00000010
00000000
,
00000001
00000000
00001000
00000100
00001000
00000000
00000010
00000000
00010000
00000000
00001000
00010000
00001000
00000000
00000010
00000000
,
00000100
00001000
00010000
00100000
01000000
00010000
00001000
00000000
,
00000000
00000000
00000000
00000000
00000000
00000000
00000000
00000000
00010000
00000000
00000010
00001000
00000010
00000000
00001000
00000000
,
00000100
00000000
00010000
00000000
00001000
00000000
00021000
00000000
00000000
00000000
00030010
00001000
00000010
00000000
00000000
00000000
,
00010000
00000000
00001000
00000000
00000010
00000000
00000100
00000000
00001000
00000000
00010000
00001000
00010000
00000000
00100000
00000000
,
01000000
00000000
00000000
00000000
00010000
00000000
00012000
00000000
00000000
00000000
00013000
00001000
00010000
00000000
00000000
00000000
,
00000100
00000000
00001000
00000000
00000001
00000000
00000100
00000000
00000010
00000000
00001000
00000000
00000001
00000000
00000010
00000100
,
00000020
00000000
00000000
00000000
00000032
00000000
00000203
00000000
00000000
00000000
00002300
00000000
00000000
00000000
00013000
00001000
,
00010000
00000000
01000000
00000000
00100000
00000000
00010000
00000000
10000000
00000000
00000000
01000000
00000000
00000000
00100000
00000000
,
00001000
00000000
00000000
00010000
00000000
00000000
00100000
00000000
10000000
00000000
00000000
01000000
00000000
00000000
00100000
00000000
,
20020000
00000000
00000000
00000000
30030000
00000000
10000000
00100000
10000000
00000000
00010000
01000000
00010000
00000000
10000000
00000000
,
01000000
00000000
00100000
00000000
00010000
00000000
02000000
00000000
00000000
00000000
03001000
00010000
00002000
00000000
00000000
00000000
,
00003010
00000000
00001000
00000001
00001000
00000000
00000010
00000000
00000100
00000000
00000001
00000010
00000001
00000000
00001000
00000000
,
00000100
00000000
00010000
00000000
00001000
00000000
00020000
00000000
00000000
00000000
00031000
01000000
00002000
00000000
00000000
00000000
,
00103000
00010000
00100000
00000000
00001000
00000000
00010000
00000000
00011000
00000000
00000000
00000000
00001000
00000000
01001000
00000000
,
00000000
00011000
00000000
00010100
00000000
00010000
00001000
00000010
,
00000001
00001000
00000100
00000010
00000001
00000000
00000100
00000101
,
00000000
00000000
00001100
00000000
00000000
00000000
00011000
00000000
00000000
00000000
00010000
01000000
00010000
00000000
10000000
00000000
,
00010000
10010000
00000000
00000000
20000000
00000000
00000000
00000000
,
32000000
00000000
03020000
00000000
,
00030000
00000000
00002000
00000000
,
00003020
00000000
00000032
00000000
,
00000003
00000000
00001000
00000001
,
00000100
00000000
00000000
00000000
00000010
00000000
00000200
00000000
00000000
00000000
00000302
00000000
00000000
00000000
00001003
00000001
,
00001000
00000001
00000010
00000100
00000010
00001000
00010000
00100000
,
01000000
00010000
10000000
00000000
11000000
00110000
01001000
00011000
,
00001000
00000000
00010000
00001000
00010000
00000000
00000010
00000000
00001000
00000000
00000100
00000000
00010000
00000000
00012000
00000000
,
00000000
00000000
00103000
00001000
00200000
00000000
00000000
00000000
00310000
00000000
00100000
00000000
10000000
00000000
01000000
00000000
,
00010000
00000000
10000000
00100000
10000000
00000000
01000000
00000000
00100000
00000000
00010000
00000000
00100000
00000000
00102000
00000000
,
00000000
00000000
00013000
00001000
00020000
00000000
00000000
00000000
00031000
00000000
00010000
00000000
01000000
00000000
00100000
00000000
,
00001000
00000000
00010000
00011000
00000000
00010010
00000000
00001010
,
00000000
00001000
00000100
00000010
00000001
00000100
00001000
00010000
,
00011000
00000000
00010000
01010000
00000000
11000000
00000000
10010000
,
00000000
00010000
00100000
10000000
00100000
00010000
01000000
00100000
,
01100000
00000000
10000000
10100000
00000000
00110000
00000000
00011000
,
00000000
00001000
00000010
00000001
00001000
00000100
00000010
00000100
,
00000220
00000000
00000330
00022000
00000000
00033000
02200000
00000000
,
03300000
00000000
00022000
00000000
00033000
00000000
00010000
00001000
00010000
00000000
00001000
00000000
00000100
00000000
00000010
00000000
,
00000110
00000000
00000000
00000000
00000000
00000000
00000001
00001000
00000001
00000000
00000000
00000000
00000000
00000000
00001000
00000002
,
00002000
00000000
00000000
00000000
,
00000000
00000000
00000000
00000000
,
00003003
00000000
00000000
00000000
;
