#TITLE:Crystalia;
#ARTIST:DJ TOTTO;
#BANNER:Crystalia.png;
#BACKGROUND:Crystalia-bg.png;
#CDTITLE:./CDTitles/RB VOLZZA.png;
#MUSIC:Crystalia.ogg;
#SAMPLESTART:93.111;
#SAMPLELENGTH:15;
#BPMS:0=270,324=135,372=270;
#TIMESIGNATURES:0=6=8,324=3=4,372=6=8,468=4=4,472=6=8;
#BGSTAGE:3;

//--------------- dance-single - Fred-104 ----------------
#NOTES:
     dance-single:
     Fred-104:
     Beginner:
     5:
     :
0000
0000
0000
0000
,
0000
0000
0000
0000
,
0000
0000
0000
0000
,
0000
0000
0000
0000
,
0000
0000
0000
0000
,
0000
0000
0000
0000
,
0000
0000
0000
0000
,
0000
0000
0000
0000
,
0000
0000
0000
0000
,
0000
0000
0000
0000
,
0000
0000
0000
0000
,
0000
0000
0000
0000
,
0000
0000
0000
0000
,
0000
0000
0000
0000
,
0000
0000
0000
0000
,
2000
0000
0000
0000
,
0000
3000
0002
0000
,
0000
0000
0000
0003
,
2000
0000
0000
0000
,
0000
3000
0002
0000
,
0000
0000
0000
0003
,
0200
0000
0000
0000
,
0000
0300
0020
0000
,
0000
0000
0000
0030
,
0200
0000
0000
0000
,
0000
0300
0020
0000
,
0000
0000
0000
0030
,
1001
0000
0000
0000
,
0000
0000
0000
0000
,
0000
0000
0000
0000
,
0000
0000
0000
0000
,
0000
0000
0000
0000
,
0000
0000
0000
0000
,
1000
0000
0000
1000
,
0000
0000
0010
0000
,
0000
0010
0000
0000
,
0100
0000
0000
0100
,
0000
0000
0001
0000
,
0000
0001
0000
0000
,
1000
0000
0000
0010
,
0000
0000
1000
0000
,
0000
0100
0000
0000
,
0010
0000
0000
0001
,
0000
0000
1000
0000
,
0000
0001
0000
0000
,
1000
0000
0000
0100
,
0000
0000
0010
0000
,
0000
0001
0000
0000
,
1000
0000
0000
0010
,
0000
0000
0100
0000
,
0000
0001
0000
0000
,
0010
0000
0000
0100
,
0000
0000
1000
0000
,
0000
0001
0000
0000
,
1000
0000
0000
0010
,
0000
0000
0100
0000
,
0000
0001
0000
0000
,
1000
0000
0010
0000
,
1000
0000
1000
0000
,
0100
0000
0010
0000
,
0001
0000
1000
0000
,
0001
0000
1000
0000
,
0000
1001
0000
0000
,
0001
0000
0100
0000
,
0001
0000
0010
0000
,
0100
0000
1000
0000
,
0010
0000
0100
0000
,
0010
0000
1000
0000
,
0000
1001
0000
0000
,
0001
0000
0001
0000
,
1000
0000
0100
0000
,
0100
0000
1000
0000
,
0010
0000
0010
0000
,
1000
0000
0001
0000
,
0000
1001
0000
0000
,
1000
0000
1000
0000
,
0100
0000
0010
0000
,
0010
0000
0001
0000
,
0100
0000
0010
0000
,
0100
0000
0001
0000
,
0000
1001
0000
0000
,
2000
0000
0000
3200
,
0000
0000
0320
0000
,
0000
0032
0000
1003
,
0002
0000
0000
0203
,
0000
0000
0320
0000
,
1030
0002
0000
0003
,
0001
0000
0000
0001
0000
0000
0010
0000
,
0000
0010
0000
0000
0100
0000
0000
0100
,
0000
0000
1000
0000
0000
1000
0000
0000
,
0001
0000
1000
0020
,
0000
0130
0002
0000
,
1003
0000
2002
0000
0000
3003
0000
0000
,
0001
0000
0001
0000
,
0010
0000
0100
0000
,
1000
0000
0001
0000
,
1000
0000
0010
0000
,
1000
0000
0001
0000
,
0000
1001
0000
0000
,
1000
0000
0010
0000
,
1000
0000
0100
0000
,
1000
0000
0001
0000
,
1000
0000
0100
0000
,
0010
0000
0001
0000
,
0000
1001
0000
0000
,
1000
0000
0100
0000
,
1000
0000
0010
0000
,
1000
0000
0100
0000
,
0001
0000
0100
0000
,
1000
0000
0001
0000
,
0000
1001
0000
0000
,
1000
0000
0100
0000
,
1000
0000
0100
0000
,
0001
0000
0100
0000
,
1000
0000
0010
0000
,
1000
0000
0010
0000
,
0001
0000
0010
0000
,
0000
0000
0000
0000
,
2002
0000
0000
0000
,
0000
0000
0000
0000
,
0000
0000
0000
0000
,
3003
0000
0000
0000
;

//--------------- dance-single - Fred-104 ----------------
#NOTES:
     dance-single:
     Fred-104:
     Easy:
     9:
     :
0000
0000
0000
0000
,
0000
0000
0000
0000
,
0000
0000
0000
0000
,
0000
0000
0000
0000
,
0000
0000
0000
0000
,
0000
0000
0000
0000
,
0000
0000
0000
0000
,
0000
0000
0000
0000
,
0000
0000
0000
0000
,
0000
0000
0000
0000
,
0000
0000
0000
0000
,
0000
0000
0000
0000
,
0000
0000
0000
0000
,
0000
0000
0000
0000
,
0000
0000
0000
0000
,
2000
0000
0000
0000
,
0000
0000
3002
0000
,
0000
0203
0000
0000
,
0320
0000
0000
0230
,
0000
0000
0302
0000
,
0000
0000
0023
0000
,
2030
0000
0000
3002
,
0000
0000
0203
0000
,
0000
2300
0000
0000
,
3002
0000
0000
0203
,
0000
0000
0320
0000
,
0000
0000
0000
0030
,
1001
0000
0000
0000
,
0000
0000
0000
0000
,
0000
0000
0000
0000
,
0000
0000
0000
0000
,
0000
0000
0000
0000
,
0000
0000
0000
0000
,
1000
1000
0000
0100
,
0100
0000
0010
0010
,
0000
0001
0001
0000
,
1000
1000
0000
0010
,
0010
0000
0100
0100
,
0000
0001
0001
1000
,
0001
0001
0000
1000
,
1000
0000
0010
0010
,
0000
0100
0100
0000
,
0001
0001
0000
1000
,
1000
0000
0100
0100
,
0000
0010
0010
0001
,
1000
0100
0000
0010
,
0100
0000
1000
0010
,
0000
0100
0001
0000
,
1000
0100
0000
0010
,
0001
0000
1000
0001
,
0000
0100
0010
0100
,
0001
0010
0000
0100
,
1000
0000
0001
0100
,
0000
0010
1000
0000
,
0001
0100
0000
0100
,
0010
0000
1000
0100
,
0000
0100
0010
0000
,
0001
0000
0001
0000
,
0100
0010
0100
0000
,
0001
0000
1000
0100
,
1000
0000
0010
0000
,
1000
0000
0100
0000
1000
0000
0000
1000
,
0000
0000
0001
0000
0000
0001
0000
0000
,
1000
0000
0100
0000
,
0010
0100
0010
0000
,
0001
0000
0100
0001
,
0100
0000
0001
0000
,
0010
0000
0100
0000
0010
0000
0000
0001
,
0000
0000
1000
0000
0000
0100
0000
0000
,
1000
0000
0010
0000
,
1000
0100
0010
0000
,
0001
0000
1000
0001
,
0100
0000
0001
0000
,
0010
0000
0100
0000
0010
0000
0000
0001
,
0000
0000
1000
0000
0000
0001
0000
0000
,
1000
0000
0100
0000
,
0010
0100
1000
0000
,
0001
0000
0100
0010
,
0100
0000
0001
0000
,
1000
0001
1000
0000
,
0100
0000
0010
0100
,
2000
0000
0000
3200
0000
0000
0320
0000
,
0000
0032
0000
0000
2003
0000
0000
3002
,
0000
0203
0000
0300
,
0020
0000
0000
2030
0000
0000
3200
0000
,
0000
0320
0000
0000
0032
0000
0000
0000
,
1003
0001
2000
0000
0000
0002
0000
3003
,
1100
0000
0000
0110
0000
0000
0011
0000
,
0000
0101
0000
0000
0110
0000
0000
1010
,
0000
2001
3002
0203
,
0320
0000
0000
0000
1030
0001
2000
0000
,
0000
0000
3100
0010
0002
0000
0000
0000
,
1003
0001
2000
0000
0000
0000
3000
0000
,
0001
0100
0001
1000
,
0010
1000
0001
0010
,
0001
1000
0100
1000
,
0001
0010
0100
1000
,
0010
0100
0001
0000
,
1000
0000
0100
0000
,
1000
0010
1000
0001
,
0100
0001
1000
0100
,
1000
0001
0010
0001
,
0100
0000
0010
0000
,
1000
0001
1000
0100
,
0010
0001
1001
0000
,
0001
0100
0001
0010
,
0100
0010
0001
1000
,
0001
0100
0010
0000
,
1000
0100
0010
0001
,
1000
0001
0100
0000
,
0010
0000
1000
0000
,
0001
0100
0001
0010
,
0001
0100
0010
1000
,
0100
1000
0010
1000
,
0100
0010
0001
0100
,
0010
1000
0001
0010
,
0100
1000
0001
1000
,
0000
0000
0000
0000
,
2002
0000
0000
0000
,
0000
0000
0000
0000
,
0000
0000
0000
0000
,
3003
0000
0000
0000
;

//--------------- dance-single - Fred-104 ----------------
#NOTES:
     dance-single:
     Fred-104:
     Medium:
     12:
     :
0000
0000
0000
0000
,
0000
0000
0000
0000
,
0000
0000
0000
0000
,
0000
0000
0000
0000
,
0000
0000
0000
0000
,
0000
0000
0000
0000
,
0000
0000
0000
0000
,
0000
0000
0000
0000
,
0000
0000
0000
0000
,
0000
0000
0000
0000
,
0000
0000
0000
0000
,
0000
0000
0000
0000
,
0000
0000
0000
0000
,
0000
0000
0000
0000
,
0000
0000
0000
0000
,
2010
0000
0000
0000
,
0000
0000
3200
0000
,
0000
0320
0000
0000
,
0032
0000
0000
0203
,
0000
0000
0302
0000
,
0000
0023
0230
2300
,
3002
0000
0000
2003
,
0000
0000
3200
0000
,
0000
0320
0000
0000
,
0032
0000
0000
0203
,
0000
0000
0320
0000
,
0000
0230
0000
0300
,
1001
0000
0000
0000
,
0000
0000
0000
0000
,
0000
0000
0000
0000
,
0000
0000
0000
0000
,
0000
0000
0000
0000
,
0000
0000
0000
0000
,
1000
1100
0000
0001
,
0101
0000
1000
1010
,
0000
0001
0011
0000
,
1000
1010
0000
0001
,
0011
0000
1000
1100
,
0000
0001
0100
0010
,
1000
1010
0000
0001
,
0101
0000
1000
1100
,
0000
0001
0011
0000
,
1000
1010
0000
0010
,
0110
0000
0100
1001
,
0000
0001
1000
0001
,
1000
0100
0100
0010
,
0100
0100
1000
0010
,
0010
0001
0010
0010
,
1000
0100
0100
0001
,
0100
0100
1000
0100
,
0100
0001
0010
0010
,
1000
0010
0010
0001
,
0100
0100
1000
0100
,
0100
0001
0010
0010
,
1000
0010
0001
1000
,
0100
0001
1000
0100
,
0001
1000
0010
0001
,
1000
0100
0000
1000
0010
0000
0100
0000
,
0001
0000
0010
0000
0100
0010
0000
0001
,
1000
0001
0100
0010
,
1000
0100
0000
0010
0001
0000
0100
0000
,
0010
0000
1000
0000
0100
0000
0000
1100
,
0000
0000
1000
0000
0000
1001
0000
0000
,
0001
0010
0000
0001
0100
0000
0010
0000
,
0100
0000
0001
0000
1000
0100
0000
0010
,
0001
0100
0010
0100
,
0001
1000
0000
0010
0100
0000
0001
0000
,
1000
0000
0100
0000
1000
0000
0000
1010
,
0000
0000
0001
0000
0000
0101
0000
0000
,
1000
0100
0000
0010
0001
0000
0100
0000
,
0010
0000
0100
0000
0001
0010
0000
0001
,
0100
0010
1000
0100
,
0010
0001
0000
1000
0001
0000
0100
0000
,
0010
0000
1000
0000
0001
0010
0000
0010
,
0100
0000
0100
1000
0000
1000
0010
0000
,
1000
0010
0000
0100
0001
0000
1000
0000
,
0001
0000
0100
0000
0010
0100
0000
0001
,
0100
0010
0100
0001
,
1000
0100
0000
0010
0001
0000
0010
0000
,
0100
0000
1000
0000
0001
0100
0000
0100
,
0010
0000
0010
1000
0000
1000
0001
0000
,
2001
0000
0000
3200
0000
0000
0320
0000
,
0000
0032
0000
0000
0203
0000
0000
0320
,
0000
0230
0000
0300
,
1002
0000
0000
0023
0000
0000
2030
0000
,
0000
3002
0000
0000
0203
0000
0000
0000
,
2300
3002
2003
0000
0000
0002
0000
3003
,
0002
0000
0000
0023
0000
0000
2030
0000
,
0000
3200
0000
0000
0302
0000
0000
0023
,
0000
0032
0203
2300
,
3200
0000
0302
0000
0023
0230
2300
0000
,
3020
0000
0230
0302
2003
0000
3200
0000
,
0320
0032
2000
0000
0000
3003
0000
0000
,
0001
0000
0100
0010
0100
0000
0001
0000
,
0100
0000
0010
0000
1000
0000
0100
1000
,
0100
1000
0010
0100
,
0001
0000
1000
0001
1000
0000
0100
0000
,
0010
0001
1000
0100
,
0001
1000
0010
0001
,
1000
0000
0001
0100
0001
0000
0010
0000
,
0100
0000
0010
0000
0001
0000
0100
0010
,
0100
0001
1000
0100
,
1000
0010
0001
1000
,
0100
0001
0010
1000
,
0001
0100
1000
0001
,
1000
0000
0010
0100
0010
0000
1000
0000
,
0100
0010
0100
0000
0010
0000
0001
0100
,
0001
0000
0010
0100
0010
0000
0001
0000
,
0100
0000
0010
0100
0010
0000
1000
0000
,
0100
0010
0001
0100
,
1000
0100
0001
1000
,
0001
0010
0100
1000
,
0010
0100
0010
0000
1000
0000
0010
0000
,
0100
0000
0001
0000
0010
0100
0010
0000
,
0001
0100
1000
0001
,
0010
0000
1000
0000
0001
0100
0001
0000
,
1000
0010
1000
0000
0001
0100
0010
1000
,
0000
0000
0000
0000
,
2002
0000
0000
0000
,
0000
0000
0000
0000
,
0000
0000
0000
0000
,
3003
0000
0000
0000
;

//--------------- dance-single - Fred-104 ----------------
#NOTES:
     dance-single:
     Fred-104:
     Hard:
     15:
     :
0000
0000
0000
0000
,
0000
0000
0000
0000
,
0000
0000
0000
0000
,
0000
0000
0000
0000
,
0000
0000
0000
0000
,
0000
0000
0000
0000
,
0000
0000
0000
0000
,
0000
0000
0000
0000
,
0000
0000
0000
0000
,
0000
0000
0000
0000
,
0000
0000
0000
0000
,
0000
0000
0000
0000
,
0000
0000
0000
0000
,
0000
0000
0000
0000
,
0000
0000
0000
0000
,
2100
0000
0000
3020
,
0000
0000
0230
0000
,
0000
0302
0000
0000
,
0023
0000
0000
0230
,
0000
0000
2300
0000
,
0000
3002
0203
2300
,
3200
0000
0000
0302
,
0000
0000
0023
0000
,
0000
0230
0000
0000
,
2300
0000
0000
3020
,
0000
0000
0032
0000
,
0000
0000
0000
0003
,
1001
0000
0000
0100
,
0000
0000
0001
0000
,
0000
0010
0000
0000
,
1000
0000
0000
0010
,
0000
0000
0001
0000
,
0000
0200
0000
0300
,
1100
1001
0000
0011
,
1001
0000
1010
1001
,
0000
0101
1001
1000
,
1100
1010
0000
0101
,
0011
0000
0011
0101
,
0000
1010
1100
1000
,
0001
0010
0100
0000
0010
0000
0001
0010
,
0100
0000
0010
0000
0001
0100
0010
0000
,
0100
0000
0001
0100
0010
0000
0100
0000
,
0001
1000
0100
0000
0010
0000
0100
1000
,
0001
0000
1000
0000
0001
0000
1000
0100
,
0000
0010
0001
1000
0010
0000
0100
0000
,
0001
0010
0001
0000
1001
0000
1000
0100
,
1000
0000
1001
0000
0001
0100
0001
0000
,
1001
0000
1000
0010
1000
0000
0001
0000
,
1000
0100
1000
0000
1010
0000
0001
0100
,
0001
0000
0011
0000
1000
0010
1000
0000
,
1100
0000
0001
0010
0001
0000
0101
0000
,
0001
0010
0100
0000
1000
0000
0001
0010
,
0100
0000
1000
0000
0001
0100
0010
0000
,
1000
0000
0001
0100
0010
0000
1000
0000
,
0001
0100
0001
0100
0010
0000
1000
0100
,
1000
0100
0010
0000
0001
1000
0010
1000
,
0001
0000
1000
0100
0010
0001
0100
0010
,
1000
0100
0000
0100
0010
0000
0001
1000
,
0010
0000
0100
0000
0001
0010
0000
0010
,
0100
0000
0010
0001
0100
0000
0010
0000
,
1000
0010
0000
0100
0001
0000
1000
0100
,
0010
0000
0001
0000
0101
0000
0000
1100
,
0000
0000
0011
0000
0000
1010
0000
0000
,
0001
0010
0000
0100
1000
0000
0001
1000
,
0010
0000
0100
0000
0010
1000
0000
0100
,
0010
0000
0100
1000
0001
0000
0100
0000
,
0001
1000
0000
0010
1000
0000
0100
1000
,
0010
0000
0100
0000
0101
0000
0000
1010
,
0000
0000
0011
0000
0000
1100
0000
0000
,
0001
0100
0000
0100
1000
0000
0001
1000
,
0010
0000
0100
0000
0001
0010
0000
0010
,
1000
0000
0001
1000
0100
0000
0010
0000
,
0001
0010
0000
0010
1000
0000
0001
1000
,
0100
0000
0010
0000
0001
0100
0000
0100
,
1000
0000
0001
0010
0000
0010
1000
0000
,
0001
1000
0000
0100
0001
0000
0100
1000
,
0010
0000
0100
0000
0001
0100
0000
0010
,
0001
0000
0010
1000
0001
0000
1000
0000
,
0001
0010
0000
0100
1000
0000
0010
0100
,
1000
0000
0100
0000
0001
1000
0001
1000
,
0100
0010
0001
0100
0010
1000
0010
0100
,
0002
0000
0000
0023
0000
0000
2030
0000
,
0000
3002
0000
0000
0203
0000
0000
0000
,
0000
2300
0000
3000
,
0002
0000
0000
0023
0000
0000
0230
0000
,
0000
0302
0000
0000
0203
0000
0000
0000
,
2300
3002
2003
0000
0000
0002
0000
3003
,
2200
0000
3300
0202
0000
0303
2020
0000
,
3030
0022
0000
0033
2002
0000
0000
0000
,
0000
3003
2000
0000
3002
0000
0203
0000
,
0302
0000
0010
0000
0010
0000
0013
0000
0001
1000
0010
1000
0200
0000
1000
0000
,
1000
0000
1300
0000
0010
1000
0100
0010
0002
0000
1000
0000
1000
0000
1003
0000
,
0001
0100
0010
1000
0001
0010
0001
0010
0100
1000
0200
0000
0000
0300
0100
1000
,
0001
0010
0100
1000
0001
0000
0100
0010
,
1000
0010
0100
0000
0001
0010
1000
0010
,
0001
0000
1000
0010
0100
0001
1000
0001
,
0100
0001
1000
0001
1000
0000
0200
0000
,
0310
0100
0010
0001
2000
0000
3200
0000
,
0302
0000
0023
0000
2030
0000
3001
1000
,
0001
0100
0010
1000
0010
0000
1000
0001
,
0010
0001
0100
0000
0001
0010
0100
0010
,
0001
0000
1000
0010
0100
0001
1000
0100
,
0020
0001
0230
2300
,
3001
0000
1000
0010
0100
0000
0101
0000
,
1100
0000
0101
0000
0001
1000
0001
0000
,
1000
0100
1000
0100
0001
0000
0001
0100
,
0001
0100
1000
0000
1000
0010
1000
0010
,
0001
0000
0001
0010
1000
0010
1000
0000
,
0001
0100
0010
1000
0010
0100
0020
0000
,
1030
0100
0010
1000
0020
0000
0032
0000
,
0203
0000
0320
0000
2030
0000
3001
0100
,
0001
0010
0100
1000
0010
0100
0001
0010
,
1000
0010
0001
0000
1000
0010
0100
0010
,
1000
0100
0010
0001
0100
1000
0100
0000
,
0001
0010
0100
0001
0100
1000
0010
0100
,
0001
1000
0100
0010
1000
0010
0100
1000
,
0001
0010
0001
1000
0100
0001
0100
1000
,
0000
0000
0000
0000
,
2002
0000
0000
0000
,
0000
0000
0000
0000
,
0000
0000
0000
0000
,
3003
0000
0000
0000
;

//--------------- dance-single - Fred-104 ----------------
#NOTES:
     dance-single:
     Fred-104:
     Challenge:
     17:
     :
0000
0000
0000
0000
,
0000
0000
0000
0000
,
0000
0000
0000
0000
,
0000
0000
0000
0000
,
0000
0000
0000
0000
,
0000
0000
0000
0000
,
0000
0000
0000
0000
,
0000
0000
0000
0000
,
0000
0000
0000
0000
,
0000
0000
0000
0000
,
0000
0000
0000
0000
,
0000
0000
0000
0000
,
0000
0000
0000
0000
,
0000
0000
0000
0000
,
0000
0000
0000
0000
,
0002
0000
0000
0000
,
0000
0000
2003
0000
,
0000
3020
0000
0000
,
0032
0000
0000
2003
,
0000
0000
3200
0000
,
0000
0000
0302
0000
2003
0000
3200
0300
,
0220
0000
0000
0000
,
0330
0000
0022
0000
,
0033
2020
0000
3030
,
0202
0000
0000
0000
,
0000
0303
2002
0000
,
0000
0000
0000
0000
,
3003
0000
0000
0000
,
0000
0000
0000
0000
,
0000
0000
0000
0000
,
0000
0000
0000
0000
,
0000
0000
0000
0000
,
0000
0000
0000
0000
,
1100
0000
1000
0100
0010
0000
0011
0000
,
0001
1000
0010
0000
0110
0000
0100
0001
,
1000
0000
1001
0000
0001
0010
0100
1000
,
1001
0000
0001
0100
0010
0000
1010
0000
,
1000
0001
0010
0000
0110
0000
0100
1000
,
0001
0000
0010
0001
1000
0001
0100
0010
,
1010
0000
1000
0001
0010
0000
0110
0000
,
0100
1000
0001
0000
0101
0000
0001
1000
,
0010
0000
1010
0000
1000
0001
0010
0001
,
0101
0000
0100
0010
1000
0000
1001
0000
,
0001
0010
0100
0000
1100
0000
0001
1000
,
0000
0100
1000
0001
0100
0010
1000
0001
,
1000
0100
0100
0000
0001
0000
0100
0100
,
1000
0000
0001
0000
1000
0010
0010
0000
,
0001
0000
0010
0010
1000
0000
1001
0000
,
0001
0100
0100
0000
1000
0000
0100
0100
,
0001
0000
1000
0000
0001
0010
0010
0000
,
1000
0000
0010
0010
0001
0000
1001
0000
,
0001
0100
1000
0100
0001
0000
1000
0100
,
0001
0100
1000
0000
0001
0010
1000
0010
,
0001
0000
1000
0010
0001
0010
1000
0000
,
0001
0010
0100
1000
1100
0000
1000
0010
,
0100
0001
0101
0000
0001
1000
0100
1000
,
0010
0100
1000
0100
0001
1000
0100
0010
,
0001
0001
0000
0100
0110
0000
0010
1000
,
1100
0000
1001
0000
1000
1000
0000
0100
,
0110
0000
0010
0001
1000
0001
0100
0010
,
1000
1000
0000
0100
0110
0000
0010
0001
,
1001
0000
0110
0000
1000
0100
0000
0001
,
0100
0000
1000
0010
0000
0001
0010
0000
,
1000
1000
0000
0100
0110
0000
0001
1000
,
1010
0000
1001
0000
0001
0001
0000
0100
,
0101
0000
1000
0100
0010
0001
1000
0010
,
1000
1000
0000
0001
0101
0000
1000
0100
,
0110
0000
0011
0000
1000
0010
0000
0001
,
0010
0000
0100
1000
0100
0001
1000
0001
,
1000
0100
0010
0001
0011
0000
0001
0100
,
0110
0000
1001
0000
0001
1000
0100
1000
,
1001
0000
1000
0010
0100
0001
0100
0010
,
1000
0100
0010
0001
0011
0000
0001
0100
,
0110
0000
1001
0000
0001
0100
0000
0100
,
1000
0000
0001
0010
0000
0010
1000
0000
,
0001
0100
0010
1000
1001
0000
1000
0100
,
0110
0000
0011
0000
0001
1000
0010
1000
,
1001
0000
0001
0100
0010
0001
0010
0100
,
0001
0010
0100
1000
1100
0000
0001
1000
,
1010
0000
0101
0000
1000
0100
0100
0001
,
1000
0001
0100
0100
1000
0001
0100
0010
,
2000
0000
0000
3200
0000
0000
0302
0000
,
0000
0023
0000
0000
2030
0000
0000
0000
,
0000
0002
0000
3003
,
2200
0000
3300
0202
0000
0303
2020
0000
,
3030
0022
0000
0033
0210
0000
0000
0000
,
0302
2003
0002
0000
0000
3003
0000
0000
,
2000
0010
3001
0002
0010
1003
2000
0100
,
3001
0002
0100
1003
2000
0010
3001
0002
,
0100
0000
1003
0000
1000
0100
0020
0000
0031
0100
0020
0000
1030
0100
0020
0000
,
0031
0010
0001
0010
1000
0010
1000
0010
0001
0010
0100
1000
0001
0100
0001
0100
,
1000
0100
1000
0100
0001
0100
0010
1000
0001
0010
0100
1000
0001
0100
0010
1000
,
0100
0010
0001
1000
0100
0010
1000
0001
0100
0010
0002
0000
0000
0000
1003
0001
,
1000
0100
0001
0100
1000
0000
0001
0100
,
1000
0100
0001
0000
1000
0100
0001
0100
,
0010
1000
0010
0001
1000
0100
0010
0001
,
1000
0010
0001
0010
1000
0000
0001
0010
,
1000
0010
0001
1000
1001
0000
1010
0000
,
0110
0000
0101
0000
0001
1000
0100
1000
,
0001
0100
0010
0001
0010
0000
0100
0001
,
0010
0100
0001
0000
0100
0010
0001
1000
,
0010
0000
0100
0001
1000
0100
0001
0100
,
1000
0000
0001
1000
0020
0000
0032
0000
,
0023
0000
0130
0001
1000
0000
1100
0000
,
0101
0000
1000
0100
0110
0000
0011
0000
,
0001
0100
0010
0100
1000
0000
0001
0010
,
0100
0010
1000
0000
0001
0010
0001
1000
,
0010
0100
1000
0100
0001
1000
0100
0010
,
0001
1000
0010
0001
0010
0100
0010
0000
,
1000
0001
0010
0100
1100
0000
0101
0000
,
1010
0011
0110
1001
,
0001
0100
1000
0100
0010
0001
0010
0100
,
0001
1000
0100
1000
0001
0100
0010
0001
,
0010
0100
1000
0100
0001
1000
0100
0010
,
0001
1000
0010
0100
1000
0100
0010
0001
,
0010
0100
0010
1000
0001
0010
1000
0001
,
0100
1000
0001
0100
1000
0001
0010
1000
,
0000
0000
0000
0000
,
2002
0000
0000
0000
,
0000
0000
0000
0000
,
0000
0000
0000
0000
,
3003
0000
0000
0000
;

//--------------- dance-double - Fred-104 ----------------
#NOTES:
     dance-double:
     Fred-104:
     Easy:
     9:
     :
00000000
00000000
00000000
00000000
,
00000000
00000000
00000000
00000000
,
00000000
00000000
00000000
00000000
,
00000000
00000000
00000000
00000000
,
00000000
00000000
00000000
00000000
,
00000000
00000000
00000000
00000000
,
00000000
00000000
00000000
00000000
,
00000000
00000000
00000000
00000000
,
00000000
00000000
00000000
00000000
,
00000000
00000000
00000000
00000000
,
00000000
00000000
00000000
00000000
,
00000000
00000000
00000000
00000000
,
00000000
00000000
00000000
00000000
,
00000000
00000000
00000000
00000000
,
00000000
00000000
00000000
00000000
,
01200000
00000000
00000000
00000000
,
00000000
00000000
02300000
00000000
,
00000000
03020000
00000000
00000000
,
20030000
00000000
00000000
32000000
,
00000000
00000000
03200000
00000000
,
00000000
00000000
00302000
00000000
,
00023000
00000000
00000000
00032000
,
00000000
00000000
00003020
00000000
,
00000000
00000032
00000000
00000000
,
00002003
00000000
00000000
00003200
,
00000000
00000000
00020300
00000000
,
00000000
00000000
00000000
00030000
,
00011000
00000000
00000000
00000000
,
00000000
00000000
00000000
00000000
,
00000000
00000000
00000000
00000000
,
00000000
00000000
00000000
00000000
,
00000000
00000000
00000000
00000000
,
00000000
00000000
00000000
00000000
,
10000000
10000000
00000000
00010000
,
00010000
00000000
01000000
01000000
,
00000000
00100000
00100000
00000000
,
01000000
01000000
00000000
00001000
,
00001000
00000000
00010000
00010000
,
00000000
00000010
00001000
00000100
,
00001000
00001000
00000000
00000001
,
00000001
00000000
00000100
00000100
,
00000000
00000010
00000010
00000000
,
00001000
00001000
00000000
00000100
,
00000100
00000000
00010000
00010000
,
00000000
00000010
00010000
00001000
,
00100000
00001000
00000000
00010000
,
00001000
00000000
01000000
00001000
,
00000000
00010000
00001000
00000000
,
00100000
00010000
00000000
10000000
,
00010000
00000000
01000000
00010000
,
00000000
10000000
01000000
00100000
,
00001000
00010000
00000000
00001000
,
00000010
00000000
00000001
00001000
,
00000000
00000001
00000100
00000000
,
00000010
00001000
00000000
00000001
,
00001000
00000000
00000100
00010000
,
00000000
00001000
00010000
00001000
,
00010000
00000000
00010000
00000000
,
00001000
00100000
00010000
00000000
,
00010000
00000000
01000000
00100000
,
10000000
00000000
10000000
00000000
,
01000000
00000000
00100000
00000000
00001000
00000000
00000000
00001000
,
00000000
00000000
00010000
00000000
00000000
00010000
00000000
00000000
,
00000100
00000000
00000100
00000000
,
00001000
00000100
00000010
00000000
,
00000010
00000000
00000001
00001000
,
00000100
00000000
00000100
00000000
,
00010000
00000000
00000010
00000000
00001000
00000000
00000000
00000100
,
00000000
00000000
00010000
00000000
00000000
00001000
00000000
00000000
,
00010000
00000000
00000010
00000000
,
00001000
00000100
00010000
00000000
,
00001000
00000000
00100000
00010000
,
01000000
00000000
00100000
00000000
,
10000000
00000000
00010000
00000000
10000000
00000000
00000000
01000000
,
00000000
00000000
00010000
00000000
00000000
00001000
00000000
00000000
,
00010000
00000000
00000100
00000000
,
00000010
00000001
00001000
00000000
,
00000001
00000000
00000100
00000010
,
00001000
00000000
00000100
00000000
,
00010000
00000000
00001000
00000000
00010000
00000000
00000000
00001000
,
00000000
00000000
00000010
00000000
00000000
00000001
00000000
00000000
,
00002000
00000000
00000000
00003200
00000000
00000000
00000320
00000000
,
00000000
00000032
00000000
00000000
00000203
00000000
00000000
00020300
,
00000000
00032000
00000000
00003000
,
00020000
00000000
00000000
00032000
00000000
00000000
00203000
00000000
,
00000000
00320000
00000000
00000000
20030000
00000000
00000000
00000000
,
31000000
00100000
00002000
00000000
00000000
00020000
00000000
00033000
,
00011000
00000000
00000000
00010010
00000000
00000000
00011000
00000000
,
00000000
01001000
00000000
00000000
00011000
00000000
00000000
00001000
,
00000000
00000020
00000032
00002003
,
00003020
00000000
00000000
00000000
00000130
00000001
00000020
00000000
,
00000000
00000000
00000130
00010000
00002000
00000000
00000000
00000000
,
00103000
00010000
20000000
00000000
00000000
30000000
00000000
00000000
,
10000000
01000000
10000000
00010000
,
01000000
00010000
10000000
00100000
,
00010000
00001000
00010000
00000000
,
00000100
00000010
00000001
00001000
,
00000001
00000100
00000010
00001000
,
00000001
00000010
00000100
00000000
,
00010000
00001000
00000010
00001000
,
00010000
00100000
00010000
00001000
,
00000010
00001000
00010000
00000000
,
00001000
00010000
00001000
00100000
,
00010000
10000000
00010000
01000000
,
00100000
10000000
00100000
10000000
,
01000000
00010000
00001000
00010000
,
00000100
00000010
00000001
00001000
,
00000001
00000100
00000010
00000000
,
00000100
00000001
00000010
00000001
,
00001000
00000001
00000010
00000100
,
00000010
00001000
00010000
00000000
,
00100000
01000000
00010000
10000000
,
00010000
01000000
00100000
10000000
,
01000000
00010000
00001000
00010000
,
00000010
00000100
00001000
00000001
,
00000010
00000100
00001000
00000100
,
00000010
00000001
00001000
00000010
,
00000000
00000000
00000000
00000000
,
00002002
00000000
00000000
00000000
,
00000000
00000000
00000000
00000000
,
00000000
00000000
00000000
00000000
,
00003003
00000000
00000000
00000000
;

//--------------- dance-double - Fred-104 ----------------
#NOTES:
     dance-double:
     Fred-104:
     Medium:
     12:
     :
00000000
00000000
00000000
00000000
,
00000000
00000000
00000000
00000000
,
00000000
00000000
00000000
00000000
,
00000000
00000000
00000000
00000000
,
00000000
00000000
00000000
00000000
,
00000000
00000000
00000000
00000000
,
00000000
00000000
00000000
00000000
,
00000000
00000000
00000000
00000000
,
00000000
00000000
00000000
00000000
,
00000000
00000000
00000000
00000000
,
00000000
00000000
00000000
00000000
,
00000000
00000000
00000000
00000000
,
00000000
00000000
00000000
00000000
,
00000000
00000000
00000000
00000000
,
00000000
00000000
00000000
00000000
,
00021000
00000000
00000000
00032000
,
00000000
00000000
00203000
00000000
,
00000000
00302000
00000000
00000000
,
00023000
00000000
00000000
00032000
,
00000000
00000000
00003020
00000000
,
00000000
00000230
00002300
00003002
,
00000023
00000000
00000000
00002030
,
00000000
00000000
00023000
00000000
,
00000000
00032000
00000000
00000000
,
00203000
00000000
00000000
02300000
,
00000000
00000000
23000000
00000000
,
00000000
00020000
00000000
30030000
,
10010000
00000000
00000000
00000000
,
00000000
00000000
00000000
00000000
,
00000000
00000000
00000000
00000000
,
00000000
00000000
00000000
00000000
,
00000000
00000000
00000000
00000000
,
00000000
00000000
00000000
00000000
,
00010000
00011000
00000000
00010000
,
00010010
00000000
00010000
00010100
,
00000000
00010000
00001000
00000010
,
00000001
00000101
00000000
00000001
,
00000011
00000000
00000001
00001001
,
00000000
00001000
00000010
00010000
,
00001000
00011000
00000000
00001000
,
01001000
00000000
00001000
00101000
,
00000000
00001000
00010000
00001000
,
00100000
00110000
00000000
00010000
,
10010000
00000000
10000000
11000000
,
00000000
01000000
00100000
00001000
,
00100000
00001000
00001000
00000010
,
00010000
00010000
00100000
00001000
,
00001000
00000010
00010000
00010000
,
01000000
00001000
00001000
00000100
,
00010000
00010000
01000000
00001000
,
00001000
00000100
00010000
00010000
,
00100000
00001000
00001000
00000010
,
00010000
00010000
01000000
00001000
,
00001000
00000100
00010000
00010000
,
00100000
00001000
00001000
00000010
,
00010000
00010000
01000000
00001000
,
00001000
00000100
00010000
00010000
,
00001000
00010000
00000000
00001000
00010000
00000000
00000010
00000000
,
00001000
00000000
00000100
00000000
00000010
00000001
00000000
00000010
,
00000001
00001000
00000001
00000100
,
00000010
00001000
00000000
00000010
00001000
00000000
00000100
00000000
,
00010000
00000000
00001000
00000000
00011000
00000000
00000000
00101000
,
00000000
00000000
00110000
00000000
00000000
10010000
00000000
00000000
,
10000000
01000000
00000000
00100000
01000000
00000000
10000000
00000000
,
00100000
00000000
01000000
00000000
00010000
10000000
00000000
01000000
,
00100000
00001000
00010000
00001000
,
00000010
00000100
00000000
00001000
00000001
00000000
00000100
00000000
,
00000010
00000000
00001000
00000000
00001100
00000000
00000000
00000101
,
00000000
00000000
00001010
00000000
00000000
00000011
00000000
00000000
,
00000100
00000010
00000000
00000100
00000010
00000000
00001000
00000000
,
00000100
00000000
00010000
00000000
00000010
00010000
00000000
00000010
,
00010000
00001000
00100000
00010000
,
01000000
00010000
00000000
01000000
00010000
00000000
00100000
00000000
,
00001000
00000000
00010000
00000000
00011000
00000000
00000000
00001010
,
00000000
00000000
00011000
00000000
00000000
01010000
00000000
00000000
,
00010000
00001000
00000000
00000010
00000100
00000000
00001000
00000000
,
00000001
00000000
00000100
00000000
00000001
00000010
00000000
00000100
,
00010000
00001000
00010000
00000010
,
00001000
00000100
00000000
00010000
00001000
00000000
01000000
00000000
,
00010000
00000000
00100000
00000000
01000000
10000000
00000000
10000000
,
00010000
00000000
01000000
00100000
00000000
00100000
10000000
00000000
,
20010000
00000000
00000000
32000000
00000000
00000000
03020000
00000000
,
00000000
00032000
00000000
00000000
00003020
00000000
00000000
00000032
,
00000000
00002000
00000000
00003003
,
00000002
00000000
00000000
00000203
00000000
00000000
00002300
00000000
,
00000000
00023000
00000000
00000000
00230000
00000000
00000000
00000000
,
20300000
30020000
20030000
00000000
00000000
00020000
00000000
30030000
,
20000000
00000000
00000000
32000000
00000000
00000000
03020000
00000000
,
00000000
00032000
00000000
00000000
00023000
00000000
00000000
00030200
,
00000000
00000320
00000032
00002003
,
00003002
00000000
00000023
00000000
00002030
00023000
02030000
00000000
,
23000000
00000000
30200000
00320000
00032000
00000000
00003200
00000000
,
00000302
00002003
00000002
00000000
00000000
00003003
00000000
00000000
,
00010000
00000000
00000010
00001000
00000010
00000000
00010000
00000000
,
00001000
00000000
00100000
00000000
00010000
00000000
01000000
00100000
,
01000000
00100000
00010000
00001000
,
00000100
00000000
00000010
00010000
00000010
00000000
00010000
00000000
,
00001000
00100000
00001000
00010000
,
00001000
00000010
00000100
00001000
,
00000100
00000000
00010000
00001000
00010000
00000000
00001000
00000000
,
00100000
00000000
00010000
00000000
01000000
00000000
00001000
00010000
,
00001000
00000100
00000010
00001000
,
00000100
00000010
00000001
00000100
,
00001000
00010000
00100000
01000000
,
00010000
10000000
01000000
00100000
,
00010000
00000000
00001000
01000000
00001000
00000000
00010000
00000000
,
00001000
00100000
00001000
00000000
00010000
00000000
00000010
00001000
,
00000010
00000000
00001000
00000100
00010000
00000000
00000100
00000000
,
00001000
00000000
00000001
00000100
00000001
00000000
00000010
00000000
,
00000001
00001000
00000001
00000100
,
00001000
00010000
01000000
10000000
,
00010000
00100000
10000000
00100000
,
00010000
10000000
00010000
00000000
10000000
00000000
01000000
00000000
,
00010000
00000000
00001000
00000000
00010000
00000100
00000010
00000000
,
00000001
00000100
00000010
00001000
,
00000100
00000000
00010000
00000000
00000010
00010000
00001000
00000000
,
00100000
00010000
01000000
00000000
00010000
00100000
01000000
10000000
,
00000000
00000000
00000000
00000000
,
20020000
00000000
00000000
00000000
,
00000000
00000000
00000000
00000000
,
00000000
00000000
00000000
00000000
,
30030000
00000000
00000000
00000000
;

//--------------- dance-double - Fred-104 ----------------
#NOTES:
     dance-double:
     Fred-104:
     Hard:
     15:
     :
00000000
00000000
00000000
00000000
,
00000000
00000000
00000000
00000000
,
00000000
00000000
00000000
00000000
,
00000000
00000000
00000000
00000000
,
00000000
00000000
00000000
00000000
,
00000000
00000000
00000000
00000000
,
00000000
00000000
00000000
00000000
,
00000000
00000000
00000000
00000000
,
00000000
00000000
00000000
00000000
,
00000000
00000000
00000000
00000000
,
00000000
00000000
00000000
00000000
,
00000000
00000000
00000000
00000000
,
00000000
00000000
00000000
00000000
,
00000000
00000000
00000000
00000000
,
00000000
00000000
00000000
00000000
,
00000210
00000000
00000000
00000302
,
00000000
00000000
00000023
00000000
,
00000000
00000230
00000000
00000000
,
00020300
00000000
00000000
00032000
,
00000000
00000000
00023000
00000000
,
00000000
02030000
03200000
00320000
,
20030000
00000000
32000000
00000000
,
03200000
00302000
00023000
00000000
,
00032000
00000000
00003200
00000320
,
00002030
00000000
00003200
00000000
,
00000320
00000032
00002003
00000000
,
00000000
00000000
00000000
00003000
,
00001001
00000000
00000000
00000100
,
00000000
00000000
00010000
00000000
,
00000000
00001000
00000000
00000000
,
00100000
00000000
00000000
00010000
,
00000000
00000000
10000000
00000000
,
00000000
02000000
00000000
03000000
,
11000000
01010000
00000000
10100000
,
00110000
00000000
01010000
00110000
,
00000000
00101000
00011000
00000000
,
00010010
00001010
00000000
00000110
,
00000101
00000000
00001001
00000110
,
00000000
00000001
00000100
00000010
,
00001010
00010010
00000000
00011000
,
01001000
00000000
00010100
00011000
,
00000000
00101000
00011000
00001000
,
01001000
00011000
00000000
00010100
,
00011000
00000000
00101000
00011000
,
00000000
00010010
00011000
00010000
,
00001000
00010000
00000010
00000000
00001000
00000000
00000010
00000100
,
00000001
00000000
00001000
00000000
00000100
00000010
00000001
00000000
,
00001000
00000000
00000001
00000010
00000100
00000000
00000010
00000000
,
00001000
00010000
01000000
00000000
00100000
00000000
00010000
01000000
,
00100000
00000000
10000000
00000000
00010000
00000000
01000000
00100000
,
10000000
00000000
01000000
00000000
00100000
00001000
00010000
00000000
,
00001000
00000010
00000001
00000000
00001000
00000000
00000001
00000100
,
00000010
00000000
00001000
00000000
00000100
00010000
00001000
00000000
,
00010000
00000000
01000000
10000000
00010000
00000000
01000000
00000000
,
00010000
00100000
01000000
00100000
00010000
00000000
10000000
00100000
,
01000000
00010000
00100000
00000000
00001000
00010000
00001000
00000010
,
00000100
00000000
00001000
00000001
00000010
00000100
00001000
00000010
,
00000100
00000001
00000000
00000010
00000001
00000000
00001000
00000010
,
00000100
00000000
00000010
00000000
00001000
00000100
00000000
00010000
,
00001000
00000000
00010000
00000010
00001000
00000000
00000100
00000000
,
00010000
00001000
00000000
01000000
00010000
00000000
00100000
00001000
,
00010000
00000000
00001000
00000000
00011000
00000000
00000000
00010010
,
00000000
00000000
00011000
00000000
00000000
01001000
00000000
00000000
,
00001000
00010000
00000000
00100000
01000000
00000000
00010000
00100000
,
01000000
00000000
10000000
00000000
00100000
01000000
00000000
00010000
,
10000000
00000000
01000000
00100000
00001000
00000000
00010000
00000000
,
00001000
00000010
00000000
00000100
00001000
00000000
00000001
00000100
,
00000010
00000000
00001000
00000000
00001100
00000000
00000000
00000101
,
00000000
00000000
00001010
00000000
00000000
00000011
00000000
00000000
,
00001000
00000100
00000000
00000100
00000001
00000000
00000010
00000100
,
00001000
00000000
00000010
00000000
00010000
00000010
00000000
00001000
,
00000100
00000000
00010000
00001000
01000000
00000000
00010000
00000000
,
00100000
00001000
00000000
00001000
00000100
00000000
00001000
00000001
,
00000100
00000000
00000010
00000000
00001000
00000001
00000000
00010000
,
00000010
00000000
01000000
00001000
00000000
10000000
00010000
00000000
,
10000000
01000000
00000000
01000000
00010000
00000000
10000000
00100000
,
01000000
00000000
00001000
00000000
00010000
00001000
00000000
00000100
,
00000010
00000000
00001000
00000100
00000010
00000000
00000001
00000000
,
00001000
00000010
00000000
00000010
00000001
00000000
00000100
00000001
,
00000010
00000000
00000001
00000000
00001000
00000001
00000010
00000001
,
00001000
00000100
00001000
00000010
00010000
00001000
00100000
00001000
,
00020000
00000000
00000000
00032000
00000000
00000000
00003020
00000000
,
00000000
00000032
00000000
00000000
00002003
00000000
00000000
00000000
,
00000000
00003200
00000000
00000300
,
00000020
00000000
00000000
00000032
00000000
00000000
00000203
00000000
,
00000000
00002300
00000000
00000000
00023000
00000000
00000000
00000000
,
02030000
03200000
00320000
00000000
00000000
20000000
00000000
30030000
,
20200000
00000000
30300000
02020000
00000000
03030000
00022000
00000000
,
00033000
00002020
00000000
00003030
00000202
00000000
00000000
00000000
,
00000000
00000303
00002000
00000000
00003200
00000000
00000320
00000000
,
00000032
00000000
00000100
00000000
00000100
00000000
00000103
00000000
00000001
00000010
00000100
00001000
00000200
00000000
00010000
00000000
,
00010000
00000000
00010300
00000000
00001000
00100000
00010000
10000000
00200000
00000000
01000000
00000000
01000000
00000000
01300000
00000000
,
00010000
10000000
01000000
00100000
00001000
00010000
00000010
00010000
00001000
00010000
00000200
00000000
00000000
00000000
00001300
00000001
,
00000010
00000001
00001000
00000001
00000100
00000000
00000001
00000010
,
00000100
00010000
00001000
00000000
00010000
01000000
00100000
00010000
,
10000000
00000000
01000000
00100000
00010000
10000000
00100000
01000000
,
00010000
01000000
00001000
00010000
00001000
00000000
00100000
00001000
,
00010000
00001000
00000010
00000001
00002000
00000000
00003020
00000000
,
00000032
00000000
00002003
00000000
00003200
00000000
00000301
00001000
,
00000001
00000010
00001000
00010000
00001000
00000000
01000000
00100000
,
10000000
00010000
10000000
00000000
00010000
01000000
10000000
01000000
,
00010000
00000000
10000000
01000000
00100000
00010000
01000000
00001000
,
00020000
00001000
00030020
00001000
,
00000130
00000000
00000001
00000100
00000010
00000000
00000110
00000000
,
00001100
00011000
00110000
01100000
,
10000000
00100000
00010000
00001000
00010000
00000000
00000100
00000010
,
00000001
00001000
00000001
00000000
00000010
00001000
00010000
00001000
,
01000000
00010000
10000000
01000000
00100000
00000000
00010000
10000000
,
00010000
00100000
01000000
00100000
00010000
01000000
00002000
00000000
,
00010000
00000000
00103000
00001000
00020000
00000000
00032000
00000000
,
00003020
00000032
00002003
00003020
,
00001030
00000001
00000010
00000100
00001000
00000100
00000010
00000001
,
00001000
00000100
00010000
00000000
00001000
00010000
00000010
00010000
,
00001000
00100000
00010000
01000000
00001000
00100000
00010000
00000000
,
01000000
00010000
00100000
00010000
10000000
00100000
01000000
00100000
,
00010000
00001000
00000100
00000010
00001000
00000001
00000010
00000100
,
00010000
00001000
00100000
01000000
10000000
00010000
10000000
00100000
,
00000000
00000000
00000000
00000000
,
00022000
00000000
00000000
00000000
,
00000000
00000000
00000000
00000000
,
00000000
00000000
00000000
00000000
,
00033000
00000000
00000000
00000000
;

//--------------- dance-double - Fred-104 ----------------
#NOTES:
     dance-double:
     Fred-104:
     Challenge:
     17:
     :
00000000
00000000
00000000
00000000
,
00000000
00000000
00000000
00000000
,
00000000
00000000
00000000
00000000
,
00000000
00000000
00000000
00000000
,
00000000
00000000
00000000
00000000
,
00000000
00000000
00000000
00000000
,
00000000
00000000
00000000
00000000
,
00000000
00000000
00000000
00000000
,
00000000
00000000
00000000
00000000
,
00000000
00000000
00000000
00000000
,
00000000
00000000
00000000
00000000
,
00000000
00000000
00000000
00000000
,
00000000
00000000
00000000
00000000
,
00000000
00000000
00000000
00000000
,
00000000
00000000
00000000
00000000
,
00020000
00000000
00000000
00000000
,
00000000
00000000
00032000
00000000
,
00000000
00003200
00000000
00000000
,
00000302
00000000
00000000
00000023
,
00000000
00000000
00000230
00000000
,
00000000
00000000
00020300
00000000
00032000
00000000
00023000
00030000
,
00022000
00000000
00000000
00000000
,
00033000
00000000
02002000
00000000
,
03003000
00020200
00000000
00030300
,
00202000
00000000
00000000
00000000
,
00000000
00303000
00020020
00000000
,
00000000
00000000
00000000
00000000
,
00030030
00000000
00000000
00000000
,
00000000
00000000
00000000
00000000
,
00000000
00000000
00000000
00000000
,
00000000
00000000
00000000
00000000
,
00000000
00000000
00000000
00000000
,
00000000
00000000
00000000
00000000
,
00001001
00000000
00000001
00000100
00001000
00000000
00011000
00000000
,
00001000
00010000
00100000
00000000
01100000
00000000
01000000
00010000
,
10000000
00000000
11000000
00000000
10000000
01000000
00100000
00001000
,
00011000
00000000
00010000
00000100
00001000
00000000
00001001
00000000
,
00001000
00000100
00000010
00000000
00000011
00000000
00000001
00001000
,
00000010
00000000
00000100
00000001
00001000
00000001
00000010
00000100
,
00001100
00000000
00000100
00010000
00001000
00000000
01001000
00000000
,
01000000
00010000
00100000
00000000
01100000
00000000
01000000
10000000
,
00010000
00000000
00110000
00000000
00100000
00001000
00010000
00001000
,
00011000
00000000
00010000
00001000
00000100
00000000
00000101
00000000
,
00001000
00000100
00000010
00000000
00000011
00000000
00001000
00000001
,
00000000
00000100
00000001
00000010
00000100
00001000
00000100
00010000
,
00001000
00010000
00100000
00000000
00010000
00000000
00001000
00010000
,
01000000
00000000
00010000
00000000
00001000
00010000
00100000
00000000
,
00010000
00000000
00001000
00010000
01000000
00010000
00001000
00000000
,
00010000
00001000
00000100
00000000
00001000
00000000
00010000
00001000
,
00000010
00000000
00001000
00000000
00010000
00001000
00000100
00000000
,
00001000
00000000
00010000
00001000
00000010
00001000
00010000
00000000
,
00001000
00010000
00100000
10000000
00010000
00000000
00100000
01000000
,
00010000
00001000
00010000
00000000
00001000
00000100
00000010
00001000
,
00000100
00000000
00000010
00000001
00001000
00000010
00000100
00000010
,
00001000
00000001
00000100
00001000
00010000
00000000
00100000
01000000
,
00010000
10000000
01000000
00000000
00100000
00001000
00010000
00001000
,
00000100
00000001
00001000
00000100
00000010
00000001
00001000
00000010
,
00000100
00000100
00000000
00000001
00000001
00000000
00000010
00000100
,
00010000
00000000
00011000
00000000
00001000
00001000
00000000
01000000
,
01000000
00000000
00010000
10000000
01000000
00100000
01000000
00010000
,
00001000
00001000
00000000
00010000
00010000
00000000
00000100
00001000
,
00000001
00000000
00000101
00000000
00001000
00000100
00000000
00000001
,
00000100
00000000
00001000
00000010
00000000
00000001
00000010
00000000
,
00001000
00001000
00000000
00000001
00000001
00000000
00000010
00000100
,
00010000
00000000
00011000
00000000
00001000
00001000
00000000
00100000
,
00100000
00000000
00001000
00010000
00100000
01000000
00010000
10000000
,
01000000
01000000
00000000
00100000
00100000
00000000
00001000
00010000
,
00001000
00000000
00011000
00000000
00010000
00001000
00000000
00000100
,
00001000
00000000
00010000
00001000
00010000
00000100
00001000
00000100
,
00010000
00010000
00000000
00001000
00011000
00000000
00010000
00000100
,
00001100
00000000
00001001
00000000
00000001
00000001
00000000
00000010
,
00000110
00000000
00001000
00000001
00000100
00000010
00000100
00001000
,
00010000
00010000
00000000
00001000
01001000
00000000
00010000
10000000
,
11000000
00000000
00110000
00000000
10000000
00100000
00000000
00010000
,
00100000
00000000
01000000
10000000
00000000
01000000
00010000
00000000
,
10000000
01000000
00100000
00010000
00110000
00000000
00100000
00001000
,
00011000
00000000
00010010
00000000
00010000
00001000
00000010
00000001
,
00001001
00000000
00001000
00000010
00000100
00000010
00001000
00000001
,
00000010
00000100
00001000
00000100
00010100
00000000
00010000
00001000
,
00011000
00000000
01001000
00000000
00001000
00010000
00100000
01000000
,
00010000
00100000
01000000
10000000
00100000
01000000
00010000
10000000
,
02000000
00000000
00000000
03200000
00000000
00000000
00302000
00000000
,
00000000
00023000
00000000
00000000
00030020
00000000
00000000
00000000
,
00000000
00002000
00000000
00003030
,
00000002
00000000
00000000
00000203
00000000
00000000
00002300
00000000
,
00000000
00023000
00000000
00000000
00032000
00000000
00000000
00000000
,
02003000
03020000
20000000
00000000
00000000
30030000
00000000
00000000
,
20000000
31000000
00010000
00002000
00013000
00100000
00020000
00031000
,
00000100
00000002
00000103
00001000
00020000
00031000
00000010
00000002
,
00001003
00000100
00000020
00000001
00000230
00001000
00000320
00000000
,
00000031
00000100
00000001
00000100
00001000
00010000
00001000
00010000
00100000
01000000
00010000
10000000
01000000
00100000
01000000
00100000
,
00001000
00010000
00001000
00010000
00000100
00001000
00000100
00010000
00001000
00010000
00001000
00010000
00100000
01000000
00100000
01000000
,
00010000
10000000
01000000
00010000
00001000
00000100
00000001
00001000
00000100
00000010
00000002
00000000
00000000
00000000
00000103
00000001
,
00001000
00000100
00000001
00000100
00001000
00000000
00000001
00000100
,
00001000
00000100
00000001
00000000
00001000
00000100
00000010
00001000
,
00010000
00000000
00001000
00010000
00100000
01000000
00010000
10000000
,
01000000
00010000
01000000
10000000
00010000
00000000
10000000
00100000
,
01000000
00100000
00010000
00001000
00010000
00000000
00011000
00000000
,
00000010
00000000
00000110
00000000
00001001
00000000
00000001
00001000
,
00000100
00000001
00000100
00001000
00000001
00000000
00000100
00001000
,
00010000
01000000
10000000
00000000
00010000
00100000
01000000
10000000
,
00010000
00000000
01000000
00100000
00010000
00001000
00010000
00000100
,
00001000
00000000
00000100
00000010
00000002
00000000
00000203
00000000
,
00002300
00000000
00013000
00001000
00011000
00000000
01001000
00000000
,
01010000
11000000
00110000
10010000
,
10000000
00100000
01000000
00100000
00010000
00000000
00001000
00000100
,
00000010
00000100
00000001
00000000
00001000
00000100
00000010
00000001
,
00001000
00000000
00000001
00000100
00001000
00000100
00000001
00000010
,
00000100
00000001
00000100
00000010
00000001
00001000
00000010
00000000
,
00010000
00001000
00100000
00001000
00011000
00000000
01001000
00000000
,
01010000
10100000
00110000
11000000
,
00010000
10000000
01000000
10000000
00010000
01000000
00100000
00010000
,
00001000
00000100
00000001
00001000
00000100
00001000
00000001
00000100
,
00000010
00000100
00001000
00010000
00100000
10000000
00010000
00100000
,
01000000
00100000
00010000
00001000
00000100
00000010
00000001
00001000
,
00000010
00000100
00001000
00000100
00000001
00000010
00001000
00010000
,
01000000
10000000
00010000
01000000
00100000
00010000
00001000
00000010
,
00000000
00000000
00000000
00000000
,
00002200
00000000
00000000
00000000
,
00000000
00000000
00000000
00000000
,
00000000
00000000
00000000
00000000
,
00003300
00000000
00000000
00000000
;
