#TITLE:Crystal Clear;
#ARTIST:Stessie;
#BANNER:Crystal Clear.png;
#BACKGROUND:Crystal Clear-bg.png;
#CDTITLE:./CDTitles/DANCERUSH STARDOM.png;
#MUSIC:Crystal Clear.ogg;
#SAMPLESTART:32.9;
#SAMPLELENGTH:15;
#BPMS:0=124;
#BGSTAGE:3;

//--------------- dance-single - Fred-104 ----------------
#NOTES:
     dance-single:
     Fred-104:
     Beginner:
     1:
     :
0000
0000
0000
0000
,
0000
0000
0000
0000
,
0000
0000
0000
0000
,
0000
0000
0000
0000
,
0000
0000
0000
0000
,
1000
0000
0000
0000
,
0000
0000
0000
0000
,
0001
0000
0000
0000
,
0000
0000
0000
0000
,
1000
0000
0000
0000
,
0000
0000
0000
0000
,
1000
0000
0000
0000
,
0000
0000
0000
0000
,
0001
0000
0000
0000
,
0000
0000
0000
0000
,
0001
0000
0000
0000
,
0000
0000
0000
0000
,
1000
0000
0000
0000
,
0000
0000
0000
0000
,
0100
0000
0000
0000
,
0000
0000
0000
0000
,
0010
0000
0000
0000
,
0000
0000
0000
0000
,
0001
0000
0000
0000
,
0001
0000
0000
0000
,
1000
0000
0000
0000
,
0000
0000
0000
0000
,
0001
0000
0000
0000
,
0000
0000
0000
0000
,
0100
0000
0000
0000
,
0000
0000
0000
0000
,
0001
0000
0000
0000
,
0000
0000
0000
0000
,
1000
0000
0000
0000
,
0000
0000
0000
0000
,
0010
0000
0000
0000
,
0000
0000
0000
0000
,
0001
0000
0000
0000
,
0000
0000
0000
0000
,
0100
0000
0000
0000
,
0000
0000
0000
0000
,
1000
0000
0000
0000
,
0001
0000
0000
0000
,
1000
0000
0000
0000
,
0010
0000
0000
0000
,
1000
0000
0000
0000
,
1000
0000
0000
0000
,
0001
0000
0000
0000
,
0000
0000
0000
0000
,
0001
0000
0000
0000
,
0010
0000
0000
0000
,
0100
0000
0000
0000
,
1000
0000
0000
0000
,
1000
0000
0000
0000
,
0001
0000
0000
0000
,
1000
0000
0000
0000
,
0001
0000
0000
0000
;

//--------------- dance-single - Fred-104 ----------------
#NOTES:
     dance-single:
     Fred-104:
     Easy:
     4:
     :
0000
0000
0000
0000
,
0000
0000
0000
0000
,
0000
0000
0000
0000
,
0000
0000
0000
0000
,
0000
0000
0000
0000
,
1000
0100
2000
3000
,
0001
0100
0002
0003
,
0010
0100
0020
0030
,
0001
0001
2000
3010
,
2000
3000
0002
0003
,
1000
0100
0020
0030
,
0002
0003
2000
3000
,
0001
0100
0020
0030
,
1000
1000
0100
0000
,
0001
0001
0100
0000
,
1000
1000
1000
1000
,
0001
0001
2002
3003
,
0001
0010
0200
0300
,
1000
0001
0200
0300
,
0010
1000
0002
0003
,
0010
0010
0100
0100
,
1000
0001
0200
0300
,
0010
1000
0002
0003
,
0010
0100
1000
0001
,
1000
0001
2002
3003
,
1000
0000
0100
0000
,
0001
0010
0100
0000
,
0010
0000
1000
0000
,
0001
0000
0010
0010
,
0001
0000
0100
0000
,
1000
0010
0100
0000
,
0010
0000
0001
0000
,
1000
1000
0001
0001
,
1001
0000
2000
3000
,
0100
0010
0020
0030
,
0001
0000
0200
0300
,
0010
0010
0200
0300
,
0001
0000
0010
0000
,
0100
0000
1000
0000
,
0001
0001
1000
1000
,
0001
0001
2002
3003
,
1000
0200
0000
0310
,
0001
0020
0000
0031
,
0100
0000
0010
0000
,
0100
0100
0001
1000
,
0001
0020
0000
0130
,
0010
0002
0000
1003
,
0010
0010
0100
0001
,
1000
0001
2002
3003
,
0001
0010
1000
0000
,
1000
0010
0001
0000
,
1000
0010
0001
0000
,
0001
0010
1000
0000
,
0001
0100
1000
0000
,
1000
0100
0001
0000
,
1000
1000
0001
0001
,
1000
0001
1000
1001
;

//--------------- dance-single - Fred-104 ----------------
#NOTES:
     dance-single:
     Fred-104:
     Medium:
     10:
     :
0000
0000
0000
0000
,
0000
0000
0000
0000
,
0000
0000
0000
0000
,
0000
0000
0000
0000
,
0000
0000
0000
0000
,
0001
0000
0010
0010
0010
0000
0100
0000
,
1000
0100
1000
0100
1000
0000
0001
0000
,
0100
0000
0010
0010
0010
0000
1000
0000
,
0001
0100
0001
0100
0001
1000
1000
0000
,
0001
0010
0200
0300
1000
0010
0200
0300
,
0010
1000
0001
0010
0100
0000
0100
0000
,
1000
0000
0001
0000
0100
0000
0000
0100
0000
0000
0010
0000
0100
0000
0000
0000
,
0001
0000
0000
1000
0000
0000
0100
0000
0010
0000
0000
0001
0000
0000
1000
0000
,
0001
0010
0001
0000
0010
1000
0010
0000
,
0001
0100
0001
0000
0100
1000
0100
0000
,
0001
0010
0100
1000
,
0001
1000
0001
1000
0001
0000
1001
0000
,
0010
1000
0100
0000
0010
0001
0100
0000
,
0010
1000
0001
0000
0010
0100
1000
0000
,
0001
0100
0010
0000
1000
0100
0010
0000
,
0001
1000
0010
1000
0001
0010
0100
0000
,
1000
0001
0100
0000
0010
1000
0001
0000
,
0010
0100
1000
0000
0010
0100
0001
0000
,
1000
0100
0001
0000
1000
0010
0001
0000
,
1000
0010
0001
0100
,
1000
0000
0001
0000
1000
0000
0000
0000
0010
0000
0000
1000
0000
0000
0100
0000
,
0010
0000
0001
0000
1000
0000
0000
0000
0001
0000
0000
1000
0000
0000
0010
0000
,
0100
0000
0001
0000
0010
0000
0000
0000
0100
0000
0000
0010
0000
0000
0001
0000
,
0100
0010
1000
0000
0100
0010
0001
0001
,
1000
0000
0010
0000
0100
0000
0100
0000
0010
0000
0000
1000
0000
0000
0001
0000
,
0010
0000
0100
0000
0010
0000
0010
0000
0100
0000
0000
1000
0000
0000
0001
0000
,
1000
0000
0100
0000
0010
0000
0100
0000
0100
0000
0000
0010
0000
0000
0001
0000
,
0100
0000
0010
0000
1000
0000
0001
0000
1000
0000
0000
1000
0000
0000
1000
0000
,
1001
0000
0001
0001
0001
0000
0010
0000
,
0100
0010
1000
0010
1000
0000
0010
0000
,
0001
0000
1000
1000
0010
0000
0001
0000
,
0010
0100
0010
0100
0010
1000
0001
0000
,
1000
0100
0010
0001
0001
1000
0010
0100
,
0100
0001
0100
0010
0010
1000
0001
0001
,
1000
0100
1000
0100
0010
0001
0010
0001
,
0100
0010
0100
0010
0100
0000
1001
0000
,
0001
0020
1000
0000
0001
0000
0130
0100
,
1000
0020
0100
0000
1000
0000
0130
0001
,
1000
0000
0110
0000
0001
0010
0100
0000
,
1000
0000
0101
0000
1000
0100
0010
0010
,
0001
2000
0010
0000
0001
0000
3100
0100
,
0010
0002
0100
0000
0010
0000
0103
0010
,
1000
0000
0110
0000
0001
1000
0010
0100
,
0002
0000
1000
0000
1000
1003
1001
0000
,
0001
0010
0100
1000
0010
0100
0001
1000
,
0100
0001
0100
1000
0010
0100
0001
0000
,
1000
0100
0010
0001
1000
0010
0001
0010
,
1000
0001
0010
0100
0010
0001
1000
1000
,
0010
0100
0010
1000
0100
0010
0001
1000
,
0001
0100
1000
0100
0001
0010
0110
0000
,
1000
0000
0100
0000
0001
0000
1000
0000
0010
0000
0000
0001
0000
0000
1000
0000
,
0001
0000
0100
0000
1000
0000
0001
0000
0010
0000
0000
1000
0000
0000
0001
0000
;

//--------------- dance-single - Fred-104 ----------------
#NOTES:
     dance-single:
     Fred-104:
     Hard:
     14:
     :
0000
0000
0000
0000
,
0000
0000
0000
0000
,
0000
0000
0000
0000
,
0000
0000
0000
0000
,
0000
0000
0000
0000
,
1000
0000
0100
0000
0020
0030
0001
0000
,
0100
0020
2030
3002
0023
0030
0010
0000
,
1000
0000
0010
0000
0200
0310
0001
0000
,
1000
0002
0203
2300
3200
0301
0001
1000
,
0001
0100
2000
0000
3001
0010
2000
0000
,
3100
0010
0100
0010
0100
0000
0010
0000
0001
0000
0000
0000
0001
0000
0000
0000
,
0100
0000
1000
0000
0001
0000
0010
1000
0000
1000
0001
0000
2000
0000
0000
0000
,
3100
0000
0000
0010
0000
0000
0001
0000
0100
0000
0000
0010
1000
0000
0001
1000
,
0001
0000
0010
0000
0100
0000
1000
0001
0000
1000
0001
0000
0100
0000
0010
0000
,
1000
0000
0100
0000
0010
0000
0001
1000
0000
0001
1000
0000
0010
0000
0100
0000
,
0001
1000
0001
0000
1000
0010
0000
0100
0001
0000
1000
0100
0000
0010
0001
1000
,
0001
1000
0001
1000
0001
1000
0001
1000
0001
0000
0001
0000
1000
0100
1000
0000
,
0001
0000
1000
0000
0100
0000
0010
0001
0000
0010
0001
0000
1000
0000
0010
0100
,
0010
1000
0010
1000
0010
0000
1000
0001
0000
0100
0001
0000
1001
0000
0000
0000
,
1000
0100
1000
0000
0001
0000
0010
0100
0000
0010
0100
0000
1000
0000
0001
0100
,
0010
1000
0010
1000
0010
0000
0100
0000
0010
0000
0001
0000
0020
0000
2030
0000
,
3001
0000
0010
0000
0100
0000
1000
0010
0000
1000
0010
0000
0100
0000
0001
1000
,
0001
0010
0100
0010
0100
0000
1000
0001
0000
1000
0010
0000
1001
0000
0000
0000
,
0001
0100
0001
0000
1000
0000
0100
0010
0000
0100
0010
0000
0001
0000
0100
0000
,
0010
0001
1000
0100
0001
0000
1001
0000
,
1000
0100
1000
0100
0000
0010
0001
0010
0001
0000
1000
0001
0000
0100
0001
0100
,
0000
0010
1000
0000
0001
0010
0100
0010
0100
0000
1000
0010
0000
1000
0001
0000
,
0010
0100
0010
0100
0000
1000
0001
1000
0010
0000
0100
0010
0000
1000
0001
0010
,
0000
0100
0010
0000
0001
0100
0000
0010
0100
0000
0001
1000
0002
0000
2003
0000
,
3100
0010
0100
0000
0010
0001
0010
0001
1000
0000
0001
0100
0000
0001
1000
0001
,
0000
0100
0010
0000
0100
0001
1000
0001
1000
0000
0100
0010
0000
0001
1000
0000
,
0001
0100
0001
0000
1000
0001
1000
0001
0100
0000
0010
1000
0000
0001
0010
0100
,
0000
0010
0001
0000
0100
0010
1000
0010
0100
0000
0001
0010
0000
0100
1000
0000
,
1001
0000
0000
0000
1000
0000
1000
0010
2000
0000
3000
0000
0100
0000
0000
0000
,
0010
0000
0020
0000
0031
1000
0002
0000
2003
0000
3000
0000
0100
0000
0000
0000
,
0100
0000
0000
0000
0010
0000
0010
1000
0020
0000
0030
0000
0001
0000
0000
0000
,
0001
0000
1000
0000
0010
0100
0010
0000
0002
0000
0023
0000
0230
0000
0302
0000
,
1003
0010
1000
0010
0000
0100
0001
0000
1000
0100
1000
0100
0000
0010
0001
0000
,
1000
0001
1000
0001
0000
0010
0100
0000
1000
0001
1000
0001
0000
0100
0010
0000
,
1000
0001
1000
0001
0010
0000
0100
0010
0000
0001
1000
0000
0010
1000
0000
0001
,
1000
0001
1000
0001
1000
0001
1000
0001
1000
0000
1000
0000
0001
0010
0001
0000
,
1000
0100
0120
0000
1030
0010
0001
1000
,
0010
0000
0100
0000
2100
0000
0000
0000
3100
0000
0010
0000
1000
0001
1000
0001
,
1000
0000
0001
0010
0000
0001
1000
0100
0000
1000
0020
0000
0130
0000
0010
0100
,
0010
0100
0010
1000
0001
1000
0100
1000
0000
0010
0100
0000
0002
0000
2003
0000
,
3100
0010
2010
0000
3010
0001
1000
0001
,
0100
0000
0010
0000
0012
0000
0000
0000
0013
0000
0100
0000
0010
1000
0010
1000
,
0001
0000
1000
0001
1000
0100
1000
0100
0000
0010
0100
0000
0010
0000
0001
1000
,
0002
0000
1000
0000
1000
1003
1001
0000
,
0001
0000
0010
0000
0100
1000
0100
1000
0000
0001
0100
0000
0010
0000
1000
0010
,
1000
0001
0010
0100
0010
0100
0010
0001
0000
1000
0001
0000
1001
0000
0000
0000
,
1000
0100
1000
0000
0001
0000
0100
0010
0000
0100
0010
0000
0001
0000
0010
0100
,
0010
0100
0001
1000
0100
0000
0010
0000
0200
0000
0302
0000
0103
1000
0100
1000
,
0001
0000
0100
0000
0010
0100
0010
0100
0000
0001
0010
0000
0100
0000
1000
0100
,
1000
0001
0100
0010
0100
0010
1000
0001
0000
0010
0100
0000
1100
0000
0000
0000
,
0001
0100
0001
0000
1000
0100
0000
1000
0001
0000
0100
0001
0000
1000
0001
0010
,
0000
0100
0010
0000
0001
0100
0000
1000
0001
0000
0010
2000
3000
0100
0010
0000
;

//--------------- dance-double - Fred-104 ----------------
#NOTES:
     dance-double:
     Fred-104:
     Easy:
     4:
     :
00000000
00000000
00000000
00000000
,
00000000
00000000
00000000
00000000
,
00000000
00000000
00000000
00000000
,
00000000
00000000
00000000
00000000
,
00000000
00000000
00000000
00000000
,
00010000
00001000
00020000
00030000
,
00100000
01000000
00200000
00300000
,
10000000
00010000
02000000
03000000
,
00100000
10000000
02000000
03100000
,
00002000
00003000
00020000
00030000
,
00001000
00010000
00000200
00000300
,
00000020
00000030
00000200
00000300
,
00000010
00000001
00000200
00000300
,
00001000
00001000
00010000
00000000
,
00010000
00010000
00001000
00000000
,
00010000
00010000
00001000
00001000
,
00000100
00000001
00002002
00003003
,
00000001
00000100
00002000
00003000
,
00010000
00001000
00020000
00030000
,
00100000
10000000
00020000
00030000
,
10000000
01000000
00100000
00010000
,
10000000
01000000
00020000
00030000
,
00001000
00010000
00002000
00003000
,
00000010
00000001
00001000
00000001
,
00000100
00000010
00002002
00003003
,
00000001
00000000
00000100
00000000
,
00000010
00000100
00001000
00000000
,
00010000
00000000
00001000
00000000
,
00010000
00000000
00001000
00100000
,
00001000
00000000
00010000
00000000
,
00100000
10000000
00010000
00000000
,
00100000
00000000
01000000
00000000
,
10000000
01000000
00100000
00010000
,
10010000
00000000
20000000
30000000
,
00100000
00010000
00020000
00030000
,
00001000
00000000
00020000
00030000
,
00001000
00000010
00000200
00000300
,
00001000
00000000
00000001
00000000
,
00000100
00000000
00001000
00000000
,
00010000
00010000
00001000
00001000
,
01000000
00010000
20020000
30030000
,
10000000
02000000
00000000
03010000
,
00001000
00020000
00000000
00031000
,
00100000
00000000
00001000
00000000
,
00010000
00000100
00001000
00000100
,
00000010
00000002
00000000
00000103
,
00001000
00020000
00000000
00031000
,
00010000
00001000
00100000
00010000
,
10000000
00010000
20020000
30030000
,
10000000
00100000
00010000
00000000
,
00001000
00000100
00000001
00000000
,
00000001
00000010
00001000
00000000
,
00010000
01000000
10000000
00000000
,
10000000
01000000
00010000
00000000
,
00001000
00000010
00000001
00000000
,
00000001
00000100
00000010
00010000
,
00001000
01000000
00010000
10010000
;

//--------------- dance-double - Fred-104 ----------------
#NOTES:
     dance-double:
     Fred-104:
     Medium:
     10:
     :
00000000
00000000
00000000
00000000
,
00000000
00000000
00000000
00000000
,
00000000
00000000
00000000
00000000
,
00000000
00000000
00000000
00000000
,
00000000
00000000
00000000
00000000
,
00001000
00000000
00010000
00000000
00001000
01000000
00001000
00000000
,
00010000
00100000
01000000
00100000
10000000
00000000
00010000
00000000
,
00100000
00000000
00001000
00000000
00000010
00000100
00001000
00000000
,
00000001
00000100
00000001
00000100
00001000
00010000
00001000
00000000
,
00020000
00031000
00000020
00001030
,
00010000
00001000
01000000
00001000
00010000
00000100
00000010
00000000
,
00000002
00000103
00002000
00003010
,
00000001
00000000
00000000
00000100
00000000
00000000
00001000
00000000
00010000
00000000
00000000
00100000
00000000
00000000
10000000
00000000
,
01000000
00100000
00010000
00000000
01000000
00100000
00010000
00000000
,
00001000
00000100
00000010
00000000
00001000
00000100
00000010
00000000
,
00000001
00001000
00000001
00001000
00000010
00000100
00000010
00000100
,
00001000
00010000
01000000
00010000
00001000
00000000
00011000
00000000
,
00010000
00000100
00001000
00000000
00000100
00010000
00001000
00000000
,
00010000
00000100
00000010
00000000
00000001
00001000
00000010
00000000
,
00000100
00001000
00010000
00000000
00100000
00010000
00001000
00000000
,
00010000
01000000
10000000
00010000
01000000
00100000
01000000
00000000
,
00010000
10000000
01000000
00000000
00010000
00001000
00010000
00000000
,
00100000
00010000
00001000
00000000
00010000
00000100
00000010
00000000
,
00000001
00000100
00001000
00000000
00010000
00100000
10000000
00000000
,
01000000
00010000
00100000
10000000
,
00010000
00000000
10000000
00000000
01000000
00000000
00000000
00000000
00100000
00000000
00000000
00001000
00000000
00000000
00010000
00000000
,
00001000
00000000
00000100
00000000
00000001
00000000
00001000
00000000
00000100
00000000
00000000
00000100
00000000
00000000
00000010
00000000
,
00000001
00000000
00000100
00000000
00001000
00000000
00000000
00000000
00010000
00000000
00000000
00001000
00000000
00000000
00000010
00000000
,
00001000
00010000
00001000
01000000
00010000
00100000
01000000
01000000
,
10000000
00000000
00010000
00000000
01000000
00000000
00000000
00000000
00100000
00000000
00000000
10000000
00000000
00000000
01000000
00000000
,
00100000
00000000
00001000
00000000
00010000
00000000
00001000
00000000
00010000
00000000
00000000
00000010
00000000
00000000
00000100
00000000
,
00000001
00000000
00001000
00000000
00000100
00000000
00000000
00000000
00000010
00000000
00000000
00001000
00000000
00000000
00010000
00000000
,
00001000
00000000
00100000
00000000
00010000
00000000
00100000
00000000
01000000
00000000
00000000
10000000
00000000
00000000
00010000
00000000
,
10010000
00000000
10000000
10000000
10000000
00000000
01000000
00000000
,
00010000
00001000
00010000
00001000
00000010
00000000
00000100
00000000
,
00001000
00000000
00000001
00000001
00000001
00000000
00000100
00000000
,
00001000
00010000
00001000
00010000
00100000
10000000
00010000
00000000
,
10000000
10000000
01000000
00000000
00010000
00010000
00001000
00000000
,
00000010
00000010
00000001
00000000
00000100
00000100
00001000
00000000
,
00010000
00010000
00100000
00100000
10000000
10000000
01000000
01000000
,
00100000
00100000
00100000
00100000
00001000
00000000
00011000
00000000
,
00010000
00002000
01000000
00000000
00010000
00000000
00103000
00100000
,
00010000
02000000
00100000
00000000
10000000
00000000
03010000
10000000
,
01000000
00000000
00011000
00000000
00010000
00000100
00000010
00000000
,
00000001
00000000
00001001
00000000
00000001
00000100
00000010
00000010
,
00001000
00000200
00000010
00000000
00001000
00000000
00010300
00010000
,
00001000
02000000
00010000
00000000
10000000
00000000
03100000
10000000
,
00010000
00000000
00101000
00000000
00001000
00010000
00000100
00000010
,
00000001
00000100
00001000
00000010
,
00000001
00001000
00000010
00000100
00001000
00010000
00001000
00100000
,
00010000
01000000
00010000
01000000
00100000
10000000
00010000
00100000
,
01000000
10000000
00100000
01000000
00010000
10000000
01000000
00010000
,
00001000
00000010
00000001
00000100
00000010
00001000
00001001
00000000
,
00000001
00000010
00000001
00000100
00000010
00001000
00000001
00000010
,
00000001
00000100
00000010
00000100
00001000
00010000
00011000
00000000
,
01000000
00000000
00010000
00000000
00100000
00000000
01000000
00000000
10000000
00000000
00000000
00010000
00000000
00000000
01000000
00000000
,
00100000
00000000
10000000
00000000
01000000
00000000
00010000
00000000
00001000
00000000
00000000
00000100
00000000
00000000
00000001
00000000
;

//--------------- dance-double - Fred-104 ----------------
#NOTES:
     dance-double:
     Fred-104:
     Hard:
     14:
     :
00000000
00000000
00000000
00000000
,
00000000
00000000
00000000
00000000
,
00000000
00000000
00000000
00000000
,
00000000
00000000
00000000
00000000
,
00000000
00000000
00000000
00000000
,
00010000
00001000
00010000
00000100
00002000
00003100
00010000
00001000
,
00010000
00000200
00000320
00000032
00002003
00003010
00000100
00001000
,
00010000
00001000
01000000
00010000
00200000
10300000
00100000
01000000
,
10000000
00200000
00320000
00032000
00003200
00000301
00001000
00000000
,
00001000
00000001
00000200
00000000
00001300
00010000
00200000
00000000
,
01300000
00010000
01000000
00010000
00100000
00000000
01000000
00000000
10000000
00000000
00000000
00000000
10000000
00000000
00000000
00000000
,
00010000
00000000
10000000
00000000
00100000
00000000
00010000
00002000
00000000
00000000
00003100
00000000
00000002
00000000
00000000
00000000
,
00001003
00000000
00000000
00001000
00000000
00000000
00000100
00000000
00000010
00000000
00001000
00010000
00000000
00001000
00010000
00001000
,
00010000
00000000
00100000
00000000
01000000
00000000
10000000
01000000
00000000
00100000
01000000
00000000
00010000
00000000
10000000
00000000
,
01000000
00000000
00010000
00000000
00001000
00000000
00000010
00000100
00000000
00000001
00000100
00000000
00001000
00000000
00000001
00000000
,
00001000
00000010
00001000
00000000
00000010
00010000
00000000
00001000
00100000
00000000
00010000
10000000
00000000
01000000
00100000
00010000
,
10000000
00010000
10000000
00010000
10000000
00010000
10000000
00010000
01000000
00000000
01000000
00000000
00100000
00010000
00001000
00000000
,
00010000
00000000
00000100
00000000
00000010
00000000
00000001
00001000
00000000
00000001
00000100
00000000
00000001
00000000
00001000
00000010
,
00010000
00001000
00010000
00001000
00010000
00000000
00001000
00010000
00000000
00000100
00010000
00000000
00011000
00000000
00000000
00000000
,
00001000
01000000
00001000
00000000
00010000
00000000
00001000
00100000
00000000
00010000
00100000
00000000
01000000
00000000
10000000
00010000
,
01000000
00010000
01000000
00010000
10000000
00000000
00100000
00000000
00010000
00000000
00001000
00000000
00020000
00000000
00032000
00000000
,
00013000
00000000
00001000
00000000
00100000
00000000
01000000
10000000
00000000
00010000
00100000
00000000
00001000
00000000
00010000
00001000
,
00010000
00000100
00001000
00000100
00001000
00000000
00000100
00000010
00000000
00000001
00001000
00000000
00001001
00000000
00000000
00000000
,
00000001
00000100
00000010
00000000
00001000
00000000
00000001
00000010
00000000
00001000
00100000
00000000
00010000
00000000
00001000
00000000
,
00000100
00000010
00001000
00010000
00001000
00000000
00011000
00000000
,
00010000
00001000
00100000
00001000
00000000
00010000
00001000
00000000
01000000
00000000
00010000
10000000
00000000
00010000
00100000
00010000
,
00000000
01000000
00100000
00000000
10000000
00010000
10000000
00010000
00100000
00000000
00001000
00010000
00000000
00001000
00000010
00000000
,
00000100
00001000
00000001
00000100
00000000
00000001
00001000
00000000
00000010
00000100
00000010
00000100
00000000
00001000
00010000
00001000
,
00000000
00100000
00010000
00000000
00100000
00001000
00000000
00010000
00000010
00000000
00010000
00001000
00020000
00000000
00230000
00000000
,
01300000
00010000
10000000
01000000
00000000
00100000
00010000
00000000
01000000
00000000
00001000
00010000
00000000
00001000
00000100
00000010
,
00000000
00001000
00000001
00000000
00000010
00000100
00000010
00000100
00001000
00000000
00000010
00000100
00000000
00001000
00010000
00000000
,
00001000
00010000
00001000
00100000
00000000
00001000
00010000
00000000
00001000
00000000
01000000
00010000
00000000
10000000
00010000
00100000
,
00000000
01000000
00010000
00000000
00001000
00010000
00001000
00010000
00001000
00000000
00000000
00010000
00000000
00000000
00001000
00000000
,
00011000
00000000
00000000
00000000
00010000
00000000
00100000
01000000
00200000
00000000
00300000
00000000
10000000
00000000
00000000
00000000
,
01000000
00000000
00020000
00000000
00031000
00010000
00002000
00000000
00003020
00000000
00000030
00000000
00000001
00000000
00000000
00000000
,
00001000
00000000
00000000
00000000
00000010
00000000
00000100
00001000
00000200
00000000
00000300
00000000
00001000
00000000
00000000
00000000
,
00010000
00000000
00002000
00000000
00003010
00000001
00000020
00000000
00000032
00000000
00000203
00000000
00002300
00000000
00023000
00000000
,
00031000
00000000
00001000
00100000
00000000
00010000
10000000
00010000
10000000
00000000
00010000
01000000
00000000
00001000
00010000
00000010
,
00001000
00000000
00000001
00000010
00000000
00000100
00001000
00000100
00010000
00000000
00001000
01000000
00000000
00001000
00010000
00001000
,
00010000
00000100
00001000
00000100
00000010
00000000
00000001
00001000
00000000
00000010
00001000
00000000
00000001
00000010
00000000
00000100
,
00001000
00000001
00001000
00000001
00001000
00000001
00001000
00000001
00001000
00000000
00000001
00000000
00000100
00000010
00000100
00000000
,
00001000
00010000
00012000
00000000
01003000
00010000
10000000
01000000
,
00010000
00000000
00001000
00000000
00021000
00000000
00000000
00000000
00030100
00000000
00000001
00000000
00000100
00000010
00000100
00000010
,
00000001
00000000
00001000
00000010
00000000
00010000
00001000
00010000
00000000
00001000
01000000
00000000
00001000
00000000
00010000
00000100
,
00001000
00000100
00001000
00000100
00010000
00001000
00100000
00001000
00000000
00010000
00001000
00000000
00020000
00000000
00230000
00000000
,
10300000
01000000
01020000
00000000
00031000
00010000
00100000
00010000
,
00001000
00000000
00000100
00000000
00000102
00000000
00000000
00000000
00000013
00000000
00001000
00000000
00010000
00001000
00010000
00001000
,
01000000
00000000
00010000
10000000
00100000
10000000
00100000
10000000
00000000
01000000
00100000
00000000
00001000
00000000
00010000
00001000
,
00020000
00000000
00001000
00000000
00001000
00030000
00011000
00000000
,
00010000
00000000
00001000
00000000
00000010
00000100
00000010
00000100
00000000
00000010
00000001
00000000
00001000
00000000
00000001
00001000
,
00000001
00000100
00000010
00000100
00000010
00000000
00000100
00001000
00000000
00010000
00100000
00000000
10100000
00000000
00000000
00000000
,
00010000
10000000
00010000
00000000
10000000
00000000
01000000
00100000
00000000
01000000
00100000
00000000
00001000
00000000
00010000
00000100
,
00001000
00000100
00000010
00000100
00000010
00000000
00000001
00000000
00002000
00000000
00003002
00000000
00000103
00000010
00000100
00000010
,
00000100
00000000
00001000
00000000
00010000
00000000
00001000
01000000
00000000
00010000
01000000
00000000
00100000
00000000
01000000
00010000
,
10000000
01000000
00100000
00010000
00100000
00001000
00010000
00001000
00000000
00010000
00001000
00000000
00011000
00000000
00000000
00000000
,
00010000
00000100
00001000
00000000
00000100
00000010
00000000
00000001
00001000
00000000
00000010
00000100
00000000
00001000
00010000
00001000
,
00000000
01000000
00010000
00000000
10000000
00010000
00000000
00100000
01000000
00000000
10000000
00200000
00300000
00010000
00001000
00000000
;
