#TITLE:Cross Fire;
#ARTIST:Hommarju vs RoughSketch;
#GENRE:CROSSOVER;
#BANNER:Cross Fire.png;
#BACKGROUND:Cross Fire-bg.png;
#CDTITLE:./CDTitles/SDVX IV HEAVENLY HAVEN.png;
#MUSIC:Cross Fire.ogg;
#SAMPLESTART:86.667;
#SAMPLELENGTH:15;
#DISPLAYBPM:90:180;
#BPMS:0=180,32=90,34=180,66=90,82=180,110=90,112=180,144=90,145=180,171=90,187=180,214=90,216=180,280=270,280.75=225,281.375=135,281.75=90,281.979167=180;
#STOPS:187=1,191=0.083,191.25=0.084,194.5=0.083,194.75=0.083,198=0.084,198.25=0.083,201.5=0.167,281.979167=1.34;
#TIMESIGNATURES:0=4=4,32=2=4,34=4=4,110=2=4,112=4=4,144=3=4,147=4=4,171=2=4,173=4=4,185=3=4,191=4=4,195=3=4,198=4=4,214=2=4,216=4=4,280=2=4,284=4=4;
#BGSTAGE:14;

//--------------- dance-single - Fred-104 ----------------
#NOTES:
     dance-single:
     Fred-104:
     Beginner:
     4:
     :
0000
0000
0000
0000
,
0000
0000
0000
0000
,
0000
0000
0000
0000
,
0000
0000
0000
0000
,
0000
0000
0000
0000
,
1000
0000
0000
0000
,
0001
0000
0000
0000
,
1000
0000
0000
0000
,
2000
3000
0001
0000
,
0000
0000
0010
0000
,
0000
0000
0100
0000
,
0000
0000
1000
0000
,
1000
0000
0001
0000
,
0000
0000
0100
0000
,
0000
0000
0010
0000
,
0000
0000
1000
0000
,
1000
0000
0001
0000
,
0010
0000
1000
0000
,
0100
0000
0001
0000
,
0001
0000
1000
0000
,
0001
0000
2000
0000
,
0000
0000
0000
0000
,
0000
3000
0002
0000
,
0000
0000
0000
0000
,
0000
0003
2000
0000
,
0000
3000
0002
0000
,
0000
0003
1000
0000
,
0001
0000
0000
0000
,
1000
0000
0000
0000
,
0010
0000
0010
0000
,
0001
0000
0000
0000
,
0010
0000
0010
0000
,
0100
0000
0000
0000
,
0010
0000
0010
0000
,
1000
0000
0000
0000
,
0002
0000
0000
0000
,
0003
1000
0000
1000
,
0000
0100
0000
0001
,
0000
0100
0000
1000
,
0000
1000
0000
0001
,
0000
0001
0000
0100
,
0000
0010
0000
0100
,
0000
0001
0000
2000
,
0000
3000
0001
0000
0000
0000
0100
0000
,
0000
1000
0000
0010
,
0000
0001
0000
1000
,
0000
0001
0000
1000
,
2000
0000
0000
0000
0000
0000
3000
0002
,
0000
0000
0000
0000
0000
0003
2000
0000
,
0000
0000
0000
0000
3000
0002
0000
0000
,
0000
0000
0000
0003
1001
0000
0000
0000
,
1001
0000
1001
0000
,
1001
0000
1000
0000
,
0001
0000
2000
3000
,
0001
0000
0001
0000
,
0100
0000
0100
0000
,
1000
0000
1000
0000
,
0100
0000
0001
0000
,
1000
0000
1000
0000
,
0100
0000
0100
0000
,
0010
0000
0001
0000
,
1001
0000
0000
0000
,
0001
0000
0001
0000
,
1000
1000
0001
0000
,
1000
0000
0001
0000
,
1001
0000
0000
0000
,
0001
0000
0000
0000
,
0200
0000
0000
0300
,
1000
0000
0000
0000
,
0100
0000
0000
0000
,
1001
0000
0000
0000
,
2000
0000
0000
3000
,
0002
0003
2000
3000
,
0002
0003
2000
3000
,
0001
0001
0001
0001
,
2002
0000
0000
0000
,
3003
0000
0000
0000
;

//--------------- dance-single - Fred-104 ----------------
#NOTES:
     dance-single:
     Fred-104:
     Easy:
     9:
     :
0000
0000
0000
0000
,
0000
0000
0000
0000
,
0000
0000
0000
0000
,
0000
0000
0000
0000
,
0000
0000
0000
0000
,
0001
0000
0000
0010
0000
0000
0100
0000
,
0000
1000
0000
0000
0001
0000
0100
0000
,
0010
0100
0010
0000
0100
0001
0100
0000
,
2002
0000
3003
0000
0001
0000
0000
1000
,
0000
0000
0010
0000
0100
0000
0000
0001
,
0000
0000
1000
0000
0100
0000
0000
0010
,
0000
0100
1000
0010
,
0100
0001
0100
0000
0010
0000
0000
1000
,
0000
0000
0001
0000
0010
0000
0000
0100
,
0000
0000
1000
0000
0010
0000
0000
0100
,
0000
0001
1000
1000
,
0100
0010
0001
0000
2000
0000
3020
0000
,
0032
0203
2300
3002
,
0203
0000
0310
0010
0200
0001
0302
0000
,
0023
0000
2030
3000
0200
0300
0002
0003
,
2002
0000
3003
0000
1000
0000
0000
0010
,
0000
0000
0100
0000
0000
0001
0000
0000
,
0010
0000
0010
0000
0001
0000
0000
1000
,
0000
0000
0010
0000
0000
0100
0000
0000
,
0001
0001
0010
0100
,
1000
0010
0100
0001
,
1000
0100
1000
0000
0001
0100
0001
0000
,
1000
0010
0100
0000
0220
0000
0330
0000
,
0001
0001
0010
0010
,
0100
0100
0100
0000
1000
0001
1000
0000
,
0010
0010
0100
0100
,
0001
1000
0001
0000
0010
0010
0010
0000
,
0001
1000
0001
0100
,
0010
0010
0010
0000
1000
0100
1000
0000
,
0001
0100
1000
0100
,
0010
0010
0010
0000
0100
0100
0001
0000
,
1001
1000
1000
0010
,
0100
0000
0001
1000
0002
0000
0013
0000
,
0010
0100
1000
0001
,
0100
0000
0010
0000
2000
3002
1003
0000
,
1000
0000
0001
0100
0001
0000
0100
0000
,
0010
0100
0001
1000
,
0100
0000
0010
0100
0010
0000
0022
0000
,
0033
0000
1000
0000
0001
0000
0100
0100
,
0010
0000
1000
0000
0001
0000
0010
0010
,
0100
0000
1000
0000
0001
0000
0100
0010
,
0001
0010
0100
0001
1000
0100
0110
0000
,
2000
0000
0000
0000
0000
0000
3000
0002
,
0000
0000
0000
0000
0000
0003
2000
0000
,
0000
0000
0000
0000
3000
0002
0000
0000
,
0000
0000
0000
0003
1001
0000
0000
0000
,
1001
0000
1001
0000
,
1001
0000
0000
0000
0001
0010
0001
0000
,
1000
0100
1000
0000
2002
0000
3003
0000
,
0001
0100
0010
0010
,
0100
0000
0001
0000
1000
0000
0100
0100
,
0100
0010
0001
1000
,
0010
0000
0100
0000
0001
0001
0001
0000
,
1000
0001
0010
0100
,
0010
0000
0001
0000
0100
0000
0010
0010
,
0010
0100
0001
1000
,
0001
0000
0000
1001
0000
0000
0000
0000
,
1000
0000
0000
0001
0000
0000
1000
0000
,
1100
0000
0110
0000
0001
0001
0001
0000
,
0001
0010
0100
0000
,
1000
0001
2000
3000
,
0001
0100
1000
0000
,
1000
0100
0001
0000
,
1000
0100
0010
0001
,
0100
0000
0010
0000
1000
0001
1000
0000
,
2002
0000
0000
0000
0000
0000
0000
0000
0000
0000
0000
0000
0000
0000
0000
0000
0000
0000
0000
0000
0000
0000
0000
0000
0000
0000
0000
0000
0000
0000
0000
0000
0000
0000
0000
0000
0000
0000
0000
0000
0000
0000
0000
0000
0000
0000
0000
0000
0000
0000
0000
0000
0000
0000
0000
0000
0000
0000
0000
0000
0000
0000
0000
0000
0000
0000
0000
0000
0000
0000
0000
0000
0000
0000
0000
0000
0000
0000
0000
0000
0000
0000
0000
0000
0000
0000
0000
0000
0000
0000
0000
0000
0000
0000
0000
3003
0000
0000
0000
0000
0000
0000
0000
0000
0000
0000
0000
0000
0000
0000
0000
0000
0000
0000
0000
0000
0000
0000
0000
0000
0000
0000
0000
0000
0000
0000
0000
0000
0000
0000
0000
0000
0000
0000
0000
0000
0000
0000
0000
0000
0000
0000
0000
0000
0000
0000
0000
0000
0000
0000
0000
0000
0000
0000
0000
0000
0000
0000
0000
0000
0000
0000
0000
0000
0000
0000
0000
0000
0000
0000
0000
0000
0000
0000
0000
0000
0000
0000
0000
0000
0000
0000
0000
0000
0000
0000
0000
0000
0000
0000
0000
0000
,
1000
0000
0100
0000
0001
0001
0100
0000
,
0010
0000
0100
0000
1000
0001
1000
0000
,
0001
0100
0001
0000
0100
1000
0100
0000
,
0010
0100
0001
1000
,
2002
0000
0000
0000
,
3003
0000
0000
0000
;

//--------------- dance-single - Fred-104 ----------------
#NOTES:
     dance-single:
     Fred-104:
     Medium:
     13:
     :
0000
0000
0000
0000
,
0000
0000
0000
0000
,
0000
0000
0000
0000
,
0000
0000
0000
0000
,
0000
0000
0000
0000
,
1000
0010
1000
0010
0100
0010
0100
0001
,
1000
0001
0010
0100
1000
0100
0010
0001
,
1000
0010
0100
0001
1000
0010
0100
0001
,
0010
0100
0220
0330
1000
0100
0010
0001
,
0000
0001
1000
0001
0100
0010
1000
0001
,
0000
0001
0010
0100
1000
0001
0100
0010
,
0000
0010
1000
0001
0010
1000
0010
0001
,
0100
0010
1000
0000
0001
0100
1000
0100
,
0000
0100
0001
1000
0001
0010
1000
0010
,
0000
0010
0001
1000
0010
0100
1000
0100
,
0000
0000
0100
0000
0010
0000
1000
0000
0001
0000
0000
0001
0000
0000
0001
0000
,
0010
0100
1100
0000
0002
0100
0203
0010
,
0320
1000
2030
0100
3200
0010
0320
0001
,
0032
0000
0000
0000
1000
0000
0000
0000
1003
0000
0000
0001
0000
0000
1000
0000
0100
0000
0000
0000
0110
0000
0000
0000
0020
0000
0000
0000
0001
0000
0000
0000
,
0032
0100
0203
0320
2030
3200
0302
0203
,
0310
0000
0000
0100
0000
0000
0110
0000
0000
0000
0000
0000
0000
0000
0000
0000
1000
0000
0000
0000
0100
0000
0000
0000
1000
0000
0000
0000
0001
0000
0000
0000
,
0010
0001
1000
0010
1000
0001
0100
0001
,
1000
0100
0010
0010
0001
0100
0001
1000
,
0010
1000
0001
0010
0001
1000
0100
1000
,
0001
0010
0100
0100
1000
0100
1000
0010
,
0100
0001
0010
0001
0100
0010
1000
0100
,
1000
0001
0100
0010
1000
0001
0010
0100
,
1000
0000
0100
0000
0010
0000
0001
0000
0200
0000
0000
0300
0000
0000
0000
0000
,
0010
0010
1000
1000
0001
0001
1000
1000
,
0100
0010
0001
0100
0010
1000
0001
0000
,
0010
0010
0100
0100
1000
1000
0001
1000
,
0001
0100
0010
0100
0001
0001
0001
0001
,
1000
1000
0100
0100
1000
1000
0001
0100
,
0010
0010
0010
0100
0001
1000
0001
1000
,
0100
0100
0010
0100
1000
1000
0001
0100
,
0010
1000
0100
0010
0001
0100
0010
0000
,
0110
0000
1000
1000
0001
1000
0001
0001
,
0010
0100
1000
1000
2000
0000
3001
0001
,
0100
0010
0100
0001
2000
0000
3010
0100
,
0001
0010
0100
0010
0002
2003
3010
0010
,
0100
0001
0200
0320
2030
0000
3001
0010
,
0100
0000
1000
0000
0001
0000
0000
1000
0000
0000
0001
0000
0100
0000
0010
0000
,
0100
0000
0000
0100
0000
0000
0001
0000
1000
0000
0000
0000
2002
0000
3000
0000
,
0003
0000
0000
0000
1000
0000
0100
0000
1100
0000
1000
0001
0100
0010
1000
0000
,
0001
0010
0001
0000
0010
0000
0100
0000
0110
0000
0010
0001
1000
0010
0100
0000
,
0001
1000
0001
0000
0010
0000
0100
0000
1100
0000
1000
0001
0100
0010
1000
0001
,
0010
0100
1000
0010
0100
0010
0000
0010
1000
0100
0010
0001
1001
0000
0000
0000
,
0001
0000
0010
0000
0100
0000
0000
0000
1000
0000
0000
0000
2000
3000
0001
0000
,
0100
0000
0010
0000
0000
0000
1000
0000
0000
0000
2000
3000
0100
0000
0010
0000
,
0001
0000
0000
0000
1000
0000
0000
0000
2000
3000
0010
0000
0100
0000
0001
0000
,
0000
0000
0000
0000
0000
0000
0000
0000
0001
0000
0000
0000
0000
0000
0000
0000
0000
0000
0000
0000
0000
0000
0000
0000
2002
3003
0000
0000
0000
0000
0000
0000
1100
0000
0000
0000
0000
0000
0000
0000
0000
0000
0000
0000
0000
0000
0000
0000
0000
0000
0000
0000
0000
0000
0000
0000
0000
0000
0000
0000
0000
0000
0000
0000
,
0011
0000
1010
0000
,
0101
0000
0000
0000
1000
0100
0010
0001
,
1000
0010
0100
0001
0100
0010
0220
0330
,
1000
0100
1000
0000
0001
0100
0010
0000
,
1000
0001
0010
0000
0100
0010
0001
0000
,
0100
0010
1000
0000
0001
0010
0100
0000
,
1000
0001
0100
0000
0010
1000
0010
1000
,
0001
1000
0100
0000
0010
0001
1000
0000
,
0010
0100
0001
0000
1000
0100
0001
0000
,
0100
1000
0001
0000
0100
0010
1000
0001
,
0010
0000
0000
0100
0000
0000
0220
0000
0000
0000
0000
0000
0330
0000
0000
0000
,
1000
1000
0100
0001
0001
0100
1000
0000
,
0001
0100
0101
0000
0110
0000
1010
0000
,
1000
0000
0001
0000
0010
0000
0100
0000
0010
0000
0000
0011
0000
0000
0001
0000
,
0100
0000
0000
0010
0000
0010
0000
0110
0000
0110
0000
1001
0000
0000
0000
0000
,
0001
1000
0100
0010
0001
1000
0010
0000
,
0100
0100
0010
0010
0100
0010
0100
0000
,
0001
0000
0000
1000
0000
1000
0000
0000
0100
0000
0000
0010
0000
0010
0000
0000
,
0001
0000
0000
1000
0000
1000
0000
1000
0000
0000
0010
0000
0100
0000
0000
0000
,
2002
0000
0000
0000
0000
0000
0000
0000
0000
0000
0000
0000
0000
0000
0000
0000
0000
0000
0000
0000
0000
0000
0000
0000
0000
0000
0000
0000
0000
0000
0000
0000
0000
0000
0000
0000
0000
0000
0000
0000
0000
0000
0000
0000
0000
0000
0000
0000
0000
0000
0000
0000
0000
0000
0000
0000
0000
0000
0000
0000
0000
0000
0000
0000
0000
0000
0000
0000
0000
0000
0000
0000
0000
0000
0000
0000
0000
0000
0000
0000
0000
0000
0000
0000
0000
0000
0000
0000
0000
0000
0000
0000
0000
0000
0000
3003
0000
0000
0000
0000
0000
0000
0000
0000
0000
0000
0000
0000
0000
0000
0000
0000
0000
0000
0000
0000
0000
0000
0000
0000
0000
0000
0000
0000
0000
0000
0000
0000
0000
0000
0000
0000
0000
0000
0000
0000
0000
0000
0000
0000
0000
0000
0000
0000
0000
0000
0000
0000
0000
0000
0000
0000
0000
0000
0000
0000
0000
0000
0000
0000
0000
0000
0000
0000
0000
0000
0000
0000
0000
0000
0000
0000
0000
0000
0000
0000
0000
0000
0000
0000
0000
0000
0000
0000
0000
0000
0000
0000
0000
0000
0000
0000
,
1000
1000
0100
0100
0001
0100
1000
0000
,
0001
0100
1000
0100
0001
1000
0001
0000
,
1000
1000
0010
0010
0001
0010
1000
0000
,
0001
0010
1000
0010
0001
0100
1000
0100
,
0220
0000
0000
0000
,
0330
0000
0000
0000
;

//--------------- dance-single - Fred-104 ----------------
#NOTES:
     dance-single:
     Fred-104:
     Hard:
     16:
     :
0000
0000
0000
0000
,
0000
0000
0000
0000
,
0000
0000
0000
0000
,
0000
0000
0000
0000
,
0000
0000
0000
0000
,
0001
0010
0001
0010
0100
1000
0100
1000
,
0001
0100
0010
0100
0010
1000
0001
1000
,
0100
0010
0100
0000
0010
0001
0010
0000
0001
1000
0001
1000
0001
1000
0001
1000
,
0002
0000
0203
0300
0220
0000
0330
0000
1000
0000
0100
0000
0010
0000
0001
0000
,
0000
0000
0001
0000
0100
0010
1000
0001
0010
0000
0100
0000
0010
0000
0001
0000
,
0000
0000
0001
0000
0100
0010
0100
0010
0100
0000
0010
0000
1000
0000
0001
0000
,
0000
0000
0001
0000
0010
0100
1000
0001
1000
0000
0010
0000
0100
0000
0001
0000
,
1000
0000
0100
0000
0010
0001
0010
0001
0010
0000
0001
0000
1000
0000
0010
0000
,
0000
0000
0010
0000
0100
0001
1000
0001
0010
0000
0100
0000
1000
0000
0010
0000
,
0000
0000
0010
0000
0100
0001
0100
0001
0100
0000
0001
0000
0010
0000
0100
0000
,
0000
0000
0100
0000
0010
0001
1000
0010
0100
0000
0000
0101
0000
0000
1001
0000
,
1000
0000
0001
0000
0010
0100
0010
0100
2000
3000
0001
0000
0200
0300
0010
0000
,
2000
3000
0001
0000
0020
0030
0100
0000
2000
3000
0001
0000
2000
3000
0010
0000
,
0200
0000
0300
0000
0001
0000
0000
0000
0010
0000
0000
0010
0000
0000
0010
0000
0200
0000
0300
0000
1001
0000
0000
0000
2000
0000
3000
0000
0010
0000
0000
0000
,
0200
0300
0001
0000
2000
3001
0020
0230
0320
0000
0032
0000
0203
0000
0320
0000
,
0130
0000
0000
0100
0000
0000
2002
0000
0000
0000
0000
0000
3003
0000
0000
0000
1000
0000
0000
0000
0100
0000
0000
0000
0001
0000
0000
0000
1000
0000
0000
0000
,
0010
0001
1000
0010
0001
1000
0100
0001
,
0010
0000
0100
0000
1000
0000
0001
1000
0001
0000
0100
0000
1000
0000
0001
0000
,
0010
1000
0001
0010
1000
0001
0100
1000
,
0010
0000
0100
0000
0001
1000
0001
0000
0100
0000
0010
0000
1000
0000
0100
0000
,
0010
1000
0001
0100
0010
0001
0100
0010
,
1000
0000
0001
0000
0010
0000
0001
0000
1000
0010
1000
0000
0001
0100
0001
0000
,
1000
0001
1000
0001
0010
0100
1000
0002
0000
0000
0000
0003
1000
1000
0002
2003
,
3001
0000
0001
0000
0010
0000
0010
0000
0100
0000
0100
0000
2100
3000
1200
0300
,
1000
0001
0000
0001
0100
0000
0010
1000
0001
0000
0010
0000
0100
0010
0100
0010
,
0001
0000
0001
0000
0100
0000
0100
0000
0010
0000
0010
0000
1000
0010
1000
0010
,
1000
0001
0020
0000
0130
1000
0002
0000
0103
0010
0000
0010
0000
0010
0000
0010
,
1000
0000
1000
0000
0001
0000
0001
0000
0010
0000
0010
0000
0100
1000
0100
0000
,
0100
0010
0000
0010
0001
0000
1000
0000
0001
0100
0020
0000
1030
0001
0020
0000
,
0130
0000
0100
0000
0010
0001
1000
0000
1000
0001
0100
0000
0100
0010
0000
0010
,
1000
0001
0010
0100
1000
0000
0001
0100
0010
1000
0001
0000
1000
0001
1000
0000
,
1002
0000
0000
0000
0013
0100
0010
0100
0010
0000
0010
0000
0001
1000
0010
0000
,
1000
0000
1000
0000
0100
0010
0001
1000
0002
0000
0003
0000
1000
0001
0100
0000
,
0010
0000
0010
0000
1000
0000
1000
0000
0001
0020
0000
0000
0130
0010
0001
0000
,
1000
0010
0100
0001
1000
0000
0001
1000
0002
0000
2003
0000
3001
0000
0001
0000
,
0010
0100
0010
0001
2000
0000
3020
0000
0230
0000
0301
0000
1000
0100
0010
0000
,
0001
0000
0100
0010
1000
0000
0001
0010
0000
0010
0200
0000
0310
0000
0010
0000
,
0001
1000
0001
0010
0000
0100
1000
0000
0001
0100
0010
0000
2000
0000
3200
0000
,
0320
0130
0220
0330
0001
0000
1000
0000
1100
0000
0100
0010
1000
0010
0001
1000
,
0010
0100
0001
0010
0100
0010
0001
0000
1001
0000
1000
0010
0100
1000
0001
0010
,
0100
0001
1000
0100
0010
0100
1000
0000
1001
0000
0001
1000
0001
0010
0100
0001
,
1000
0000
0000
0000
0010
0000
0000
0000
0001
0000
0000
0000
1000
0000
0000
0000
0010
0000
0000
0000
0100
0000
0000
0000
0001
0000
0000
0000
0010
0000
0000
0000
0100
0000
0000
0000
1000
0000
0000
0000
0001
0000
0000
0000
0100
0000
0000
0000
0220
0330
0000
0000
0000
0000
0000
0000
0000
0000
0000
0000
0000
0000
0000
0000
,
1000
0000
0001
0100
0000
0010
0000
1000
0000
0001
1000
0000
0200
0320
0130
0000
,
1000
0001
0000
0100
0000
0010
0000
1000
0001
0000
0020
0230
0310
0000
0001
1000
,
0000
0001
0000
0100
0000
0010
1000
0000
0002
0023
0130
0000
0010
0001
0000
0100
,
0000
0000
0000
0000
0010
0000
0000
0000
0000
0000
0000
0000
1000
0000
0000
0000
0001
0000
0000
0000
0000
0000
0000
0000
2002
3003
0000
0000
0000
0000
0000
0000
1000
0000
0000
0000
0000
0000
0000
0000
0100
0000
0000
0000
0010
0000
0000
0000
0000
0000
0000
0000
0010
0000
0000
0000
0000
0000
0000
0000
0010
0000
0000
0000
,
0001
0000
0100
0010
0000
0010
0000
0010
1000
0000
0010
0100
0000
0100
0000
0100
,
0001
1000
0001
0010
0000
0010
0000
0100
1000
0000
0100
0000
0010
0000
0001
0000
,
1000
0010
1000
0010
1000
0010
1000
0010
0200
0000
0320
0030
0220
0000
0330
0000
,
0001
0000
1000
0100
0000
0010
0000
0001
0000
1000
0001
0000
0100
0000
0010
0000
,
1000
0000
0001
0010
0000
0100
0000
0010
0000
0001
1000
0000
0010
1000
0001
0000
,
1000
0000
0100
0010
0000
0100
0000
1000
0000
0001
0100
0001
0100
0000
0010
1000
,
0001
0000
0010
0100
0000
0010
0000
0100
0000
1000
0001
0000
0100
0010
0100
0010
,
0100
0000
0001
1000
0000
0010
0000
0100
0000
0001
1000
0000
0100
0000
0010
0000
,
0001
0000
1000
0001
0000
0100
0000
0010
0000
1000
0001
0000
0010
0100
0010
0100
,
1000
0000
0001
1000
0000
0010
0000
0100
0000
0001
0100
0000
0010
1000
0001
1000
,
0100
0000
0000
0110
0000
0000
2002
0000
0000
0000
0000
0000
3003
0000
0000
0000
,
1000
0100
1000
0100
1000
0000
0001
0010
0001
0010
0001
0000
1000
0001
1000
0000
,
0001
0000
0101
0000
1100
0000
0000
0000
0110
0000
0100
0001
0200
0000
0300
0000
,
0001
0000
0001
0000
0010
0001
1000
0001
0100
0000
0000
0110
0000
0000
1010
0000
,
1000
0000
0001
0010
0000
0011
0000
0011
0000
0110
0000
0110
0000
0000
0000
0000
,
1000
0000
0100
0000
0001
0000
0100
0000
1000
0000
0001
0000
1001
0000
0000
0001
,
1000
0010
1000
0010
0100
0001
0100
0001
1000
0001
1000
0001
0000
0000
0000
0000
,
1000
0000
0100
0010
0000
0010
0000
0001
1000
0000
0010
0100
0000
0100
0000
0001
,
1000
0000
0001
0010
0000
0100
0000
1000
0000
0010
0100
0001
1000
0100
0010
0000
,
2002
0000
0000
0000
0000
0000
0000
0000
0000
0000
0000
0000
0000
0000
0000
0000
0000
0000
0000
0000
0000
0000
0000
0000
0000
0000
0000
0000
0000
0000
0000
0000
0000
0000
0000
0000
0000
0000
0000
0000
0000
0000
0000
0000
0000
0000
0000
0000
0000
0000
0000
0000
0000
0000
0000
0000
0000
0000
0000
0000
0000
0000
0000
0000
0000
0000
0000
0000
0000
0000
0000
0000
0000
0000
0000
0000
0000
0000
0000
0000
0000
0000
0000
0000
0000
0000
0000
0000
0000
0000
0000
0000
0000
0000
0000
3003
0000
0000
0000
0000
0000
0000
0000
0000
0000
0000
0000
0000
0000
0000
0000
0000
0000
0000
0000
0000
0000
0000
0000
0000
0000
0000
0000
0000
0000
0000
0000
0000
0000
0000
0000
0000
0000
0000
0000
0000
0000
0000
0000
0000
0000
0000
0000
0000
0000
0000
0000
0000
0000
0000
0000
0000
0000
0000
0000
0000
0000
0000
0000
0000
0000
0000
0000
0000
0000
0000
0000
0000
0000
0000
0000
0000
0000
0000
0000
0000
0000
0000
0000
0000
0000
0000
0000
0000
0000
0000
0000
0000
0000
0000
0000
0000
,
1000
0100
1000
0100
0010
0100
0010
0001
0100
0010
0100
0001
1000
0100
2000
0000
,
3002
0000
0103
0010
2000
0000
3100
0010
0001
1000
0010
0100
0002
0000
2003
0000
,
3001
0100
0010
1000
0200
0000
0320
0000
0031
0010
0100
1000
0020
0000
0230
0000
,
0301
0100
0001
1000
0100
0010
0001
1000
0100
1000
0010
0100
0001
1000
0100
0010
,
0002
0000
0000
0000
,
0003
0000
0000
0000
;

//--------------- dance-single - Fred-104† ----------------
#NOTES:
     dance-single:
     Fred-104†:
     Challenge:
     18:
     :
0000
0000
0000
0000
,
0000
0000
0000
0000
,
0000
0000
0000
0000
,
0000
0000
0000
0000
,
0000
0000
0000
0000
,
1000
0100
1000
0000
0001
0000
0100
0000
0010
1000
0010
0000
0100
0000
0001
0000
,
0010
0100
0010
0000
0001
0000
0100
0000
0010
1000
0010
0000
0100
0000
0001
0000
,
0010
0001
1000
0010
0100
0001
1000
0001
0010
0100
1000
0001
1000
0010
0100
0001
,
2000
0000
3200
0300
0220
0000
0330
0000
0001
0000
0010
0000
2000
0000
0010
0000
,
0000
0000
3010
0000
0100
0010
0001
1000
0010
0000
0100
0000
2000
0000
0001
0000
,
0000
0000
3001
0000
0010
1000
0100
0010
0100
0000
1000
0000
0002
0000
0100
0000
,
0000
0000
0103
0000
1000
0100
0010
0100
0002
0000
2003
0000
3200
0000
0320
0000
,
0032
0000
2003
0000
3010
0100
0001
1000
0100
0000
0001
0000
2000
0000
0010
0000
,
0000
0000
3010
0000
0001
0010
0100
1000
0010
0000
0100
0000
2000
0000
0001
0000
,
0000
0000
3001
0000
0010
1000
0100
0010
0001
0000
1000
0010
0100
0000
0001
0010
,
0100
0000
1000
0010
0100
0001
1000
0001
0010
0000
0000
0110
0000
0000
1100
0000
,
1000
0000
0001
0000
1000
0001
1000
0001
2000
0000
0010
0000
0002
0003
3100
0010
,
0002
0103
0010
0001
2000
3100
0010
1000
0002
0000
0100
0000
2000
3000
0013
0100
,
0002
0000
1003
0000
0010
0000
0001
0000
0101
0000
0000
0101
0000
0000
0110
0000
0020
0000
0030
0000
2001
0000
0000
0000
0200
0000
0300
0000
3010
0000
0100
0000
,
0002
0000
0013
0000
1000
0001
0100
0000
2000
0000
3010
0000
0200
0000
0302
0000
0023
0000
0000
0000
2030
0000
0000
0000
3020
0000
0000
0000
0032
0000
0103
0000
,
0110
0000
0000
0110
0000
0000
2002
0000
0000
0000
0000
0000
3003
0000
0000
0000
1000
0000
0100
0000
0010
0000
0000
0000
0001
0000
0000
0000
1000
0000
0010
0000
,
0100
0000
0001
0000
0010
0100
1000
0000
0001
0000
0100
0010
1000
0000
0001
0000
,
0010
0100
1000
0000
0001
1000
0001
1000
0001
0100
0010
0000
1000
0000
0100
0010
,
0001
0000
1000
0000
0010
0100
0001
0000
0010
0000
0100
1000
0001
0000
1000
0000
,
0010
0100
0001
0000
1000
0100
0010
0001
1000
0100
1000
0001
0100
0001
1000
0010
,
1000
0001
0010
0001
1000
0010
0100
0001
1000
0100
1000
0001
0100
0010
1000
0001
,
0010
0001
1000
0010
0100
0001
1000
0001
0010
0100
1000
0001
0010
0100
1000
0001
,
0100
0000
0010
0000
1000
0000
0001
0000
1000
0000
0010
0000
0100
0000
0001
0000
0200
0000
0000
0000
0000
0000
0300
0000
0010
0000
0010
0000
1000
0001
1000
0000
,
1010
1000
1001
1000
1100
1000
1100
0110
,
0010
0001
1000
0001
0100
0001
1000
0001
0010
0000
0100
0000
0110
0000
0010
0001
,
1000
0000
0010
0000
0110
0000
0100
0000
0101
0000
1001
0000
0001
0010
0100
1000
,
0001
0100
2000
0000
3001
0010
2000
0000
3001
0010
0100
0010
1000
0010
0100
0010
,
0001
0000
0100
0000
0101
0000
1000
0000
1100
0000
1001
0000
1000
0001
1000
0001
,
0010
0000
0100
0000
0010
0000
0100
0000
0000
0010
0000
0000
0001
0000
0000
0000
0000
0000
1000
0000
0000
0000
0000
0000
0001
0000
0000
0010
0000
0000
2000
0000
0000
0000
0000
0000
3001
0000
0000
0100
0000
0000
2000
0000
0000
0000
0000
0000
,
3001
0000
0100
0000
1000
0100
0001
0000
1000
0100
0001
0000
0100
1000
0000
1000
,
0001
0100
0010
0100
1000
0000
0001
0010
0100
0010
1000
0000
0001
1000
0001
1000
,
0002
0000
0000
0000
0000
0000
0000
0000
0000
0000
0000
0000
1003
0000
0100
0000
1000
0000
0001
0000
0000
1000
0000
0000
0010
0000
0000
0000
0000
0000
0110
0000
0000
0000
0000
0000
0100
0000
0000
0001
0000
0000
1000
0000
0000
0000
0000
0000
,
0100
0000
0000
0000
0000
0000
0010
0000
0000
0000
0000
0000
0001
0000
0000
0100
0000
0000
0010
0000
1000
0000
0001
0000
2000
0000
0000
0000
0000
0000
3002
0000
0000
0000
0000
0000
0013
0000
0000
0100
0000
0000
1000
0000
0000
0000
0000
0000
,
1100
0000
0110
0000
0011
0000
1001
0000
0001
1000
0002
0000
1003
0001
0010
0000
,
0100
0000
0010
0000
0100
0000
0010
0000
0000
0001
0000
0000
0010
0000
0000
0000
0000
0000
0001
0000
0000
1000
0000
0000
0020
0000
0000
0000
0000
0000
0230
0000
0000
0000
0000
0000
0301
0000
0000
0000
0000
0000
1000
0000
0000
0000
0000
0000
,
0100
1000
0100
1000
0100
1000
0200
0000
0000
0320
0000
0000
0031
1000
0001
2000
0000
0000
3010
0100
0001
1000
0000
0000
,
0110
0000
0001
0010
0100
0000
1000
0001
0000
0001
1000
0000
1010
0000
0101
0000
,
0001
1000
0100
1000
0000
0001
0100
0000
0010
1000
0001
0000
2000
0000
3200
0000
,
0320
0000
0130
0000
0220
0000
0330
0000
0001
0000
1000
0000
0001
0000
0000
0000
0101
0000
0000
0000
0100
0000
1000
0001
0010
0000
0100
0000
0001
0000
1000
0100
,
0010
0000
0001
0000
1000
0000
0001
0100
0010
0000
0100
0000
0001
0000
0000
0000
1001
0000
1000
0100
0010
0001
1000
0000
0001
0100
1000
0000
0001
0000
0010
0100
,
0010
0000
1000
0000
0100
0010
0001
0010
0001
0000
1000
0000
1010
0000
0000
0000
0101
0000
0001
0000
0010
0100
1000
0001
1000
0000
0010
0000
0001
1000
0001
1000
,
0100
0000
0000
0000
0001
0000
0000
0000
1000
0000
0000
0000
0100
0000
0010
0000
0001
0000
0000
0000
0100
0000
0000
0000
1000
0000
0001
0000
1000
0000
0001
0000
0010
0000
0000
0000
1000
0000
0001
0000
0010
0000
0000
0000
0100
0000
0000
0000
2002
3003
0000
0000
0000
0000
0000
0000
0000
0000
0000
0000
0000
0000
0000
0000
,
0001
0000
0000
0000
0000
0000
0000
0000
0010
0000
0000
0000
0100
0000
0000
0000
0000
0000
0000
0000
0101
0000
0000
0000
0000
0000
0000
0000
0110
0000
0000
0000
0000
0000
0000
0000
0100
0000
0000
0000
1000
0000
0000
0000
0000
0000
0000
0000
0020
0030
0000
0000
0020
0030
0000
0000
0100
0000
0000
0000
0000
0000
0000
0000
,
0001
0000
0000
0000
0010
0000
0000
0000
0000
0000
0000
0000
1010
0000
0000
0000
0000
0000
0000
0000
0110
0000
0000
0000
0000
0000
0000
0000
0100
0000
0000
0000
1000
0000
0000
0000
0000
0000
0000
0000
0002
0003
0000
0000
0002
0003
0000
0000
1000
0000
0000
0000
0000
0000
0000
0000
0100
0000
0000
0000
0010
0000
0000
0000
,
0000
0000
0000
0000
1010
0000
0000
0000
0000
0000
0000
0000
0011
0000
0000
0000
0000
0000
0000
0000
0001
0000
0000
0000
0100
0000
0000
0000
0000
0000
0000
0000
0020
0030
0000
0000
0020
0030
0000
0000
0100
0000
0000
0000
0000
0000
0000
0000
0001
0000
0000
0000
1000
0000
0000
0000
0000
0000
0000
0000
1100
0000
0000
0000
,
0000
0000
0000
0000
0101
0000
0000
0000
0000
0000
0000
0000
0100
0000
0000
0000
0010
0000
0000
0000
0000
0000
0000
0000
0022
0033
0000
0000
0000
0000
0000
0000
1000
0000
0000
0000
0100
0000
0000
0000
1000
0000
0000
0000
0001
0000
0000
0000
0100
0000
0000
0000
0010
0000
0000
0000
1000
0000
0000
0000
0001
0000
0000
0000
,
1000
0010
1000
0001
0010
0100
1000
0001
1000
0100
1000
0010
0100
0001
0010
0001
,
1000
0010
1000
0100
0010
0001
0100
0001
1000
0100
1000
0100
0010
0001
0010
0001
,
1000
0010
0100
0001
1000
0010
0100
0001
0020
0000
0230
0300
0220
0000
0330
0000
,
2000
0000
3001
0100
0000
0110
0000
0011
0000
0010
0200
0000
0301
1000
0200
0000
,
0320
0000
0031
1000
0000
1010
0000
0010
0001
0010
0200
0000
0310
1000
0010
1000
,
0002
0000
0013
0100
0000
0101
0000
0110
0000
0010
0002
0000
1003
0010
0200
0000
,
0302
0000
1003
0100
0000
0110
0000
0101
0000
0100
0020
0000
0031
1000
0001
1000
,
0002
0000
0103
0010
0000
0011
0000
0010
0100
0001
2000
0000
3100
0010
0002
0000
,
2003
0000
3010
0100
0000
1100
0000
0100
0010
0100
0002
0000
1003
0001
1000
0001
,
0020
0000
0130
0010
0000
1010
0000
0010
0100
0010
0002
0000
1003
0001
1000
0001
,
0010
0000
0000
0110
0000
0000
2002
0000
0000
0000
0000
0000
3003
0000
0000
0000
,
1000
0100
0001
0100
1000
0000
0001
0100
1000
0100
0001
0000
1000
0001
1000
0000
,
0011
0000
0000
1010
0000
0000
0011
0000
0000
0000
0000
0000
0110
0000
0000
1000
0001
1000
0002
0000
0000
0003
0000
0000
,
0010
0000
0110
0000
0100
0010
0100
0010
0110
0000
0000
1100
0000
0000
1001
0000
,
1100
0000
1000
0010
0000
0110
0000
0101
0000
0110
0000
2002
0000
0000
3003
0000
,
1000
0000
0010
0000
0001
0000
0010
1000
0000
0010
1000
0000
0001
0000
1000
0001
,
0010
0100
0010
1000
0010
0100
0010
0001
0100
0010
2000
0002
3000
0000
0003
0000
,
1000
0000
0100
0010
0000
1010
0000
0010
0001
0000
0100
0010
0000
0011
0000
0010
,
1000
0000
0001
0010
0000
1010
0000
0010
0100
0010
0001
0100
0010
1000
0100
0010
,
2002
0000
0000
0000
0000
0000
0000
0000
0000
0000
0000
0000
0000
0000
0000
0000
0000
0000
0000
0000
0000
0000
0000
0000
0000
0000
0000
0000
0000
0000
0000
0000
0000
0000
0000
0000
0000
0000
0000
0000
0000
0000
0000
0000
0000
0000
0000
0000
0000
0000
0000
0000
0000
0000
0000
0000
0000
0000
0000
0000
0000
0000
0000
0000
0000
0000
0000
0000
0000
0000
0000
0000
0000
0000
0000
0000
0000
0000
0000
0000
0000
0000
0000
0000
0000
0000
0000
0000
0000
0000
0000
0000
0000
0000
0000
3003
0000
0000
0000
0000
0000
0000
0000
0000
0000
0000
0000
0000
0000
0000
0000
0000
0000
0000
0000
0000
0000
0000
0000
0000
0000
0000
0000
0000
0000
0000
0000
0000
0000
0000
0000
0000
0000
0000
0000
0000
0000
0000
0000
0000
0000
0000
0000
0000
0000
0000
0000
0000
0000
0000
0000
0000
0000
0000
0000
0000
0000
0000
0000
0000
0000
0000
0000
0000
0000
0000
0000
0000
0000
0000
0000
0000
0000
0000
0000
0000
0000
0000
0000
0000
0000
0000
0000
0000
0000
0000
0000
0000
0000
0000
0000
0000
,
0001
0000
0000
0010
0000
0000
0100
0000
0000
1000
0000
0000
0010
0000
0000
0100
0000
0000
0001
0000
1000
0000
0100
0000
1000
0000
0000
0100
0000
0000
0010
0000
0000
0001
0000
0000
0100
0000
0000
0010
0000
0000
1000
0000
0000
0000
0000
0000
,
1020
0000
0000
0000
0000
0000
0130
0000
0001
0000
1000
0000
0200
0000
0000
0000
0000
0000
0310
0000
0100
0000
1000
0000
0001
0000
0000
0100
0000
0000
0010
0000
0000
1000
0000
0000
0001
0000
0010
0000
0100
0000
2000
0000
0000
0000
0000
0000
,
3001
0000
0100
0000
0001
0000
0100
0000
0010
0000
1000
0000
0010
0000
0000
0100
0000
0000
0002
0000
0000
0000
0000
0000
1003
0000
0100
0000
0010
0000
0001
0000
0000
1000
0000
0000
0001
0000
0100
0000
0010
0000
1000
0000
0000
0001
0000
0000
,
1000
0010
0100
1000
0001
0010
0100
0001
0010
0100
0001
1000
0010
0100
1000
0001
,
0200
0000
0000
0000
,
0300
0000
0000
0000
;

//--------------- dance-double - Fred-104 ----------------
#NOTES:
     dance-double:
     Fred-104:
     Easy:
     9:
     :
00000000
00000000
00000000
00000000
,
00000000
00000000
00000000
00000000
,
00000000
00000000
00000000
00000000
,
00000000
00000000
00000000
00000000
,
00000000
00000000
00000000
00000000
,
00001000
00000000
00000000
00010000
00000000
00000000
00100000
00000000
,
00000000
10000000
00000000
00000000
01000000
00000000
00100000
00000000
,
00001000
00010000
00001000
00000000
00010000
00001000
01000000
00000000
,
20020000
00000000
30030000
00000000
10000000
00000000
00000000
01000000
,
00000000
00000000
00100000
00000000
00001000
00000000
00000000
00010000
,
00000000
00000000
00000010
00000000
00001000
00000000
00000000
00000100
,
00000000
00000000
00000010
00000000
00000001
00000100
00000001
00000000
,
00001000
00000100
00001000
00000000
00000010
00000000
00000000
00010000
,
00000000
00000000
00001000
00000000
00100000
00000000
00000000
01000000
,
00000000
00000000
10000000
00000000
00100000
00000000
00000000
00010000
,
00000000
00001000
00010000
00001000
,
00010000
00001000
00010000
00001000
00020000
00000000
00032000
00000000
,
00003020
00000032
00000203
00002300
,
00023000
00000000
00031000
00001000
00010000
00010000
00200000
00000000
,
20300000
00000000
32000000
03000000
00020000
00030000
00002000
00003000
,
00022000
00000000
00033000
00000000
00010000
00000000
00000000
00001000
,
00000000
00000000
00000100
00000000
00000000
00000001
00000000
00000000
,
00000010
00001000
00010000
00000000
00001000
00000000
00000000
00010000
,
00000000
00000000
01000000
00000000
00000000
10000000
00000000
00000000
,
00100000
00010000
00001000
00000000
00010000
00000000
00000100
00000000
,
00001000
00000010
00010000
00001000
,
01000000
00001000
00010000
00000000
00001000
00010000
00001000
00000000
,
00010000
00000010
00010000
00000000
00022000
00000000
00033000
00000000
,
00010000
00010000
00001000
00001000
,
00000100
00000100
00000100
00000000
00000010
00001000
00000010
00000000
,
00001000
00001000
00000001
00000001
,
00000010
00000100
00001000
00000000
00000100
00000100
00000100
00000000
,
00010000
00001000
00010000
00100000
,
01000000
01000000
01000000
00000000
00010000
10000000
01000000
00000000
,
00100000
00001000
00010000
00000100
,
00001000
00000000
00000000
00010000
00000000
00000000
00100000
00000000
,
10010000
00010000
01000000
10000000
,
01000000
00000000
00100000
00010000
00001000
00000000
00010000
00000000
,
00000010
00000100
00000010
00001000
,
00000100
00000000
00000010
00000001
00000010
00000000
00000001
00000000
,
00000100
00000000
00001000
00001000
00010000
00000000
00001000
00000000
,
01000000
00000000
00100000
00100000
10000000
00000000
01000000
00100000
,
01000000
00000000
00010000
00001000
00010000
00000000
00022000
00000000
,
00033000
00000000
00001000
00000000
00010000
00000000
01000000
01000000
,
10000000
00000000
00010000
00000000
01000000
00000000
00100000
00100000
,
00010000
00001000
00010000
00000000
00000100
00000000
00001000
00001000
,
00000001
00000001
00000100
00001000
00010000
00100000
10100000
00000000
,
20000000
00000000
00000000
00000000
00000000
00000000
30000000
02000000
,
00000000
00000000
00000000
00000000
00000000
03000000
00020000
00000000
,
00000000
00000000
00000000
00000000
00030000
00002000
00000000
00000000
,
00000000
00000000
00000000
00003000
00011000
00000000
00000000
00000000
,
00001010
00000000
00000011
00000000
,
00000101
00000000
00000000
00000000
00000100
00001000
00000100
00000000
,
00001000
00010000
00001000
00000000
00022000
00000000
00033000
00000000
,
00010000
00000000
00001000
00000000
00100000
00100000
00100000
00000000
,
00010000
00000000
10000000
00000000
00100000
00100000
00100000
00000000
,
01000000
00000000
00100000
00000000
00010000
00010000
00010000
00000000
,
00001000
00000000
00010000
00000000
00000010
00000010
00000010
00000000
,
00001000
00000000
00000100
00000000
00000010
00000010
00000010
00000000
,
00000001
00000000
00000100
00000000
00001000
00001000
00001000
00000000
,
00010000
00000000
00001000
00000000
01000000
01000000
01000000
00000000
,
00100000
00000000
00000000
10010000
00000000
00000000
00000000
00000000
,
10000000
00000000
00000000
00100000
00000000
00000000
00010000
00000000
,
00011000
00000000
00010100
00000000
00010000
00010000
00010000
00000000
,
00001000
00010000
00000100
00000000
,
00001000
00000001
00002000
00003000
,
00000001
00000100
00000010
00010000
,
00001000
01000000
00010000
00100000
,
00101000
00000000
00010010
00000000
,
00001000
00001000
00010000
00010000
,
00022000
00000000
00000000
00000000
00000000
00000000
00000000
00000000
00000000
00000000
00000000
00000000
00000000
00000000
00000000
00000000
00000000
00000000
00000000
00000000
00000000
00000000
00000000
00000000
00000000
00000000
00000000
00000000
00000000
00000000
00000000
00000000
00000000
00000000
00000000
00000000
00000000
00000000
00000000
00000000
00000000
00000000
00000000
00000000
00000000
00000000
00000000
00000000
00000000
00000000
00000000
00000000
00000000
00000000
00000000
00000000
00000000
00000000
00000000
00000000
00000000
00000000
00000000
00000000
00000000
00000000
00000000
00000000
00000000
00000000
00000000
00000000
00000000
00000000
00000000
00000000
00000000
00000000
00000000
00000000
00000000
00000000
00000000
00000000
00000000
00000000
00000000
00000000
00000000
00000000
00000000
00000000
00000000
00000000
00000000
00033000
00000000
00000000
00000000
00000000
00000000
00000000
00000000
00000000
00000000
00000000
00000000
00000000
00000000
00000000
00000000
00000000
00000000
00000000
00000000
00000000
00000000
00000000
00000000
00000000
00000000
00000000
00000000
00000000
00000000
00000000
00000000
00000000
00000000
00000000
00000000
00000000
00000000
00000000
00000000
00000000
00000000
00000000
00000000
00000000
00000000
00000000
00000000
00000000
00000000
00000000
00000000
00000000
00000000
00000000
00000000
00000000
00000000
00000000
00000000
00000000
00000000
00000000
00000000
00000000
00000000
00000000
00000000
00000000
00000000
00000000
00000000
00000000
00000000
00000000
00000000
00000000
00000000
00000000
00000000
00000000
00000000
00000000
00000000
00000000
00000000
00000000
00000000
00000000
00000000
00000000
00000000
00000000
00000000
00000000
00000000
00000000
,
00001000
00010000
00100000
10000000
,
01000000
00000000
00010000
00000000
00001000
00010000
00001000
00000000
,
00010000
00000100
00010000
00000000
00000100
00001000
00000100
00000000
,
00000010
00000001
00000100
00000010
,
00002002
00000000
00000000
00000000
,
00003003
00000000
00000000
00000000
;

//--------------- dance-double - Fred-104 ----------------
#NOTES:
     dance-double:
     Fred-104:
     Medium:
     13:
     :
00000000
00000000
00000000
00000000
,
00000000
00000000
00000000
00000000
,
00000000
00000000
00000000
00000000
,
00000000
00000000
00000000
00000000
,
00000000
00000000
00000000
00000000
,
00010000
00001000
00010000
00001000
00000100
00000001
00000010
00000000
,
00000100
00001000
00000100
00010000
01000000
10000000
00010000
00000000
,
10000000
00100000
01000000
00010000
00001000
00000010
00000100
00000001
,
00000010
00001000
00022000
00033000
00010000
00001000
00010000
00001000
,
00000000
00001000
00000100
00000001
00001000
00000100
00001000
00000100
,
00000000
00000100
00000010
00001000
00010000
00001000
00010000
00001000
,
00000000
00001000
00100000
01000000
10000000
00010000
01000000
00100000
,
10000000
01000000
00100000
00000000
00001000
00010000
00001000
00010000
,
00000000
00010000
00100000
10000000
01000000
00100000
01000000
00100000
,
00000000
00100000
00001000
00010000
00001000
00000100
00001000
00000100
,
00000000
00000000
00000100
00000000
00000010
00000000
00001000
00000000
00000001
00000000
00000000
00000001
00000000
00000000
00000001
00000000
,
00000010
00001000
00011000
00000000
00002000
00010000
00023000
00000100
,
00030200
00000010
00000320
00000001
00000032
00000100
00000203
00001000
,
00002300
00000000
00000000
00000000
00010000
00000000
00000000
00000000
00013000
00000000
00000000
00010000
00000000
00000000
00010000
00000000
00001000
00000000
00000000
00000000
00011000
00000000
00000000
00000000
00020000
00000000
00000000
00000000
00001000
00000000
00000000
00000000
,
00032000
00000010
00003020
00000032
00000203
00002300
00023000
02030000
,
13000000
00000000
00000000
00010000
00000000
00000000
10010000
00000000
00000000
00000000
00000000
00000000
00000000
00000000
00000000
00000000
10000000
00000000
00000000
00000000
01000000
00000000
00000000
00000000
00010000
00000000
00000000
00000000
00001000
00000000
00000000
00000000
,
00010000
00001000
00000010
00000001
00001000
00000001
00000100
00001000
,
00010000
00001000
01000000
00000000
00010000
10000000
00100000
00010000
,
00001000
00000100
00000001
00001000
00000001
00000010
00001000
00010000
,
01000000
10000000
00010000
00000000
01000000
00100000
10000000
01000000
,
00100000
00001000
00010000
00000100
00000010
00000100
00001000
00000010
,
00000100
00001000
00010000
00001000
00010000
00000100
00000010
00000001
,
00000100
00000000
00000010
00000000
00001000
00000000
00000100
00000000
00020000
00000000
00000000
00030000
00000000
00000000
00000000
00000000
,
00001000
00001000
01000000
01000000
00010000
00010000
10000000
10000000
,
01000000
00010000
00001000
00010000
00100000
10000000
00010000
00000000
,
10000000
10000000
01000000
01000000
00100000
00100000
00001000
00010000
,
00000100
00001000
00000010
00010000
00001000
00001000
00010000
00010000
,
00000100
00000100
00000010
00000010
00001000
00001000
00000010
00000001
,
00000100
00000100
00000100
00001000
00010000
00001000
00010000
00001000
,
01000000
01000000
00100000
00010000
10000000
10000000
01000000
00010000
,
10000000
01000000
00010000
00001000
00000010
00000001
00001000
00000000
,
00001001
00000000
00000001
00000001
00001000
00000001
00000010
00000010
,
00000100
00000010
00001000
00001000
00002000
00000000
00013000
00010000
,
00001000
01000000
00010000
00100000
02000000
00000000
13000000
00100000
,
01000000
00001000
00010000
00000100
00020000
00032000
00013000
00010000
,
00001000
00000010
00000001
00000100
00000020
00000000
00001030
00000001
,
00000010
00000000
00000100
00000000
00010000
00000000
00000000
00001000
00000000
00000000
00010000
00000000
00000010
00000000
00010000
00000000
,
00001000
00000000
00000000
00010000
00000000
00000000
00100000
00000000
10000000
00000000
00000000
00000000
02200000
00000000
03000000
00000000
,
00300000
00000000
00000000
00000000
00001000
00000000
00010000
00000000
00011000
00000000
00001000
00010000
00100000
10000000
01000000
00000000
,
00100000
00000000
00001000
00000000
00010000
00000000
00000100
00000000
00000110
00000000
00000010
00001000
00000010
00000100
00000010
00000000
,
00000001
00001000
00000010
00000000
00000100
00000000
00001000
00000000
00011000
00000000
00010000
00001000
00000010
00001000
00010000
00001000
,
00100000
00010000
01000000
00100000
10000000
01000000
00000000
01000000
00010000
00001000
00000100
00000001
00001001
00000000
00000000
00000000
,
00000001
00000000
00000100
00000000
00001000
00000000
00000000
00000000
00010000
00000000
00000000
00000000
00020000
00030000
00001000
00000000
,
00010000
00000000
01000000
00000000
00000000
00000000
10000000
00000000
00000000
00000000
20000000
30000000
00010000
00000000
10000000
00000000
,
00100000
00000000
00000000
00000000
00010000
00000000
00000000
00000000
00020000
00030000
00001000
00000000
00000010
00000000
00000001
00000000
,
00000000
00000000
00000000
00000000
00000000
00000000
00000000
00000000
00000100
00000000
00000000
00000000
00000000
00000000
00000000
00000000
00000000
00000000
00000000
00000000
00000000
00000000
00000000
00000000
00002002
00003003
00000000
00000000
00000000
00000000
00000000
00000000
00000011
00000000
00000000
00000000
00000000
00000000
00000000
00000000
00000000
00000000
00000000
00000000
00000000
00000000
00000000
00000000
00000000
00000000
00000000
00000000
00000000
00000000
00000000
00000000
00000000
00000000
00000000
00000000
00000000
00000000
00000000
00000000
,
00010100
00000000
01001000
00000000
,
10100000
00000000
00000000
00000000
00010000
10000000
01000000
00010000
,
00001000
00000010
00001000
00010000
00001000
00010000
00022000
00033000
,
00010000
00001000
00010000
00000000
00000010
00001000
00000100
00000000
,
00000010
00000001
00000100
00000000
00001000
00010000
00001000
00100000
,
00010000
10000000
00100000
00000000
01000000
00010000
10000000
00000000
,
01000000
00100000
00001000
00000000
00010000
00000100
00001000
00000001
,
00000100
00000010
00001000
00000000
00000100
00000010
00000001
00000000
,
00001000
00000010
00000100
00000000
00001000
00010000
00001000
00100000
,
00001000
00010000
00000100
00000000
00000010
00000001
00001000
00000010
,
00000100
00000000
00000000
00000001
00000000
00000000
00002002
00000000
00000000
00000000
00000000
00000000
00003003
00000000
00000000
00000000
,
00000001
00000100
00001000
00010000
00100000
10000000
00010000
00000000
,
10000000
10000000
11000000
00000000
01010000
00000000
00011000
00000000
,
00010000
00000000
00001000
00000000
00000010
00000000
00000100
00000000
00000001
00000000
00000000
00000100
00000000
00000000
00001000
00000000
,
00000001
00000000
00000000
00000010
00000000
00000010
00000000
00000100
00000000
00000100
00000000
00002002
00000000
00000000
00003003
00000000
,
00000001
00000010
00001000
00010000
00100000
10000000
00010000
00000000
,
10000000
10000000
00010000
00010000
00100000
00001000
00010000
00000000
,
00000010
00000000
00000000
00000100
00000000
00000100
00000000
00000000
00001000
00000000
00000000
00010000
00000000
00010000
00000000
00000000
,
00001000
00000000
00000000
01000000
00000000
01000000
00000000
00100000
00000000
00000000
10000000
00000000
00010000
00000000
00000000
00000000
,
20020000
00000000
00000000
00000000
00000000
00000000
00000000
00000000
00000000
00000000
00000000
00000000
00000000
00000000
00000000
00000000
00000000
00000000
00000000
00000000
00000000
00000000
00000000
00000000
00000000
00000000
00000000
00000000
00000000
00000000
00000000
00000000
00000000
00000000
00000000
00000000
00000000
00000000
00000000
00000000
00000000
00000000
00000000
00000000
00000000
00000000
00000000
00000000
00000000
00000000
00000000
00000000
00000000
00000000
00000000
00000000
00000000
00000000
00000000
00000000
00000000
00000000
00000000
00000000
00000000
00000000
00000000
00000000
00000000
00000000
00000000
00000000
00000000
00000000
00000000
00000000
00000000
00000000
00000000
00000000
00000000
00000000
00000000
00000000
00000000
00000000
00000000
00000000
00000000
00000000
00000000
00000000
00000000
00000000
00000000
30030000
00000000
00000000
00000000
00000000
00000000
00000000
00000000
00000000
00000000
00000000
00000000
00000000
00000000
00000000
00000000
00000000
00000000
00000000
00000000
00000000
00000000
00000000
00000000
00000000
00000000
00000000
00000000
00000000
00000000
00000000
00000000
00000000
00000000
00000000
00000000
00000000
00000000
00000000
00000000
00000000
00000000
00000000
00000000
00000000
00000000
00000000
00000000
00000000
00000000
00000000
00000000
00000000
00000000
00000000
00000000
00000000
00000000
00000000
00000000
00000000
00000000
00000000
00000000
00000000
00000000
00000000
00000000
00000000
00000000
00000000
00000000
00000000
00000000
00000000
00000000
00000000
00000000
00000000
00000000
00000000
00000000
00000000
00000000
00000000
00000000
00000000
00000000
00000000
00000000
00000000
00000000
00000000
00000000
00000000
00000000
00000000
,
00010000
00001000
00000010
00000001
00000100
00001000
00010000
00000000
,
00001000
00010000
00100000
10000000
01000000
00010000
00001000
00000000
,
00010000
00001000
00000010
00001000
00010000
00001000
00010000
00000000
,
00001000
00010000
01000000
00010000
00001000
00000100
00001000
00010000
,
00022000
00000000
00000000
00000000
,
00033000
00000000
00000000
00000000
;

//--------------- dance-double - Fred-104 ----------------
#NOTES:
     dance-double:
     Fred-104:
     Hard:
     16:
     :
00000000
00000000
00000000
00000000
,
00000000
00000000
00000000
00000000
,
00000000
00000000
00000000
00000000
,
00000000
00000000
00000000
00000000
,
00000000
00000000
00000000
00000000
,
00010000
00001000
00010000
00000100
00001000
00000100
00000010
00000001
,
00001000
00000010
00010000
00001000
01000000
00001000
00010000
00001000
,
00100000
00010000
00100000
00000000
00010000
10000000
00010000
00000000
01000000
00100000
01000000
00100000
01000000
00100000
01000000
00100000
,
02000000
00000000
03002000
00003000
00022000
00000000
00033000
00000000
00010000
00000000
00001000
00000000
00000010
00000000
00000001
00000000
,
00000000
00000000
00000001
00000000
00001000
00000010
00010000
00001000
00100000
00000000
01000000
00000000
10000000
00000000
00010000
00000000
,
00000000
00000000
00010000
00000000
01000000
00001000
01000000
00001000
00010000
00000000
00001000
00000000
00000100
00000000
00000010
00000000
,
00000000
00000000
00000010
00000000
00001000
00000001
00000010
00000100
00010000
00000000
00001000
00000000
01000000
00000000
00010000
00000000
,
00100000
00000000
00001000
00000000
00010000
00000100
00010000
00000100
00010000
00000000
00001000
00000000
01000000
00000000
00100000
00000000
,
00000000
00000000
00100000
00000000
01000000
00010000
00100000
01000000
10000000
00000000
00010000
00000000
01000000
00000000
00001000
00000000
,
00000000
00000000
00001000
00000000
00000100
00000010
00000100
00000010
00010000
00000000
00001000
00000000
00000100
00000000
00000001
00000000
,
00000000
00000000
00000001
00000000
00000010
00000100
00001000
00000100
00010000
00000000
00000000
00011000
00000000
00000000
01010000
00000000
,
01000000
00000000
10000000
00000000
00010000
10000000
00010000
10000000
00020000
00030000
01000000
00000000
00200000
00300000
00010000
00000000
,
00002000
00003000
00000100
00000000
00000020
00000030
00010000
00000000
00002000
00003000
00000100
00000000
00000002
00000003
00000010
00000000
,
00002000
00000000
00003000
00000000
00010000
00000000
00000000
00000000
00001000
00000000
00000000
00001000
00000000
00000000
00001000
00000000
00020000
00000000
00030000
00000000
00011000
00000000
00000000
00000000
00002000
00000000
00003000
00000000
00010000
00000000
00000000
00000000
,
00200000
00300000
10000000
00000000
02000000
03010000
00002000
00023000
00030200
00000000
00000302
00000000
00000203
00000000
00002300
00000000
,
00003100
00000000
00000000
00010000
00000000
00000000
00022000
00000000
00000000
00000000
00000000
00000000
00033000
00000000
00000000
00000000
00001000
00000000
00000000
00000000
00100000
00000000
00000000
00000000
10000000
00000000
00000000
00000000
00010000
00000000
00000000
00000000
,
01000000
10000000
00100000
00010000
10000000
01000000
00001000
00010000
,
00000100
00000010
00000001
00001000
00000001
00000100
00001000
00000001
,
00000010
00010000
00001000
00100000
10000000
00010000
01000000
00100000
,
00001000
00000000
00010000
00000000
00000100
00001000
00000001
00000000
00000100
00000000
00001000
00000000
00000001
00000000
00000010
00000000
,
00000100
00001000
00010000
00100000
01000000
10000000
00010000
00100000
,
10000000
00000000
01000000
00000000
00010000
00000000
00001000
00000000
00010000
00001000
00010000
00000000
00000100
00001000
00000100
00000000
,
00001000
00000001
00001000
00000001
00001000
00000010
00010000
00002000
00000000
00000000
00000000
00003000
00010000
00010000
00002000
00023000
,
00031000
00000000
00001000
00000000
01000000
00000000
01000000
00000000
00001000
00000000
00001000
00000000
00021000
00030000
00012000
00003000
,
00010000
00000100
00000000
00000100
00001000
00000000
00000001
00001000
00000010
00000000
00010000
00000000
00001000
00010000
00001000
00010000
,
00001000
00000000
00001000
00000000
00010000
00000000
00010000
00000000
00100000
00000000
00100000
00000000
01000000
00010000
01000000
00010000
,
10000000
01000000
00200000
00000000
00310000
01000000
00200000
00000000
10300000
00010000
00000000
00010000
00000000
00010000
00000000
00010000
,
00100000
00000000
00100000
00000000
00001000
00000000
00001000
00000000
00000010
00000000
00000010
00000000
00000001
00001000
00000001
00000000
,
00000001
00000010
00000000
00000010
00000100
00000000
00010000
00000000
00001000
00100000
00020000
00000000
00130000
00001000
00020000
00000000
,
00031000
00000000
00001000
00000000
01000000
00100000
10000000
00000000
10000000
00010000
00100000
00000000
00100000
00001000
00000000
00001000
,
00010000
00000100
00001000
00000100
00010000
00000000
00001000
01000000
00010000
01000000
00001000
00000000
00010000
00001000
00010000
00000000
,
00012000
00000000
00000000
00000000
00003100
00000010
00000100
00000010
00001000
00000000
00001000
00000000
00000001
00000010
00000100
00000000
,
00010000
00000000
00010000
00000000
00001000
00100000
00010000
00100000
00002000
00000000
00003000
00000000
00100000
00010000
01000000
00000000
,
00100000
00000000
00100000
00000000
01000000
00000000
01000000
00000000
00001000
00020000
00000000
00000000
00031000
00100000
00010000
00000000
,
10000000
00100000
01000000
00010000
10000000
00000000
01000000
00100000
00020000
00000000
00230000
00000000
00301000
00000000
00001000
00000000
,
00010000
00000010
00001000
00000010
00000200
00000000
00000302
00000000
00002003
00000000
00003100
00000000
00010000
00001000
01000000
00000000
,
00001000
00000000
00010000
00000100
00001000
00000000
00000100
00000010
00000000
00000010
00000002
00000000
00001003
00000000
00001000
00000000
,
00000100
00010000
00000100
00010000
00000000
00001000
00010000
00000000
00000010
00001000
00000001
00000000
00002000
00000000
00003200
00000000
,
00000320
00000130
00000220
00000330
00001000
00000000
00000001
00000000
00001001
00000000
00001000
00000001
00000100
00001000
00010000
00001000
,
00000010
00001000
00010000
00001000
01000000
00100000
10000000
00000000
10010000
00000000
00010000
00100000
01000000
00010000
00001000
00000010
,
00000100
00000001
00001000
00000010
00000001
00000100
00001000
00000000
00011000
00000000
00010000
00100000
10000000
01000000
00100000
00010000
,
01000000
00000000
00000000
00000000
00100000
00000000
00000000
00000000
00010000
00000000
00000000
00000000
00001000
00000000
00000000
00000000
00010000
00000000
00000000
00000000
00000100
00000000
00000000
00000000
00000010
00000000
00000000
00000000
00000001
00000000
00000000
00000000
00000100
00000000
00000000
00000000
00000010
00000000
00000000
00000000
00010000
00000000
00000000
00000000
00001000
00000000
00000000
00000000
00022000
00033000
00000000
00000000
00000000
00000000
00000000
00000000
00000000
00000000
00000000
00000000
00000000
00000000
00000000
00000000
,
00010000
00000000
00001000
00000100
00000000
00000010
00000000
00001000
00000000
00000001
00000010
00000000
00000200
00020300
00031000
00000000
,
00010000
00100000
00000000
01000000
00000000
00100000
00000000
10000000
00010000
00000000
20000000
32000000
03100000
00000000
00001000
00010000
,
00000000
00001000
00000000
00000010
00000000
00000100
00001000
00000000
00000002
00000203
00000310
00000000
00010000
00001000
00000000
00100000
,
00000000
00000000
00000000
00000000
01000000
00000000
00000000
00000000
00000000
00000000
00000000
00000000
00100000
00000000
00000000
00000000
00010000
00000000
00000000
00000000
00000000
00000000
00000000
00000000
20020000
30030000
00000000
00000000
00000000
00000000
00000000
00000000
10000000
00000000
00000000
00000000
00000000
00000000
00000000
00000000
01000000
00000000
00000000
00000000
00100000
00000000
00000000
00000000
00000000
00000000
00000000
00000000
00100000
00000000
00000000
00000000
00000000
00000000
00000000
00000000
00100000
00000000
00000000
00000000
,
00001000
00000000
00010000
00000100
00000000
00000100
00000000
00000100
00000010
00000000
00000001
00000100
00000000
00000100
00000000
00000100
,
00001000
00010000
00001000
00010000
00000000
00001000
00000000
00001000
01000000
00000000
00010000
00000000
10000000
00000000
00010000
00000000
,
00100000
00010000
00100000
00010000
00100000
00001000
00010000
00001000
00020000
00000000
00032000
00003000
00022000
00000000
00033000
00000000
,
00010000
00000000
00000010
00001000
00000000
00000010
00000000
00000100
00000000
00000001
00001000
00000000
00000100
00000000
00000010
00000000
,
00001000
00000000
00010000
00001000
00000000
01000000
00000000
00010000
00000000
10000000
01000000
00000000
00100000
00001000
00010000
00000000
,
00001000
00000000
01000000
00010000
00000000
10000000
00000000
00010000
00000000
00100000
01000000
00100000
01000000
00000000
10000000
00010000
,
01000000
00000000
00001000
00010000
00000000
00001000
00000000
00000100
00000000
00000010
00001000
00000000
00000001
00000010
00000001
00000010
,
00000100
00000000
00001000
00000001
00000000
00000100
00000000
00001000
00000000
00010000
00001000
00000000
01000000
00000000
00010000
00000000
,
00100000
00000000
01000000
10000000
00000000
00100000
00000000
00010000
00000000
00001000
00010000
00000000
00000100
00001000
00000100
00001000
,
00000100
00000000
00010000
00001000
00000000
01000000
00000000
00010000
00000000
00100000
01000000
00000000
10000000
00010000
01000000
00001000
,
00010000
00000000
00000000
00010100
00000000
00000000
00022000
00000000
00000000
00000000
00000000
00000000
00033000
00000000
00000000
00000000
,
00010000
00000010
00001000
00000010
00010000
00000000
00001000
00100000
00010000
00100000
00001000
00000000
00010000
00001000
00010000
00000000
,
00000100
00000000
00001100
00000000
00000110
00000000
00000000
00000000
00000011
00000000
00000001
00001000
00000002
00000000
00000003
00000000
,
00000100
00000000
00000010
00000100
00000000
00001000
00000000
00010000
00000000
00001000
01000000
00010000
01000000
00000000
00100000
00000000
,
01000000
00000000
00010000
10000000
00000000
11000000
00000000
11000000
00000000
01100000
00000000
01100000
00000000
00000000
00000000
00000000
,
00001000
00000000
00010000
00000000
00100000
00000000
10000000
00000000
01000000
00000000
00010000
00000000
00011000
00000000
00000000
00010000
,
00001000
00010000
00001000
00000000
00010000
00000100
00010000
00000000
00000100
00001000
00000001
00000010
00000000
00000000
00000000
00000000
,
00000001
00000000
00000100
00001000
00000000
00001000
00000000
00001000
00010000
00000000
00001000
00010000
00000000
00010000
00000000
00010000
,
01000000
00000000
10000000
00010000
00000000
00010000
00000000
00010000
00000000
00010000
10000000
00010000
00100000
00001000
00010000
00000000
,
00022000
00000000
00000000
00000000
00000000
00000000
00000000
00000000
00000000
00000000
00000000
00000000
00000000
00000000
00000000
00000000
00000000
00000000
00000000
00000000
00000000
00000000
00000000
00000000
00000000
00000000
00000000
00000000
00000000
00000000
00000000
00000000
00000000
00000000
00000000
00000000
00000000
00000000
00000000
00000000
00000000
00000000
00000000
00000000
00000000
00000000
00000000
00000000
00000000
00000000
00000000
00000000
00000000
00000000
00000000
00000000
00000000
00000000
00000000
00000000
00000000
00000000
00000000
00000000
00000000
00000000
00000000
00000000
00000000
00000000
00000000
00000000
00000000
00000000
00000000
00000000
00000000
00000000
00000000
00000000
00000000
00000000
00000000
00000000
00000000
00000000
00000000
00000000
00000000
00000000
00000000
00000000
00000000
00000000
00000000
00033000
00000000
00000000
00000000
00000000
00000000
00000000
00000000
00000000
00000000
00000000
00000000
00000000
00000000
00000000
00000000
00000000
00000000
00000000
00000000
00000000
00000000
00000000
00000000
00000000
00000000
00000000
00000000
00000000
00000000
00000000
00000000
00000000
00000000
00000000
00000000
00000000
00000000
00000000
00000000
00000000
00000000
00000000
00000000
00000000
00000000
00000000
00000000
00000000
00000000
00000000
00000000
00000000
00000000
00000000
00000000
00000000
00000000
00000000
00000000
00000000
00000000
00000000
00000000
00000000
00000000
00000000
00000000
00000000
00000000
00000000
00000000
00000000
00000000
00000000
00000000
00000000
00000000
00000000
00000000
00000000
00000000
00000000
00000000
00000000
00000000
00000000
00000000
00000000
00000000
00000000
00000000
00000000
00000000
00000000
00000000
00000000
,
00000001
00000010
00000100
00001000
00000100
00010000
00002000
00000000
00013000
00001000
00100000
00010000
00100000
01000000
20000000
00000000
,
30010000
00000000
10000000
00100000
02000000
00000000
03010000
00100000
00001000
00010000
00000200
00000000
00000310
00000001
00002000
00000000
,
00003001
00000100
00000010
00001000
00000200
00000000
00020300
00000000
00031000
00100000
00010000
01000000
00200000
00000000
20300000
00000000
,
30010000
00100000
02000000
00000000
13000000
00100000
02000000
00000000
03010000
10000000
01000000
00100000
00001000
00010000
00000100
00000010
,
00000002
00000000
00000000
00000000
,
00000003
00000000
00000000
00000000
;

//--------------- dance-double - Fred-104† ----------------
#NOTES:
     dance-double:
     Fred-104†:
     Challenge:
     18:
     :
00000000
00000000
00000000
00000000
,
00000000
00000000
00000000
00000000
,
00000000
00000000
00000000
00000000
,
00000000
00000000
00000000
00000000
,
00000000
00000000
00000000
00000000
,
00001000
00010000
01000000
00100000
00010000
01000000
00100000
00010000
,
00000010
00001000
00000100
00000010
00001000
00010000
01000000
00100000
,
00001000
00100000
00001000
00000000
00010000
00001000
00010000
00000000
00000010
00001000
00000010
00000100
00000010
00001000
00000010
00000100
,
00000002
00000000
00000023
00000030
00000220
00000000
00000330
00000000
00001000
00000000
00000001
00000000
00000100
00000000
00010000
00000000
,
00000000
00000000
00010000
00000000
00000100
00000010
00000100
00000001
00001000
00000000
00000100
00000000
00000010
00000000
00001000
00000000
,
00000000
00000000
00001000
00000000
00010000
00001000
00010000
00001000
01000000
00000000
00100000
00000000
00010000
00000000
10000000
00000000
,
00000000
00000000
10000000
00000000
01000000
00010000
00100000
01000000
20000000
00000000
30200000
00000000
00320000
00000000
00032000
00000000
,
00003200
00000000
00000302
00000000
00000013
00000100
00001000
00000001
00000100
00000000
00000010
00000000
00000001
00000000
00001000
00000000
,
00000000
00000000
00001000
00000000
00000100
00000010
00010000
00001000
00010000
00000000
00001000
00000000
00000010
00000000
00000001
00000000
,
00000000
00000000
00000001
00000000
00000100
00000010
00000100
00000010
00000100
00000000
00001000
00010000
00001000
00000000
00100000
00010000
,
01000000
00000000
00100000
00000000
10000000
00010000
00100000
01000000
10000000
00000000
00000000
10100000
00000000
00000000
00110000
00000000
,
00010000
00000000
00001000
00000000
00000100
00000001
00000100
00000001
00000020
00000000
00001000
00000000
00000200
00000300
00000031
00001000
,
00000020
00000130
00001000
00010000
00200000
01300000
00100000
10000000
00020000
00000000
00100000
00000000
00002000
00003000
01030000
00010000
,
20000000
00000000
30100000
00000000
00010000
00000000
00001000
00000000
00010000
00000000
00000000
00001000
00000000
00000000
00011000
00000000
00020000
00000000
00030000
00000000
00002010
00000000
00000000
00000000
00000002
00000000
00000003
00000000
00003001
00000000
00000100
00000000
,
00002000
00013000
00001000
00000010
00002000
00013000
00002000
02003000
23000000
00000000
30020000
00000000
00230000
00000000
00320000
00031000
,
00010000
00000000
00000000
00000010
00000000
00000000
00002002
00000000
00000000
00000000
00000000
00000000
00003003
00000000
00000000
00000000
00000001
00000000
00000100
00000000
00001000
00000000
00000000
00000000
00010000
00000000
00000000
00000000
00001000
00000000
00000100
00000000
,
00000001
00000000
00001000
00000000
00000001
00000010
00001000
00000000
00010000
00000000
00001000
00000010
00000001
00000000
00001000
00000000
,
00000001
00000100
00000010
00000000
00010000
00001000
00010000
00001000
00100000
01000000
10000000
00000000
00010000
00000000
01000000
00100000
,
10000000
00000000
01000000
00000000
00100000
00010000
01000000
00000000
00001000
00000000
00010000
00000100
00000010
00000000
00000100
00000000
,
00001000
00000001
00001000
00000000
00000001
00000100
00000010
00001000
00000001
00000010
00000100
00001000
00000100
00000000
00010000
00001000
,
00100000
00010000
00100000
00000000
01000000
10000000
00010000
10000000
00100000
00000000
01000000
00001000
00010000
00000100
00001000
00000000
,
00000100
00000010
00000001
00001000
00000010
00000100
00000001
00001000
00000001
00000010
00000100
00001000
00000100
00010000
00001000
01000000
,
00010000
00000000
10000000
00000000
01000000
00000000
00100000
00000000
00010000
00000000
01000000
00000000
00100000
00000000
00010000
00000000
00002000
00000000
00000000
00000000
00000000
00000000
00003000
00000000
00010000
00000000
00010000
00000000
00000010
00001000
00000010
00000000
,
00010010
00000000
00010000
00000000
00010100
00000000
00000100
00000000
00001100
00000000
00001000
00000000
00000012
00000003
00000021
00000030
,
00000001
00000010
00000001
00000010
00001000
00000010
00001000
00000010
00000001
00000000
00001000
00000000
00001010
00000000
00000010
00010000
,
00001000
00000000
00100000
00000000
00110000
00000000
00010000
00000000
10010000
00000000
10000000
00000000
00100000
01000000
00010000
10000000
,
00010000
00100000
20000000
00000000
30010000
01000000
20000000
00000000
30010000
01000000
00001000
01000000
00010000
01000000
00001000
00010000
,
00001000
00000000
00010000
00000000
00010100
00000000
00001000
00000000
00001001
00000000
00000001
00000000
00001000
00000100
00000010
00000001
,
00001000
00000001
00000100
00001000
00010000
00000000
00100000
00000000
10000000
01000000
00020000
00000000
10030000
00100000
00020000
00000000
,
10030000
00000000
00100000
00000000
00010000
00100000
10000000
00000000
00010000
00100000
10000000
00000000
00100000
00001000
00000000
00001000
,
00010000
00001000
00000010
00000001
00001000
00000000
00000001
00000100
00001000
00010000
00001000
00000000
00010000
00001000
00010000
00001000
,
00020000
00000000
00000000
00000000
01030000
00100000
01000000
10000000
00010000
00000000
01010000
00000000
01000000
00100000
00010000
00000000
,
00001000
00000000
00000100
00000000
00000010
00001000
00000001
00000010
00000200
00000000
00002300
00000000
00003001
00000100
00001000
00000000
,
00001100
00000000
00001000
00000000
00011000
00000000
00010000
00000000
00100000
01000000
00020000
00000000
10030000
01000000
00010000
00000000
,
01000000
00100000
01000000
10000000
00010000
00000000
00010000
00100000
00002000
00000000
00023000
00000000
00030100
00000000
00000010
00000000
,
00000001
00000010
00000001
00000010
00000001
00000010
00000200
00000000
00000000
00020300
00000000
00000000
00031000
01000000
00001000
02000000
00000000
00000000
03010000
01000000
00100000
10000000
00000000
00000000
,
10010000
00000000
00010000
01000000
00001000
00000000
00010000
00000010
00000000
00000010
00010000
00000000
00011000
00000000
00010100
00000000
,
00000100
00001000
00000100
00010000
00000000
00001000
00010000
00000000
00100000
01000000
00010000
00000000
20000000
00000000
32000000
00000000
,
03200000
00000000
01300000
00000000
02200000
00000000
03300000
00000000
00010000
00000000
10000000
00000000
00100000
00000000
00000000
00000000
00110000
00000000
00000000
00000000
00100000
00000000
01000000
00010000
10000000
00000000
01000000
00000000
00010000
00000000
00001000
00010000
,
00000100
00000000
00000010
00000000
00001000
00000000
00000001
00000100
00001000
00000000
00000001
00000000
00001000
00000000
00000000
00000000
00001001
00000000
00000001
00000010
00000100
00001000
00000010
00000000
00000100
00001000
00010000
00000000
00100000
00000000
01000000
10000000
,
00010000
00000000
00100000
00000000
10000000
01000000
00100000
00001000
00010000
00000000
00001000
00000000
00011000
00000000
00000000
00000000
00010010
00000000
00000010
00000000
00001000
00000001
00000100
00000010
00000100
00000000
00001000
00000000
00010000
00001000
01000000
00100000
,
00010000
00000000
00000000
00000000
10000000
00000000
00000000
00000000
01000000
00000000
00000000
00000000
00100000
00000000
10000000
00000000
00010000
00000000
00000000
00000000
00100000
00000000
00000000
00000000
00001000
00000000
00010000
00000000
00000010
00000000
00001000
00000000
00000100
00000000
00000000
00000000
00000010
00000000
00000000
00000000
00001000
00000000
00000000
00000000
00010000
00000000
00000000
00000000
00022000
00033000
00000000
00000000
00000000
00000000
00000000
00000000
00000000
00000000
00000000
00000000
00000000
00000000
00000000
00000000
,
00010000
00000000
00000000
00000000
00000000
00000000
00000000
00000000
00001000
00000000
00000000
00000000
00000010
00000000
00000000
00000000
00000000
00000000
00000000
00000000
00000011
00000000
00000000
00000000
00000000
00000000
00000000
00000000
00000110
00000000
00000000
00000000
00000000
00000000
00000000
00000000
00000100
00000000
00000000
00000000
00010000
00000000
00000000
00000000
00000000
00000000
00000000
00000000
00002000
00003000
00000000
00000000
00002000
00003000
00000000
00000000
00010000
00000000
00000000
00000000
00000000
00000000
00000000
00000000
,
00100000
00000000
00000000
00000000
10000000
00000000
00000000
00000000
00000000
00000000
00000000
00000000
11000000
00000000
00000000
00000000
00000000
00000000
00000000
00000000
01100000
00000000
00000000
00000000
00000000
00000000
00000000
00000000
00100000
00000000
00000000
00000000
00001000
00000000
00000000
00000000
00000000
00000000
00000000
00000000
00020000
00030000
00000000
00000000
00020000
00030000
00000000
00000000
00001000
00000000
00000000
00000000
00000000
00000000
00000000
00000000
00010000
00000000
00000000
00000000
00001000
00000000
00000000
00000000
,
00000000
00000000
00000000
00000000
00001100
00000000
00000000
00000000
00000000
00000000
00000000
00000000
00000101
00000000
00000000
00000000
00000000
00000000
00000000
00000000
00000001
00000000
00000000
00000000
00000010
00000000
00000000
00000000
00000000
00000000
00000000
00000000
00002000
00003000
00000000
00000000
00002000
00003000
00000000
00000000
00010000
00000000
00000000
00000000
00000000
00000000
00000000
00000000
01000000
00000000
00000000
00000000
10000000
00000000
00000000
00000000
00000000
00000000
00000000
00000000
10100000
00000000
00000000
00000000
,
00000000
00000000
00000000
00000000
01010000
00000000
00000000
00000000
00000000
00000000
00000000
00000000
01000000
00000000
00000000
00000000
00001000
00000000
00000000
00000000
00000000
00000000
00000000
00000000
00022000
00033000
00000000
00000000
00000000
00000000
00000000
00000000
00010000
00000000
00000000
00000000
00001000
00000000
00000000
00000000
00010000
00000000
00000000
00000000
00000100
00000000
00000000
00000000
00001000
00000000
00000000
00000000
00000001
00000000
00000000
00000000
00000100
00000000
00000000
00000000
00000010
00000000
00000000
00000000
,
00001000
00000100
00000010
00000001
00000010
00000100
00001000
00000010
00010000
00001000
00100000
00010000
01000000
00100000
10000000
00010000
,
00100000
01000000
10000000
00100000
01000000
00010000
10000000
01000000
00100000
00001000
00010000
00000000
00001000
00000010
00000100
00000000
,
00010000
00000100
00001000
00000001
00000100
00000010
00001000
00000001
00000020
00000000
00002030
00003000
00022000
00000000
00033000
00000000
,
00020000
00000000
00031000
00010000
00000000
00110000
00000000
10100000
00000000
10000000
02000000
00000000
03100000
00001000
00020000
00000000
,
00032000
00000000
00003100
00000010
00000000
00001010
00000000
00001000
00000001
00000010
00000200
00000000
00010300
00001000
00010000
00001000
,
00020000
00000000
00031000
00100000
00000000
01100000
00000000
01010000
00000000
01000000
00200000
00000000
00310000
10000000
00200000
00000000
,
02300000
00000000
13000000
01000000
00000000
01100000
00000000
10100000
00000000
10000000
00020000
00000000
00130000
00001000
00100000
00001000
,
00020000
00000000
00031000
00000010
00000000
00000110
00000000
00000100
00001000
00000010
00020000
00000000
00030010
00001000
00000020
00000000
,
00000032
00000000
00001003
00000100
00000000
00000101
00000000
00000001
00000010
00000100
00020000
00000000
00031000
00010000
00001000
00010000
,
00002000
00000000
01003000
00010000
00000000
00110000
00000000
00100000
01000000
00010000
20000000
00000000
30100000
00010000
00100000
00001000
,
00010000
00000000
00000000
00001000
00000000
00000000
00022000
00000000
00000000
00000000
00000000
00000000
00033000
00000000
00000000
00000000
,
00001000
00010000
00100000
00010000
00001000
00000000
00010000
00001000
00000010
00001000
00010000
00000000
00001000
00010000
00001000
00000000
,
00010100
00000000
00010000
00000000
01001000
00000000
00000000
00000000
00011000
00000000
00001000
00010000
00001000
00000000
00000000
00000000
,
00010000
00000000
00011000
00000000
00001000
00010000
00001000
00010000
00001000
00000000
00000000
00010010
00000000
00000000
00001010
00000000
,
00001000
00000000
00000001
00000010
00000000
00000110
00000000
00001100
00000000
00010100
00000000
00022000
00000000
00000000
00033000
00000000
,
00010000
00000000
00001000
00000000
00000100
00000000
00000010
00000100
00000000
00000010
00001000
00000000
00000001
00000000
00001000
00000001
,
00000010
00000100
00001000
00000100
00010000
00001000
00100000
00010000
10000000
00010000
02000000
00200000
03000000
00000000
00300000
00000000
,
00010000
00000000
00001000
00010000
00000000
00010010
00000000
00010000
00001000
00000000
00010000
00001000
00000000
01001000
00000000
00001000
,
00010000
00000000
00001000
00010000
00000000
00110000
00000000
00100000
10000000
00010000
00100000
00001000
00010000
00000100
00000010
00000000
,
00002002
00000000
00000000
00000000
00000000
00000000
00000000
00000000
00000000
00000000
00000000
00000000
00000000
00000000
00000000
00000000
00000000
00000000
00000000
00000000
00000000
00000000
00000000
00000000
00000000
00000000
00000000
00000000
00000000
00000000
00000000
00000000
00000000
00000000
00000000
00000000
00000000
00000000
00000000
00000000
00000000
00000000
00000000
00000000
00000000
00000000
00000000
00000000
00000000
00000000
00000000
00000000
00000000
00000000
00000000
00000000
00000000
00000000
00000000
00000000
00000000
00000000
00000000
00000000
00000000
00000000
00000000
00000000
00000000
00000000
00000000
00000000
00000000
00000000
00000000
00000000
00000000
00000000
00000000
00000000
00000000
00000000
00000000
00000000
00000000
00000000
00000000
00000000
00000000
00000000
00000000
00000000
00000000
00000000
00000000
00003003
00000000
00000000
00000000
00000000
00000000
00000000
00000000
00000000
00000000
00000000
00000000
00000000
00000000
00000000
00000000
00000000
00000000
00000000
00000000
00000000
00000000
00000000
00000000
00000000
00000000
00000000
00000000
00000000
00000000
00000000
00000000
00000000
00000000
00000000
00000000
00000000
00000000
00000000
00000000
00000000
00000000
00000000
00000000
00000000
00000000
00000000
00000000
00000000
00000000
00000000
00000000
00000000
00000000
00000000
00000000
00000000
00000000
00000000
00000000
00000000
00000000
00000000
00000000
00000000
00000000
00000000
00000000
00000000
00000000
00000000
00000000
00000000
00000000
00000000
00000000
00000000
00000000
00000000
00000000
00000000
00000000
00000000
00000000
00000000
00000000
00000000
00000000
00000000
00000000
00000000
00000000
00000000
00000000
00000000
00000000
00000000
,
10000000
00000000
00000000
01000000
00000000
00000000
00100000
00000000
00000000
00010000
00000000
00000000
00100000
00000000
00000000
00001000
00000000
00000000
00010000
00000000
00000100
00000000
00010000
00000000
00000100
00000000
00000000
00001000
00000000
00000000
00000001
00000000
00000000
00000100
00000000
00000000
00000010
00000000
00000000
00001000
00000000
00000000
00000001
00000000
00000000
00000000
00000000
00000000
,
00000021
00000000
00000000
00000000
00000000
00000000
00000130
00000000
00001000
00000000
00000100
00000000
00002000
00000000
00000000
00000000
00000000
00000000
00003100
00000000
00010000
00000000
00001000
00000000
00010000
00000000
00000000
00001000
00000000
00000000
00100000
00000000
00000000
01000000
00000000
00000000
10000000
00000000
00010000
00000000
10000000
00000000
00200000
00000000
00000000
00000000
00000000
00000000
,
01300000
00000000
00010000
00000000
01000000
00000000
00100000
00000000
00000000
10000000
00000000
00000000
00010000
00000000
00000000
00100000
00000000
00000000
00002000
00000000
00000000
00000000
00000000
00000000
00013000
00000000
00000010
00000000
00001000
00000000
00000010
00000000
00000000
00000100
00000000
00000000
00000010
00000000
00000000
00010000
00000000
00000000
00002000
00000000
00000000
00000000
00000000
00000000
,
01003000
00010000
10000000
00100000
01000000
00001000
00010000
00000010
00001000
00000001
00000010
00001000
00010000
01000000
10000000
00000000
,
20020000
00000000
00000000
00000000
,
30030000
00000000
00000000
00000000
;
