#TITLE:Critical Crystal;
#ARTIST:青龍;
#ARTISTTRANSLIT:Seiryu;
#GENRE:DANCE SPEED;
#BANNER:Critical Crystal.png;
#BACKGROUND:Critical Crystal-bg.png;
#CDTITLE:./CDTitles/bm IIDX 21 SPADA.png;
#MUSIC:Critical Crystal.ogg;
#SAMPLESTART:80.406;
#SAMPLELENGTH:15;
#BPMS:0=191;

//--------------- dance-single - Fred-104 ----------------
#NOTES:
     dance-single:
     Fred-104:
     Beginner:
     4:
     :
0000
0000
0000
0000
,
0000
0000
0000
0000
,
0000
0000
0000
0000
,
1000
0000
0000
0000
,
0010
0010
0010
0000
,
1000
0000
0000
0000
,
0001
0001
0001
0000
,
0010
0000
0100
0000
,
0010
0000
0100
0000
,
1000
0000
0001
0000
,
2000
0000
3000
0000
,
1000
0000
0100
0000
,
0001
0000
0001
0000
,
0100
0000
0010
0000
,
0100
0000
1000
0000
,
0001
0000
0100
0000
,
1000
0000
0100
0000
,
0001
0000
1000
0000
,
0002
0000
0000
0003
,
1000
0000
0100
0000
,
0010
0010
0010
0000
,
0001
0000
1000
0000
,
0010
0010
0010
0000
,
0100
0000
0001
0000
,
1000
1000
1000
0000
,
0001
0000
1000
0000
,
0002
0000
0000
0003
,
1000
1000
0100
0000
,
0010
0000
0001
0000
,
0100
0100
0010
0000
,
0100
0000
0001
0000
,
1000
0001
1000
0000
,
0001
0000
0010
0000
,
0100
0100
1000
0000
,
0001
0000
1000
0000
,
0002
0000
0000
0000
,
0000
0000
0003
0000
,
2000
0000
0000
0000
,
0000
0000
3000
0000
,
0002
0000
0000
0000
,
0000
0000
0003
0000
,
2000
0000
0000
0000
,
0000
0000
3000
0000
,
0001
0000
0000
0000
1000
0000
0000
0001
,
0000
0000
0000
1001
0000
0000
0000
0000
,
0000
0000
0000
0000
,
2000
0000
3000
0000
,
0002
0000
0003
0000
,
2000
0000
3000
0000
,
0002
0000
0003
0000
,
0020
0000
0030
0000
,
0200
0000
0300
0000
,
0020
0000
0030
0000
,
0200
0000
0300
0000
,
2000
3000
1000
0000
,
0002
0003
0001
0000
,
2000
3000
1000
0000
,
0002
0003
0001
0000
,
1000
0000
0100
0000
,
1000
0000
0100
0000
,
0010
0000
0001
0000
,
1000
0000
0001
0001
,
1001
0000
0000
0000
,
0000
0000
0000
0000
,
2000
3000
0100
0000
,
0010
0000
0001
0000
,
2000
3000
0001
0000
,
0100
0000
0010
0000
,
0200
0300
0001
0000
,
0100
0000
0001
0000
,
2000
3000
0100
0000
,
1001
0000
0000
0000
,
0001
0000
0100
0000
,
0010
0010
0010
0000
,
1000
0000
0001
0000
,
0010
0010
0010
0000
,
0100
0000
1000
0000
,
0001
0001
0001
0000
,
2000
3000
0002
0003
,
2000
3000
0002
0003
,
2000
0000
0000
0000
,
0000
0000
3000
0000
,
0002
0000
0000
0000
,
0000
0000
0003
0000
,
2000
0000
0000
0000
,
0000
0000
3000
0000
,
0002
0000
0000
0000
,
0000
0000
0003
0000
,
1000
0000
0000
0000
0001
0000
0000
1000
,
0000
0000
0000
1001
0000
0000
0000
0000
;

//--------------- dance-single - Fred-104 ----------------
#NOTES:
     dance-single:
     Fred-104:
     Easy:
     9:
     :
0000
0000
0000
0000
,
0000
0000
0000
0000
,
0000
0000
0000
0000
,
0001
0000
1000
0000
0100
0010
0100
0000
,
1000
0000
0000
1000
0000
0000
1000
0000
0001
0000
0000
0000
1000
0000
0000
0000
,
0010
0000
0010
0000
0001
0010
0001
0000
,
0010
0100
0010
0000
1000
0001
1000
0000
,
0001
0000
0001
0000
0010
0100
0010
0000
,
0100
0000
0100
0000
1000
0001
1000
0000
,
0001
0100
0001
0000
1000
0010
1000
0000
,
0001
1000
0001
1000
0002
0000
0003
0000
,
1000
1000
0100
0001
,
0100
0010
0001
0000
,
1000
0001
0100
1000
,
0100
0001
0001
0000
,
1000
0010
0100
0010
,
0001
0010
1000
0000
,
0001
0010
1000
0010
,
0002
0000
0000
0003
,
1000
0000
0000
0100
0000
0000
0100
0000
,
0010
0000
0001
0000
1000
0001
1000
0000
,
0001
0000
0000
0001
0000
0000
0100
0000
,
0010
0000
0100
0000
0001
1000
0001
0000
,
0010
0000
0000
0010
0000
0000
0100
0000
,
1000
0000
0010
0000
0100
0001
0100
0000
,
0001
0000
0000
1000
0000
0000
0100
0000
,
0020
0000
0030
1001
,
0001
0000
0001
0000
0100
0000
0000
0100
,
0000
0100
0010
0000
0100
0000
0001
0000
,
1000
0000
1000
0000
0100
0000
0000
0010
,
0000
0010
0001
0000
1000
0001
1000
0000
,
0001
0000
0100
0000
0010
0000
0000
0100
,
0000
0100
1000
0000
0100
0000
0001
0000
,
1000
0000
0100
0000
0010
0000
0000
0010
,
0000
0001
0000
0001
0000
1000
0000
0001
,
2000
0000
0000
3002
,
0000
0000
0000
0003
,
2000
0000
0000
3002
,
0000
0000
0000
0003
,
0200
0000
0000
0320
,
0000
0000
0000
0030
,
0200
0000
0000
0320
,
0000
0000
0000
0030
,
1000
0000
1000
0000
0001
0000
0000
0100
,
0000
0001
0000
2000
0000
0000
0000
0000
,
0000
0000
3000
0000
,
0001
0010
0001
0000
,
0010
1000
0100
0001
,
1000
0010
1000
0000
,
0010
0001
0100
1000
,
0001
0100
1000
0000
,
1000
0100
0001
0001
,
1000
0100
0001
0000
,
0001
0100
1000
1000
,
0001
0001
0001
0000
1001
0000
0000
0000
,
1000
1000
1000
0000
1001
0000
0000
0000
,
0001
0001
0001
0000
1001
0000
0000
0000
,
1001
0000
0001
1000
,
0100
0100
0010
0010
,
0001
0001
1000
1000
,
1001
0000
1001
0000
,
0001
0100
0001
0000
1000
0010
1000
0000
,
0002
0000
2003
0000
,
3100
0100
2002
3003
,
0001
0010
0100
0100
,
1000
0001
0110
0000
,
1000
0010
0100
0010
,
1000
0100
0011
0000
,
0001
1000
0010
0100
,
0010
1000
1001
0000
,
0001
0010
1000
0010
,
0001
0000
1001
0000
0001
1000
0001
1000
,
0001
0000
0001
0100
0000
0001
0100
0000
,
0010
0000
1000
0000
0001
1000
0001
0000
,
1000
0000
0100
1000
0000
1000
0100
0000
,
0010
0000
0100
0000
1000
0001
1000
0000
,
0010
0000
0100
0010
0000
0010
0100
0000
,
0001
0000
0010
0000
0100
1000
0100
0000
,
1000
1000
1000
0000
0001
0001
0001
0000
,
0100
0010
0220
0330
,
0002
0000
0000
2003
,
0000
0000
0000
3000
,
0002
0000
0000
2003
,
0000
0000
0000
3000
,
0200
0000
0000
0320
,
0000
0000
0000
0030
,
0200
0000
0000
0320
,
0000
0000
0000
0030
,
0001
0000
0001
0000
1000
0000
0000
0100
,
0000
0010
0000
1001
0000
0000
0000
0000
;

//--------------- dance-single - Fred-104 ----------------
#NOTES:
     dance-single:
     Fred-104:
     Medium:
     12:
     :
0000
0000
0000
0000
,
0000
0000
0000
0000
,
0000
0000
0000
0000
,
1000
0000
0100
0000
0010
0001
0010
0001
,
1000
0000
0000
0001
0000
0000
0001
0000
0100
0000
0010
0000
0100
0000
0010
0000
,
0100
0001
1000
0000
0100
0010
0001
0000
,
0100
0000
0100
0000
0010
1000
0010
1000
,
0001
0000
0010
0000
0100
0100
1000
1000
,
0001
0000
0100
0000
0010
0010
0100
0001
,
1000
0100
0020
0030
0001
0100
0020
0030
,
0100
0000
0001
0000
1000
0001
1001
0000
,
1000
0100
1000
0000
0001
0010
0001
0000
,
1000
0010
0100
0000
0010
1000
0001
0000
,
0010
0100
0010
0000
0001
1000
0001
0000
,
0100
0001
1000
0000
0010
0100
0001
0000
,
1000
0100
1000
0000
0010
0100
0010
0000
,
1000
0001
0010
0000
0100
0010
0001
0000
,
0100
0010
1000
0000
0001
1000
0001
0000
,
0200
0000
0000
0000
0000
0000
0301
0001
,
1000
0100
0010
0001
0000
1000
0100
0010
,
0001
1000
0001
0000
0100
0010
0100
0000
,
0001
0100
0010
1000
0000
0001
0100
0010
,
1000
0001
1000
0000
0100
0010
0001
0000
,
1000
0010
1000
0001
0000
1000
0100
1000
,
0001
0100
0010
0000
1000
0100
0010
0000
,
0001
1000
0100
1000
0000
0001
1000
0010
,
1000
0100
0010
1001
,
0001
0100
0001
0000
0100
0000
1000
0100
,
0000
0100
0001
0100
0001
0000
1001
0000
,
1000
0100
1000
0000
0100
0000
0001
0100
,
0000
0100
1000
0001
1000
0010
0100
0000
,
0001
0010
0001
0000
0010
0000
1000
0010
,
0000
0010
0001
1000
0001
0000
1001
0000
,
1000
0010
0001
0000
0010
0000
1000
0001
,
0000
1000
0000
0001
0000
1000
0000
0001
,
2001
0000
0000
3002
,
0000
0000
0000
0000
,
0023
0000
0000
0200
,
0000
0000
0000
0330
,
2000
0000
0000
3020
,
0000
0000
0000
0000
,
0230
0000
0000
0002
,
0000
0000
0000
0303
,
0001
0000
0001
0000
1000
0100
1000
0100
,
0000
0010
0000
0002
0000
0000
0000
0000
,
0000
0000
0003
0000
,
1000
0000
0001
0000
1000
0100
0001
0100
,
1000
0000
0000
0000
0001
0000
0000
0000
0100
0000
0000
0100
0000
0000
0010
0000
,
0100
0000
0001
0000
1000
0010
0001
0010
,
1000
0000
0000
0000
0001
0000
0000
0000
0010
0000
0000
0010
0000
0000
0100
0000
,
1000
0000
0001
0000
0100
0010
0001
0010
,
0100
0000
0000
0000
0001
0000
0000
0000
1000
0000
0000
1000
0000
0000
0100
0000
,
0010
0000
1000
0000
0010
0100
1000
0001
,
0100
0000
0010
0000
0100
0001
1000
0000
,
0001
0010
0001
0010
0001
0000
1001
0000
,
1000
0010
1000
0010
1000
0000
1001
0000
,
0001
0100
0001
0100
0001
0000
1001
0000
,
0110
0000
0001
0000
1000
0100
1000
0000
,
0001
0100
1000
0000
0001
0010
1000
0000
,
0001
0010
1000
0000
0001
0100
1000
0000
,
0011
1000
0101
1000
,
0100
0010
0100
0010
0001
1000
0001
1000
,
0001
0000
0001
0000
0100
0010
0100
0000
,
0010
0010
2002
3003
,
1000
0000
0100
0000
0010
0001
1000
0001
,
0100
0000
0000
0000
0010
0000
0000
0000
0100
0000
0000
0100
0000
0000
0001
0000
,
1000
0000
0001
0000
0010
0100
1000
0100
,
0010
0000
0000
0000
0001
0000
0000
0000
1000
0000
0000
1000
0000
0000
0010
0000
,
0100
0000
0001
0000
1000
0100
1000
0010
,
0100
0000
0000
0000
0001
0000
0000
0000
1000
0000
0000
0001
0000
0000
0010
0000
,
0100
0000
0010
0000
0001
0100
0010
1000
,
0002
0003
2000
3000
0001
1000
1001
0000
,
0001
0100
0010
1000
0000
0001
0100
0010
,
1000
0001
1000
0000
0100
0010
0100
0000
,
1000
0100
0010
0001
0000
1000
0100
0010
,
0001
1000
0001
0000
0100
0010
1000
0000
,
0001
0010
0001
1000
0000
0001
0100
0001
,
1000
0100
0010
0000
0001
0100
0010
0000
,
0100
0010
0100
0010
0200
0000
0300
0000
0001
1000
0001
1000
0002
0000
0003
0000
,
1000
0100
0110
0000
0001
0001
1000
1000
,
1002
0000
0000
2003
,
0000
0000
0000
0000
,
3020
0000
0000
0200
,
0000
0000
0000
0330
,
0002
0000
0000
0023
,
0000
0000
0000
0000
,
0230
0000
0000
2000
,
0000
0000
0000
3300
,
1000
0000
1000
0000
0001
0100
0001
0100
,
0000
0010
0000
1001
0000
0000
0000
0000
;

//--------------- dance-single - Fred-104 ----------------
#NOTES:
     dance-single:
     Fred-104:
     Hard:
     16:
     :
0000
0000
0000
0000
,
0000
0000
0000
0000
,
0000
0000
0000
0000
,
0101
0000
0100
0010
1000
0100
0010
0001
,
1000
0000
0001
0100
0000
0001
0100
0000
0010
0000
0010
0000
1000
0001
1000
0001
,
0010
0000
0010
0000
0010
0000
0100
0010
0000
0000
0001
0000
0010
0000
0100
1000
,
0001
0000
0100
0000
0100
0000
0010
1000
0020
0030
0020
0030
0200
0300
0200
0300
,
1001
0000
1000
0100
1000
1000
0001
0001
,
0100
0000
0010
0001
0000
0001
0010
0000
0100
0000
0100
0000
0001
1000
0001
1000
,
0002
0000
0203
0000
2300
0000
3200
0000
0301
0000
1000
0100
1000
0000
0001
0000
,
0100
0010
1000
0000
0100
0010
0001
0000
1000
0000
0000
0000
1001
0000
0000
0000
,
0001
1000
0001
1000
0100
0010
0001
1000
,
0010
0100
1000
0100
0010
0001
0010
1000
,
0001
0010
0001
0010
0100
1000
0001
0100
,
0010
0001
0010
0100
1000
0100
0001
1000
,
0100
0010
0100
0010
0001
1000
0010
0001
,
0010
0100
1000
0001
0010
0100
0001
1000
,
0100
0000
0010
0001
0010
0001
0010
0001
1000
0000
0001
0000
0100
0000
0010
0000
,
1000
0100
0010
0001
0010
0100
1100
1000
,
0001
0100
1000
0100
0000
0010
0001
0010
,
1000
0001
0100
1000
0001
1000
0100
0001
,
1000
0100
0001
0100
0000
0010
1000
0010
,
0001
1000
0010
0001
1000
0001
0010
1000
,
0001
0100
1000
0001
0000
0010
1000
0001
,
0010
0100
0001
0100
0010
1000
0010
0001
,
1000
0100
0001
1000
0000
0001
0100
1000
,
0001
0000
0100
0000
0010
1000
0010
1000
0010
0000
1000
0000
2002
0000
3003
0000
,
1000
0010
1000
0100
1000
0010
0100
0002
,
0000
0000
1003
0000
0100
0000
0010
0000
0002
0003
0002
0000
1003
0001
1000
0001
,
1000
0001
0100
0001
0010
0001
0100
0020
,
0000
0000
0130
0000
0001
0000
1000
0000
0100
0010
0001
0000
0100
0010
0100
0010
,
0100
0001
0010
0100
1000
0010
1000
0002
,
0000
0000
1003
0000
0100
0000
0001
0000
2000
3000
0020
0000
0031
1000
0001
1000
,
0001
0100
0010
1000
1001
0001
0010
0100
,
0000
0101
0000
1100
0000
0110
0000
0001
,
1001
0000
0000
0000
0001
1000
0010
0100
,
0000
0001
0000
1000
0000
0100
0010
0001
,
1000
0000
0001
0100
0010
1000
0100
0010
,
0000
0100
0000
1000
0000
0010
1000
0001
,
0010
0000
0100
0010
0001
0100
0010
1000
,
0000
0001
0000
0010
0000
0100
1000
0010
,
0100
0000
0001
1000
0100
1000
0010
0100
,
0000
0001
0000
1000
0000
0100
0010
0001
,
1000
0000
0001
0100
1000
0100
0001
0010
,
0000
0100
0000
2002
0000
0000
0000
0000
,
0000
0000
3003
0000
,
0001
0000
0000
0000
0010
0000
0000
0000
0100
1000
0100
1000
0100
1000
0100
1000
,
0100
0000
0000
0000
1000
0000
0000
0000
0001
0000
0000
0100
0000
0000
0010
0000
,
1000
0000
0000
0000
0001
0000
0000
0000
0010
0100
0010
0100
0010
0100
0010
0100
,
0010
0000
0000
0000
0001
0000
0000
0000
1000
0000
0000
0001
0000
0000
0100
0000
,
0010
0000
0000
0000
0100
0000
0000
0000
0001
0010
0001
0010
0100
0010
0100
0010
,
0001
0000
0000
0000
1000
0000
0000
0000
0010
0000
0000
0100
0000
0000
0001
0000
,
1000
0000
0000
0000
0100
0000
0000
0000
0010
0100
0010
0100
1000
0100
1000
0100
,
0010
0000
0000
0000
0001
0000
0000
0000
1000
0000
0000
0001
0000
0000
0100
0000
,
0010
0000
0010
0000
0010
0000
0010
0000
0100
0001
0100
0001
1000
0100
0010
0000
,
0001
0000
0001
0000
0001
0000
0001
0000
1000
0010
1000
0010
1000
0001
0010
0000
,
0100
0000
0100
0000
0100
0000
0100
0000
1000
0001
1000
0001
0100
0010
0100
0000
,
0101
0000
0000
0000
0001
0000
0001
0000
1000
0001
0100
0010
1000
0001
0010
0000
,
0110
0100
1000
0001
0100
0010
0011
0001
,
0011
0010
0100
0001
1000
0100
0110
0000
,
0010
0001
0010
0000
0100
1000
0100
0000
1000
0001
1000
0000
0010
0100
0010
0000
,
1000
0001
1000
0001
0010
0100
0010
0100
1000
0001
1000
0001
0100
0010
0100
0010
,
0100
0000
0100
0000
0001
1000
0001
1000
0100
0000
0010
0001
0020
0000
0032
0000
,
1003
0010
1000
0010
0100
0001
0100
0001
0100
0000
0000
0000
2002
0000
3003
0000
,
0001
0000
0010
0000
0100
0000
1000
0000
0001
0100
0001
0100
0010
1000
0010
1000
,
0010
0000
1000
0000
0001
0000
0010
0000
0100
0000
0000
0010
0000
0000
0001
0000
,
0100
0000
0010
0000
1000
0000
0001
0000
0010
0100
0010
0100
0010
0001
0010
0001
,
0010
0000
0100
0000
1000
0000
0001
0000
0100
0000
0000
0001
0000
0000
1000
0000
,
0100
0000
0010
0000
0001
0000
1000
0000
0010
1000
0010
1000
0001
1000
0001
1000
,
0100
0000
0010
0000
0001
0000
1000
0000
0100
0000
0000
0001
0000
0000
0100
0000
,
1000
0000
0001
0000
0100
0000
0010
0000
0100
0001
0100
0001
1000
0001
1000
0001
,
0010
0000
0010
0000
0100
0010
0100
0010
0200
0300
0200
0300
2000
0000
3002
0000
,
1003
0010
0001
2000
0000
3001
0010
1000
,
0001
0010
1000
0001
1000
0010
0001
1000
,
0001
0100
1000
0002
0000
1003
0100
0001
,
1000
0100
0001
1000
0001
0100
1000
0001
,
1000
0100
0001
0200
0000
0310
1000
0010
,
0001
0100
0010
0001
1000
0100
0001
1000
,
0100
0010
0100
0010
0002
0000
0003
0000
0100
0010
0100
0010
2000
0000
3000
0000
,
0002
0003
0002
0003
2002
0000
0003
0000
3200
0300
0200
0300
0020
0030
0020
0030
,
1001
0000
0000
0000
0001
0010
0100
1000
,
0000
0010
0000
0100
0000
0001
1000
0100
,
0010
0000
0001
1000
0010
0100
0010
1000
,
0000
0100
0000
0010
0000
0001
0100
0010
,
0100
0000
0001
0010
0100
0010
0001
0100
,
0000
0010
0000
1000
0000
0001
0010
0100
,
1000
0000
0010
1000
0100
0010
0001
0100
,
0000
0010
0000
1000
0000
0001
0010
0100
,
1000
0000
0001
0100
1000
0001
0010
1000
,
0000
0100
0000
1001
0000
0000
0000
0000
;

//--------------- dance-single - Fred-104† ----------------
#NOTES:
     dance-single:
     Fred-104†:
     Challenge:
     17:
     :
0000
0000
0000
0000
,
0000
0000
0000
0000
,
0000
0000
0000
0000
,
1000
0000
0100
0000
1000
0000
0100
0000
0010
0000
0001
1000
0001
0000
0100
0000
,
0010
0000
1000
0100
0000
0010
0100
0010
0001
0000
1000
0000
0001
1000
0001
1000
,
0002
0000
0000
0003
0002
0000
0000
0003
0002
0000
0000
0003
0100
0000
0010
0000
0000
0000
0000
0000
0001
0000
0000
0000
0010
0000
0000
0000
0100
0000
0010
0000
,
0100
0000
0100
0000
0100
0000
0100
0001
2000
3000
0200
0300
0020
0030
0002
0003
,
1000
0000
0001
0000
0100
0000
0010
1000
0020
0030
2010
3000
1020
0030
2010
3000
,
0001
0000
1000
0100
0000
0010
0001
1000
0020
0030
0210
0300
0010
0100
0010
0100
,
0001
0000
0000
0000
0000
0000
1000
0000
0000
0100
0000
0000
0020
0000
0000
0000
0030
0000
0001
0000
1000
0000
0001
0000
1000
0000
0000
0000
0000
0000
0001
0000
0000
0100
0000
0000
0020
0000
0000
0000
0000
0000
2030
0000
0000
0000
0000
0000
,
3001
0010
0001
0010
0100
0010
0100
0010
0001
0000
0000
0000
1001
0000
0000
0000
,
0001
1000
0010
0001
0010
0100
0010
1000
,
0001
0010
1000
0001
0100
0010
0100
1000
,
0001
0000
1000
0001
1000
0000
0100
0000
0001
0000
0100
0000
0010
0000
0001
0000
,
1000
0001
0100
0010
0001
1000
0100
0001
,
0010
0100
0001
0100
1000
0001
0100
0010
,
0001
0010
0100
1000
0001
0010
0100
0001
,
1000
0000
0100
0010
0100
0010
0001
0010
0001
0000
1000
0000
0010
0000
0100
0000
,
0002
0000
0000
0000
0000
0000
1003
1000
,
0001
0100
1000
0002
0000
1003
0100
0001
,
1000
0001
0010
0100
0001
1000
0010
0001
,
1000
0010
0001
2000
0000
3001
0010
1000
,
0001
0010
0100
0001
1000
0010
0001
1000
,
0010
0000
0100
0000
1000
0000
0100
0000
0001
0000
1000
0100
1000
0000
0001
0000
,
1000
0000
0100
0010
0001
0000
1000
0000
0001
0000
0100
0010
1000
0000
0001
0000
,
0010
0000
0100
0000
0001
0000
0100
0000
1000
0000
0001
0010
0001
0000
1000
0000
,
0010
0000
0100
0000
0001
0100
0001
0100
0010
0000
1000
0000
2002
0000
3003
0000
,
0001
0010
0100
0020
1000
0000
0031
1000
,
0010
0000
0000
0000
0000
0000
0000
0000
0002
0000
0000
0000
0000
0000
0000
0000
2003
0000
0000
0000
0000
0000
0000
0000
3200
0000
0000
0000
0000
0000
0000
0000
0302
0000
0000
0000
0003
0000
0000
0000
2000
0000
0000
0000
0000
0000
0000
0000
3002
0000
0000
0003
2000
0000
0000
3000
0002
0000
0000
0003
2000
0000
0000
3000
,
0001
0100
0010
0200
1000
0000
0301
1000
,
0100
0000
0000
0000
0000
0000
0000
0000
0000
0000
0000
0000
0000
0000
0000
0000
0000
0000
0000
0000
0000
0000
0000
0000
0020
0000
0000
0000
0000
0000
0000
0000
0000
0000
0000
0000
0000
0000
0000
0000
0000
0000
0000
0000
0000
0000
0000
0000
0032
0000
0000
0000
0000
0000
0000
0000
0000
0000
0000
0000
0000
0000
0000
0000
0000
0000
0000
0000
0000
0000
0000
0000
2003
0000
0000
0000
0000
0000
0000
0000
0000
0000
0000
0000
0000
0000
0000
0000
0000
0000
0000
0000
0000
0000
0000
0000
3001
0000
0000
0000
0000
0000
0000
0000
1000
0000
0000
0000
0000
0000
0000
0000
0001
0000
0000
0000
0000
0000
0000
0000
1000
0000
0000
0000
0000
0000
0000
0000
0000
0000
0000
0000
0000
0000
0000
0000
0000
0000
0000
0000
0000
0000
0000
0000
0002
0000
0000
0000
0000
0000
0000
0000
0000
0003
0000
0000
2000
0000
0000
0000
0000
0000
0000
0000
0000
3000
0000
0000
0002
0000
0000
0000
0000
0000
0000
0000
0000
0003
0000
0000
2000
0000
0000
0000
0000
0000
0000
0000
0000
3000
0000
0000
,
0010
1000
0001
0020
0100
0000
0130
1000
,
1001
0000
0000
0000
0000
0000
0000
0000
0002
0000
0000
0000
0000
0000
0000
0000
0203
0000
0000
0000
0000
0000
0000
0000
0320
0000
0000
0000
0000
0000
0000
0000
0230
0000
0000
0000
0300
0000
0000
0000
0002
0000
0000
0000
0000
0000
0000
0000
2003
0000
0000
3000
0002
0000
0000
0003
2000
0000
0000
3000
0002
0000
0000
0003
,
1000
0100
0010
0001
1001
1000
0001
0100
,
0000
0101
0000
1100
0000
1010
0000
0011
,
1002
0000
0000
2003
,
0000
0000
0000
0000
,
3200
0000
0000
0020
,
0000
0000
0000
0330
,
0002
0000
0000
0203
,
0000
0000
0000
0300
,
2000
0000
0000
0020
,
0000
0000
0000
3030
,
0001
0000
1000
0010
0001
0010
1000
0001
,
0000
0010
0000
0220
0000
0000
0000
0000
,
0000
0000
0330
0000
,
1000
0000
0000
0000
0100
0000
0000
0000
0010
0001
0010
0001
1000
0001
1000
0001
,
0010
0100
0000
0100
1000
0001
0000
0001
1000
0000
0010
0100
0000
0100
0001
0000
,
1000
0000
0000
0000
0001
0000
0000
0000
0100
0010
0100
0010
1000
0010
1000
0010
,
0100
0001
0000
0001
1000
0001
0000
0001
0010
0000
0100
1000
0000
1000
0001
0000
,
1001
0000
0000
0000
1000
0000
0000
0000
0100
0010
0001
0010
0100
0010
0001
0010
,
0100
0010
0000
0010
0001
1000
0000
1000
0010
0000
0100
0001
0000
0001
1000
0000
,
0100
0000
0000
0000
0010
0000
0000
0000
0001
1000
0010
1000
0001
1000
0010
1000
,
0001
0010
0000
0010
0100
1000
0000
1000
0010
0000
0100
0001
0000
0001
1000
0000
,
1002
0003
2001
3000
1002
0003
2001
3000
0010
1000
0100
0010
0001
1000
0001
0000
,
0021
0030
0012
0003
0021
0030
0012
0003
1000
0001
0010
0001
0100
0010
0100
0000
,
0102
0003
0201
0300
0102
0003
0201
0300
0001
1000
0100
1000
0010
0100
0001
0000
,
2002
3003
0000
0000
2100
3000
1200
0300
1000
0001
0100
0010
1000
0100
0010
0001
,
1000
0001
0100
0010
1000
0100
0110
0010
,
0011
0001
0100
1000
0001
0010
1010
0000
,
1001
0000
0001
0100
0001
0000
1000
0000
0100
0010
0100
0010
0001
0010
0001
0010
,
0100
1000
0001
0100
0010
1000
0001
0010
0100
1000
0010
0100
0001
0010
0100
0000
,
1000
0000
0000
0000
0000
0000
0000
0000
1001
0000
0000
0000
0000
0000
0000
0000
0002
0000
0003
0000
0200
0000
0300
0000
0002
0000
0003
0000
0200
0000
0300
0000
0010
0000
0000
0000
0000
0000
0000
0000
0010
0000
0000
0000
1000
0000
0000
0000
0200
0000
0000
0000
0000
0300
0000
0000
0200
0000
0000
0300
0000
0000
0000
0000
,
0010
0001
1000
0001
0100
0001
1000
0001
0010
0000
0000
0000
2002
0000
3003
0000
,
1000
0000
0100
0000
0010
0000
0001
0000
1000
0010
1000
0001
0010
0100
1000
0001
,
0200
0000
0000
0000
0000
0000
0000
0000
0010
0000
0000
0000
1000
0000
0000
0300
0200
0000
0000
0000
0000
0000
0000
0000
0010
0000
0000
0000
0001
0000
0000
0300
0100
0000
0000
0000
0000
0000
0000
0000
0010
0000
0000
0000
1000
0000
0000
0000
0000
0000
0000
0000
1000
0000
0000
0000
0001
0000
0000
0000
0000
0000
0000
0000
,
0010
0000
0100
0000
1000
0000
0001
0000
0100
0001
1000
0001
0100
0010
1000
0001
,
0020
0000
0000
0000
0000
0000
0000
0000
0001
0000
0000
0000
0100
0000
0000
0030
0020
0000
0000
0000
0000
0000
0000
0000
1000
0000
0000
0000
0100
0000
0000
0030
0010
0000
0000
0000
0000
0000
0000
0000
0001
0000
0000
0000
1000
0000
0000
0000
0000
0000
0000
0000
1000
0000
0000
0000
0001
0000
0000
0000
0000
0000
0000
0000
,
1001
0000
0001
0100
0010
0000
1000
0000
0001
0010
0100
1000
0010
1000
0001
0010
,
0200
0000
0000
0000
0000
0000
0000
0000
1000
0000
0000
0000
0001
0000
0000
0300
0200
0000
0000
0000
0000
0000
0000
0000
0001
0000
0000
0000
1000
0000
0000
0300
0100
0000
0000
0000
0000
0000
0000
0000
0010
0000
0000
0000
0001
0000
0000
0000
0000
0000
0000
0000
1000
0000
0000
0000
0001
0000
0000
0000
0000
0000
0000
0000
,
0100
0000
0010
1000
0010
0000
0100
0001
1000
0100
0010
0100
1000
0100
0010
0001
,
2000
3000
2000
3000
0001
1000
0001
1000
0020
0030
0200
0300
0002
0000
2003
0000
,
3001
1000
0010
1000
0001
0000
0010
0000
0100
1000
0001
1000
0100
0000
0010
0000
,
0001
0000
0010
0100
0010
0000
0001
0000
1000
0000
0010
0100
0010
0000
1000
0000
,
0100
1000
0001
1000
0001
0000
0100
0000
0010
1000
0001
1000
0010
0000
0100
0000
,
0001
0000
0100
0010
0100
0000
0001
0000
1000
0000
0100
0010
0100
0000
1000
0000
,
0010
1000
0001
1000
0001
0000
0010
0000
0100
1000
0001
1000
0100
0000
0010
0000
,
0001
0000
0100
1000
0100
0000
0001
0000
1000
0000
0100
0001
0100
0000
1000
0000
,
0020
0000
0000
0030
0200
0000
0000
0300
0002
0000
0000
0003
2000
0000
0000
3000
0100
0000
0000
0000
0000
0000
0000
0000
0010
0000
0000
0000
0000
0000
0000
0000
0200
0000
0000
0300
2000
0000
0000
3000
0020
0000
0000
0030
0200
0000
0000
0300
0001
0000
0000
0000
0000
0000
0000
0000
1000
0000
0000
0000
0000
0000
0000
0000
,
0002
0003
0002
0003
2001
0000
3002
0000
0203
0300
2000
3000
0002
0003
0020
0030
,
2010
0000
0000
3002
,
0000
0000
0000
0023
,
0230
0000
0000
2000
,
0000
0000
0000
3300
,
0002
0000
0000
0203
,
0000
0000
0000
2300
,
3020
0000
0000
0002
,
0000
0000
0000
0033
,
1000
0000
1000
0001
0100
1000
0100
0001
,
0000
0010
0000
0110
0000
0000
0000
0000
;

//--------------- dance-double - Fred-104 ----------------
#NOTES:
     dance-double:
     Fred-104:
     Easy:
     9:
     :
00000000
00000000
00000000
00000000
,
00000000
00000000
00000000
00000000
,
00000000
00000000
00000000
00000000
,
00001000
01000000
00010000
10000000
,
01000000
00000000
00000000
01000000
00000000
00000000
01000000
00000000
00100000
00000000
00000000
00000000
00001000
00000000
00000000
00000000
,
00010000
00001000
00010000
00000000
00001000
00000010
00001000
00000000
,
00000010
00000001
00000010
00000000
00000001
00001000
00000001
00000000
,
00001000
00000000
00001000
00000000
00000100
00000100
00000100
00000000
,
00000010
00000000
00001000
00000000
00010000
00010000
00010000
00000000
,
00001000
00010000
00001000
00000000
01000000
00010000
01000000
00000000
,
00001000
00010000
00001000
00010000
00002000
00000000
00003000
00000000
,
00010000
00001000
00000100
00000001
,
00001000
00000001
00000010
00001000
,
00010000
00001000
01000000
00010000
,
00100000
01000000
10000000
00000000
,
00010000
01000000
00100000
00010000
,
00001000
00010000
00000100
00000010
,
00000001
00000100
00001000
00010000
,
00002000
00000000
00003000
00011000
,
00010000
00000000
00001000
00010000
00000000
00001000
00010000
00000000
,
00001000
00000100
00000001
00001000
,
00000100
00000000
00000010
00000001
00000000
00000010
00000001
00000000
,
00001000
00000010
00000100
00001000
,
00010000
00000000
00001000
00100000
00000000
00010000
10000000
00000000
,
00100000
00000000
01000000
00000000
00010000
10000000
00010000
00000000
,
10000000
00000000
01000000
00100000
00000000
00001000
00010000
00000000
,
00002000
00000000
00003000
00011000
,
00010000
00000000
00001000
00000000
00000100
00000000
00000001
00000001
,
00000000
00000010
00000010
00000000
00000100
00000000
00000100
00000000
,
00010000
00000000
00001000
00000000
01000000
00000000
00010000
00010000
,
00000000
10000000
10000000
00000000
01000000
00000000
01000000
00000000
,
00100000
00000000
00001000
00000000
00010000
00000000
00000010
00000010
,
00000000
00010000
00010000
00000000
00001000
00000000
00001000
00000000
,
00010000
00000000
00000100
00000000
00000010
00000000
00000001
00000001
,
00000000
00000100
00000000
00001000
00000000
00010000
00000000
00001000
,
00020000
00000000
00000000
00032000
,
00000000
00000000
00000000
00003000
,
02000000
00000000
00000000
03020000
,
00000000
00000000
00000000
00030000
,
20000000
00000000
00000000
32000000
,
00000000
00000000
00000000
03000000
,
00020000
00000000
00000000
00032000
,
00000000
00000000
00000000
00003000
,
00010000
00000000
00010000
00000000
00000100
00000010
00000100
00000010
,
00000000
00000001
00000000
00002002
00000000
00000000
00000000
00000000
,
00000000
00000000
00003003
00000000
,
00000001
00000100
00000020
00000000
,
00010030
00001000
00020000
00000000
,
00031000
00100000
00020000
00000000
,
01030000
00010000
20000000
00000000
,
31000000
00100000
00002000
00000000
,
00013000
00000100
00000020
00000000
,
00000031
00001000
00000020
00000000
,
00000130
00001000
00020000
00000000
,
00031000
00010000
00001000
00000000
00011000
00000000
00000000
00000000
,
00010000
00000100
00010000
00000000
00011000
00000000
00000000
00000000
,
00001000
01000000
00001000
00000000
00011000
00000000
00000000
00000000
,
00011000
00000000
00002000
00003000
,
01000000
00010000
10000000
00010000
,
10000000
01000000
00100000
00001000
,
00011000
00000000
00011000
00000000
,
00010000
00010000
00001000
00001000
,
00020000
00000000
00032000
00000000
,
00003100
00000001
00002002
00003003
,
00000001
00000010
00000100
00000100
,
00010000
00001000
00011000
00000000
,
00001000
00010000
01000000
00100000
,
00010000
10000000
10010000
00000000
,
00010000
10000000
01000000
00100000
,
00010000
00100000
00101000
00000000
,
00001000
00010000
00000010
00001000
,
00000010
00000000
00000010
00000000
00010000
00001000
00010000
00000000
,
00001000
00000000
00010000
00001000
00000000
00010000
00001000
00000000
,
00010000
01000000
10000000
00010000
,
01000000
00000000
00100000
10000000
00000000
00100000
10000000
00000000
,
00010000
00100000
01000000
00010000
,
00001000
00000000
00010000
00000010
00000000
00001000
00000001
00000000
,
00000010
00000000
00000100
00000000
00001000
00000001
00001000
00000000
,
00000010
00000010
00000010
00000000
00010000
00010000
00010000
00000000
,
00001000
00000000
00011000
00000000
00020000
00030000
00002000
00003000
,
00021000
00000000
00000000
00032000
,
00000000
00000000
00000000
00003000
,
00200000
00000000
00000000
00320000
,
00000000
00000000
00000000
00030000
,
20000000
00000000
00000000
30200000
,
00000000
00000000
00000000
00300000
,
00020000
00000000
00000000
00032000
,
00000000
00000000
00000000
00003000
,
00010000
00000000
00010000
00000000
00000010
00000100
00000010
00000100
,
00000000
00001001
00000000
00000000
00000000
00000000
00000000
00000000
;

//--------------- dance-double - Fred-104 ----------------
#NOTES:
     dance-double:
     Fred-104:
     Medium:
     13:
     :
00000000
00000000
00000000
00000000
,
00000000
00000000
00000000
00000000
,
00000000
00000000
00000000
00000000
,
00010000
00000000
00001000
00000000
00100000
00010000
01000000
00000000
,
00001000
00000000
00000000
00001000
00000000
00000000
00001000
00000000
00010000
00000000
00100000
00000000
10000000
00000000
00000000
00000000
,
01000000
01000000
00100000
00000000
00001000
00001000
00010000
00000000
,
00000100
00000010
00000001
00000000
00001000
00001000
00000001
00000001
,
00000100
00000000
00000010
00000000
00000100
00000100
00001000
00001000
,
00010000
00000000
00001000
00000000
01000000
01000000
00010000
00010000
,
00100000
01000000
20000000
30000000
00100000
01000000
00020000
00030000
,
10000000
00000000
01000000
00000000
00010000
00001000
00011000
00000000
,
00010000
00001000
00010000
00000000
00000010
00001000
00000010
00000000
,
00010000
00001000
00010000
00000100
00000010
00000001
00001000
00000000
,
00000001
00000100
00000001
00000000
00001000
00000100
00001000
00000000
,
00000001
00000010
00000100
00000010
00001000
00010000
00001000
00000000
,
01000000
00010000
00100000
00000000
01000000
10000000
00100000
00000000
,
01000000
00010000
10000000
01000000
00010000
00001000
00010000
00000000
,
00001000
00100000
00010000
00000000
01000000
00001000
00010000
00000000
,
00012000
00000000
00010000
00000000
00010000
00000000
00013000
00010000
,
00001000
00010000
00001000
01000000
00000000
00010000
10000000
00010000
,
00100000
01000000
10000000
00000000
00100000
01000000
00010000
00000000
,
10000000
01000000
10000000
01000000
00000000
00010000
00001000
00010000
,
00000100
00000010
00000100
00000000
00001000
00000001
00000100
00000000
,
00000010
00001000
00000010
00001000
00000000
00000001
00000010
00001000
,
00010000
00001000
00100000
00000000
00010000
10000000
00100000
00000000
,
01000000
00010000
01000000
00010000
00000000
10000000
01000000
00010000
,
00001000
00010000
00001000
00000100
00000001
00000000
00001001
00000000
,
00000001
00000010
00000100
00000000
00010000
00000000
00001000
00001000
,
00000000
00100000
00010000
10000000
00010000
00010000
10010000
00000000
,
10000000
00100000
01000000
00000000
00100000
00000000
10000000
10000000
,
00000000
01000000
00100000
01000000
00010000
00001000
00010000
00000000
,
00001000
00010000
00000100
00000000
00001000
00000000
00000001
00000001
,
00000000
00000010
00000100
00000010
00001000
00010000
00001000
00000000
,
00010000
00000100
00001000
00000000
00001001
00000000
00000001
00000100
,
00000000
00000110
00000000
00010010
00000000
00101000
00000000
00010000
,
00012000
00000000
00000000
02003000
,
00000000
00000000
00000000
00000000
,
03200000
00000000
00000000
20300000
,
00000000
00000000
00000000
00000000
,
32000000
00000000
00000000
03200000
,
00000000
00000000
00000000
00000000
,
00302000
00000000
00000000
00020000
,
00000000
00000000
00000000
00033000
,
00010000
00000000
00010000
00000000
00001000
00000100
00000001
00000010
,
00000000
00000100
00000000
00002002
00000000
00000000
00000000
00000000
,
00000000
00000000
00003003
00000000
,
00000001
00000000
00000010
00000000
00000100
00000100
00000100
00010000
,
00001000
00000000
00000000
00000000
00010000
00000000
00000000
00000000
00001000
00000000
00000000
00010000
00000000
00000000
01000000
00000000
,
00100000
00000000
00001000
00000000
00010000
00010000
00010000
00001000
,
01000000
00000000
00000000
00000000
00100000
00000000
00000000
00000000
01000000
00000000
00000000
00010000
00000000
00000000
10000000
00000000
,
01000000
00000000
00100000
00000000
00001000
00001000
00010000
00010000
,
00000100
00000000
00000000
00000000
00010000
00000000
00000000
00000000
00001000
00000000
00000000
00010000
00000000
00000000
01000000
00000000
,
10000000
00000000
00100000
00000000
00010000
00010000
00001000
00001000
,
00010000
00000000
00000100
00000000
00000010
00000001
00001000
00000000
,
00000001
00000001
00000100
00000100
00001000
00000000
00011000
00000000
,
00010000
00010000
01000000
01000000
10000000
00000000
10010000
00000000
,
10000000
10000000
00100000
00100000
00010000
00000000
00011000
00000000
,
01001000
00000000
00001000
00001000
00010000
00010000
00011000
00000000
,
00001000
00010000
00001000
01000000
00010000
10000000
00010000
00100000
,
01000000
10000000
01000000
00100000
00001000
00010000
00001000
00000000
,
00010000
00000100
00001000
00000001
00000100
00000010
00001000
00000001
,
00000010
00000010
00000100
00010000
00001000
00001000
00010000
00000000
,
00010000
00010000
00001000
01000000
00010000
00100000
01000000
00000000
,
10000000
00010000
20020000
30030000
,
00010000
00000000
01000000
00000000
00100000
10000000
01000000
00100000
,
00001000
00000000
00010000
00000000
00000100
00000000
00000000
00000000
00000010
00000000
00000000
00000010
00000000
00000000
00000001
00000000
,
00001000
00000000
00000001
00000000
00000100
00000010
00000100
00001000
,
00010000
00000000
00001000
00000000
00100000
00000000
00000000
00000000
00001000
00000000
00000000
00010000
00000000
00000000
00000010
00000000
,
00001000
00000100
00010000
00000000
00001000
00100000
00010000
01000000
,
00001000
00000000
00010000
00000000
00001000
00000000
00000000
00000000
00100000
00000000
00000000
01000000
00000000
00000000
10000000
00000000
,
00010000
01000000
00100000
00000000
10000000
01000000
00010000
00001000
,
00020000
00030000
00002000
00003000
00010000
00001000
00011000
00000000
,
00010000
00001000
00010000
00000100
00000000
00001000
00000001
00001000
,
00000010
00000100
00000001
00000000
00000010
00000100
00001000
00000000
,
00000001
00000100
00000001
00000100
00000000
00001000
00010000
00001000
,
01000000
00100000
01000000
00000000
00010000
10000000
01000000
00000000
,
00100000
00010000
00100000
00010000
00000000
10000000
00100000
00010000
,
00001000
00010000
00000010
00001000
00000001
00000010
00000100
00000000
,
00010000
00001000
00010000
00001000
00010000
00000000
00000000
00000000
00001000
00010000
00001000
00010000
00001000
00000000
00000000
00000000
,
00010000
00001000
00021000
00000000
00031000
00010000
00002000
00003000
,
00021000
00000000
00000000
00030200
,
00000000
00000000
00000000
00000000
,
00000320
00000000
00000000
00000032
,
00000000
00000000
00000000
00000000
,
00000203
00000000
00000000
00000320
,
00000000
00000000
00000000
00000000
,
00020030
00000000
00000000
00002000
,
00000000
00000000
00000000
00033000
,
00001000
00000000
00001000
00000000
00010000
01000000
10000000
00100000
,
00000000
01000000
00000000
10010000
00000000
00000000
00000000
00000000
;

//--------------- dance-double - Fred-104 ----------------
#NOTES:
     dance-double:
     Fred-104:
     Hard:
     16:
     :
00000000
00000000
00000000
00000000
,
00000000
00000000
00000000
00000000
,
00000000
00000000
00000000
00000000
,
00011000
00000000
00010000
00001000
00010000
00000100
00000010
00000001
,
00001000
00000000
00000001
00000100
00000000
00000010
00000100
00000000
00001000
00000000
00001000
00000000
00010000
00001000
00010000
00001000
,
00010000
00000000
00010000
00000000
00010000
00000000
00001000
01000000
00000000
00000000
00100000
00000000
10000000
00000000
00010000
00100000
,
00010000
00000000
00010000
00000000
00010000
00000000
10000000
00100000
02000000
03000000
02000000
03000000
00020000
00030000
00020000
00030000
,
10010000
00000000
00000000
00000000
10000000
00000000
01000000
00100000
00001000
00000000
00001000
00000000
00010000
00000000
00010000
00000000
,
00001000
00000000
00000100
00000010
00000000
00001000
00000001
00000000
00001000
00000000
00001000
00000000
00000001
00000100
00000001
00000100
,
00000020
00000000
00002030
00000000
00003002
00000000
00000023
00000000
00000130
00000000
00010000
00001000
00010000
00000000
00001000
00000000
,
00010000
00000100
00001000
00000000
00000010
00000100
00000001
00000000
00001000
00000000
00000000
00000000
00001001
00000000
00000000
00000000
,
00000001
00001000
00000010
00000100
00000001
00001000
00000100
00000001
,
00000100
00001000
00000001
00000100
00001000
00010000
01000000
10000000
,
00010000
01000000
00100000
10000000
00010000
00100000
10000000
00100000
,
00010000
10000000
00100000
00010000
00001000
00000010
00000001
00001000
,
00000001
00000100
00000010
00000100
00001000
00010000
00001000
01000000
,
00010000
00100000
10000000
00100000
01000000
00100000
00001000
00010000
,
00001000
00000000
00010000
00000100
00001000
00000000
00000100
00010000
00001000
00000000
00010000
00000000
00000100
00000000
00000010
00000000
,
00000001
00000100
00000010
00001000
00010000
01000000
00100000
00100000
,
10000000
00010000
00100000
01000000
00000000
00010000
01000000
00100000
,
00010000
01000000
00100000
00010000
00001000
00000100
00000001
00000010
,
00000100
00000010
00001000
00000010
00000000
00000001
00001000
00000010
,
00000100
00001000
00010000
00100000
01000000
00100000
00010000
00001000
,
00010000
00000010
00001000
00000010
00000000
00000100
00000001
00001000
,
00000100
00000010
00001000
00010000
01000000
00100000
00001000
00010000
,
00000100
00000010
00000100
00001000
00000000
00010000
00100000
01000000
,
00010000
00000000
00001000
00000000
00010000
00001000
00010000
00001000
01000000
00000000
00010000
00000000
20020000
00000000
30030000
00000000
,
10000000
01000000
10000000
00100000
00010000
00001000
00010000
00000200
,
00000000
00000000
00000310
00000000
00000001
00000000
00001000
00000000
00000020
00000030
00000020
00000000
00000130
00000001
00000100
00000001
,
00000100
00000010
00001000
00000100
00001000
00010000
00100000
02000000
,
00000000
00000000
03010000
00000000
01000000
00000000
10000000
00000000
00010000
01000000
00100000
00000000
10000000
00010000
10000000
00010000
,
10000000
00010000
00100000
01000000
00010000
00001000
00010000
00000200
,
00000000
00000000
00000310
00000000
00001000
00000000
00010000
00000000
00002000
00003000
00002000
00000000
00013000
00001000
00010000
00001000
,
00010000
00000100
00000010
00000001
00001001
00001000
00000010
00000100
,
00000000
00000101
00000000
00010010
00000000
00101000
00000000
00001000
,
00011000
00000000
00000000
00000000
00010000
00001000
00000100
00000001
,
00000000
00001000
00000000
00000100
00000000
00000010
00000001
00000010
,
00000001
00000000
00001000
00000001
00000100
00000010
00000100
00001000
,
00000000
00010000
00000000
00001000
00000000
00100000
00010000
10000000
,
00010000
00000000
01000000
00100000
01000000
10000000
01000000
00100000
,
00000000
10000000
00000000
01000000
00000000
00100000
00001000
00010000
,
00001000
00000000
01000000
00001000
00010000
00001000
00000100
00000001
,
00000000
00001000
00000000
00000100
00000000
00000010
00000001
00001000
,
00000001
00000000
00000100
00000010
00000100
00001000
00010000
00100000
,
00000000
00010000
00000000
00022000
00000000
00000000
00000000
00000000
,
00000000
00000000
00033000
00000000
,
00010000
00000000
00000000
00000000
00000100
00000000
00000000
00000000
00010000
00001000
00010000
00001000
00010000
00001000
00010000
00001000
,
00010000
00000000
00000000
00000000
00100000
00000000
00000000
00000000
01000000
00000000
00000000
00010000
00000000
00000000
10000000
00000000
,
01000000
00000000
00000000
00000000
00100000
00000000
00000000
00000000
00001000
00010000
00001000
00010000
00001000
00010000
00001000
00010000
,
00001000
00000000
00000000
00000000
00000100
00000000
00000000
00000000
00000001
00000000
00000000
00001000
00000000
00000000
00000100
00000000
,
00000010
00000000
00000000
00000000
00000001
00000000
00000000
00000000
00001000
00000001
00001000
00000001
00001000
00000001
00001000
00000001
,
00000010
00000000
00000000
00000000
00000100
00000000
00000000
00000000
00010000
00000000
00000000
00001000
00000000
00000000
00010000
00000000
,
00100000
00000000
00000000
00000000
01000000
00000000
00000000
00000000
00100000
10000000
00100000
10000000
00100000
10000000
00100000
10000000
,
01000000
00000000
00000000
00000000
00100000
00000000
00000000
00000000
00001000
00000000
00000000
00010000
00000000
00000000
00001000
00000000
,
00010000
00000000
00010000
00000000
00010000
00000000
00010000
00000000
00001000
00100000
00001000
00100000
00010000
10000000
00010000
00000000
,
01000000
00000000
01000000
00000000
01000000
00000000
01000000
00000000
00100000
10000000
00100000
10000000
00010000
00100000
00001000
00000000
,
00010000
00000000
00010000
00000000
00010000
00000000
00010000
00000000
00000010
00001000
00000010
00001000
00000001
00001000
00000100
00000000
,
00000110
00000000
00000000
00000000
00000010
00000000
00000010
00000000
00000001
00001000
00000001
00000100
00000010
00001000
00000001
00000000
,
00000010
00000100
00001000
00000001
00000100
00001000
00011000
00010000
,
00011000
00001000
00010000
00100000
10000000
01000000
01100000
00000000
,
00010000
10000000
00010000
00000000
10000000
00000000
01000000
00000000
00100000
00001000
00100000
00000000
00001000
00000000
00010000
00000000
,
00000010
00010000
00000010
00010000
00000010
00010000
00000010
00010000
00001000
00100000
00001000
00100000
00001000
00100000
00001000
00100000
,
00010000
00000000
00010000
00000000
10000000
00100000
10000000
00100000
01000000
00000000
00100000
10000000
00010000
00000000
00100000
00000000
,
00001000
00010000
00000010
00000000
00001000
00000100
00000010
00000000
00000001
00000000
00001000
00000000
00002002
00000000
00003003
00000000
,
00001000
00000000
00000100
00000000
00000010
00000000
00000001
00000000
00001000
00000001
00001000
00000001
00000010
00000100
00000010
00000100
,
00000010
00000000
00000100
00000000
00010000
00000000
00001000
00000000
01000000
00000000
00000000
00010000
00000000
00000000
00100000
00000000
,
01000000
00000000
00100000
00000000
00010000
00000000
10000000
00000000
00100000
01000000
00100000
01000000
00010000
10000000
00010000
10000000
,
01000000
00000000
00100000
00000000
01000000
00000000
00010000
00000000
00001000
00000000
00000000
00010000
00000000
00000000
00000100
00000000
,
00001000
00000000
00000010
00000000
00000100
00000000
00001000
00000000
00010000
00001000
00010000
00001000
01000000
00010000
01000000
00010000
,
01000000
00000000
00001000
00000000
00010000
00000000
00001000
00000000
00000100
00000000
00000000
00000010
00000000
00000000
00001000
00000000
,
00000100
00000000
00000010
00000000
00001000
00000000
00010000
00000000
00001000
00010000
00001000
00010000
00001000
00100000
00001000
00100000
,
00010000
00000000
00010000
00000000
01000000
00100000
01000000
00100000
02000000
03000000
02000000
03000000
20000000
00000000
32000000
00000000
,
03010000
00100000
01000000
00020000
00000000
00031000
00010000
00000100
,
00000010
00000001
00001000
00000010
00000100
00001000
00010000
00001000
,
00100000
01000000
00100000
20000000
00000000
30100000
00010000
10000000
,
00010000
01000000
10000000
01000000
00010000
10000000
01000000
00100000
,
00001000
00010000
00100000
00020000
00000000
00031000
00010000
00000100
,
00000010
00000100
00000001
00000100
00000010
00000100
00001000
00000001
,
00000100
00000010
00001000
00000001
00000020
00000000
00000030
00000000
00000100
00001000
00000100
00010000
00002000
00000000
00003000
00000000
,
00200000
00300000
00200000
00300000
02200000
00000000
00300000
00000000
23000000
30000000
00200000
00300000
00020000
00030000
00002000
00003000
,
00011000
00000000
00000000
00000000
00001000
00010000
00100000
10000000
,
00000000
00010000
00000000
00100000
00000000
01000000
10000000
01000000
,
10000000
00000000
00010000
10000000
00100000
01000000
00100000
00010000
,
00000000
00001000
00000000
00010000
00000000
00000100
00001000
00000001
,
00001000
00000000
00000010
00000100
00000010
00000001
00000010
00000100
,
00000000
00000001
00000000
00000010
00000000
00000100
00010000
00001000
,
00010000
00000000
00000010
00010000
00001000
00010000
00100000
10000000
,
00000000
00010000
00000000
00100000
00000000
01000000
10000000
00010000
,
10000000
00000000
00100000
01000000
00100000
00010000
00001000
00000100
,
00000000
00001000
00000000
00011000
00000000
00000000
00000000
00000000
;

//--------------- dance-double - Fred-104† ----------------
#NOTES:
     dance-double:
     Fred-104†:
     Challenge:
     17:
     :
00000000
00000000
00000000
00000000
,
00000000
00000000
00000000
00000000
,
00000000
00000000
00000000
00000000
,
00010000
00000100
00000010
00001000
00010000
00001000
00010000
00100000
,
01000000
00000000
00100000
10000000
00000000
00100000
01000000
00010000
01000000
00000000
01000000
00000000
00010000
10000000
00010000
10000000
,
02000000
00000000
00000000
03000000
02000000
00000000
00000000
03000000
02000000
00000000
00000000
03000000
00010000
00000000
00001000
00000000
00000000
00000000
00000000
00000000
00001000
00000000
00000000
00000000
00010000
00000000
00000000
00000000
00000100
00000000
00000010
00000000
,
00000001
00000000
00000001
00000000
00000001
00000000
00000001
00000100
00000020
00000030
00000200
00000300
00002000
00003000
00020000
00030000
,
00001000
00000000
01000000
00000000
00010000
00000000
00100000
00001000
00020000
00030000
00012000
00003000
00021000
00030000
00012000
00003000
,
00010000
00000000
00000100
00001000
00000000
00000001
00000100
00000010
00002000
00003000
00001002
00000003
00001000
00000100
00001000
00000100
,
00010000
00000000
00000000
00000000
00000000
00000000
00001000
00000000
00000000
00100000
00000000
00000000
00020000
00000000
00000000
00000000
00030000
00000000
00100000
00000000
00001000
00000000
00010000
00000000
00001000
00000000
00000000
00000000
00000000
00000000
00010000
00000000
00000000
00000010
00000000
00000000
00002000
00000000
00000000
00000000
00000000
00000000
00003020
00000000
00000000
00000000
00000000
00000000
,
00010030
00001000
00010000
00001000
00100000
00010000
00100000
00010000
00100000
00000000
00000000
00000000
10010000
00000000
00000000
00000000
,
00010000
10000000
00100000
01000000
00010000
10000000
00010000
00100000
,
10000000
00100000
01000000
00010000
00001000
00000010
00000001
00001000
,
00000100
00000010
00000001
00001000
00000010
00000001
00000010
00000100
,
00001000
00010000
00100000
10000000
00100000
01000000
00010000
10000000
,
01000000
00100000
00010000
10000000
00100000
00010000
00001000
00010000
,
00001000
00000010
00000100
00000001
00000100
00001000
00000100
00000010
,
00000001
00000000
00001000
00000001
00001000
00000001
00000100
00000010
00000100
00000000
00000001
00000000
00000100
00000000
00001000
00000000
,
00020000
00000000
00000000
00000000
00000000
00000000
00031000
00001000
,
00010000
00001000
00000010
00000002
00000000
00001003
00000001
00000010
,
00001000
00010000
00001000
01000000
00010000
00100000
10000000
00100000
,
00001000
00010000
00100000
20000000
00000000
30010000
10000000
00100000
,
00010000
00001000
00010000
00000100
00000010
00001000
00000001
00000100
,
00001000
00000000
00000010
00000000
00000100
00000000
00002000
00000000
00000000
00000000
00013000
00001000
00010000
00000000
00000100
00000000
,
00001000
00000001
00001000
00000000
00000001
00000000
00000100
00000000
00000010
00001000
00000010
00000000
00010000
00000000
00001000
00000000
,
00010000
00000000
01000000
00000000
10000000
00000000
00020000
00000000
00000000
00000000
01030000
00010000
01000000
00000000
00010000
00000000
,
10000000
00000000
01000000
00000000
00100000
00001000
00100000
00001000
00010000
00000000
00001000
00000000
00022000
00000000
00033000
00000000
,
00010000
00000100
00000010
00000001
00001000
00000010
00000100
00002000
,
00000000
00000000
00000000
00000000
00000000
00000000
00000000
00000000
00023000
00000000
00000000
00000000
00000000
00000000
00000000
00000000
00030020
00000000
00000000
00000000
00000000
00000000
00000000
00000000
00020030
00000000
00000000
00000000
00000000
00000000
00000000
00000000
00032000
00000000
00000000
00000000
00003000
00000000
00000000
00000000
00020000
00000000
00000000
00000000
00000000
00000000
00000000
00000000
00032000
00000000
00000000
00003000
00020000
00000000
00000000
00030000
00002000
00000000
00000000
00003000
00020000
00000000
00000000
00030000
,
00001000
00100000
01000000
00010000
10000000
00100000
00010000
00200000
,
00000000
00000000
00000000
00000000
00000000
00000000
00000000
00000000
00000000
00000000
00000000
00000000
00000000
00000000
00000000
00000000
00000000
00000000
00000000
00000000
00000000
00000000
00000000
00000000
00302000
00000000
00000000
00000000
00000000
00000000
00000000
00000000
00000000
00000000
00000000
00000000
00000000
00000000
00000000
00000000
00000000
00000000
00000000
00000000
00000000
00000000
00000000
00000000
00023000
00000000
00000000
00000000
00000000
00000000
00000000
00000000
00000000
00000000
00000000
00000000
00000000
00000000
00000000
00000000
00000000
00000000
00000000
00000000
00000000
00000000
00000000
00000000
00030020
00000000
00000000
00000000
00000000
00000000
00000000
00000000
00000000
00000000
00000000
00000000
00000000
00000000
00000000
00000000
00000000
00000000
00000000
00000000
00000000
00000000
00000000
00000000
00001030
00000000
00000000
00000000
00000000
00000000
00000000
00000000
00000010
00000000
00000000
00000000
00000000
00000000
00000000
00000000
00001000
00000000
00000000
00000000
00000000
00000000
00000000
00000000
00000001
00000000
00000000
00000000
00000000
00000000
00000000
00000000
00000000
00000000
00000000
00000000
00000000
00000000
00000000
00000000
00000000
00000000
00000000
00000000
00000000
00000000
00000000
00000000
00000020
00000000
00000000
00000000
00000000
00000000
00000000
00000000
00000000
00000030
00000000
00000000
00000200
00000000
00000000
00000000
00000000
00000000
00000000
00000000
00000000
00000300
00000000
00000000
00000020
00000000
00000000
00000000
00000000
00000000
00000000
00000000
00000000
00000030
00000000
00000000
00000200
00000000
00000000
00000000
00000000
00000000
00000000
00000000
00000000
00000300
00000000
00000000
,
00000010
00000001
00001000
00000001
00000100
00000010
00000100
00001000
,
00011000
00000000
00000000
00000000
00000000
00000000
00000000
00000000
00020000
00000000
00000000
00000000
00000000
00000000
00000000
00000000
00032000
00000000
00000000
00000000
00000000
00000000
00000000
00000000
02003000
00000000
00000000
00000000
00000000
00000000
00000000
00000000
03020000
00000000
00000000
00000000
00030000
00000000
00000000
00000000
02000000
00000000
00000000
00000000
00000000
00000000
00000000
00000000
03200000
00000000
00000000
00300000
20000000
00000000
00000000
30000000
00200000
00000000
00000000
00300000
20000000
00000000
00000000
30000000
,
00100000
01000000
00010000
10000000
11000000
01000000
00100000
00001000
,
00000000
00010010
00000000
00101000
00000000
00010100
00000000
01001000
,
00021000
00000000
00000000
00032000
,
00000000
00000000
00000000
00000000
,
00003020
00000000
00000000
00000002
,
00000000
00000000
00000000
00000033
,
00000002
00000000
00000000
00000203
,
00000000
00000000
00000000
00000000
,
00002300
00000000
00000000
00020000
,
00000000
00000000
00000000
00033000
,
00001000
00000000
00010000
00001000
00000010
00001000
00010000
00001000
,
00000000
01000000
00000000
20020000
00000000
00000000
00000000
00000000
,
00000000
00000000
30030000
00000000
,
10000000
00000000
00000000
00000000
01000000
00000000
00000000
00000000
00100000
00001000
00010000
00001000
00010000
00001000
00000100
00000000
,
00000010
00001000
00000000
00001000
00000001
00001000
00000000
00001000
00000100
00000000
00000100
00000010
00000000
00000010
00000001
00000000
,
00001000
00000000
00000000
00000000
00000001
00000000
00000000
00000000
00001000
00000010
00001000
00000010
00010000
00001000
00010000
00000000
,
00001000
00100000
00000000
00100000
01000000
10000000
00000000
10000000
00010000
00000000
00010000
01000000
00000000
01000000
00100000
00000000
,
10000000
00000000
00000000
00000000
01000000
00000000
00000000
00000000
00100000
00010000
00100000
00001000
00010000
00001000
00100000
00000000
,
00001000
00010000
00000000
00010000
00000100
00001000
00000000
00001000
00000010
00000000
00000010
00010000
00000000
00010000
00001000
00000000
,
00010000
00000000
00000000
00000000
00001000
00000000
00000000
00000000
00000100
00000001
00000100
00000001
00001000
00000100
00000010
00000000
,
00000001
00000100
00000000
00000100
00001000
00010000
00000000
00010000
00001000
00000000
01000000
00010000
00000000
00010000
10000000
00000000
,
10020000
00030000
20010000
30000000
10020000
00030000
20010000
30000000
00010000
10000000
00010000
10000000
01000000
00100000
00001000
00000000
,
00021000
00030000
00012000
00003000
00021000
00030000
00012000
00003000
00010000
00000100
00001000
00000001
00000100
00000010
00000100
00000000
,
00000102
00000003
00000201
00000300
00000102
00000003
00000201
00000300
00000001
00001000
00000001
00000010
00000100
00001000
00000100
00000000
,
00020200
00030300
00000000
00000000
00021000
00030000
00012000
00003000
00010000
00001000
01000000
00010000
01000000
00001000
00010000
00000000
,
00001000
00010000
00100000
01000000
00100000
10000000
11000000
11000000
,
01100000
00100000
00001000
00010000
00000010
00010000
00011000
00000000
,
00001000
00000000
01000000
00010000
01000000
00000000
00100000
00000000
10000000
00010000
10000000
00010000
01000000
00010000
01000000
00010000
,
10000000
01000000
00100000
00010000
00100000
00001000
00010000
00000000
00000100
00001000
00000100
00000010
00000001
00001000
00000001
00000000
,
00000100
00000000
00000000
00000000
00000000
00000000
00000000
00000000
00000110
00000000
00000000
00000000
00000000
00000000
00000000
00000000
00000200
00000000
00000300
00000000
00000002
00000000
00000003
00000000
00000200
00000000
00000300
00000000
00000002
00000000
00000003
00000000
00001000
00000000
00000000
00000000
00000000
00000000
00000000
00000000
00001000
00000000
00000000
00000000
00000010
00000000
00000000
00000000
00020000
00000000
00000000
00000000
00000000
00030000
00000000
00000000
00002000
00000000
00000000
00003000
00000000
00000000
00000000
00000000
,
00010000
00001000
00100000
00001000
00010000
00001000
00100000
00001000
00010000
00000000
00000000
00000000
00022000
00000000
00033000
00000000
,
00001000
00000000
00010000
00000000
00100000
00000000
10000000
00000000
00010000
00100000
01000000
10000000
00010000
01000000
00010000
10000000
,
00200000
00000000
00000000
00000000
00000000
00000000
00000000
00000000
10000000
00000000
00000000
00000000
00010000
00000000
00000000
00300000
00200000
00000000
00000000
00000000
00000000
00000000
00000000
00000000
00010000
00000000
00000000
00000000
10000000
00000000
00000000
00300000
00100000
00000000
00000000
00000000
00000000
00000000
00000000
00000000
01000000
00000000
00000000
00000000
00001000
00000000
00000000
00000000
00000000
00000000
00000000
00000000
00001000
00000000
00000000
00000000
00010000
00000000
00000000
00000000
00000000
00000000
00000000
00000000
,
00001000
00000000
00000010
00000000
00000001
00000000
00000010
00000000
00000100
00001000
00000001
00001000
00000010
00001000
00000001
00001000
,
00000200
00000000
00000000
00000000
00000000
00000000
00000000
00000000
00001000
00000000
00000000
00000000
00000001
00000000
00000000
00000300
00000200
00000000
00000000
00000000
00000000
00000000
00000000
00000000
00000001
00000000
00000000
00000000
00001000
00000000
00000000
00000300
00000100
00000000
00000000
00000000
00000000
00000000
00000000
00000000
00000010
00000000
00000000
00000000
00000001
00000000
00000000
00000000
00000000
00000000
00000000
00000000
00000001
00000000
00000000
00000000
00001000
00000000
00000000
00000000
00000000
00000000
00000000
00000000
,
00000010
00000000
00010000
00000000
00001000
00000000
01000000
00000000
00100000
10000000
00010000
10000000
01000000
00100000
00010000
00100000
,
00002000
00000000
00000000
00000000
00000000
00000000
00000000
00000000
00010000
00000000
00000000
00000000
00000010
00000000
00000000
00003000
00002000
00000000
00000000
00000000
00000000
00000000
00000000
00000000
00000010
00000000
00000000
00000000
00010000
00000000
00000000
00003000
00001000
00000000
00000000
00000000
00000000
00000000
00000000
00000000
00100000
00000000
00000000
00000000
00010000
00000000
00000000
00000000
00000000
00000000
00000000
00000000
00010000
00000000
00000000
00000000
01000000
00000000
00000000
00000000
00000000
00000000
00000000
00000000
,
00100000
00000000
00010000
00000000
00100000
00000000
10000000
00000000
00010000
10000000
01000000
00100000
00010000
00100000
00001000
00010000
,
00000200
00000300
00000200
00000300
00000010
00000001
00000010
00000001
00000200
00000300
00000020
00000030
00000200
00000000
00002300
00000000
,
00013000
00001000
00100000
00001000
00010000
00000000
00001000
00000000
01000000
00010000
10000000
00010000
00100000
00000000
01000000
00000000
,
10000000
00100000
00010000
00001000
00000100
00000001
00000010
00001000
,
00010000
00001000
01000000
00001000
00010000
00000000
00001000
00000000
00100000
00010000
10000000
00010000
01000000
00000000
00100000
00000000
,
10000000
01000000
00010000
00001000
00000010
00000001
00000100
00001000
,
00010000
00001000
00010000
00000010
00001000
00000000
00000001
00000000
00000010
00000100
00000010
00000001
00001000
00000000
00000100
00000000
,
00000010
00000001
00000100
00001000
00010000
00100000
01000000
00001000
,
00020000
00000000
00000000
00030000
00002000
00000000
00000000
00003000
00020000
00000000
00000000
00030000
00002000
00000000
00000000
00003000
00010000
00000000
00000000
00000000
00000000
00000000
00000000
00000000
00000010
00000000
00000000
00000000
00000000
00000000
00000000
00000000
00000200
00000000
00000000
00000300
00000002
00000000
00000000
00000003
00000200
00000000
00000000
00000300
00000002
00000000
00000000
00000003
00000100
00000000
00000000
00000000
00000000
00000000
00000000
00000000
00000001
00000000
00000000
00000000
00000000
00000000
00000000
00000000
,
00002000
00003000
00002000
00003000
00002001
00000000
00003002
00000000
00000023
00000030
00002000
00003000
00020000
00030000
00002000
00003000
,
00012000
00000000
00000000
02003000
,
00000000
00000000
00000000
00000000
,
03020000
00000000
00000000
20000000
,
00000000
00000000
00000000
30030000
,
20000000
00000000
00000000
32000000
,
00000000
00000000
00000000
00000000
,
03020000
00000000
00000000
00002000
,
00000000
00000000
00000000
00033000
,
00010000
00000000
00001000
00010000
00100000
00010000
00001000
00010000
,
00000000
00000100
00000000
00001001
00000000
00000000
00000000
00000000
;
