#VERSION:0.83;
#TITLE:クリーパー;
#ARTIST:遼遼 feat. あじっこ;
#TITLETRANSLIT:Creeper;
#ARTISTTRANSLIT:Ryou Ryou feat. Ajikko;
#BANNER:Creeper.png;
#BACKGROUND:Creeper-bg.png;
#CDTITLE:./CDTitles/CHUNITHM SUN.png;
#MUSIC:Creeper.ogg;
#SAMPLESTART:52.147;
#SAMPLELENGTH:15;
#BPMS:0=96;
#LABELS:0=READY,4=HERE WE GO;
#BGSTAGE:4;

//--------------- dance-single - Fred-104 ----------------
#NOTEDATA:;
#STEPSTYPE:dance-single;
#DESCRIPTION:Fred-104;
#DIFFICULTY:Beginner;
#METER:1;
#CREDIT:Fred-104;
#NOTES:
0000
0000
0000
0000
,
0000
0000
0000
0000
,
0000
0000
0000
0000
,
1000
0000
0000
0000
,
1000
0000
0000
0000
,
0001
0000
0000
0000
,
0001
0000
0000
0000
,
1000
0000
0000
0000
,
1000
0000
0000
0000
,
0001
0000
0000
0000
,
0001
0000
0000
0000
,
1000
0000
0000
0000
,
1000
0000
0000
0000
,
0001
0000
0000
0000
,
1000
0000
0000
0000
,
0001
0000
0000
0000
,
0010
0000
0000
0000
,
1000
0000
0000
0000
,
0100
0000
0000
0000
,
0001
0000
0000
0000
,
0000
0000
0000
0000
,
1000
0000
0000
0000
,
1000
0000
0000
0000
,
0001
0000
0000
0000
,
1000
0000
0000
0000
,
0100
0000
0000
0000
,
0100
0000
0000
0000
,
0010
0000
0000
0000
,
0010
0000
0000
0000
,
0010
0000
0000
0000
,
0001
0000
0000
0000
,
0001
0000
0000
0000
,
0001
0000
0000
0000
,
1000
0000
0000
0000
,
0001
0000
0000
0000
,
1000
0000
0000
0000
,
0010
0000
0000
0000
,
1000
0000
0000
0000
,
0000
0000
0000
0000
,
0001
0000
0000
0000
,
0001
0000
0000
0000
,
1000
0000
0000
0000
,
1000
0000
0000
0000
,
0001
0000
0000
0000
,
0010
0000
0000
0000
,
0010
0000
0000
0000
,
0100
0000
0000
0000
,
0100
0000
0000
0000
,
1000
0000
0000
0000
;

//--------------- dance-single - Fred-104 ----------------
#NOTEDATA:;
#STEPSTYPE:dance-single;
#DESCRIPTION:Fred-104;
#DIFFICULTY:Easy;
#METER:4;
#CREDIT:Fred-104;
#NOTES:
0000
0000
0000
0000
,
0000
0000
0000
0000
,
0000
0000
0000
0000
,
0001
0000
0010
0010
,
0010
0000
0100
0100
,
0100
0000
1000
0000
,
0001
0000
1000
1000
,
1000
0000
0001
0000
,
0100
0000
0010
0010
,
0010
0000
0100
0000
,
0001
0000
1000
1000
,
1000
0000
0100
0000
,
0010
0000
0100
0100
,
0100
0000
1000
0000
,
0001
0000
1000
1000
,
1000
0000
0001
0000
,
0100
0000
0001
0001
,
0001
0000
1000
0000
,
0001
0000
0010
0010
,
0110
0000
0100
0000
,
0100
0000
0100
0000
,
1001
0000
1000
0000
,
0001
0000
0100
0000
,
0010
0010
0110
0000
,
0100
0100
0100
0000
,
0001
0000
1000
0000
,
0100
0000
0010
0000
,
0001
0001
1001
0000
,
1000
1000
1000
0000
,
1001
0000
0001
0000
,
1000
0000
0001
0000
,
0100
0000
0010
0000
,
0100
0000
0001
1000
,
0001
0010
0001
0010
,
0100
1000
0001
1000
,
0010
0100
0010
0100
,
0001
1000
0100
0010
,
0001
0000
1000
0000
,
0001
0001
0001
0001
,
1001
0000
1000
0000
,
0001
0000
1000
0000
,
0010
0010
0110
0000
,
0100
0000
0100
0100
,
0001
0000
1000
0100
,
0010
0000
0001
1000
,
0001
0000
1000
0000
,
0001
0000
1000
1000
,
1001
0000
0000
0000
,
1001
0000
0000
0000
;

//--------------- dance-single - Fred-104 ----------------
#NOTEDATA:;
#STEPSTYPE:dance-single;
#DESCRIPTION:Fred-104;
#DIFFICULTY:Medium;
#METER:8;
#CREDIT:Fred-104;
#NOTES:
0000
0000
0000
0000
,
0000
0000
0000
0000
,
0000
0000
0000
0000
,
0001
0000
0011
0000
0100
0100
1000
0000
,
0010
0100
0001
0000
1000
1000
1000
1000
,
1100
0000
0110
0000
0001
0001
1000
0000
,
0010
0000
0000
0010
0000
0000
0100
0000
0000
0000
0000
0000
0001
0000
0000
0000
0000
0001
0000
0000
0000
0001
0000
0000
,
0011
0000
0110
0000
1000
1000
0010
0000
,
0001
0001
0010
0000
0100
0100
0100
0100
,
0101
0000
1001
0000
0001
0001
0010
0000
,
0001
0000
0000
0001
0000
0000
0100
0000
0000
0000
0000
0000
0010
0000
0000
0000
0000
0010
0000
0000
0000
0010
0000
0000
,
0110
0001
1000
0000
0100
0100
0010
0000
,
0001
0001
0100
0000
0001
0001
0001
0001
,
1001
0000
0110
0000
0001
1000
1000
0010
,
0100
0000
0000
0100
0000
0000
0001
0000
0000
0010
0000
0000
0100
0000
0000
0000
0000
0100
0000
0000
0000
0100
0000
0000
,
0010
0010
1001
0000
1000
0100
0001
0100
,
1000
0001
0100
0010
0100
0100
0100
0100
,
0001
0000
1001
1000
0010
1000
0001
0010
,
0100
0000
0000
0100
0000
0000
1000
0000
0000
0010
0000
0000
1000
0000
0000
0000
0000
1000
0000
0000
0000
1000
0000
0000
,
1001
0000
0000
0000
0000
0000
0001
0000
0001
0000
0001
0000
0001
0000
0000
0000
0000
0000
0100
0000
0000
0010
0000
0000
,
0110
0000
0110
0000
0100
0100
1001
0000
,
1000
1000
0001
0000
0100
0100
1000
0000
,
0100
0100
0001
0010
0100
0100
0010
0001
,
1000
0000
0000
0001
0000
0000
0100
0000
0000
0000
0000
0110
0000
0000
0000
0000
0000
0000
0010
0000
0000
1000
0000
0000
,
0001
0010
1000
0010
0001
0100
1000
0100
,
0001
1000
1001
0000
1000
1000
0001
0100
,
0010
0010
0100
0001
1000
0100
0110
0000
,
0010
0000
0000
0001
0000
0000
1000
0000
0000
0000
0000
1001
0000
0000
0000
0000
0000
0000
0001
0000
0000
1000
0000
0000
,
0001
0100
0010
0000
0110
0110
0220
0330
,
1001
0000
0110
0000
1000
1000
0100
0000
,
0001
0001
0100
0000
0010
0010
0001
1000
,
1001
0000
0110
0000
0001
0100
1000
0000
,
1000
0000
0000
0100
0000
0000
0001
0000
0000
0010
0000
0000
0100
0000
0100
0000
0100
0000
0010
0000
0010
0000
0010
0000
,
0110
0000
1001
0000
1000
0100
0001
0000
,
0001
0100
1000
0000
0001
0010
1000
0010
,
0001
0000
1001
0000
1000
0010
0001
0000
,
0001
0010
1000
0000
0001
0100
1000
0100
,
0001
0000
0000
0000
0000
0000
0010
0000
0010
0000
0010
0000
0100
0000
0000
0000
0000
0000
0110
0000
0000
1000
0000
0000
,
1001
0000
0110
0000
1000
0001
1001
0000
,
1000
1000
0000
0100
0100
0001
0001
0000
,
0001
0001
0100
0100
1000
0010
0110
0000
,
1001
0000
0000
0001
0000
0000
0010
0000
0000
0000
0000
0110
0000
0000
0000
0000
0000
0000
0100
0000
0000
0100
0000
0000
,
1000
0000
0010
0000
0001
0001
0010
1000
,
0100
0000
0110
0000
0010
0001
1000
1000
,
0001
0100
1000
0100
0001
0010
0100
0000
,
1100
0000
0000
0001
0000
0000
1000
0000
0000
0000
0000
1001
0000
0000
0000
0001
0000
0000
0100
0000
0000
0100
0000
0000
,
0110
0000
0000
1000
0000
0000
0001
0000
0000
0000
0000
0000
1001
0000
0000
1001
0000
0000
1000
0000
0001
0000
1000
0000
,
2002
0000
0000
3000
0000
0000
0003
0000
0000
1000
0100
0010
,
0011
0000
0000
0000
;

//--------------- dance-single - Fred-104 ----------------
#NOTEDATA:;
#STEPSTYPE:dance-single;
#DESCRIPTION:Fred-104;
#DIFFICULTY:Hard;
#METER:12;
#CREDIT:Fred-104;
#NOTES:
0000
0000
0000
0000
,
0000
0000
0000
0000
,
0000
0000
0000
0000
,
1000
0000
0000
0100
0000
0000
0001
0000
0000
0100
0000
0000
1000
0000
1000
0000
0000
0001
0000
0000
1000
0000
0000
0010
,
0000
0100
0001
0010
0110
0110
0110
0110
,
0100
0000
0000
0000
0000
0000
1000
0000
0000
0001
0000
0001
0100
0000
0000
0010
0000
0000
0100
0000
1000
0100
0000
0000
,
0001
0000
0000
1000
0000
0000
0100
0000
0100
0010
0000
0000
0011
0000
0000
0000
0000
1010
0000
0000
0000
0011
0000
0000
,
1001
0000
0000
0000
0000
0000
0001
0000
0000
0010
0000
0000
0100
0000
0000
0010
0000
0000
1000
0000
1000
0010
0000
0000
,
0100
0000
0000
0010
0000
0000
0001
0000
1000
0001
0000
0000
1001
0000
0000
1001
0000
0000
1001
0000
0000
1001
0000
0000
,
1000
0000
0000
0000
0000
0000
0001
0000
0000
1000
0000
0000
0100
0000
0000
0001
0000
0000
0100
0000
0100
0010
0000
0000
,
0001
0000
0000
1000
0000
0000
0010
0000
0010
0100
0000
0000
0101
0000
0000
0000
0000
1010
0000
0000
0000
1001
0000
0000
,
1000
0000
0000
0001
0000
0000
1000
0000
0010
0100
0000
0000
1000
0000
0000
0100
0000
0001
0000
0000
1000
0000
0000
0001
,
0010
0000
0000
0100
0000
0000
0110
0000
0010
0001
0000
0000
1001
0000
0000
1001
0000
0000
1001
0000
0000
1001
0000
0000
,
1000
0000
0000
0000
0000
0000
0110
0000
0000
0000
0000
0000
0001
0000
0000
1000
0000
0000
0010
0000
1000
0000
0000
0001
,
0000
0000
0000
0010
0000
0000
0100
0000
1000
0100
0000
0000
1100
0000
0000
0000
0000
0101
0000
0000
0000
1100
0000
0000
,
1001
0000
0000
1001
0000
0000
0001
0000
0100
0001
0000
0000
1000
0000
0100
1000
0000
0100
0010
0000
0000
0011
0000
0000
,
0001
0100
0010
1000
1001
1001
1001
1001
,
0001
0000
0000
1000
0000
0010
1000
0000
0010
1000
0000
0000
0001
0000
0001
0010
0000
0010
0100
0000
0100
1000
0000
0000
,
0001
0000
0000
0100
0000
0000
0110
0000
0000
1000
0000
0000
1001
0000
0000
0000
0000
0110
0000
0000
0000
1001
0000
0000
,
0002
0000
0000
0000
0000
0000
1003
0000
0100
0000
0010
0000
0001
0000
0000
0000
0000
0000
0110
0000
0000
0001
0000
1000
,
0200
0000
0000
0301
0000
0000
0200
0000
0000
1300
0000
0000
0001
0000
1000
0001
0000
1000
0001
0000
0000
1001
0000
0000
,
0001
0000
0000
0001
0000
0000
0010
0000
0000
0010
0000
0100
0010
0000
0100
0010
0000
0100
1000
0000
1000
0000
0000
0000
,
0001
0000
1000
0001
0000
0000
1000
0000
0010
1000
0000
0000
0001
0000
1000
0100
0000
0010
0100
0000
0100
0000
0000
0000
,
1001
0000
0000
1000
0000
0001
0100
0000
0000
0010
0000
0010
0000
0000
0010
0000
0000
0100
0001
0000
1000
0001
0000
0000
,
0020
0100
0100
0130
0010
1000
0010
0001
,
1001
0000
0000
1000
0000
0000
0010
0000
0000
0100
0000
0001
0100
0000
0001
1000
0000
0001
0010
0000
0010
0000
0000
0000
,
0100
0000
1000
0100
0000
0000
0010
0000
0001
0010
0000
0000
0001
0000
1000
0010
0000
0100
0010
0000
0010
0000
0000
0000
,
1001
0000
0000
1000
0000
0000
0001
0000
0000
0100
0000
0100
0000
0000
0010
0000
0000
0010
0100
0000
0000
0001
0000
0000
,
1000
0100
0110
0000
1001
1001
2002
3003
,
1000
0000
0000
0000
0000
0000
0110
0000
0000
0000
0000
0000
0001
0000
1000
0001
0000
1000
0010
0000
0000
0000
0000
0000
,
0100
0000
1001
0000
0110
0110
0110
0110
,
0100
0000
0000
0000
0000
0000
1001
0000
0000
0000
0000
0000
1000
0000
0100
1000
0000
0001
1000
0000
0000
0000
0000
0000
,
0010
0000
0000
0110
0000
0000
1000
0001
0001
0100
0010
0010
,
0100
1001
0001
0010
0100
1100
1000
0001
,
0100
0110
0010
1000
0001
0010
1000
0010
,
0001
1001
1000
0010
0100
1100
1000
0100
,
0001
1001
1000
0100
0010
0010
0001
1000
,
1002
0000
0000
0000
0000
0000
0103
0000
0010
0000
0100
0000
0002
0000
0000
0000
0000
0000
1003
0000
0000
0100
0000
0000
,
0110
0000
0000
0000
0000
0000
1001
0000
0000
0000
0000
0000
0001
0000
1000
0001
0000
1000
0001
0000
0000
1001
0000
0000
,
1000
0000
0000
0100
0000
0000
1100
0000
0000
1000
0000
0000
0001
0000
0100
0001
0000
0000
0100
0000
0100
0000
0000
0000
,
0020
0000
0000
1000
0000
0130
0020
0000
0000
0001
0000
0130
0010
0000
0000
0110
0000
0000
1001
0000
0000
0000
0000
0000
,
1001
0000
0000
1000
0000
0001
1000
0000
0000
0100
0000
0100
0000
0000
0010
0001
0000
0000
1000
0000
0000
1001
0000
0000
,
0002
0000
0000
1000
0000
1000
0000
0000
0000
1000
0000
1003
0001
0000
0000
0100
0000
0000
0010
0000
0000
1000
0000
0000
,
1001
0000
0000
0001
0000
0000
0010
0000
0000
0010
0000
0000
0100
0000
0010
0100
0000
1000
0100
0000
0100
0000
0000
0000
,
1000
0000
0001
1000
0000
0001
0100
0000
0001
0100
0000
0001
1000
0000
0100
0010
0000
0100
0010
0000
0010
0000
0000
0000
,
0001
0000
0000
1000
0000
0000
0001
0000
0100
0001
0000
0001
0000
0000
1000
0100
0000
0100
0020
0000
0000
0032
0000
0000
,
1003
0000
0000
0001
0000
0000
0110
0000
0000
0000
0000
0000
1001
0000
0000
1001
0000
0000
1000
0000
0001
0000
1000
0000
,
2002
0000
0000
3000
0000
0000
0003
0000
0000
1000
1000
0001
,
1001
0000
0000
0000
;

//--------------- dance-single - Fred-104 ----------------
#NOTEDATA:;
#STEPSTYPE:dance-single;
#DESCRIPTION:Fred-104;
#DIFFICULTY:Challenge;
#METER:15;
#CREDIT:Fred-104;
#NOTES:
0000
0000
0000
0000
,
0000
0000
0000
0000
,
0000
0000
0000
0000
,
1000
0000
0010
1000
0000
0000
0001
0000
0001
0010
0000
0010
0100
0000
1000
0000
0000
0001
0000
0000
1000
0000
0000
1010
,
0000
0000
0000
1001
0000
1000
0001
0000
0010
0100
0000
1000
1001
0000
0000
1001
0000
0000
1001
0000
0000
1001
0000
0000
,
0110
0000
0000
1000
0000
0001
0010
0000
0000
0001
0000
0100
0010
0000
0010
1000
0000
1000
0100
0000
0010
0100
0000
1000
,
0001
0000
0001
0100
0000
0100
1000
0000
1000
0001
0000
0001
0010
0000
0000
1000
0000
1100
0000
0000
0010
0011
0000
0000
,
0011
0000
1000
0001
0000
0000
0100
0000
0010
0100
0000
0010
1000
0000
0000
0100
0000
0100
0010
0000
0010
1000
0000
0000
,
1010
0011
0101
1010
1001
1001
1001
1001
,
0110
0000
0000
0000
0000
0000
1000
0000
0000
0000
0001
0000
0010
0000
0000
0000
0100
0000
0010
0000
0000
0000
0001
0000
0100
0000
0000
0000
0010
1000
0010
0000
0000
0000
1000
0000
0001
0000
0000
0000
0001
0000
0010
0000
0000
0000
0010
0000
,
0100
0000
0000
0101
0000
0000
1100
0000
0000
0110
0000
0000
1001
0000
0000
1000
0000
1010
0000
0000
0001
0101
0000
0000
,
1001
0000
1000
0100
0000
0100
0010
0000
0010
0001
0000
0001
1000
0000
1000
0010
0000
0110
0000
0000
0100
0001
0000
1000
,
0001
0000
0000
1001
0000
0000
1000
0000
0001
1000
0000
0000
0110
0000
0000
0110
0000
0000
0110
0000
0000
0110
0000
0000
,
1001
0000
0000
0001
0000
0001
0010
0000
0000
0100
0000
0100
1000
0000
1000
0001
0000
0001
1000
0000
0001
0100
0000
0110
,
0000
0000
0010
0100
0000
1000
0100
0000
0010
0100
0000
0001
1001
0000
0000
1000
0000
1010
0000
0000
0100
0101
0000
0000
,
1001
0000
0000
0110
0000
0000
1001
0000
1000
0001
0000
0000
1000
0000
1000
0100
0000
0100
0010
0001
0010
0100
0000
0100
,
1000
0000
0000
1001
0000
0000
0001
0100
0010
1000
0000
0000
0110
0000
0000
0110
0000
0000
0110
0000
0000
0110
0000
0000
,
1001
0000
0000
0001
0000
0001
0010
0000
0010
1000
0000
1000
0001
0000
0001
0100
0000
0100
0010
0001
0010
0001
0000
0000
,
1001
0000
0000
1010
0000
0000
0010
0100
0010
0100
0000
0000
1100
0000
0000
0100
0000
0101
0000
0000
0001
1001
0000
0000
,
0002
0000
0000
0000
0000
0100
0203
0000
0001
0000
0001
0000
0301
0000
0000
1000
0000
0000
0110
0000
1000
0001
0000
0001
,
1000
0000
0000
0011
0000
0001
0100
0000
0000
1010
0000
1000
0001
1000
0001
1000
0010
0100
0001
0000
0000
0110
0000
0000
,
1001
0000
1000
0001
0000
0000
0010
0000
0010
0100
0010
0100
0001
0000
0001
1000
0000
1000
0010
0000
0010
0001
0010
0100
,
1000
0000
1000
0010
0000
0010
0001
0000
0001
0010
0000
0010
0100
0000
0100
0010
0100
0001
1000
0000
1000
0001
0000
0001
,
0020
0000
0000
1000
0000
0000
0031
0000
0001
1000
0000
1001
0000
0000
0001
0100
0000
1000
0100
0000
0001
1000
0000
1000
,
0200
0000
0000
0001
0000
0001
0000
0000
0000
1000
0000
1300
0100
0000
0100
0010
0000
0010
0001
0000
1000
0001
0000
1000
,
0001
0000
0000
0110
0000
0000
1001
0000
1000
0010
0000
0010
0100
0000
0100
1000
0000
1000
0001
0000
0001
0010
0000
1000
,
0001
0000
0010
0100
0000
0100
1000
0000
0010
0100
0000
0100
0001
0000
1000
0100
0000
0100
0010
0000
0011
0000
0000
0001
,
1000
0000
1000
0010
0100
0001
1000
0100
0010
0001
0000
0011
0000
0000
1010
0000
0000
0010
0002
0000
0000
2003
0000
0000
,
3001
0000
0001
0100
0000
0100
2000
0000
0000
3100
0000
0100
0101
0000
0000
0101
0000
0000
0202
0000
0000
0303
0000
0000
,
1001
0000
0000
0000
0000
0000
0000
0000
0000
0000
1000
0000
0100
0000
0000
0000
0100
0000
0010
0000
0000
0000
0011
0000
0000
0000
0000
0000
0001
1000
0001
0000
0000
0000
0001
0000
0100
0000
0000
0000
0010
0000
0100
0000
0000
0000
0010
0000
,
1000
0000
0200
0301
0000
0200
1300
0000
1000
0001
0000
0100
0010
0000
0010
0100
0000
0100
0010
0000
0010
0110
0000
0000
,
1001
0000
0000
0000
0000
0000
0000
0000
0000
0000
0001
0000
0010
0000
0000
0000
0010
0000
0100
0000
0000
0000
0110
0000
0000
0000
0000
0000
0010
0001
0010
0000
0000
0000
0001
0000
1000
0000
0000
0000
0010
0000
0100
0000
0000
0000
0001
0000
,
1000
0000
0020
0031
0000
0020
1030
0000
1000
0001
0000
0001
0010
0000
0010
0000
0010
0000
0100
0000
0100
0000
0100
0000
,
0110
0000
0000
0000
0000
0000
1001
0000
0000
0000
1000
0000
0010
0000
0000
0000
0100
0000
0001
0000
0000
0000
1001
0000
0000
0000
0000
0000
1000
0001
1000
0000
0000
0000
0100
0000
1000
0000
0000
0000
0001
0000
1000
0000
0000
0000
1010
0000
,
0000
0000
0000
0000
0010
1000
0010
0000
0000
0000
0100
0000
0001
0000
0000
0000
1000
0000
0100
0000
0000
0000
0010
0000
0001
0000
0000
0000
0001
0000
0100
0000
0000
0000
0100
0000
1000
0000
0000
0000
1000
0000
0100
0000
0010
0000
0100
0000
,
0001
0000
0000
0000
0000
0000
1001
0000
0000
0000
0001
0000
0100
0000
0000
0000
0001
0000
1000
0000
0000
0000
1010
0000
0000
0000
0000
0000
0001
1000
0001
0000
0000
0000
0001
0000
0010
0000
0000
0000
0100
0000
0010
0000
0000
0000
0011
0000
,
0000
0000
0000
0000
1000
0001
1000
0000
0000
0000
1000
0000
0010
0000
0100
0000
0010
0000
0100
0000
0000
0000
0001
1000
0001
0000
0000
0000
1000
0000
0001
0000
0000
0000
0001
0000
0010
0000
0000
0000
0010
0000
0100
0000
0000
0000
0100
0000
,
2000
0000
0000
0000
0000
0001
3002
0000
1000
0000
1000
0000
0023
0000
0000
0000
0000
0000
0031
0000
0000
1001
0000
1000
,
0001
0000
0000
0101
0000
0010
1000
0000
0000
1100
0000
0010
0001
1000
0010
0100
0001
1000
0100
0000
0000
0110
0000
0000
,
1001
0000
0000
0001
0000
0000
1010
0000
0000
0002
0000
1003
0100
0000
0100
0010
0000
0010
0001
0000
1001
0000
0000
1000
,
0010
0000
0000
0000
1000
0000
0001
0000
0000
0000
1000
0000
0100
0000
0000
0000
0010
0000
0001
0000
0000
0000
1000
0000
0001
0000
0000
0000
0100
0000
0010
0000
0000
0000
1000
0000
0001
0000
0000
0000
0011
0000
0000
0000
0000
0000
0010
0001
,
0020
0000
0000
1000
0000
0000
0031
0000
1000
0001
0000
1001
0000
0000
1000
0100
0000
0100
0010
0000
0001
0010
0000
0000
,
1001
0000
0001
0100
0000
1100
0000
0000
1000
0100
0000
0001
1000
0000
1000
0100
0000
0100
0010
0000
0010
0001
0000
0001
,
1000
0000
0000
0010
0000
0000
0110
0000
0100
0001
1000
0001
0010
0000
0100
0010
0000
1000
0010
0000
0100
0010
0000
0001
,
1000
0000
1000
0001
0000
0001
0100
0000
0100
0010
0000
0010
1000
0000
0100
0001
0000
0100
1000
0000
1001
0000
0000
0001
,
0100
0000
0100
0010
1000
0010
0100
0000
0001
1000
0000
1001
0000
0000
0001
0010
0000
0100
0020
0000
0000
0032
0000
0000
,
0103
0000
0010
0100
0000
1000
0100
0000
0010
0100
0000
0001
1001
0000
0000
1001
0000
0000
1001
0000
0110
0000
0110
0000
,
1001
0000
0000
0000
0000
0000
0000
0000
0000
0000
1000
0000
0001
0000
0000
0000
0010
0001
0010
0000
0000
0000
0010
0000
0100
0000
0000
0000
1100
0000
0000
0000
0000
0000
1000
0001
1000
0000
0000
0000
1001
0000
0000
0000
0001
0000
0100
0000
,
0110
0000
0000
0000
;

//--------------- dance-double - Fred-104 ----------------
#NOTEDATA:;
#STEPSTYPE:dance-double;
#DESCRIPTION:Fred-104;
#DIFFICULTY:Easy;
#METER:3;
#CREDIT:Fred-104;
#NOTES:
00000000
00000000
00000000
00000000
,
00000000
00000000
00000000
00000000
,
00000000
00000000
00000000
00000000
,
00010000
00000000
00001000
00000000
,
00000100
00000000
00000001
00000001
,
00001000
00000000
00000001
00000000
,
00000010
00000000
00000100
00000100
,
00000100
00000000
00010000
00000000
,
00001000
00000000
00010000
00010000
,
00001000
00000000
00100000
00000000
,
00010000
00000000
10000000
10000000
,
00010000
00000000
01000000
00000000
,
00100000
00000000
01000000
01000000
,
00010000
00000000
10000000
00000000
,
01000000
00000000
00100000
00100000
,
00001000
00000000
00010000
00000000
,
00001000
00000000
00010000
00010000
,
00001000
00000000
00010000
00000000
,
00000010
00000000
00001000
00001000
,
00000001
00000000
00000010
00000000
,
00000100
00000100
00000100
00000000
,
00010000
00000000
00001000
00000000
,
00010000
00000000
00001000
00000000
,
00000100
00000000
00000010
00000000
,
00000100
00000000
00000001
00000000
,
00000001
00000000
00001000
00000000
,
00000001
00000000
00000010
00000000
,
00000100
00000000
00010000
00000000
,
00001000
00001000
00011000
00000000
,
00010000
00000000
00001000
00000000
,
01000000
00000000
00010000
10000000
,
00010000
00000000
00100000
00000000
,
01000000
00000000
10000000
10000000
,
00010000
00000000
01000000
00000000
,
00010000
00000000
01000000
00000000
,
00001000
00000000
00010000
00000000
,
00000100
00000000
00000010
00000010
,
00000010
00000000
00000001
00000000
,
00001000
00001000
00001000
00000000
,
00000001
00000000
00001000
00000000
,
00000010
00000000
00000100
00000000
,
00001000
00001000
00010000
00000000
,
00001000
00000000
00100000
00000000
,
00010000
00000000
10000000
00000000
,
00010000
00000000
01000000
00000000
,
00100000
00100000
00100000
00000000
,
01000000
01000000
00010000
00000000
,
10010000
00000000
00000000
00000000
,
10010000
00000000
00000000
00000000
;

//--------------- dance-double - Fred-104 ----------------
#NOTEDATA:;
#STEPSTYPE:dance-double;
#DESCRIPTION:Fred-104;
#DIFFICULTY:Medium;
#METER:9;
#CREDIT:Fred-104;
#NOTES:
00000000
00000000
00000000
00000000
,
00000000
00000000
00000000
00000000
,
00000000
00000000
00000000
00000000
,
00010000
00000000
00011000
00000000
00001000
00010000
00100000
10000000
,
01000000
00000000
01010000
00000000
00010000
00010000
00010000
00010000
,
00011000
00000000
00010100
00000000
00000100
00001000
00000001
00001000
,
00000010
00000000
00000000
00000000
00000000
00000000
00000110
00000000
00000000
00000000
00000000
00000000
00000001
00000000
00000000
00000000
00000000
00000001
00000000
00000000
00000000
00000001
00000000
00000000
,
00000010
00000000
00000110
00000000
00001000
00000001
00000100
00001000
,
00010000
00010000
00001000
00000000
01000000
01000000
01000000
01000000
,
01100000
00000000
10010000
00000000
10000000
01000000
00100000
01000000
,
00010000
00000000
00000000
00001000
00000000
00000000
00010000
00000000
00000000
00000000
00000000
00000000
00001000
00000000
00000000
00000000
00000000
00001000
00000000
00000000
00000000
00001000
00000000
00000000
,
00011000
00010000
00000100
00000000
00000010
00000010
00000001
00001000
,
00000010
00000010
00000100
00001000
00010000
00010000
00010000
00010000
,
00011000
00000000
01001000
00000000
00001000
00001000
00010000
00001000
,
01000000
00000000
00000000
01000000
00000000
00000000
00010000
00000000
00000000
00100000
00000000
00000000
01000000
00000000
00000000
00000000
00000000
01000000
00000000
00000000
00000000
01000000
00000000
00000000
,
10010000
00000000
10000000
01000000
00010000
00001000
00010000
00100000
,
00010000
00001000
00000100
00000001
00001000
00001000
00001000
00001000
,
00001100
00000000
00001001
00000001
00001000
00000001
00000100
00001000
,
00010000
00000000
00000000
00001000
00000000
00000000
00000010
00000000
00000000
00001000
00000000
00000000
00010000
00000000
00000000
00000000
00000000
00010000
00000000
00000000
00000000
00010000
00000000
00000000
,
00011000
00000000
00000000
00001000
01000000
00010000
01000000
00000000
00000000
01100000
00000000
00000000
,
10010000
01000000
10010000
00100000
10010000
01100000
10010000
00000000
,
10000000
10000000
01000000
00000000
00010000
00001000
00010000
00100000
,
00010000
00001000
00000100
00000010
00000001
00000010
00001000
00001000
,
00000001
00000000
00000000
00000010
00000000
00000000
00000100
00000000
00000000
00000000
00000000
00001100
00000000
00000000
00000000
00000000
00000000
00000000
00000100
00000000
00000000
00010000
00000000
00000000
,
00001000
00010000
00100000
01000000
01010000
00010000
10010000
10000000
,
01000000
00000000
10010000
00000000
10000000
00100000
00010000
00001000
,
00010000
00000100
00000010
00000100
00000010
00000001
00001000
00000010
,
00000100
00000000
00000000
00001000
00000000
00000000
00010000
00000000
00000000
00000000
00000000
00011000
00000000
00000000
00000000
00000000
00000000
00000000
00001000
00000000
00000000
00100000
00000000
00000000
,
01000000
10000000
00010000
00000000
10010000
10010000
20020000
30030000
,
01100000
00000000
10010000
00000000
10000000
01000000
00010000
01000000
,
01100000
00000000
00110000
00000000
10000000
00100000
00010000
00001000
,
00011000
00000000
00010100
00000000
00000100
00001000
00000001
00000100
,
00000110
00000000
00000000
00001001
00000000
00000000
00000001
00000001
00000010
00000100
00000100
00010000
,
00001000
00000000
00011000
00000000
00010000
00001000
00000100
00000001
,
00000010
00000000
00000110
00000000
00000100
00001000
00000001
00000100
,
00001000
00000000
00011000
00000000
00010000
00100000
10000000
01000000
,
00100000
00000000
00101000
00000000
00001000
00001000
00010000
00010000
,
00011000
00000000
00000000
00000000
00000000
00000000
00010000
00000000
00001000
00000000
00000100
00000000
00000010
00000000
00000000
00000000
00000000
00000000
00001000
00000000
00000000
00000001
00000000
00000000
,
00001001
00000100
00001001
00000010
00001001
00000110
00001001
00000000
,
00001001
00000000
00000001
00000000
00000010
00000010
00000100
00000000
,
00010000
00010000
00001000
00001000
01000000
00010000
01100000
00000000
,
10010000
00000000
00000000
10000000
00000000
00000000
01000000
00000000
00000000
00000000
00000000
01000000
00000000
00000000
00000000
00000000
00000000
00000000
00100000
00000000
00000000
00001000
00000000
00000000
,
00010000
00010000
00001000
00001000
00000100
00000001
00000010
00000100
,
00001100
00000000
00001001
00000000
00000001
00001000
00000010
00010000
,
00001000
00100000
01000000
10000000
00100000
00010000
00001000
00000000
,
00010000
00000000
00000000
00010000
00000000
00000000
00001000
00000000
00000000
00000000
00000000
00011000
00000000
00000000
00000000
00000000
00000000
00000000
00010000
00000000
00000000
00000100
00000000
00000000
,
00000010
00000000
00000000
00000001
00000000
00000000
00001000
00000000
00000000
00000000
00000000
00000000
00001001
00000000
00000000
00001001
00000000
00000000
00000001
00000000
00001000
00000000
00000001
00000000
,
00002002
00000000
00000000
00000003
00000000
00000000
00003000
00000000
00000000
00000001
00001000
00000010
,
00000110
00000000
00000000
00000000
;

//--------------- dance-double - Fred-104 ----------------
#NOTEDATA:;
#STEPSTYPE:dance-double;
#DESCRIPTION:Fred-104;
#DIFFICULTY:Hard;
#METER:12;
#CREDIT:Fred-104;
#NOTES:
00000000
00000000
00000000
00000000
,
00000000
00000000
00000000
00000000
,
00000000
00000000
00000000
00000000
,
00001000
00000000
00000000
01000000
00000000
00000000
00010000
00000000
00000000
10000000
00000000
00000000
01000000
00000000
01000000
00000000
00000000
00100000
00000000
00000000
00001000
00000000
00000000
00010000
,
00000000
00000100
00001000
00000001
00001001
00001001
00001001
00001001
,
00001000
00000000
00000000
00000000
00000000
00000000
00000010
00000000
00000000
00000100
00000000
00000000
00001000
00000000
00000000
00010000
00000000
00000000
00001000
00000000
01000000
00001000
00000000
00000000
,
00100000
00000000
00000000
00010000
00000000
00000000
01000000
00000000
01000000
00100000
00000000
00000000
10100000
00000000
00000000
00000000
00000000
01010000
00000000
00000000
00000000
10100000
00000000
00000000
,
10010000
00000000
00000000
00000000
00000000
00000000
10000000
00000000
00000000
01000000
00000000
00000000
00100000
00000000
00000000
01000000
00000000
00000000
00010000
00000000
00010000
00001000
00000000
00000000
,
00010000
00000000
00000000
00000100
00000000
00000000
00001000
00000000
00000001
00000100
00000000
00000000
00000110
00000000
00000000
00000110
00000000
00000000
00000110
00000000
00000000
00000110
00000000
00000000
,
00000010
00000000
00000000
00000000
00000000
00000000
00001000
00000000
00000000
00000100
00000000
00000000
00000010
00000000
00000000
00001000
00000000
00000000
00010000
00000000
00010000
00001000
00000000
00000000
,
01000000
00000000
00000000
00001000
00000000
00000000
00010000
00000000
00000010
00010000
00000000
00000000
00011000
00000000
00000000
00000000
00000000
00010100
00000000
00000000
00000000
00011000
00000000
00000000
,
00001000
00000000
00000000
00010000
00000000
00000000
00100000
00000000
00100000
01000000
00000000
00000000
00010000
00000000
00000000
00010000
00000000
10000000
00000000
00000000
01000000
00000000
00000000
00100000
,
00001000
00000000
00000000
00010000
00000000
00000000
00011000
00000000
00001000
00010000
00000000
00000000
00011000
00000000
00000000
00011000
00000000
00000000
00011000
00000000
00000000
00011000
00000000
00000000
,
00001000
00000000
00000000
00000000
00000000
00000000
00011000
00000000
00000000
00000000
00000000
00000000
00010000
00000000
00000000
00001000
00000000
00000000
00000100
00000000
00000001
00000000
00000000
00000001
,
00000000
00000000
00000000
00001000
00000000
00000000
00000100
00000000
00000010
00000100
00000000
00000000
00000011
00000000
00000000
00000000
00000000
00001100
00000000
00000000
00000000
00000101
00000000
00000000
,
00001001
00000000
00000000
00001001
00000000
00000000
00000001
00000000
00000100
00000010
00000000
00000000
00000100
00000000
00001000
00010000
00000000
00001000
00000000
00000000
00001000
00010000
00000000
00000000
,
00001000
00010000
01000000
00100000
00110000
00110000
00110000
00110000
,
00010000
00000000
00000000
10000000
00000000
00100000
10000000
00000000
00010000
10000000
00000000
00000000
01000000
00000000
01000000
00100000
00000000
00100000
00001000
00000000
00001000
00010000
00000000
00000000
,
00001000
00000000
00000000
00010000
00000000
00000000
00001010
00000000
00000000
00010000
00000000
00000000
00011000
00000000
00000000
00000000
00000000
01001000
00000000
00000000
00000000
00011000
00000000
00000000
,
00002000
00000000
00000000
00000000
00000000
00000000
00013000
00000000
00000100
00000000
00000100
00000000
00000010
00000000
00000000
00000000
00000000
00000000
00000011
00000000
00000000
00001000
00000000
00001000
,
00000002
00000000
00000000
00000103
00000000
00000000
00002000
00000000
00000000
00003100
00000000
00000000
00000001
00000000
00000010
00000100
00000000
00001000
00000001
00000000
00000000
00001001
00000000
00000000
,
00001000
00000000
00000000
00000001
00000000
00000000
00000100
00000000
00000000
00000010
00000000
00000010
00010000
00000000
00010000
00001000
00000000
00001000
00100000
00000000
00100000
00000000
00000000
00000000
,
00010000
00000000
10000000
00010000
00000000
10000000
01000000
00000000
00100000
01000000
00000000
00100000
00001000
00000000
00010000
00001000
00000000
00010000
00000100
00000000
00000100
00000000
00000000
00000000
,
00001001
00000000
00000000
00001000
00000000
00000001
00000100
00000000
00000000
00000010
00000000
00000010
00000000
00000000
00000000
00000000
00000000
00010000
00001000
00000000
00010000
00001000
00000000
00000000
,
00200000
00010000
00010000
00310000
10000000
00100000
00010000
00001000
,
00011000
00000000
00000000
00010000
00000000
00000000
00001000
00000000
00000000
01000000
00000000
01000000
00010000
00000000
00010000
10000000
00000000
10000000
01000000
00000000
00100000
00000000
00000000
00000000
,
00001000
00000000
00010000
00001000
00000000
00010000
00000010
00000000
00001000
00000010
00000000
00001000
00000001
00000000
00001000
00000100
00000000
00000010
00000100
00000000
00000100
00000000
00000000
00000000
,
00011000
00000000
00000000
00010000
00000000
00000000
00001000
00000000
00000000
01000000
00000000
01000000
00000000
00000000
00100000
00000000
00000000
00100000
10000000
00000000
00000000
00100000
00000000
00000000
,
00010000
00001000
00001010
00000010
00000011
00000011
00000022
00000033
,
00000001
00000000
00000000
00000000
00000000
00000000
00000110
00000000
00000000
00000000
00000000
00000000
00001000
00000000
00000001
00001000
00000000
00000001
00000100
00000000
00000000
00000000
00000000
00000000
,
00001000
00000000
00011000
00000000
01001000
01000000
01001000
00001000
,
01001000
00000000
00000000
00000000
00000000
00000000
10010000
00000000
00000000
00000000
00000000
00000000
10000000
00000000
01000000
00100000
00000000
01000000
00100000
00000000
00000000
00000000
00000000
00000000
,
00001000
00000000
00000000
00011000
00000000
00000000
00010000
00001000
00001000
00000100
00000001
00000001
,
00000010
00000110
00000100
00010000
00001000
00101000
00100000
01000000
,
10000000
10010000
00010000
01000000
00100000
00010000
00001000
00000100
,
00000010
00001010
00001000
00000001
00000010
00000110
00000100
00010000
,
00001000
01001000
01000000
00100000
00010000
00100000
10000000
01000000
,
00200000
00000000
00000000
00000000
00000000
00000000
00301000
00000000
00010000
00000000
00010000
00000000
00000200
00000000
00000000
00000000
00000000
00000000
00000310
00000000
00000000
00001000
00000000
00000000
,
00020000
00000000
00000000
00031000
00000000
00000000
00000200
00000000
00000000
00001300
00000000
00000000
00010000
00000000
00001000
00100000
00000000
00010000
10000000
00000000
00000000
10010000
00000000
00000000
,
10000000
01000000
01100000
00000000
00100000
00001000
00001000
00010000
,
00000010
00000100
00001000
00000001
00000010
00000100
00000101
00000000
,
00001001
00000000
00000000
00000001
00000000
00000000
00000100
00000000
00000010
00001000
00000000
00001000
00000000
00000000
00000001
00000010
00000000
00000000
00000100
00000000
00000000
00010000
00000000
00000000
,
00002000
00000000
00000000
00000100
00000000
00000100
00000000
00000000
00000000
00000100
00000000
00003100
00000001
00000000
00000000
00000010
00000000
00000000
00000100
00000000
00000000
00010000
00000000
00000000
,
00011000
00000000
00000000
00001000
00000000
00000000
00100000
00000000
00000000
00010000
00000000
00100000
01000000
00000000
10000000
01000000
00000000
00100000
00010000
00000000
00010000
00000000
00000000
00000000
,
10000000
00000000
10000000
00100000
00000000
00100000
00010000
00000000
00010000
00001000
00000000
00001000
00010000
00000000
00010000
00000010
00000000
00000010
00001000
00000000
00001000
00000000
00000000
00000000
,
00000010
00000000
00000000
00010000
00000000
00000000
00001000
00000000
00001000
00100000
00000000
00010000
00000000
00000000
00010000
00000000
00000000
00010000
01000000
00000000
00000000
00100000
00000000
00000000
,
01000000
00000000
00000000
00010000
00000000
00000000
10010000
00000000
00000000
00000000
00000000
00000000
01100000
00000000
00000000
01100000
00000000
00000000
00010000
00000000
00010000
00000000
10000000
00000000
,
10010000
00000000
00000000
00000000
00000000
00000000
10000000
00000000
00000000
00000000
00000000
00000000
00100000
00000000
00000000
00010000
00000000
00000000
00001000
00000000
00001000
00000000
00010000
00000000
,
00011000
00000000
00000000
00000000
;

//--------------- dance-double - Fred-104 ----------------
#NOTEDATA:;
#STEPSTYPE:dance-double;
#DESCRIPTION:Fred-104;
#DIFFICULTY:Challenge;
#METER:15;
#CREDIT:Fred-104;
#NOTES:
00000000
00000000
00000000
00000000
,
00000000
00000000
00000000
00000000
,
00000000
00000000
00000000
00000000
,
00010000
00000000
00001000
00010000
00000000
00000000
00001000
00000000
00001000
01000000
00000000
01000000
00010000
00000000
10000000
00000000
00000000
01000000
00000000
00000000
00010000
00000000
00000000
00001000
,
00000000
00000000
00000000
00011000
00000000
00010000
00000010
00000000
00000010
00010000
00000000
00010000
00011000
00000000
00000000
00011000
00000000
00000000
00011000
00000000
00000000
00011000
00000000
00000000
,
00010100
00000000
00000000
00010000
00000000
00001000
00010000
00000000
00000000
00000010
00000000
00001000
00000010
00000000
00000001
00000010
00000000
00000100
00001000
00000000
00010000
00001000
00000000
00010000
,
00001000
00000000
00001000
01000000
00000000
01000000
00100000
00000000
00100000
00010000
00000000
00010000
00001000
00000000
00000000
00010000
00000000
00010010
00000000
00000000
00001000
00101000
00000000
00000000
,
00001000
00000000
00001000
00000000
00000000
00000000
01001000
00000000
01000000
00010000
00000000
10000000
01000000
00000000
00010000
00001000
00000000
00010000
00000100
00000000
00010000
00001000
00000000
00000000
,
00011000
00001100
00011000
01010000
00011000
00011000
00011000
00011000
,
00010010
00000000
00000000
00000000
00000000
00000000
00010000
00000000
00000000
00000000
00010000
00000000
00001000
00000000
00000000
00000000
00000010
00000000
00000100
00000000
00000000
00000000
00000010
00000000
00000001
00000000
00000000
00000000
00000001
00001000
00000001
00000000
00000000
00000000
00001000
00000000
00000010
00000000
00000000
00000000
00010000
00000000
00000010
00000000
00000000
00000000
00000010
00000000
,
00000100
00000000
00000000
00001100
00000000
00000000
00011000
00000000
00000000
01010000
00000000
00000000
00011000
00000000
00000000
00010000
00000000
00010100
00000000
00000000
00001000
00101000
00000000
00000000
,
00011000
00000000
00010000
00001000
00000000
00001000
01000000
00000000
01000000
00010000
00000000
00010000
10000000
00000000
10000000
01000000
00000000
01100000
00000000
00000000
00100000
00001000
00000000
00001000
,
00010000
00000000
00000000
00011000
00000000
00000000
00001000
00000000
01000000
00001000
00000000
00000000
00011000
00000000
00000000
00011000
00000000
00000000
00011000
00000000
00000000
00011000
00000000
00000000
,
00010100
00000000
00000000
00010000
00000000
00001000
00000010
00000000
00000000
00000001
00000000
00001000
00000010
00000000
00000010
00000100
00000000
00000100
00001000
00000000
00010000
00001000
00000000
00011000
,
00000000
00000000
00001000
01000000
00000000
00010000
00100000
00000000
00001000
01000000
00000000
00001000
00010000
00000000
00000000
00001000
00000000
00101000
00000000
00000000
00010000
00010010
00000000
00000000
,
00010000
00000000
00000000
00011000
00000000
00000000
00011000
00000000
00001000
00010000
00000000
00000000
00100000
00000000
00100000
10000000
00000000
10000000
00010000
10000000
01000000
00100000
00000000
00100000
,
00001000
00000000
00000000
00011000
00000000
00000000
00010000
00000100
00001000
00000010
00000000
00000000
00011000
00000000
00000000
00011000
00000000
00000000
00011000
00000000
00000000
00011000
00000000
00000000
,
00011000
00000000
00000000
00010000
00000000
00010000
00001000
00000000
00001000
00000010
00000000
00000010
00000001
00000000
00000001
00000100
00000001
00000100
00001000
00000000
00001000
00010000
00000000
00000000
,
00011000
00000000
00000000
00110000
00000000
00000000
00010000
00001000
00010000
00001000
00000000
00000000
00011000
00000000
00000000
00000010
00000000
00010010
00000000
00000000
00100000
00101000
00000000
00000000
,
00002000
00000000
00000000
00000000
00000000
00010000
00023000
00000000
00001000
00000000
00001000
00000000
00031000
00000000
00000000
01000000
00000000
00000000
01010000
00000000
10000000
01000000
00000000
00100000
,
00001000
00000000
00000000
00011000
00000000
00000010
00010000
00000000
00000000
00011000
00000000
00100000
00001000
00010000
00001000
01000000
00010000
01000000
00001000
00000000
00000000
00011000
00000000
00000000
,
00010100
00000000
00000000
00000100
00000000
00000000
00000010
00000000
00000010
00000001
00001000
00000001
00000100
00000000
00000100
00000010
00000000
00000010
00000100
00000000
00000100
00001000
00010000
00001000
,
00010000
00000000
00010000
00001000
00000000
00001000
01000000
00000000
01000000
10000000
00000000
10000000
01000000
00000000
01000000
00100000
01000000
00010000
10000000
00000000
10000000
01000000
00000000
01000000
,
00100000
00000000
00000000
00001000
00000000
00000000
00011000
00000000
00010000
00001000
00000000
00011000
00000000
00000000
00010000
00000100
00000000
00000010
00000100
00000000
00000001
00000100
00000000
00000010
,
00000002
00000000
00000000
00000100
00000000
00000203
00000000
00000000
00000000
00001000
00000000
00001300
00010000
00000000
00010000
00001000
00000000
00010000
01000000
00000000
00010000
00001000
00000000
00010000
,
00001000
00000000
00000000
00011000
00000000
00000000
01001000
00000000
01000000
00010000
00000000
00010000
00100000
00000000
00100000
01000000
00000000
01000000
00010000
00000000
00010000
01000000
00000000
01000000
,
10000000
00000000
10000000
00100000
00000000
00100000
00010000
00000000
00010000
00001000
00000000
00001000
00000100
00000000
00000100
00000001
00000000
00000001
00001000
00000000
00001001
00000000
00000000
00000001
,
00000100
00000000
00000100
00000010
00000100
00001000
00010000
00000000
00010000
00001000
00000000
00011000
00000000
00000000
00011000
00000000
00000000
00001000
00020000
00000000
00000000
02030000
00000000
00000000
,
13000000
00000000
10000000
00010000
00000000
00010000
00200000
00000000
00000000
01300000
00000000
00010000
00011000
00000000
00000000
00011000
00000000
00000000
00022000
00000000
00000000
00033000
00000000
00000000
,
00011000
00000000
00000000
00000000
00000000
00000000
00001000
00000000
00000000
00000000
00001000
00000000
00010000
00000000
00000000
00000000
00010000
00000000
00100000
00000000
00000000
00000000
10100000
00000000
00000000
00000000
00000000
00000000
00010000
10000000
00010000
00000000
00000000
00000000
10000000
00000000
00010000
00000000
00000000
00000000
00010000
00000000
00100000
00000000
00000000
00000000
00001000
00000000
,
00010000
00000000
00002000
00003010
00000000
00002000
00013000
00000000
00010000
00000100
00000000
00000100
00010000
00000000
00001000
00010000
00000000
00000010
00010000
00000000
00001000
00011000
00000000
00000000
,
00011000
00000000
00000000
00000000
00000000
00000000
00000000
00000000
00000000
00000000
00010000
00000000
00001000
00000000
00000000
00000000
00001000
00000000
00000100
00000000
00000000
00000000
00000101
00000000
00000000
00000000
00000000
00000000
00000001
00001000
00000001
00000000
00000000
00000000
00000001
00000000
00001000
00000000
00000000
00000000
00000010
00000000
00010000
00000000
00000000
00000000
00001000
00000000
,
00010000
00000000
00002000
00003100
00000000
00002000
00013000
00000000
00010000
01000000
00000000
01000000
00010000
00000000
00010000
00000000
00010000
00000000
00001000
00000000
00001000
00000000
00001000
00000000
,
00011000
00000000
00000000
00000000
00000000
00000000
00010100
00000000
00000000
00000000
00000100
00000000
00000010
00000000
00000000
00000000
00000010
00000000
00000001
00000000
00000000
00000000
00001001
00000000
00000000
00000000
00000000
00000000
00001000
00000001
00001000
00000000
00000000
00000000
00000001
00000000
00001000
00000000
00000000
00000000
00000100
00000000
00010000
00000000
00000000
00000000
00011000
00000000
,
00000000
00000000
00000000
00000000
00001000
00010000
00001000
00000000
00000000
00000000
00100000
00000000
00010000
00000000
00000000
00000000
10000000
00000000
00010000
00000000
00000000
00000000
00010000
00000000
01000000
00000000
00000000
00000000
01000000
00000000
00100000
00000000
00000000
00000000
00100000
00000000
10000000
00000000
00000000
00000000
10000000
00000000
01000000
00000000
00100000
00000000
00010000
00000000
,
00100000
00000000
00000000
00000000
00000000
00000000
00101000
00000000
00000000
00000000
00010000
00000000
00000100
00000000
00000000
00000000
00001000
00000000
00000001
00000000
00000000
00000000
00001001
00000000
00000000
00000000
00000000
00000000
00001000
00000010
00001000
00000000
00000000
00000000
00000001
00000000
00000100
00000000
00000000
00000000
00001000
00000000
00010000
00000000
00000000
00000000
00011000
00000000
,
00000000
00000000
00000000
00000000
00001000
01000000
00001000
00000000
00000000
00000000
01000000
00000000
00010000
00000000
00000000
00000000
10000000
00000000
01000000
00000000
00000000
00000000
00100000
00010000
00100000
00000000
00000000
00000000
00100000
00000000
00001000
00000000
00000000
00000000
00001000
00000000
00000010
00000000
00000000
00000000
00000010
00000000
00000200
00000000
00000000
00000000
00000000
00000000
,
00002300
00000000
00000000
00000000
00000000
00000001
00003002
00000000
00000100
00000000
00000103
00000000
00002000
00000000
00000000
00000000
00000000
00000000
00013000
00000000
00000000
00011000
00000000
00010000
,
00001000
00000000
00000000
00011000
00000000
00000100
00010000
00000000
00000000
00011000
00000000
01000000
00001000
01000000
00001000
00010000
00001000
00010000
00001000
00000000
00000000
00011000
00000000
00000000
,
01001000
00000000
00000000
00100000
00000000
00000000
10010000
00000000
00000000
20000000
00000000
30010000
01000000
00000000
00010000
00100000
00000000
00010000
01000000
00000000
01100000
00000000
00000000
00100000
,
10000000
00000000
00000000
00000000
01000000
00000000
00100000
00000000
00000000
00000000
00001000
00000000
00010000
00000000
00000000
00000000
00000100
00000000
00001000
00000000
00000000
00000000
00000001
00000000
00000100
00000000
00000000
00000000
00000010
00000000
00001000
00000000
00000000
00000000
00000001
00000000
00000010
00000000
00000000
00000000
00000110
00000000
00000000
00000000
00000000
00000000
00001000
00000001
,
00001000
00000000
00000000
00000010
00000000
00000000
00010010
00000000
00000000
00010000
00000000
00011000
00000000
00000000
00001000
00100000
00000000
00100000
01000000
00000000
00010000
01000000
00000000
00000000
,
11000000
00000000
10000000
00010000
00000000
01010000
00000000
00000000
01000000
00001000
00000000
00001000
00010000
00000000
00010000
00000100
00000000
00000100
00000010
00000000
00000010
00000001
00000000
00001000
,
00000001
00000000
00000000
00000100
00000000
00000000
00000110
00000000
00000010
00001000
00000001
00000010
00000100
00000000
00000100
00010000
00000000
00010000
01000000
00000000
01000000
00100000
00000000
00100000
,
00010000
00000000
00010000
10000000
00000000
10000000
00100000
00000000
00100000
00010000
00000000
00010000
00001000
00000000
00010000
01000000
00000000
00010000
00001000
00000000
00011000
00000000
00000000
00001000
,
00010000
00000000
00000010
00001000
00000010
00000100
00000010
00000000
00001000
00000001
00000000
00001001
00000000
00000000
00000001
00000010
00000000
00000100
00000020
00000000
00000000
00002030
00000000
00000000
,
00013000
00000000
00001000
00000010
00000000
00000001
00001000
00000000
00000000
00000010
00000000
00010000
00011000
00000000
00000000
00011000
00000000
00000000
00011000
00000000
00011000
00000000
00011000
00000000
,
00011000
00000000
00000000
00000000
00000000
00000000
00000000
00000000
00000000
00000000
01000000
00000000
00010000
00000000
00000000
00000000
00010000
10000000
00010000
00000000
00000000
00000000
00010000
00000000
10000000
00000000
00000000
00000000
11000000
00000000
00000000
00000000
00000000
00000000
01000000
00100000
01000000
00000000
00000000
00000000
00100000
00000000
00000000
00000000
00001000
00000000
00010000
00000000
,
00011000
00000000
00000000
00000000
;
