#VERSION:0.83;
#TITLE:Crazy Jackpot;
#ARTIST:Hommarju;
#GENRE:UK HARDCORE;
#BANNER:Crazy Jackpot.png;
#BACKGROUND:Crazy Jackpot-bg.png;
#CDTITLE:./CDTitles/RB VOLZZA.png;
#MUSIC:Crazy Jackpot.ogg;
#SAMPLESTART:91.765;
#SAMPLELENGTH:15;
#BPMS:0=170;
#BGSTAGE:15;

//--------------- dance-single - Fred-104 ----------------
#NOTEDATA:;
#STEPSTYPE:dance-single;
#DESCRIPTION:Fred-104;
#DIFFICULTY:Beginner;
#METER:2;
#CREDIT:Fred-104;
#NOTES:
0000
0000
0000
0000
,
0000
0000
0000
0000
,
0000
0000
0000
0000
,
0000
0000
0000
0000
,
0000
0000
0000
0000
,
0001
0000
0000
0000
,
1000
0000
0000
0000
,
0001
0000
0000
0000
,
0100
0000
0000
0000
,
0001
0000
0000
0000
,
0000
0000
0000
0000
,
1000
0000
0000
0000
,
0000
0000
0000
0000
,
0100
0000
0000
0000
,
0000
0000
0000
0000
,
0010
0000
0000
0000
,
0000
0000
0000
0000
,
0001
0000
0000
0000
,
1000
0000
0000
0000
,
0001
0000
0000
0000
,
1000
0000
0000
0000
,
0100
0000
0000
0000
,
0100
0000
0000
0000
,
0100
0000
0000
0000
,
0100
0000
0000
0000
,
0010
0000
0000
0000
,
0000
0000
0000
0000
,
0001
0000
0000
0000
,
0000
0000
0000
0000
,
1000
0000
0000
0000
,
0000
0000
0000
0000
,
0001
0000
0000
0000
,
0000
0000
0000
0000
,
1000
0000
0000
0000
,
0000
0000
0000
0000
,
0001
0000
0000
0000
,
0000
0000
0000
0000
,
1000
0000
0000
0000
,
0001
0000
0000
0000
,
1000
0000
0000
0000
,
0001
0000
0000
0000
,
1000
0000
0000
0000
,
0001
0000
0000
0000
,
0010
0000
0000
0000
,
0001
0000
0000
0000
,
0010
0000
0000
0000
,
0100
0000
0000
0000
,
0010
0000
0000
0000
,
0100
0000
0000
0000
,
1000
0000
0000
0000
,
1000
0000
0000
0000
,
0001
0000
0000
0000
,
0001
0000
0000
0000
,
1000
0000
0000
0000
,
1000
0000
0000
0000
,
0001
0000
0000
0000
,
0000
0000
0000
0000
,
1000
0000
0000
0000
,
0001
0000
0000
0000
,
1000
0000
0000
0000
,
0001
0000
0000
0000
,
0100
0000
0000
0000
,
0010
0000
0000
0000
,
0100
0000
0000
0000
,
0010
0000
0000
0000
,
1000
0000
0000
0000
,
0000
0000
0000
0000
,
0001
0000
0000
0000
,
0000
0000
0000
0000
,
0100
0000
0000
0000
,
0000
0000
0000
0000
,
0001
0000
0000
0000
,
0000
0000
0000
0000
,
1000
0000
0000
0000
,
0000
0000
0000
0000
,
0001
0000
0000
0000
,
0000
0000
0000
0000
,
1000
0000
0000
0000
,
0001
0000
0000
0000
,
1000
0000
0000
0000
,
0001
0000
0000
0000
,
0100
0000
0000
0000
;

//--------------- dance-single - Fred-104 ----------------
#NOTEDATA:;
#STEPSTYPE:dance-single;
#DESCRIPTION:Fred-104;
#DIFFICULTY:Easy;
#METER:7;
#CREDIT:Fred-104;
#NOTES:
0000
0000
0000
0000
,
0000
0000
0000
0000
,
0000
0000
0000
0000
,
0000
0000
0000
0000
,
0000
0000
0000
0000
,
1000
0000
0100
0000
,
0001
0000
0010
0000
,
1000
0100
0001
0100
,
2000
0000
3002
0003
,
1001
0000
0002
0003
,
0100
0000
0020
0030
,
0100
0000
0002
0003
,
1000
0000
0200
0300
,
1001
0000
2000
3000
,
0100
0000
0020
0030
,
0100
0000
2000
3000
,
0001
0000
0200
0300
,
0010
0010
1000
0100
,
0010
0010
0001
0100
,
0001
0001
0001
0100
,
1000
1000
1000
0100
,
0001
0001
0010
0010
,
1000
1000
0100
0100
,
0001
0001
1000
1000
,
2002
0000
0000
3003
,
1000
0100
1000
0020
,
0030
0100
0001
0000
,
1000
0001
0010
0200
,
0300
0010
0001
0000
,
0100
0010
0100
0002
,
0003
1000
0001
0000
,
1000
0100
0001
0100
,
1000
0001
1000
0000
,
0001
0001
0100
0100
,
0010
1000
0002
0003
,
1000
1000
0100
0100
,
0010
0001
2000
3000
,
0001
0100
1000
0000
,
0001
0010
1000
0000
,
0001
0001
1000
1000
,
0100
0100
0100
0100
,
0110
0000
0002
0003
,
2000
3000
0002
1003
,
0200
0300
2000
3000
,
0002
0003
0200
0310
,
0200
0300
0002
0003
,
2000
3000
0200
0310
,
0002
0003
0200
0300
,
0010
1000
0001
1000
,
0001
0001
0100
0100
,
1000
1000
0100
0100
,
0001
0001
0010
0010
,
1000
1000
0010
0010
,
0001
0100
1000
0100
,
0001
0100
1000
0100
,
0001
0010
0100
1000
,
2002
0000
0000
3003
,
1000
0100
0110
0000
,
0001
0100
0110
0000
,
1000
0010
0110
0000
,
0001
0010
0110
0000
,
1000
0000
1000
0000
0001
0100
0001
0000
,
1000
0000
1000
0000
0001
0010
0001
0000
,
0100
0100
0010
0010
,
2000
0000
0002
3003
,
1000
0001
0100
0010
,
0100
0001
2000
3000
,
0001
0010
0001
1000
,
0001
1000
0200
0300
,
0010
0001
1000
0001
,
0100
0010
0200
0300
,
0001
1000
0001
0100
,
0010
0010
0010
0110
,
1000
0100
1000
0001
,
0100
0010
0200
0300
,
0001
1000
0001
0100
,
0010
1000
0020
0030
,
1000
0100
1000
0100
,
0001
0100
0001
0100
,
1000
0001
1000
0001
,
0200
0000
0020
0330
,
1001
0000
0000
0000
;

//--------------- dance-single - Fred-104 ----------------
#NOTEDATA:;
#STEPSTYPE:dance-single;
#DESCRIPTION:Fred-104;
#DIFFICULTY:Medium;
#METER:12;
#CREDIT:Fred-104;
#NOTES:
0000
0000
0000
0000
,
0000
0000
0000
0000
,
0000
0000
0000
0000
,
0000
0000
0000
0000
,
0000
0000
0000
0000
,
1000
0100
1000
0000
0001
1000
0010
0000
,
0100
0001
1000
0000
0100
0010
0001
0000
,
1000
0010
0100
0001
1000
0010
0100
0001
,
1000
0001
1000
0001
1000
0000
1001
0000
,
0110
0000
1000
0100
0010
0001
1000
0010
,
0000
0100
0001
0100
0010
0100
0001
0000
,
1000
0000
0001
0010
0100
0010
0001
1000
,
0000
0010
0100
0001
0100
0010
1000
0000
,
0110
0000
0001
0100
0010
1000
0001
0010
,
0000
0100
1000
0100
0010
0100
1000
0000
,
0001
0000
1000
0010
0100
0010
1000
0001
,
0000
0010
0100
1000
0100
0010
0001
0000
,
1000
1000
0010
0110
,
0001
0001
0010
0110
,
1000
1000
0100
0110
,
0001
0001
0100
0110
,
1000
0100
0001
0000
1000
0010
0001
0000
,
1000
0010
0001
0000
1000
0100
0001
0000
,
1000
0100
0001
0100
1000
0010
0001
0010
,
1000
0000
1000
0000
1000
0000
0001
1000
,
0001
0010
0001
1000
0001
0100
0010
2000
,
0000
3100
0010
0100
1000
0001
0100
0000
,
0010
1000
0010
0100
0010
1000
0001
0020
,
0000
0130
0010
0001
0100
0010
0100
0000
,
0001
1000
0001
0010
0100
0010
0001
2000
,
0000
3001
1000
0100
1000
0001
0100
0000
,
0010
1000
0010
0100
0001
0010
0100
1000
,
0001
0100
1000
0100
0001
0100
0010
0000
,
1000
0000
0010
0000
0100
0000
0001
0000
0010
0100
0000
0010
0100
0000
1000
0000
,
0001
0000
0100
0000
0010
0000
1000
0000
0001
1000
0000
0001
2000
0000
0000
3000
,
0001
0000
0010
0000
0100
0000
1000
0000
0010
0100
0000
0010
0100
0000
0001
0000
,
1000
0000
0100
0000
0010
0000
0001
0000
1000
0001
0000
1000
0002
0000
0000
0003
,
1001
0000
0000
0000
0110
0000
0000
0000
1000
0000
0000
0100
0000
0000
0010
0000
,
0000
0000
0001
0000
0100
0000
0010
0000
0001
0000
0000
0010
0000
0000
0100
0000
,
0001
1000
0001
0010
1000
0010
0100
1000
,
0001
0001
0001
1001
,
2000
3100
0002
0103
,
2000
0000
3010
0000
0200
0000
0301
1000
,
0002
0013
2000
3010
,
0002
0000
0103
0000
0020
0000
1030
0001
,
0020
0130
2000
3100
,
0020
0000
0031
0000
2000
0000
3001
0100
,
2000
3100
0002
1003
,
0001
0010
1000
0001
0100
1000
0001
0000
,
1100
1100
0101
0101
,
1010
1010
0011
0011
,
1010
1010
0011
0011
,
1100
1100
0101
0101
,
1001
0110
1100
0101
,
1001
0110
1010
0011
,
1000
0100
0010
0000
0001
0100
0010
0000
,
2002
0000
0000
3003
,
0001
0100
0010
1000
1100
0000
0101
0000
,
1000
0100
0010
0001
0011
0000
1010
0000
,
0001
0100
0010
1000
0100
1000
1001
0000
,
1000
0010
0100
0001
1000
0001
1001
0000
,
2100
3010
0102
0013
,
2001
3100
1002
0013
,
1000
0100
0010
0001
1000
0010
0100
0001
,
1000
0001
1000
0001
1000
0000
1001
0000
,
1000
0010
1000
0100
1000
0001
0200
0000
,
0301
0000
0000
1000
0000
0000
0001
0000
0010
0000
0100
0000
0020
0000
0000
0000
,
0031
1000
0001
0100
0010
1000
0002
0000
,
1003
0000
0000
0001
0000
0000
1000
0000
0100
0000
0010
0000
0002
0000
0000
0000
,
1003
0001
0100
0001
0010
0100
0020
0000
,
0031
0000
0000
1000
0000
0000
0010
0000
0100
0000
0010
0000
2000
0000
0000
0000
,
3100
0010
0001
1000
0010
0100
0002
0000
,
1003
0100
1000
0100
1000
0000
1001
0000
,
0001
0010
0100
1000
0001
0100
0020
0000
,
1030
0000
0000
0001
0000
0000
0100
0000
0010
0000
0100
0000
0002
0000
0000
0000
,
0013
0100
0010
0001
1000
0010
0200
0000
,
0301
0000
0000
1000
0000
0000
0010
0000
0100
0000
0001
0000
2000
0000
0000
0000
,
3001
0010
0001
0010
1000
0010
1000
0010
,
0001
0100
0001
0100
1000
0100
1000
0100
,
0001
0000
1000
0000
0100
0000
0010
0000
0001
1000
0001
1000
0001
1000
0001
1000
,
0001
0100
0010
0100
0010
0000
0110
0000
,
1001
0000
0000
0000
;

//--------------- dance-single - Fred-104 ----------------
#NOTEDATA:;
#STEPSTYPE:dance-single;
#DESCRIPTION:Fred-104;
#DIFFICULTY:Hard;
#METER:15;
#CREDIT:Fred-104;
#NOTES:
0000
0000
0000
0000
,
0000
0000
0000
0000
,
0000
0000
0000
0000
,
0000
0000
0000
0000
,
0000
0000
0000
0000
,
1000
0100
0000
1000
0001
0000
1000
0010
0000
1000
0001
0000
0010
0000
0100
0000
,
1000
0001
0000
0010
0001
0000
1000
0001
0000
0100
0001
0000
1000
0000
0100
0000
,
1000
0001
1000
0000
0010
0100
0010
0000
1000
0001
1000
0001
0010
0100
0010
0200
,
0010
0010
0010
0010
0310
0000
1001
0000
,
1000
0010
0100
1000
0100
0010
1000
0020
,
0000
0031
0010
0100
0001
0100
0010
1000
,
0001
0010
0100
0001
0100
0010
0001
0020
,
0000
1030
0010
0100
1000
0100
0010
0001
,
1000
0010
0100
1000
0001
0010
0100
0002
,
0000
1003
0100
0010
1000
0010
0001
1000
,
0001
0010
0100
0001
1000
0010
0100
2000
,
0000
3001
0100
0010
0001
0010
1000
0001
,
1000
0000
0100
0000
0010
0000
0001
0000
1000
0100
1000
0000
0001
0100
0001
0000
,
0100
0000
0010
0000
1000
0000
0001
0000
0010
0100
0010
0000
0001
0010
0001
0000
,
1000
0000
0010
0000
0100
0000
0001
0000
1000
0010
1000
0000
0001
0010
0001
0000
,
0010
0000
0100
0000
1000
0000
0001
0000
0100
0010
0100
0000
0001
0100
0001
0000
,
1000
0100
1000
0000
0001
0000
0100
0000
0010
1000
0010
0000
0100
0000
0001
0000
,
1000
0010
1000
0000
0010
0000
0100
0000
0001
0100
0001
0000
1000
0000
0100
0000
,
1000
0100
1000
0000
0001
0010
0001
0000
1000
0001
1000
0001
1000
0001
1000
0001
,
1000
0000
0000
0000
1000
0000
0000
0000
1000
0000
0000
0000
0001
1000
0001
1000
,
0001
0000
0010
0000
0100
0000
1000
0000
0001
0100
0001
0000
1000
0000
0020
0000
,
0000
0000
0130
0001
0100
0000
0010
0000
1000
0100
1000
0000
0001
0010
0001
0000
,
0100
0000
0010
0000
1000
0000
0010
0000
1000
0001
1000
0000
0001
0000
0020
0000
,
0000
0000
0130
0010
0100
0000
0010
0000
0001
0100
0001
0000
1000
0100
1000
0000
,
0001
0000
0100
0000
0010
0000
0100
0000
0001
1000
0001
0000
0010
0000
0200
0000
,
0000
0000
1300
0001
1000
0000
0010
0000
0100
0001
0100
0000
0001
0010
0001
0000
,
1000
0000
0001
0000
0100
0000
0010
0000
1000
0100
1000
0000
0001
0000
0100
0000
,
0110
0000
0010
0100
0010
0000
1000
0000
0001
0100
0001
0000
1000
0100
1000
0000
,
0001
0000
0100
0000
0001
0000
0100
0000
0001
0010
0000
0100
1000
0000
0001
0000
,
0100
0000
0010
0000
1000
0000
0010
0000
0100
0001
0000
1000
0200
0000
0000
0300
,
1000
0000
0100
0000
1000
0000
0100
0000
1000
0010
0000
0100
0001
0000
1000
0000
,
0100
0000
0010
0000
0001
0000
0010
0000
0100
1000
0000
0001
0200
0000
0000
0300
,
0110
0000
0010
1000
0000
0010
0100
0000
0001
0000
1000
0100
0000
0010
0001
0000
,
1000
0000
0001
0100
0000
0010
0100
0000
0001
0000
0010
0100
0000
1000
0001
0000
,
1000
0100
1000
0000
0001
0100
0001
0000
1000
0100
1000
0100
0010
0001
0010
0001
,
0010
0010
0010
1001
,
1100
0010
0101
0010
,
1001
0000
0000
0000
0100
0000
0000
0000
0110
0000
0000
0000
0001
1000
0001
1000
,
0001
0010
1100
0010
,
0101
0000
0000
0000
0010
0000
0000
0000
1001
0000
0000
0000
1000
0010
1000
0010
,
0100
0001
0011
0100
,
1010
0000
0000
0000
0100
0000
0000
0000
1001
0000
0000
0000
0001
1000
0001
1000
,
0001
0100
0110
0010
,
1000
0000
0001
0100
0001
0100
0010
0000
1000
0001
0010
0000
0001
1000
0010
0000
,
1010
1010
0011
0011
,
0101
0101
1100
1100
,
1100
1100
0101
0101
,
0011
0011
1010
1010
,
1001
0000
0110
0000
1000
0100
0010
0000
,
1001
0000
0110
0000
0001
0100
0010
0000
,
1000
0100
0001
1000
0010
0001
1000
0000
,
2002
0000
0000
3003
,
1000
0100
0010
0001
0011
0000
0110
0000
,
1000
0001
0100
0010
1010
0000
0110
0000
,
0100
0001
1000
0100
0110
0010
0011
0000
,
0001
1000
0001
0100
0110
0010
1010
0000
,
1000
0100
1000
0000
0001
0100
0001
0000
1001
0000
1000
0000
1001
0000
0000
0000
,
0001
0010
0001
0000
1000
0010
1000
0000
1001
0000
0001
0000
1001
0000
0000
0000
,
1000
0010
1000
0000
0001
0100
0001
0000
0100
0010
0100
0010
0100
0010
0100
0020
,
0100
0100
0100
0100
0130
0000
0110
0000
,
1000
0000
0001
0100
0001
1000
0001
0000
0010
0000
0100
0000
2000
0000
0000
0000
,
3001
0000
0100
0010
0000
1000
0010
0100
0001
0000
1000
0000
0100
0000
0010
0000
,
0001
0000
0100
0010
1000
0010
0100
0000
0001
0000
1000
0000
0200
0000
0000
0000
,
0310
0001
1000
0001
0000
1000
0010
0000
0100
0001
1000
0000
0001
0010
0100
0000
,
1000
0000
0010
0100
0001
0100
0010
0000
1000
0000
0001
0000
0020
0000
0000
0000
,
0130
0000
1000
0001
0000
0100
0001
1000
0001
0000
0010
0000
0100
0000
0010
0000
,
0001
0000
1000
0001
0000
0100
0010
1000
0010
0000
0100
0000
0002
0000
0000
0000
,
1003
0100
1000
0000
0001
0010
0001
0000
0100
0010
0100
0010
0100
0010
0100
0000
,
0001
0000
1000
0001
0100
0001
1000
0000
0001
0000
0010
0000
0200
0000
0000
0000
,
1300
0000
0001
0100
0000
0010
1000
0010
0100
0000
0001
0000
1000
0000
0100
0000
,
0010
0000
0100
1000
0001
1000
0010
0000
0100
0000
0001
0000
2000
0000
0000
0000
,
3001
0100
0001
0100
0010
0100
0010
0000
1000
0100
1000
0100
0010
0100
0010
0000
,
0001
0010
1000
0010
0001
0010
1000
0010
,
0001
0100
1000
0100
0001
0100
1000
0100
,
0001
0010
0001
0000
1000
0100
1000
0000
0001
1000
0001
1000
0001
1000
0001
2000
,
0001
0001
0001
0001
3001
0000
1001
0000
,
0110
0000
0000
0000
;

//--------------- dance-single - Fred-104 ----------------
#NOTEDATA:;
#STEPSTYPE:dance-single;
#DESCRIPTION:Fred-104;
#DIFFICULTY:Challenge;
#METER:17;
#CREDIT:Fred-104;
#NOTES:
0000
0000
0000
0000
,
0000
0000
0000
0000
,
0000
0000
0000
0000
,
0000
0000
0000
0000
,
0000
0000
0000
0000
,
1000
0000
0001
1000
0010
1000
0001
0000
1000
0000
0100
0010
0001
1000
0001
0000
,
1000
0000
0010
0100
0001
1000
0100
0000
0010
0000
0001
1000
0010
0100
0001
0000
,
1000
0100
1000
0000
0001
0100
0001
0000
1000
0100
0010
0001
1000
0100
0010
0002
,
1000
1000
1000
1000
1003
0000
0110
0000
,
1001
0000
0001
0100
0001
0100
0001
0100
0010
1000
0001
0000
1000
0001
0010
0000
,
0000
0000
0100
1000
0001
0100
0001
0100
0001
1000
0100
0000
1000
0001
0100
0000
,
0010
0000
0100
0001
1000
0001
1000
0001
1000
0001
0010
0000
0100
1000
0001
0000
,
0000
0000
1000
0010
0100
0001
0100
0001
1000
0100
0010
0000
0001
0010
0100
0000
,
1000
0000
0001
1000
0010
1000
0010
1000
0010
1000
0001
0000
1000
0100
0010
0000
,
0000
0000
0001
1000
0100
1000
0001
1000
0010
0100
0001
0000
1000
0001
0010
0000
,
0100
0000
1000
0001
0100
0001
0100
0001
0100
0001
1000
0000
0001
0010
0100
0000
,
0000
0000
1000
0001
0010
0100
0010
0001
1000
0010
0100
0000
0001
0100
0010
0000
,
0100
0000
0001
1000
0010
1000
0001
1000
0100
0010
0001
0000
1000
0001
0100
0000
,
0001
0000
1000
0001
0010
0100
1000
0001
1000
0010
0100
0000
0010
1000
0001
0000
,
1000
0000
0010
1000
0001
1000
0100
1000
0001
0010
0100
0000
1000
0001
0100
0000
,
0001
0000
1000
0001
0010
0100
1000
0001
0100
0010
1000
0000
0001
0010
0001
0000
,
1000
0000
0100
0010
0100
0010
0001
0000
1000
0000
0010
0100
0010
0100
0001
0000
,
1000
0000
0100
0010
0001
1000
0010
0000
1000
0000
0010
0100
0001
1000
0100
0000
,
1000
0010
1000
0010
0100
0001
0100
0001
1000
0100
1000
0100
0010
0001
0010
0001
,
0010
0000
0000
0000
0010
0000
0000
0000
0010
0000
0000
0000
0001
1000
0001
1000
,
0001
0000
1000
0010
0100
0001
1000
0100
0010
0100
1000
0000
0010
0100
0001
0000
,
1000
0000
0100
1000
0001
1000
0010
1000
0001
1000
0100
0000
1000
0001
0100
0000
,
0001
0000
1000
0001
0010
0100
1000
0100
0010
0001
0100
0000
0010
1000
0100
0000
,
1000
0000
0001
1000
0100
1000
0001
0100
0010
1000
0001
0000
0010
0100
1000
0000
,
0001
0000
0100
0010
1000
0010
0100
0010
1000
0001
0010
0000
0100
0010
0001
0000
,
1000
0000
0001
0100
0010
1000
0100
0010
0001
1000
0010
0000
0100
0001
1000
0000
,
0001
0000
0010
0100
1000
0100
0010
0100
1000
0010
0100
0000
0001
0100
0010
0000
,
1000
0000
0001
0010
0001
1000
0010
1000
0100
0010
0100
0000
1000
0001
0100
0000
,
0001
0000
1000
0000
0010
0000
0100
0000
0001
0100
0000
0100
1000
0000
0010
0000
,
0100
0000
0001
0000
1000
0000
0100
0000
1000
0010
0000
0010
0002
0000
0000
0003
,
0010
0000
0100
0000
1000
0000
0010
0000
1000
0100
0000
0100
0001
0000
1000
0000
,
0001
0000
0100
0000
0010
0000
1000
0000
0001
0010
0000
0010
2000
0000
0000
3000
,
1001
0000
0000
0000
0100
0000
0000
0000
1000
0010
0000
0100
0001
0000
2000
0000
,
0000
0000
3100
0000
0010
0001
1000
0000
0001
0100
0000
0010
0100
0000
0001
0000
,
1000
0001
1000
0001
0100
0010
0100
0010
1000
0001
0010
0100
1000
0001
0100
0010
,
0100
0100
0100
1001
,
2000
0100
3002
0010
,
2003
0000
0000
0000
0100
0000
0000
0000
3001
0000
0000
0000
1000
0010
0100
0001
,
0200
0001
0320
0100
,
2030
0000
0000
0000
0001
0000
0000
0000
3020
0000
0000
0000
0130
0001
1000
0001
,
0020
0100
0032
0010
,
2003
0000
0000
0000
0010
0000
0000
0000
3200
0000
0000
0000
0310
0001
0100
0010
,
2000
0010
3002
0100
,
0013
0000
0100
1000
0001
0100
0010
1000
0100
0010
0001
0000
0100
0010
1000
0000
,
1100
0101
1100
1001
,
0101
1100
0101
1001
,
1010
0011
1010
0110
,
0011
1010
0011
0110
,
1000
0000
0001
1000
0010
0000
1000
0001
0010
0000
0100
1000
0001
0000
0100
0000
,
0010
0000
1000
0100
0010
0000
0001
0010
0100
0000
1000
0001
0100
0000
0010
0000
,
1000
0000
0100
1000
0001
0000
0100
0001
1000
0000
0010
0100
0001
0000
1000
0000
,
2002
0000
0000
3003
,
1000
0000
0010
0000
0001
0000
0010
0000
1000
0001
1000
0001
1000
0010
0100
0000
,
0001
0000
0100
0000
1000
0000
0100
0000
0001
1000
0001
1000
0100
0010
0001
0000
,
1000
0000
0100
0000
0001
0000
0100
0000
1000
0001
1000
0001
0100
0010
1000
0000
,
0001
0000
0010
0000
1000
0000
0010
0000
0001
1000
0001
1000
0010
0100
0001
0000
,
1000
0100
0010
0000
0010
0001
0100
0000
0100
0010
1000
0000
1000
0001
0010
0000
,
0010
0001
1000
0000
1000
0010
0100
0000
0100
0010
1000
0000
1000
0001
0010
0000
,
0001
1000
0100
0010
0001
0100
0010
1000
0010
0100
0001
0010
0100
1000
0001
0200
,
0010
0010
0010
0010
0310
0000
1001
0000
,
1000
0000
0001
1000
0010
0100
0001
1000
0100
0010
0001
1000
0020
0000
0000
0000
,
0130
0000
0001
1000
0001
0010
0100
0010
0001
0000
1000
0000
0010
0000
0100
0000
,
0001
0000
1000
0100
0010
0100
1000
0001
0100
0010
1000
0010
0200
0000
0000
0000
,
0301
0100
0010
1000
0100
0010
0001
0000
1000
0001
0100
0001
1000
0100
0010
0000
,
0001
0000
0100
0001
1000
0001
0010
0100
0010
0001
1000
0010
0200
0000
0000
0000
,
0301
0000
1000
0001
0100
0001
1000
0001
0010
0000
0100
0000
1000
0000
0001
0000
,
0100
0000
0010
1000
0001
0010
0100
0010
0100
1000
0100
0010
0200
0000
0000
0000
,
1300
0001
0100
0010
0100
0001
1000
0000
0100
0010
0001
1000
0010
0100
0001
0000
,
1000
0000
0001
1000
0010
1000
0100
0010
0001
0100
0010
1000
0001
0000
0010
0000
,
0100
0000
1000
0100
0010
0100
1000
0100
0010
0000
0001
0000
1000
0000
0001
0000
,
0100
0000
0001
1000
0010
1000
0001
1000
0100
0010
0001
1000
0020
0000
0000
0000
,
1030
0001
0100
0001
1000
0001
0010
0100
1000
0100
0010
0001
1000
0001
0100
0000
,
0001
0000
0100
0010
1000
0010
0100
0000
0001
0000
1000
0100
0010
0100
1000
0000
,
0001
0000
0100
0001
1000
0001
0010
0000
0100
0000
1000
0010
0100
0001
1000
0000
,
0001
0010
0001
1000
0010
0100
0001
0100
0010
1000
0001
0010
0100
1000
0001
0200
,
0010
0010
0010
0010
0310
0000
0110
0000
,
1001
0000
0000
0000
;

//--------------- dance-double - Fred-104 ----------------
#NOTEDATA:;
#STEPSTYPE:dance-double;
#DESCRIPTION:Fred-104;
#DIFFICULTY:Easy;
#METER:7;
#CREDIT:Fred-104;
#NOTES:
00000000
00000000
00000000
00000000
,
00000000
00000000
00000000
00000000
,
00000000
00000000
00000000
00000000
,
00000000
00000000
00000000
00000000
,
00000000
00000000
00000000
00000000
,
00001000
00000000
00010000
00000000
,
00100000
00000000
10000000
00000000
,
01000000
00100000
00001000
00010000
,
00022000
00000000
00000000
00033000
,
00011000
00000000
00010000
00000000
,
00001000
00000000
00000100
00000001
,
00000010
00000000
00000100
00000000
,
00010000
00000000
00001000
00010000
,
00011000
00000000
00001000
00000000
,
00010000
00000000
01000000
10000000
,
00100000
00000000
01000000
00000000
,
00001000
00000000
00010000
00001000
,
00010000
00010000
00001000
00000100
,
00000001
00001000
00000001
00000000
,
00000001
00000001
00000100
00001000
,
00010000
00100000
01000000
00000000
,
00010000
10000000
00100000
00000000
,
10000000
00010000
00100000
00000000
,
00001000
00001000
00010000
00010000
,
00022000
00000000
00000000
00033000
,
00010000
00001000
00000100
00000010
,
00001000
00000001
00002000
00003000
,
00000001
00000100
00000010
00001000
,
00000010
00010000
00002000
00003000
,
00100000
00001000
00010000
00001000
,
01000000
00010000
02000000
03000000
,
00010000
10000000
00010000
01000000
,
00100000
10000000
00010000
00000000
,
10000000
01000000
00010000
00001000
,
00010000
00000100
00000020
00000030
,
00000001
00000100
00001000
00010000
,
00001000
01000000
00200000
00300000
,
10000000
01000000
00100000
00000000
,
00001000
00010000
00100000
00000000
,
10000000
01000000
00010000
00001000
,
00010000
00010000
00001000
00001000
,
00011000
00000000
00020000
00030000
,
00000020
00000030
00002000
00003100
,
00000020
00000030
00000002
00000003
,
00000200
00000300
00001000
00010000
,
00200000
00300000
20000000
30000000
,
00020000
00030000
20000000
31000000
,
00200000
00300000
00002000
00003000
,
00010000
00010000
00001000
00001000
,
00010000
00010000
00001000
00001000
,
00000010
00000010
00001000
00001000
,
00010000
00010000
00001000
00001000
,
00000100
00000100
00001000
00001000
,
00010000
00001000
00000010
00000000
,
00000001
00000100
00001000
00000000
,
00010000
00100000
10000000
00010000
,
20020000
00000000
00000000
30030000
,
10000000
01000000
01100000
00000000
,
00001000
00010000
00011000
00000000
,
00001000
00000100
00000110
00000000
,
00000001
00000100
00000110
00000000
,
00000001
00000100
00001000
00010000
,
00100000
10000000
01000000
00010000
,
00001000
00010000
00001000
00000000
00010000
00000010
00010000
00000000
,
00022000
00000000
00000000
00033000
,
00010000
00001000
00000010
00000100
,
00010000
00001000
00020000
00030000
,
00001000
00010000
00100000
01000000
,
00001000
00010000
02000000
03000000
,
10000000
00010000
01000000
00100000
,
10000000
01000000
00200000
00300000
,
00001000
00010000
00001000
00000010
,
00000220
00000000
00000000
00000330
,
00001000
00000100
00000001
00000100
,
00001000
00000010
00020000
00030000
,
00001000
00010000
00100000
00010000
,
00001000
00100000
00020000
00030000
,
10000000
00010000
01000000
00100000
,
10000000
00100000
01000000
00001000
,
00010000
00000100
00010000
00001000
,
00022000
00000000
00000000
00033000
,
00011000
00000000
00000000
00000000
;

//--------------- dance-double - Fred-104 ----------------
#NOTEDATA:;
#STEPSTYPE:dance-double;
#DESCRIPTION:Fred-104;
#DIFFICULTY:Medium;
#METER:13;
#CREDIT:Fred-104;
#NOTES:
00000000
00000000
00000000
00000000
,
00000000
00000000
00000000
00000000
,
00000000
00000000
00000000
00000000
,
00000000
00000000
00000000
00000000
,
00000000
00000000
00000000
00000000
,
00010000
00000000
00000000
00001000
00000000
00000000
00000100
00000000
00000000
00000010
00000000
00000000
00001000
00000000
00000001
00000000
,
00000010
00000000
00000000
00001000
00000000
00000000
00010000
00000000
00000000
01000000
00000000
00000000
00100000
00000000
00010000
00000000
,
10000000
01000000
00100000
00001000
00010000
00001000
01000000
00001000
,
00010000
00001000
00010000
00001000
00010000
00000000
00011000
00000000
,
00010010
00000000
00010000
00001000
00000100
00000001
00001000
00000100
,
00000000
00000010
00000001
00001000
00000001
00000100
00000010
00000000
,
00001000
00000000
00000001
00000100
00001000
00010000
00100000
01000000
,
00000000
00010000
01000000
00100000
10000000
00010000
00100000
00000000
,
00101000
00000000
00001000
00010000
01000000
10000000
00010000
01000000
,
00000000
00100000
10000000
00010000
10000000
01000000
00100000
00000000
,
00010000
00000000
10000000
01000000
00010000
00001000
00000010
00000100
,
00000000
00001000
00000100
00000010
00000001
00001000
00000010
00000000
,
00000100
00000000
00000001
00000000
00001000
00000100
00010000
00000000
,
00001000
00000000
00100000
00000000
00010000
10000000
01000000
00000000
,
00100000
00000000
00001000
00000000
00010000
00001000
00000010
00000000
,
00000100
00000000
00001000
00000000
00000001
00000010
00000100
00000000
,
00000010
00000001
00001000
00000000
00000010
00010000
00001000
00000000
,
00100000
00010000
10000000
00000000
00100000
10000000
00010000
00000000
,
10000000
01000000
00100000
00001000
00010000
00100000
01000000
00001000
,
00010000
00000000
00010000
00000000
00010000
00000000
00001000
00001000
,
00001000
00010000
00001000
00000100
00000010
00001000
00000001
00002000
,
00000000
00003001
00000100
00000010
00000100
00001000
00010000
00000000
,
00100000
01000000
00010000
01000000
00100000
10000000
00010000
00200000
,
00000000
00301000
00010000
00000010
00001000
00000100
00010000
00000000
,
00001000
00000100
00000001
00001000
00000100
00000010
00000001
00002000
,
00000000
00003001
00000100
00001000
00010000
00100000
01000000
00000000
,
00100000
10000000
00010000
00100000
00010000
01000000
00001000
00010000
,
00001000
00010000
00100000
00010000
00001000
00010000
00001000
00000000
,
00010000
00000000
00001000
00000000
00000100
00000000
00000001
00000000
00001000
00000001
00000000
00001000
00000001
00000000
00000010
00000000
,
00000100
00000000
00001000
00000000
00000100
00000000
00010000
00000000
00001000
00100000
00000000
00001000
00010000
00000000
00000000
00000000
,
00001000
00000000
00010000
00000000
01000000
00000000
10000000
00000000
00010000
10000000
00000000
00010000
10000000
00000000
00100000
00000000
,
01000000
00000000
00010000
00000000
01000000
00000000
00001000
00000000
00010000
00000010
00000000
00010000
00001000
00000000
00000000
00000000
,
00011000
00000000
00000000
00000000
00000010
00000000
00000000
00000000
00010000
00000000
00000000
00001000
00000000
00000000
00200000
00000000
,
00000000
00000000
00301000
00000000
00010000
00000000
00100000
00000000
10000000
00000000
00000000
00010000
00000000
00000000
01000000
00000000
,
00100000
10000000
01000000
00010000
00001000
00010000
00001000
00000100
,
00000001
00000010
00000100
00001100
,
00000001
00000100
00001000
00000000
00010000
00100000
10000000
00000000
,
00010000
10000000
00100000
00000000
01000000
00010000
10000000
01000000
,
00100000
00001000
00010000
00000000
00001000
00010000
00000010
00000000
,
00001000
00000001
00000010
00000000
00000100
00000010
00000001
00001000
,
00000001
00000010
00001000
00000000
00010000
01000000
00100000
00000000
,
00010000
00100000
01000000
00000000
10000000
00010000
01000000
00001000
,
00010000
00001000
01000000
00000000
00001000
00010000
00000010
00000000
,
00001000
00000100
00000010
00000001
00001000
00000010
00000100
00000000
,
00001001
00000010
00011000
00100000
,
10010000
01000000
00011000
00000100
,
00001001
00000010
00011000
01000000
,
10010000
00100000
00011000
00000100
,
00010000
00000100
00001000
00000000
00000100
00010000
00001000
00000000
,
00100000
00001000
00010000
00000000
00000010
00010000
00001000
00000000
,
00010000
00001000
01000000
00000000
00010000
10000000
01000000
00000000
,
02200000
00000000
00000000
03300000
,
10000000
01000000
00010000
00001000
00000100
00000000
00000110
00000000
,
00000001
00000100
00001000
00010000
01000000
00000000
01100000
00000000
,
10000000
00100000
00010000
00001000
00000100
00000010
00001000
00000000
,
00000001
00000010
00001000
00010000
01000000
00100000
00010000
00000000
,
10010000
01000000
00011000
00000010
,
00001001
00000100
00011000
00100000
,
00001000
00010000
00001000
01000000
00001000
00010000
00001000
00100000
,
00001000
00010000
00001000
00010000
00001000
00000000
00011000
00000000
,
00010000
00001000
00000100
00000010
00001000
00000001
00000200
00000000
,
00000301
00000000
00000000
00001000
00000000
00000000
00000010
00000000
00010000
00000000
00001000
00000000
00000200
00000000
00000000
00000000
,
00000310
00001000
00010000
01000000
00001000
00010000
00002000
00000000
,
00013000
00001000
00000010
00000001
00000100
00001000
00020000
00000000
,
00031000
00010000
01000000
10000000
01000000
00100000
02000000
00000000
,
13000000
00000000
00000000
00100000
00000000
00000000
00010000
00000000
00001000
00000000
01000000
00000000
00002000
00000000
00000000
00000000
,
00013000
00001000
00000100
00000001
00000010
00000100
00000020
00000000
,
00000031
00001000
00000001
00001000
00000001
00000000
00001001
00000000
,
00000001
00000100
00001000
00010000
00001000
00000100
00000020
00000000
,
00001030
00000000
00000000
00000001
00000000
00000000
00001000
00000000
00000100
00000000
00010000
00000000
00002000
00000000
00000000
00000000
,
00013000
00001000
00000010
00001000
00010000
00001000
02000000
00000000
,
03001000
00000000
00000000
00010000
00000000
00000000
00001000
00000000
00100000
00000000
00010000
00000000
20000000
00000000
00000000
00000000
,
30010000
10000000
00010000
10000000
01000000
00100000
01000000
00100000
,
00001000
00010000
00001000
00010000
00000010
00001000
00000010
00001000
,
00000001
00000000
00000010
00000000
00000100
00000000
00001000
00000000
00000001
00001000
00000001
00001000
00000001
00001000
00000001
00001000
,
00000001
00001000
00000001
00001000
00000001
00000000
00000110
00000000
,
00001001
00000000
00000000
00000000
;

//--------------- dance-double - Fred-104 ----------------
#NOTEDATA:;
#STEPSTYPE:dance-double;
#DESCRIPTION:Fred-104;
#DIFFICULTY:Hard;
#METER:15;
#CREDIT:Fred-104;
#NOTES:
00000000
00000000
00000000
00000000
,
00000000
00000000
00000000
00000000
,
00000000
00000000
00000000
00000000
,
00000000
00000000
00000000
00000000
,
00000000
00000000
00000000
00000000
,
00001000
00010000
00000000
00001000
00100000
00000000
00001000
00010000
00000000
00001000
01000000
00000000
00001000
00000000
00100000
00000000
,
00010000
10000000
00000000
00010000
01000000
00000000
00010000
10000000
00000000
00010000
00100000
00000000
01000000
00000000
10000000
00000000
,
00010000
01000000
00010000
00000000
00100000
00001000
00100000
00000000
00001000
00010000
00001000
00000000
00010000
00000010
00010000
00000000
,
00000020
00000100
00000100
00000100
00000130
00000000
00001001
00000000
,
00001000
00000001
00000010
00001000
00010000
01000000
00100000
00020000
,
00000000
10030000
00100000
00010000
00001000
00010000
00100000
01000000
,
00001000
00010000
00100000
10000000
01000000
00010000
00001000
00000020
,
00000000
00000130
00001000
00000100
00000010
00000001
00001000
00000001
,
00000100
00000010
00000100
00001000
00010000
00100000
01000000
00200000
,
00000000
10300000
01000000
00010000
01000000
10000000
00010000
10000000
,
01000000
00100000
01000000
00010000
00001000
00000010
00000100
00000020
,
00000000
00000031
00000100
00001000
00000100
00000001
00001000
00000001
,
00000100
00000000
00000010
00000000
00000100
00000000
00001000
00000000
00010000
00001000
00010000
00000000
00100000
01000000
00100000
00000000
,
10000000
00000000
01000000
00000000
00100000
00000000
00001000
00000000
00010000
00001000
00010000
00000000
00000010
00001000
00000010
00000000
,
00010000
00000000
00001000
00000000
00000100
00000000
00000001
00000000
00000010
00000100
00000010
00000000
00000001
00001000
00000001
00000000
,
00000010
00000000
00001000
00000000
00010000
00000000
01000000
00000000
00100000
00010000
00100000
00000000
00010000
10000000
00010000
00000000
,
10000000
01000000
00010000
01000000
10000000
01000000
00010000
00001000
,
00010000
00001000
00000100
00000001
00000100
00001000
00000100
00000001
,
00001000
00000100
00001000
00000000
00000001
00000100
00000001
00000000
00001000
00000010
00001000
00000000
00000100
00010000
00000100
00000000
,
00010000
00000000
00000000
00000000
00010000
00000000
00000000
00000000
00010000
00000000
00000000
00000000
00001000
00010000
00001000
00010000
,
00001000
00000000
00100000
00000000
00010000
00000000
10000000
00000000
00010000
01000000
00010000
00000000
00100000
00000000
02000000
00000000
,
00000000
00000000
03100000
00010000
00100000
00000000
00001000
00000000
00010000
00000010
00010000
00000000
00000010
00001000
00000010
00000000
,
00010000
00000000
00001000
00000000
00000100
00000000
00000010
00000000
00001000
00000001
00001000
00000000
00000100
00000000
00000020
00000000
,
00000000
00000000
00000031
00000010
00000001
00000000
00001000
00000000
00000100
00010000
00000100
00000000
00010000
00001000
00010000
00000000
,
00001000
00000000
00010000
00000000
00100000
00000000
01000000
00000000
00001000
00010000
00001000
00000000
00010000
00000000
02000000
00000000
,
00000000
00000000
13000000
00010000
10000000
00000000
00010000
00000000
00100000
01000000
00100000
00000000
00001000
00010000
00001000
00000000
,
00010000
00000000
00001000
00000000
00000100
00000000
00000010
00000000
00010000
00001000
00010000
00000000
00001000
00000000
00000100
00000000
,
00000001
00000000
00001000
00000001
00001000
00000000
00000010
00000000
00000100
00000001
00000100
00000000
00000001
00001000
00000001
00000000
,
00001000
00000000
00000001
00000000
00000010
00000000
00000100
00000000
00010000
00001000
00000000
00010000
00100000
00000000
01000000
00000000
,
00010000
00000000
00100000
00000000
10000000
00000000
00100000
00000000
00010000
10000000
00000000
00010000
20000000
00000000
00000000
30000000
,
00010000
00000000
10000000
00000000
00100000
00000000
01000000
00000000
00001000
00010000
00000000
00001000
00000010
00000000
00000100
00000000
,
00001000
00000000
00000010
00000000
00000001
00000000
00000010
00000000
00001000
00000001
00000000
00001000
00000002
00000000
00000000
00000003
,
00001001
00000000
00000001
00000010
00000000
00000100
00001000
00000000
00000001
00000000
00000100
00000010
00000000
00001000
00000100
00000000
,
00010000
00000000
00000010
00001000
00000000
00000010
00010000
00000000
00001000
00000000
00100000
00010000
00000000
10000000
00010000
00000000
,
01000000
00100000
01000000
00000000
00100000
10000000
00100000
00000000
10000000
01000000
10000000
00000000
00010000
01000000
00010000
00000000
,
00100000
00001000
00010000
00011000
,
00010000
00001000
00000100
00000001
00001000
00000100
00000010
00000000
,
00000001
00000000
00000100
00000000
00001000
00000000
00010000
00000000
00100000
00000000
01000000
00000000
00010000
10000000
00010000
10000000
,
00010000
00100000
01000000
00100000
10000000
00100000
00010000
00000000
,
10000000
00000000
00100000
00000000
00010000
00000000
00001000
00000000
00010000
00000000
00000010
00000000
00001000
00000001
00001000
00000001
,
00001000
00000001
00000010
00000100
00010000
00001000
00000100
00000000
,
00000001
00000000
00000010
00000000
00000100
00000000
00000010
00000000
00001000
00000000
00010000
00000000
01000000
00100000
01000000
00100000
,
00010000
10000000
01000000
00010000
00001000
00010000
00100000
01000000
,
00001000
00000000
00010000
00001000
00010000
00001000
00010000
00000000
00000010
00001000
00000010
00000000
00000100
00000001
00000100
00000000
,
00001001
00000100
00011000
01000000
,
10010000
00100000
00011000
00000010
,
00001001
00000100
00011000
00100000
,
10010000
01000000
00011000
00000010
,
00010000
00001000
00000010
00000000
00001000
00010000
00100000
00000000
,
00010000
00001000
00000100
00000000
00001000
00010000
01000000
00000000
,
00010000
00001000
00000100
00000001
00000010
00001000
00010000
00001000
,
00022000
00000000
00000000
00033000
,
00001000
00010000
00100000
10000000
11000000
00000000
00110000
00000000
,
00100000
00001000
00010000
00000010
00001010
00000000
00001001
00000000
,
00000001
00000100
00001000
00010000
00011000
00010000
00011000
00000000
,
00001000
00010000
00100000
10000000
10010000
10000000
10010000
00000000
,
10000000
01000000
10000000
00000000
00010000
01000000
00010000
00000000
00110000
00000000
00100000
00000000
00101000
00000000
00000000
00000000
,
00010000
00001000
00010000
00000000
00000010
00001000
00000010
00000000
00000110
00000000
00000100
00000000
00000101
00000000
00000000
00000000
,
00000001
00000010
00000001
00000000
00001000
00000100
00001000
00000000
00000010
00010000
00000010
00000000
00010000
00001000
00010000
00000000
,
00002000
00010000
00010000
00010000
00013000
00000000
00011000
00000000
,
00001000
00000000
00100000
00010000
00100000
00010000
00100000
00000000
00001000
00000000
00010000
00000000
00002000
00000000
00000000
00000000
,
00013000
00000000
00000010
00001000
00000000
00000010
00000100
00000010
00001000
00000000
00000001
00000000
00000010
00000000
00000100
00000000
,
00001000
00000000
00000010
00000100
00000010
00000100
00000010
00000000
00001000
00000000
00000100
00000000
00020000
00000000
00000000
00000000
,
00031000
00100000
00001000
00100000
00000000
00010000
00100000
00000000
00010000
10000000
00010000
00000000
01000000
00100000
10000000
00000000
,
00010000
00000000
00100000
01000000
00100000
01000000
10000000
00000000
00100000
00000000
00010000
00000000
00002000
00000000
00000000
00000000
,
00013000
00000000
00001000
00000100
00000000
00000010
00001000
00000010
00000100
00000000
00000001
00000000
00001000
00000000
00000100
00000000
,
00000010
00000000
00000001
00001000
00000001
00001000
00000100
00000000
00010000
00000000
00001000
00000000
00020000
00000000
00000000
00000000
,
00030010
00010000
00000010
00000000
00010000
00001000
00010000
00000000
00001000
00100000
00001000
00000000
00100000
00010000
00100000
00000000
,
00010000
00000000
01000000
00100000
10000000
00100000
01000000
00000000
00010000
00000000
10000000
00000000
02000000
00000000
00000000
00000000
,
03100000
00000000
00001000
00010000
00000000
00001000
01000000
00001000
00010000
00000000
00001000
00000000
00000010
00000000
00000100
00000000
,
00001000
00000000
00000001
00001000
00000010
00001000
00000001
00000000
00000010
00000000
00000100
00000000
00000020
00000000
00000000
00000000
,
00000031
00000100
00000010
00000000
00001000
00000100
00010000
00000000
00001000
00100000
00010000
00000000
01000000
00100000
10000000
00000000
,
00010000
00100000
10000000
00100000
00010000
10000000
00100000
00010000
,
00001000
00000010
00000001
00001000
00000010
00000001
00000010
00001000
,
00000001
00000100
00000001
00000000
00001000
00000100
00001000
00000000
00000010
00010000
00000010
00000000
00010000
00001000
00010000
00000000
,
00002000
00010000
00010000
00010000
00013000
00000000
00011000
00000000
,
10010000
00000000
00000000
00000000
;

//--------------- dance-double - Fred-104 ----------------
#NOTEDATA:;
#STEPSTYPE:dance-double;
#DESCRIPTION:Fred-104;
#DIFFICULTY:Challenge;
#METER:17;
#CREDIT:Fred-104;
#NOTES:
00000000
00000000
00000000
00000000
,
00000000
00000000
00000000
00000000
,
00000000
00000000
00000000
00000000
,
00000000
00000000
00000000
00000000
,
00000000
00000000
00000000
00000000
,
00010000
00000000
00001000
00000010
00000000
00000100
00001000
00000000
00000001
00000000
00000100
00000010
00000000
00000100
00001000
00000000
,
00010000
00000000
00100000
01000000
00000000
00010000
00100000
00000000
01000000
00000000
10000000
00010000
00000000
01000000
00100000
00000000
,
10000000
01000000
10000000
00000000
00010000
01000000
00010000
00000000
00100000
00001000
00100000
00000000
00001000
00010000
00001000
00020000
,
00001000
00001000
00001000
00001000
00031000
00000000
00011000
00000000
,
00011000
00000000
00010000
00000010
00001000
00000010
00000100
00000000
00000001
00001000
00000100
00000000
00000010
00000001
00001000
00000000
,
00000000
00000000
00000010
00010000
00001000
00000000
00100000
00000000
00010000
10000000
00010000
00000000
01000000
00100000
10000000
00000000
,
00010000
00000000
00100000
01000000
10000000
01000000
00100000
00000000
00010000
10000000
01000000
00000000
00010000
00001000
00000010
00000000
,
00000000
00000000
00000100
00001000
00000001
00000000
00000100
00000000
00000010
00000100
00001000
00000000
00010000
00100000
01000000
00000000
,
00010000
00000000
10000000
01000000
00100000
00010000
01000000
00000000
00001000
00010000
00001000
00000000
00010000
00000010
00001000
00000000
,
00000000
00000000
00000010
00010000
00001000
00000000
00010000
00000000
00000100
00001000
00000001
00000000
00000100
00000010
00001000
00000000
,
00000001
00000000
00000010
00000100
00001000
00000100
00000010
00000000
00000001
00000100
00001000
00000000
00010000
00100000
01000000
00000000
,
00000000
00000000
00010000
00100000
01000000
00000000
10000000
00000000
00010000
01000000
00100000
00000000
10000000
00010000
00100000
00000000
,
00001000
00000000
00010000
00000010
00001000
00000010
00010000
00000010
00001000
00000001
00000010
00000000
00000001
00000010
00000100
00000000
,
00010000
00000000
00001000
00010000
00000010
00010000
00001000
00010000
00000010
00010000
00001000
00000000
00100000
00010000
10000000
00000000
,
00010000
00000000
01000000
00100000
10000000
00100000
01000000
00100000
10000000
00100000
01000000
00000000
00010000
00100000
00001000
00000000
,
00010000
00000000
00000010
00001000
00000010
00010000
00000010
00001000
00000001
00000010
00000100
00000000
00001000
00000100
00000010
00000000
,
00000001
00000000
00001000
00000010
00000100
00000000
00000001
00001000
00000100
00000000
00010000
00001000
00010000
00000000
00001000
00000000
,
00100000
00000000
00010000
10000000
00100000
00000000
01000000
00010000
10000000
00000000
01000000
00100000
00010000
00000000
00001000
00000000
,
00010000
00000010
00001000
00000000
00000001
00000010
00000100
00000000
00001000
00000100
00000010
00000001
00000100
00000010
00001000
00000100
,
00010000
00000000
00000000
00000000
00010000
00000000
00000000
00000000
00010000
00000000
00000000
00000000
00010000
00001000
00010000
00001000
,
00010000
00000000
00001000
00100000
00010000
00100000
00001000
00100000
00010000
10000000
00010000
00000000
01000000
00100000
01000000
00000000
,
00010000
00000000
10000000
01000000
00100000
00010000
00100000
00000000
00001000
00010000
00001000
00000000
00010000
00000010
00001000
00000000
,
00000010
00000000
00001000
00000001
00000010
00000001
00001000
00000001
00000010
00000100
00001000
00000000
00000100
00010000
00001000
00000000
,
00010000
00000000
00000010
00001000
00000010
00010000
00001000
00000000
00100000
00010000
10000000
00000000
00010000
00100000
01000000
00000000
,
10000000
00000000
00010000
00100000
01000000
00100000
00010000
00100000
01000000
10000000
00010000
00000000
00100000
00001000
00010000
00000000
,
00001000
00000000
01000000
00001000
00010000
00001000
00000100
00000000
00000010
00001000
00000001
00000000
00000010
00000001
00001000
00000000
,
00000001
00000000
00001000
00000001
00000010
00000100
00001000
00000100
00010000
00001000
00100000
00000000
00001000
00010000
00000010
00000000
,
00001000
00000000
00000100
00000010
00000001
00000100
00001000
00000000
00010000
00100000
01000000
00000000
00010000
10000000
01000000
00000000
,
10000000
00000000
00010000
00000000
01000000
00000000
00100000
00000000
10000000
01000000
00000000
00100000
00001000
00000000
00010000
00000000
,
00001000
00000000
00000010
00000000
00000100
00000000
00001000
00000000
00000001
00000100
00000000
00001000
00020000
00000000
00000000
00030000
,
00001000
00000000
00010000
00000000
00100000
00000000
01000000
00000000
00010000
00100000
00000000
01000000
00100000
00000000
00010000
00000000
,
10000000
00000000
00100000
00000000
00010000
00000000
00001000
00000000
00000100
00000010
00000000
00001000
00000020
00000000
00000000
00000030
,
00001001
00000000
00000000
00000000
00000001
00000000
00000000
00000000
00000100
00000000
00000000
00001000
00010000
00000000
00001000
00000000
,
01000000
00000000
00100000
10000000
00010000
00000000
10000000
00000000
01000000
00100000
00000000
00100000
00001000
00010000
00000010
00000000
,
00001000
00000100
00000010
00000000
00000001
00001000
00000010
00000000
00010000
00001000
00010000
00000010
00010000
00001000
00010000
00000100
,
00010000
00010000
00010000
00011000
,
00001000
00010000
00100000
01000000
00001000
00010000
01000000
10000000
,
00100000
00000000
01000000
00000000
00100000
00000000
00010000
00000000
00001000
00000000
00000100
00000000
00000010
00001000
00000010
00001000
,
00000001
00000010
00000100
00000010
00001000
00010000
01000000
00100000
,
00010000
00000000
00100000
00000000
01000000
00000000
10000000
00000000
00010000
00000000
01000000
00000000
00100000
10000000
00100000
10000000
,
00010000
00100000
00010000
01000000
00001000
00000100
00000010
00001000
,
00000001
00000000
00000010
00000000
00000100
00000000
00010000
00000000
00001000
00000000
00000100
00000000
00000001
00000010
00000001
00000010
,
00000100
00000010
00001000
00010000
01000000
00100000
00010000
10000000
,
01000000
00000000
00100000
00010000
10000000
00100000
01000000
00000000
00010000
00100000
00010000
00000000
00100000
00001000
00010000
00000000
,
00011000
00010010
00011000
00010100
,
00011000
01001000
00011000
00101000
,
00011000
00010010
00011000
01001000
,
00011000
00010100
00011000
00101000
,
00010000
00001000
00000100
00000001
00000010
00001000
00010000
00000000
,
00001000
00010000
01000000
10000000
00100000
00010000
00001000
00000000
,
00010000
00001000
00000100
00000001
00001000
00000100
00000010
00000001
,
00002002
00000000
00000000
00003003
,
00000001
00000000
00000010
00000000
00001000
00000000
00010000
00000000
01000000
00000000
00100000
00000000
00010000
10000000
00010000
00000000
,
10000000
00000000
00100000
00000000
00010000
00000000
00001000
00000000
00000100
00000000
00000010
00000000
00001000
00000001
00001000
00000000
,
00000001
00000000
00000100
00000000
00001000
00000000
00010000
00000000
00100000
00000000
01000000
00000000
00010000
10000000
00010000
00000000
,
10000000
00000000
01000000
00000000
00010000
00000000
00001000
00000000
00000010
00000000
00000100
00000000
00001000
00000001
00001000
00000000
,
00000001
00000100
00000010
00000000
00000010
00001000
00000100
00000000
00000100
00010000
00001000
00000000
00001000
00100000
00010000
00000000
,
00010000
01000000
00100000
00000000
00100000
10000000
01000000
00000000
01000000
00100000
00010000
00000000
00010000
01000000
00001000
00000000
,
00010000
00000010
00001000
00000000
00000001
00000010
00000100
00000000
00000010
00000001
00000100
00000010
00001000
00000100
00010000
00002000
,
00010000
00010000
00010000
00010000
00013000
00000000
00011000
00000000
,
00010000
00000000
00001000
00100000
00010000
10000000
00010000
00000000
01000000
00100000
10000000
00010000
00200000
00000000
00000000
00000000
,
00310000
00000000
10000000
01000000
00000000
00010000
00001000
00010000
00000100
00000000
00000010
00000000
00000001
00000000
00001000
00000000
,
00000001
00000000
00000100
00000010
00000100
00001000
00010000
00000000
00100000
01000000
00010000
10000000
02000000
00000000
00000000
00000000
,
13000000
01000000
00100000
00001000
00010000
00000010
00010000
00000000
00000100
00001000
00000100
00000010
00000001
00001000
00000001
00000000
,
00001000
00000000
00000001
00000010
00000100
00000010
00001000
00000000
00010000
00001000
00100000
00001000
00020000
00000000
00000000
00000000
,
00031000
00000000
00010000
00100000
00000000
01000000
00001000
00010000
00001000
00000000
00010000
00000000
01000000
00000000
10000000
00000000
,
00010000
00000000
01000000
00100000
10000000
00010000
00100000
00000000
01000000
00100000
00001000
00010000
00002000
00000000
00000000
00000000
,
00013000
00001000
00010000
00000010
00001000
00000010
00000100
00000000
00000001
00000010
00000100
00000010
00000001
00000010
00000100
00000000
,
00001000
00000000
00000001
00000100
00000010
00001000
00000001
00000010
00000100
00001000
00000100
00001000
00000200
00000000
00000000
00000000
,
00010300
00000000
00000010
00010000
00001000
00010000
00000010
00010000
00001000
00000000
00100000
00000000
00010000
00000000
10000000
00000000
,
00010000
00000000
00100000
01000000
10000000
01000000
00100000
01000000
10000000
00010000
10000000
00010000
20000000
00000000
00000000
00000000
,
30010000
00100000
01000000
10000000
00100000
01000000
00010000
00000000
10000000
01000000
00100000
00010000
00100000
00001000
00010000
00000000
,
00001000
00000000
00010000
00001000
00000000
00000010
00000100
00000000
00001000
00000000
00000001
00000100
00000000
00001000
00010000
00000000
,
00100000
00000000
01000000
00010000
00000000
01000000
00001000
00000000
00010000
00000000
00100000
00000000
10000000
00000000
01000000
00000000
,
10000000
01000000
00100000
00010000
00100000
00001000
00010000
00000100
00001000
00000100
00000010
00000001
00001000
00000010
00010000
00002000
,
00010000
00010000
00010000
00010000
00013000
00000000
00011000
00000000
,
00001001
00000000
00000000
00000000
;
