#TITLE:Cranberry;
#ARTIST:BEMANI Sound Team "肥塚良彦";
#ARTISTTRANSLIT:Yoshihiko Koezuka;
#BANNER:Cranberry.png;
#BACKGROUND:Cranberry-bg.png;
#CDTITLE:./CDTitles/jb Ave.png;
#MUSIC:Cranberry.ogg;
#SAMPLESTART:13.333;
#SAMPLELENGTH:15;
#BPMS:0=180;
#BGSTAGE:5;

//--------------- dance-single - Fred-104 ----------------
#NOTES:
     dance-single:
     Fred-104:
     Beginner:
     2:
     :
0000
0000
0000
0000
,
0000
0000
0000
0000
,
0000
0000
0000
0000
,
0000
0000
0000
0000
,
0000
0000
0000
0000
,
1000
0000
0000
0000
,
0001
0000
0000
0000
,
1000
0000
0000
0000
,
1000
1000
0000
0000
,
0000
0000
0000
0000
,
1000
0000
0000
0000
,
0001
0000
0000
0000
,
0100
0000
0000
0000
,
0001
0000
0100
0000
,
0001
0000
0000
0000
,
1000
0000
0000
0000
,
0001
0000
0000
0000
,
1000
0000
0001
0000
,
1000
0000
0000
0000
,
0010
0000
0000
0000
,
1000
0000
0000
0000
,
0001
0000
0000
0000
,
1000
0000
0000
0000
,
0001
0000
0000
0000
,
0100
0000
0000
0000
,
0100
0000
0010
0000
,
0100
0000
0000
0000
,
0001
0000
0000
0000
,
1000
0000
0000
0000
,
0010
0000
0000
0000
,
0000
0100
0000
0000
,
0000
0001
0000
0000
,
0000
1000
0000
0000
,
0000
0001
0000
0000
,
0000
1000
0000
0000
,
0000
0001
0000
0000
,
0001
0000
0000
0000
,
1000
0000
0000
0000
,
0000
0001
0000
0000
,
0000
1000
0000
0000
,
0000
0001
0000
0000
,
0000
1000
0000
0000
,
0000
0001
0000
0000
,
0000
1000
0000
0000
,
1000
0000
0000
1000
,
0000
0000
0000
0000
,
0001
0000
0000
0000
,
0000
1000
0000
0000
,
0001
0000
0000
0000
,
0000
0100
0000
0000
,
0010
0000
0000
0000
,
0000
0100
0000
0000
,
0010
0000
0000
0000
,
1000
0000
0000
0000
,
0001
0000
0000
0000
,
0001
0000
0000
0000
,
1000
0000
0000
0000
,
0001
0000
0000
0000
,
0000
0000
0000
0000
,
0000
1000
0000
0000
,
0000
0001
0000
0000
,
0000
1000
0000
0000
,
0000
0010
0000
0000
,
0000
0100
0000
0000
,
0000
0001
0000
0000
,
0100
0000
0000
0001
,
0000
0000
0000
0000
,
0000
1000
0000
0000
,
0000
0010
0000
0000
,
0000
0010
0000
0000
,
0000
0100
0000
0000
,
0000
0001
0000
0000
,
0000
0001
0000
0000
,
1000
0000
0000
0001
,
0000
0000
1000
0000
,
0001
0000
0000
0000
,
0000
1000
0000
0000
,
0010
0000
0000
0000
,
0000
1000
0000
0000
,
0001
0000
0000
0000
,
0000
0100
0000
0000
,
0001
0000
0000
0000
,
0000
1000
0000
0000
,
0001
0000
0000
0000
,
1000
0000
0000
0000
,
0001
0000
0000
0000
,
1000
0000
0000
1001
;

//--------------- dance-single - Fred-104 ----------------
#NOTES:
     dance-single:
     Fred-104:
     Easy:
     6:
     :
0000
0000
0000
0000
,
0000
0000
0000
0000
,
0000
0000
0000
0000
,
0000
0000
0000
0000
,
0000
0000
0000
0000
,
1000
0000
0000
0000
0001
0000
0000
0100
,
0000
0010
0100
0000
,
0002
0003
2000
3000
,
0001
2002
0000
3003
,
1001
0000
0000
0000
,
1000
0000
0010
0000
,
0100
0001
0100
0000
,
0001
0000
0010
0000
,
0100
0010
0100
0000
,
1000
0000
0000
0000
0001
0000
0000
1000
,
0000
0010
0100
0001
,
0100
0000
0000
0010
0000
0000
0100
0000
,
0000
0001
1000
0001
,
1000
0000
0010
0000
,
0100
0100
0001
1000
,
0001
0000
0000
0000
1000
0000
0000
0010
,
0000
0100
0001
0100
,
0001
0000
0000
0000
1000
0000
0000
0001
,
0000
1000
0010
0010
,
0100
0000
0000
0001
0000
1000
0000
1001
,
0000
0000
0010
0100
,
0002
0003
0020
0030
,
0200
0300
2000
3000
,
0002
0003
0200
0300
,
0020
0030
2000
3000
,
0000
0000
0001
0000
1000
0000
0000
0001
,
0000
0100
0010
0100
,
0000
0001
0000
0100
,
0000
0010
1000
1000
,
0000
0000
0001
0000
0010
0000
0000
0001
,
0000
1000
0010
0100
,
0100
0000
0001
0000
,
2000
0000
3001
0000
,
0000
0000
1000
0000
0010
0000
0000
0100
,
0000
0001
0100
0010
,
0000
0100
0000
0001
,
0000
1000
0001
1000
,
0000
0000
0010
0000
0100
0000
0000
0001
,
0000
0100
0100
0010
,
0100
0000
0010
0000
0100
0000
0000
0100
,
0000
0000
0001
1000
,
0001
0000
0001
0000
0000
0100
0000
0010
,
0000
1000
0010
0100
,
0010
0000
0010
0000
0000
1000
0000
0001
,
0000
1000
0100
0010
,
0100
0000
0100
0000
0000
0001
0000
0010
,
0000
0001
0100
0001
,
1001
0000
0110
0000
,
1001
0000
0110
0000
,
1000
0000
0010
0000
,
1000
0000
0000
0010
0000
0000
0100
0000
,
0000
0001
0000
0000
1000
0000
0000
0100
,
0000
0010
0001
1000
,
0001
0000
1001
0000
,
1000
0000
0010
0000
0100
0000
0000
0010
,
0000
0100
0001
0001
,
0100
0000
0010
0000
0100
0000
0000
0001
,
0000
0100
0010
0100
,
0010
0000
1000
0000
0001
0000
0000
1000
,
0000
0001
1000
0100
,
1000
0000
0000
0010
0000
0000
0100
0000
,
0000
0001
1000
0001
,
1000
0000
0100
0000
0010
0000
0000
0001
,
0000
0100
0010
0100
,
0001
0000
0001
0000
0100
0000
0000
0010
,
0000
1000
0001
1000
,
1000
0000
0000
0000
0010
0000
0000
0100
,
0000
0001
1000
0001
,
1000
0000
0000
0010
0000
0100
0000
0110
,
0000
0000
0001
0000
1000
0001
1000
0000
,
0002
0000
0000
0003
0000
0000
0001
0000
,
1000
0000
0010
0100
,
0020
0000
0000
0030
0000
0000
0010
0000
,
1000
0000
0100
0010
,
0200
0000
0000
0300
0000
0000
0100
0000
,
0001
0000
0100
0010
,
2000
0000
0000
3000
0000
0000
1000
0000
,
0001
0000
0100
0010
,
2000
3000
0200
0300
,
0020
0030
0002
0003
,
2000
3000
0020
0030
,
0200
0300
0001
1001
;

//--------------- dance-single - Fred-104 ----------------
#NOTES:
     dance-single:
     Fred-104:
     Medium:
     10:
     :
0000
0000
0000
0000
,
0000
0000
0000
0000
,
0000
0000
0000
0000
,
0000
0000
0000
0000
,
0000
0000
0000
0000
,
0001
0100
0001
0000
0100
0010
0000
1000
,
0000
0001
0100
0000
0010
0000
0100
0000
,
0001
0000
0000
0001
1000
0000
0000
1000
,
0001
0000
2002
0000
0000
0000
3003
0001
,
1000
0000
0000
0000
0010
0100
0010
0000
,
0100
0000
0001
0000
0100
0010
0100
0020
,
0000
1030
0010
0000
1000
0000
0100
0000
,
0010
0000
0001
0000
1000
0010
0100
0020
,
0000
1030
0001
0000
0100
0000
0010
0000
,
0100
0000
0001
0000
0010
0001
1000
0002
,
0000
0103
0010
0000
0100
0010
1000
0000
,
0010
0000
0010
0100
0000
0001
1000
0000
,
0000
1010
1010
1001
,
0001
0000
0100
0000
0010
0100
0010
2000
,
0000
3010
0100
0000
0001
0000
1000
0000
,
0100
0000
0010
0000
0001
0100
0010
0200
,
0000
0301
0010
0000
0001
0000
1000
0000
,
0100
0000
0010
0000
0001
1000
0100
2000
,
0000
3010
0100
0000
0001
0000
1000
0000
,
0001
0000
0100
0010
0000
0010
1000
0010
,
0000
0010
0100
0000
0001
1000
0001
0000
,
1100
0100
0010
0001
,
0101
0100
0010
1000
,
1010
0010
0100
0001
,
0011
0010
0100
1000
,
0001
0100
0001
0000
0100
0100
0000
0010
,
0000
1000
0100
0000
0010
0000
0010
0000
,
0001
1000
0001
0100
0000
0100
0000
0010
,
0000
0100
0001
0000
1000
0001
1000
0000
,
0010
0100
0010
0000
1000
1000
0000
0100
,
0000
0010
0001
0000
1000
0001
0100
0000
,
0001
0010
0001
1000
0000
0000
1100
0000
,
0100
0000
0010
0000
0100
0010
0100
0000
,
0001
0100
0010
0000
1000
0100
0000
0010
,
0000
0100
1000
0000
0001
0100
0010
0000
,
0000
1000
0001
0010
0000
0100
1000
0001
,
0000
1000
0100
0000
0010
0010
0010
0000
,
0010
0100
0010
0000
0001
1000
0000
0100
,
0000
0010
0100
0000
1000
0010
1000
0000
,
1001
0000
0001
0000
0100
0000
0010
0010
,
0000
0100
0010
1000
0000
0010
0100
0000
,
0001
1000
0001
0000
0000
0100
0010
0100
,
0000
0010
0100
0000
0010
0000
1000
0000
,
0010
1000
0010
0000
0000
1000
0100
0010
,
0000
0001
1000
0000
0001
0100
0010
0000
,
0100
0010
0100
0000
0000
0001
0010
0001
,
0200
0320
2030
3001
,
1001
0000
0000
1000
0001
0000
0000
0001
,
1000
0000
0010
0000
0100
0010
0100
0000
,
0001
0100
0001
0000
0100
0000
0010
0000
,
1000
0100
0000
0010
0100
0000
1000
0010
,
0000
0100
0010
0000
1000
0001
0000
0010
,
0001
0000
1000
0001
0000
0100
0001
0000
,
1000
0010
1000
0000
0001
0001
0000
0000
,
1000
0000
0010
0000
1000
0010
0100
0002
,
0000
0013
0001
0000
1000
0001
1000
0000
,
0001
0000
0100
0000
0001
0010
0001
2000
,
0000
3100
0010
0000
0100
0001
0100
0000
,
0001
0000
0000
0000
0000
0000
0000
0000
0000
0000
0000
0000
0000
0000
0000
0000
1000
0000
0000
0000
0000
0000
0000
0000
0000
0000
0000
0000
0000
0000
0000
0000
0001
0000
0000
0000
0000
0000
0000
0000
0100
0000
0000
0000
0000
0000
0000
0000
0020
0030
0000
0000
0000
0000
0000
0000
0020
0030
0000
0000
0000
0000
0000
0000
,
0000
0001
1000
0000
0001
0100
0010
0000
,
1000
0001
0100
0001
0000
0100
0010
0000
,
0000
1010
0110
0101
,
0001
0000
0100
0000
0001
0010
0100
2000
,
0000
3010
0100
0000
0001
1000
0100
0000
,
1000
0000
0010
0000
1000
0001
0010
0200
,
0000
0310
0001
0000
1000
0001
0100
0000
,
0001
0000
0010
0001
0001
1000
0010
0100
,
0000
0001
0100
0000
0020
0000
2030
0000
,
3001
0100
0001
0100
0000
1000
0100
1000
,
0000
0100
0001
0000
1000
0001
1000
0000
,
0001
0000
0000
0010
0000
0000
0100
0000
0000
1000
0000
0000
0001
0000
0001
0000
,
0000
0100
0010
0100
0001
0000
1000
0000
,
0010
0000
0000
1000
0000
0000
0001
0000
0000
0100
0000
0000
0010
0000
0010
0000
,
0000
0100
0001
1000
0001
0000
0010
0000
,
0100
0000
0000
1000
0000
0000
0010
0000
0000
0100
0000
0000
0001
0000
0001
0000
,
0000
1000
0100
1000
0001
0000
0100
0000
,
0001
0000
0000
0010
0000
0000
0001
0000
0000
1000
0000
0000
0100
0000
0100
0000
,
0000
1000
0001
0100
0010
0000
0100
0000
,
0101
0100
0010
1000
,
1100
0100
0010
0001
,
0011
0010
0001
0100
,
1010
0010
1000
1001
;

//--------------- dance-single - Fred-104 ----------------
#NOTES:
     dance-single:
     Fred-104:
     Hard:
     14:
     :
0000
0000
0000
0000
,
0000
0000
0000
0000
,
0000
0000
0000
0000
,
0000
0000
0000
0000
,
0000
0000
0000
0000
,
1000
0010
0100
0000
0001
1000
0000
0001
,
0000
1000
0100
0001
0100
1000
0010
0100
,
0002
0000
0000
0000
0000
0000
1003
0100
2000
0000
0000
0000
0000
0000
3001
0100
,
0001
0000
0000
0000
2002
0000
0000
0000
0000
0000
0000
0000
3003
0000
0001
1000
,
0001
0000
0000
0000
0000
0000
0000
0000
0100
0010
0100
0010
0100
0000
0001
0000
,
1000
0100
1000
0100
0010
0001
1000
0002
,
0000
0103
1000
0100
0001
0010
0100
1000
,
0001
0100
0010
0100
1000
0100
0010
2000
,
0000
3010
0001
0010
1000
0001
0100
0010
,
1000
0000
0010
0000
0100
0000
0001
0100
0001
0100
0010
0000
1000
0100
1000
0000
,
0000
0000
1000
0010
0100
0000
0001
0000
1000
0000
0100
0000
1000
0001
1000
0000
,
0001
0100
0010
0100
0000
1000
1001
0000
,
0010
0100
0110
0000
1100
0000
1001
0000
,
1000
0100
0010
0100
0001
0100
0010
0002
,
0000
1003
0010
0100
0001
1000
0001
1000
,
0001
0010
0100
0001
0100
1000
0010
0200
,
0000
0301
0100
1000
0100
0001
0010
0100
,
1000
0000
0010
0000
0100
0000
0010
0100
0010
0000
1000
0000
0001
1000
0001
0000
,
0000
0000
1000
0100
1000
0000
0010
0000
0100
0000
0001
0000
0010
0001
0010
0000
,
0001
0000
0100
0000
0010
0000
1000
0000
0000
0000
0100
0000
0010
0001
0010
0000
,
0000
0001
1000
0010
0100
0100
0001
1000
,
2100
3010
0102
0013
,
1200
0310
0201
0310
,
2100
3001
0102
1003
,
2010
3001
0012
1003
,
0001
0000
0000
0000
0000
0000
0000
0000
0200
0300
0000
0000
0000
0000
0000
0000
0200
0300
0000
0000
0000
0000
0000
0000
0000
0000
0000
0000
0000
0000
0000
0000
1000
0000
0000
0000
0000
0000
0000
0000
0100
0000
0000
0000
0000
0000
0000
0000
0000
0000
0000
0000
0000
0000
0000
0000
0010
0000
0000
0000
0000
0000
0000
0000
,
0000
0001
0100
0001
0100
0010
0100
0010
,
1000
0000
0000
0000
0000
0000
0000
0000
0020
0030
0000
0000
0000
0000
0000
0000
0020
0030
0000
0000
0000
0000
0000
0000
0001
0000
0000
0000
0000
0000
0000
0000
0000
0000
0000
0000
0000
0000
0000
0000
0020
0030
0000
0000
0000
0000
0000
0000
0020
0030
0000
0000
0000
0000
0000
0000
1000
0000
0000
0000
0000
0000
0000
0000
,
0000
0001
1001
0000
0100
0100
0110
0000
,
0001
0000
0000
0000
0000
0000
0000
0000
0200
0300
0000
0000
0000
0000
0000
0000
0200
0300
0000
0000
0000
0000
0000
0000
0000
0000
0000
0000
0000
0000
0000
0000
1000
0000
0000
0000
0000
0000
0000
0000
0100
0000
0000
0000
0000
0000
0000
0000
0000
0000
0000
0000
0000
0000
0000
0000
0010
0000
0000
0000
0000
0000
0000
0000
,
0000
0000
0100
0010
0100
0000
0001
0000
1000
0000
0100
0000
0001
0000
0100
0000
,
1000
0010
0100
0020
0001
0000
1030
0000
,
0001
0000
0100
0000
0010
0000
1000
0000
0001
1000
0001
0000
0100
0010
0100
0000
,
0001
0010
0010
0001
1000
0010
0100
0001
,
0000
1000
0100
0010
0001
1000
0010
0100
,
0001
1000
0100
0001
0000
1000
0010
0001
,
0000
1000
1001
0000
0100
0100
0110
0000
,
0001
1000
1000
0100
0010
0001
1000
0010
,
0100
0000
0001
0010
0001
0000
1000
0000
0100
0000
0010
0000
0100
0000
1000
0000
,
1010
0000
0101
0000
1100
0000
0001
1000
,
0000
0000
0010
0000
0100
0000
0100
0000
0001
1000
0001
0000
0100
0010
0100
0000
,
0001
0001
0001
0000
0000
1000
0010
1010
,
0000
1000
0010
0100
0001
1000
0100
0010
,
0100
0100
0100
0000
0000
0001
1000
1001
,
0000
0000
0100
0000
0020
0000
0000
0000
0031
1000
0001
1000
0001
0000
0000
0000
,
1000
1000
1000
0000
0000
0001
0100
0101
,
0000
0100
0020
0000
2030
0000
3001
0000
,
2001
0000
0000
0000
0000
0000
3010
0100
0020
0000
0000
0000
0000
0000
0130
0001
,
0200
0000
0000
0000
0001
0000
0000
0000
1300
0001
1000
0001
1000
0000
0000
0000
,
1000
0100
0010
0100
0001
0100
1000
0001
,
1000
0100
0100
1000
0100
0100
0001
0100
,
0100
1000
0100
0100
0001
0100
0010
1000
,
0001
0010
0001
0100
0010
1000
0100
0010
,
0001
0000
0100
0000
0010
0100
0010
0000
1000
0000
0002
0000
0000
0000
0003
0000
,
1010
0000
0101
0000
1000
0100
0010
0002
,
0000
0000
0000
0000
0000
0000
0000
0000
0103
0000
0000
0000
0000
0000
0000
0000
0020
0030
0000
0000
0000
0000
0000
0000
0020
0030
0000
0000
0000
0000
0000
0000
0001
0000
0000
0000
0000
0000
0000
0000
1000
0000
0000
0000
0000
0000
0000
0000
0010
0000
0000
0000
0000
0000
0000
0000
0100
0000
0000
0000
0000
0000
0000
0000
,
0101
0000
1100
0000
0100
0001
1000
0002
,
0000
0000
0000
0000
0000
0000
0000
0000
0013
0000
0000
0000
0000
0000
0000
0000
0200
0300
0000
0000
0000
0000
0000
0000
0200
0300
0000
0000
0000
0000
0000
0000
0001
0000
0000
0000
0000
0000
0000
0000
0100
0000
0000
0000
0000
0000
0000
0000
0010
0000
0000
0000
0000
0000
0000
0000
1000
0000
0000
0000
0000
0000
0000
0000
,
1010
0000
0000
0000
0010
0000
0100
0010
0100
0000
0001
0000
1000
0001
1000
0000
,
0000
0000
0001
0010
0001
0000
0010
0000
0100
0000
1000
0000
0010
1000
0010
0000
,
1000
0010
0100
0010
0000
0100
0101
0000
,
0001
1000
0100
0001
1000
0010
0001
0000
,
1001
0000
0101
0000
0100
0010
1000
0020
,
0000
0031
0010
1000
0001
0100
0010
0100
,
0101
0000
1100
0000
0001
0100
0010
2000
,
0000
3100
0001
0100
1000
0001
0100
0010
,
1010
0000
0000
0000
0010
0000
0100
0001
0100
0000
0001
0000
1000
0001
1000
0000
,
0000
0000
0001
0100
0001
0000
0100
0000
0010
0000
1000
0000
0100
0010
0100
0000
,
0010
0000
0001
0000
1000
0000
0001
0000
0000
0000
0100
0000
0010
0100
0010
0000
,
0000
1000
0001
0100
0001
0010
0100
1000
,
0001
0100
0000
0010
1000
0000
0001
0010
0000
0100
1000
0000
0001
0000
0200
0000
,
0000
0301
0010
1000
0001
0100
0010
0100
,
1000
0001
0000
0100
0010
0000
1000
0100
0000
0010
0001
0000
1000
0000
0002
0000
,
0000
0013
0100
0001
1000
0010
0001
1000
,
0001
0100
0000
0010
1000
0000
0100
0010
0000
0001
1000
0000
0001
0000
0020
0000
,
0000
0031
1000
0010
0100
1000
0001
0010
,
1000
0001
0000
1000
0100
0000
0010
0001
0000
1000
0010
0000
0100
0000
0002
0000
,
0000
0000
0103
0000
1000
0000
0100
0000
0010
0000
1000
0001
0010
0000
0001
0000
,
0011
0011
0110
0110
,
0011
0011
1001
1001
,
1010
1010
0110
0110
,
1010
1010
0110
1001
;

//--------------- dance-single - Fred-104 ----------------
#NOTES:
     dance-single:
     Fred-104:
     Challenge:
     17:
     :
0000
0000
0000
0000
,
0000
0000
0000
0000
,
0000
0000
0000
0000
,
0000
0000
0000
0000
,
0000
0000
0000
0000
,
0002
0000
0000
0000
0103
0100
0010
1010
,
0000
0000
0000
1000
0000
0000
0001
0000
0000
0010
0000
0000
0100
0000
0000
1000
0100
1000
0100
0000
0000
1000
0000
0000
,
2002
0000
0000
0000
3003
0000
1000
0100
0020
0000
0000
0000
0000
0000
0031
0100
,
0010
0000
0000
0000
2002
0000
0000
0000
0000
0000
0000
0000
3003
0000
1000
0001
,
1000
0000
0000
0000
0000
0000
0000
0000
0001
0010
0100
1000
0001
0100
0001
0100
,
0001
0010
0100
0001
0100
0010
0001
2000
,
0000
0000
3010
0000
0100
1000
0100
0000
0010
0000
1000
0000
0010
0000
0100
0000
,
0001
0010
0100
0001
0100
0010
0100
2000
,
0000
0000
3010
0000
0100
1000
0100
0000
0001
0000
1000
0000
0001
0000
0010
0000
,
0001
0000
0100
0000
0010
0000
1000
0001
0010
0100
1000
0001
0100
0000
0120
0000
,
0000
0000
0130
0001
1000
0001
0010
0100
1000
0001
0100
0000
0001
1000
0100
0000
,
1000
0100
0001
0200
0000
1300
2002
0000
,
3003
0000
0010
0000
1010
0000
0000
0000
1000
0001
0010
0100
1000
0100
1000
0100
,
1000
0010
0100
1000
0100
0001
1000
0200
,
0000
0000
0301
0000
0100
0010
0001
0000
1000
0000
0001
0000
0100
0000
0010
0000
,
1000
0010
0001
0010
0100
0010
1000
0002
,
0000
0000
0013
0000
1000
0010
0100
0000
1000
0000
0100
0000
0010
0001
1000
0001
,
0100
0000
0010
0000
1000
0000
0001
0010
0100
1000
0001
0100
0010
0000
2010
0000
,
0000
0000
3001
0010
0100
1000
0100
0010
0001
1000
0010
0100
0001
1000
0001
0010
,
0100
0000
1000
0000
0100
0000
0002
0000
0000
0000
0103
0000
1000
0010
0200
0000
,
0000
0000
0301
0000
1000
0000
0010
0000
0100
0010
1000
0001
0010
0000
0100
0000
,
2000
0000
0100
0000
3001
0010
0001
1000
,
0020
0000
0000
0000
0100
0000
0000
0000
1030
0000
0100
0000
0010
0100
1000
0001
,
0020
0000
0100
0000
0031
0010
1000
0010
,
0100
0000
0000
0000
1100
0000
0000
0000
1001
0000
0000
0000
1000
0001
1000
0001
,
1000
0000
0000
0000
0000
0000
0000
0000
0020
0030
0000
0000
0000
0000
0000
0000
0020
0030
0000
0000
0000
0000
0000
0000
0000
0000
0000
0000
0000
0000
0000
0000
0001
0000
0000
0000
0000
0000
0000
0000
0200
0300
0000
0000
0000
0000
0000
0000
0200
0300
0000
0000
0000
0000
0000
0000
2000
0000
0000
0000
0000
0000
0000
0000
,
0000
0000
3001
0000
0010
0000
0100
0000
1000
0000
0001
1000
0010
0000
0100
0000
,
0001
0000
1000
0100
0010
0000
0001
0000
1000
0000
0010
0100
0001
0000
2000
0000
,
0000
3100
0110
0000
1001
0110
1001
0000
,
0001
0000
0000
0000
0000
0000
0000
0000
0020
0030
0000
0000
0000
0000
0000
0000
0020
0030
0000
0000
0000
0000
0000
0000
0000
0000
0000
0000
0000
0000
0000
0000
1000
0000
0000
0000
0000
0000
0000
0000
0200
0300
0000
0000
0000
0000
0000
0000
0200
0300
0000
0000
0000
0000
0000
0000
0002
0000
0000
0000
0000
0000
0000
0000
,
0000
0000
0013
0100
1000
0000
0001
0000
0100
0000
0010
1000
0010
0000
0100
0000
,
0001
0000
1000
0000
0100
0010
0100
0000
1000
0000
0010
0100
0010
0000
1000
0000
,
2002
0000
0000
0000
0000
0000
3003
0000
0001
0010
0100
1000
0001
0100
0010
1000
,
0001
0000
0010
0100
1000
0000
0001
0000
0010
0100
1000
0000
0001
0000
0010
0100
,
1000
0000
0001
1000
0010
0000
0100
0000
0001
1000
0100
0000
0010
0001
1000
0000
,
0001
0000
0010
0100
0010
0000
1000
0000
0001
0000
0100
0010
0100
0000
2000
0000
,
0000
3001
1001
0000
1100
0101
1001
0000
,
1000
0000
0010
0100
0001
0000
1000
0000
0010
0100
0001
0000
1000
0000
0010
0100
,
0001
0000
1000
0100
0010
0000
0002
0000
0203
0000
0320
0000
0230
0000
0302
0000
,
2003
0100
3002
0010
1003
0100
0010
0022
,
0000
0000
0000
0000
0033
0000
0001
1000
0001
0100
0010
1000
0001
0010
0100
0000
,
1100
1100
1100
0000
0000
1000
0100
0001
,
0000
0100
0010
0001
1000
0001
0100
0010
,
1010
1010
1010
0000
0000
1000
0010
0001
,
0000
0000
0010
0000
0100
0000
0010
0000
1000
0000
0001
0010
0100
1000
0100
0000
,
1100
1100
1100
0000
0000
1000
0100
0010
,
0002
0000
0103
0000
2000
0000
3100
0000
0001
1000
0100
1000
0001
0100
0001
1000
,
0200
0000
0000
0000
0000
0000
0310
0001
0200
0000
0000
0000
0000
0000
0310
1000
,
0200
0000
0000
0000
0000
0000
0000
0000
0310
0001
1000
0010
0100
0001
1000
0100
,
0010
0100
1000
0001
0100
1000
0100
0001
,
1000
0100
1000
0100
0010
0000
0001
0100
0001
0100
0010
0000
1000
0001
0100
0001
,
1000
0000
0001
1000
0010
1000
0001
0000
1000
0100
0010
0001
0010
0100
1000
0000
,
0001
0000
0100
0010
1000
0010
0100
0001
0010
0100
1000
0000
0001
0100
0010
0000
,
1000
0000
0100
1000
0001
0100
0010
0000
1000
0000
0002
0000
0000
0000
0003
0000
,
1100
0000
0101
0000
1000
0100
0001
0200
,
0000
0000
0310
0000
0001
0010
0100
0000
1000
0000
0001
0100
0010
0000
1000
0000
,
1010
0000
0011
0000
1000
0010
0001
0020
,
0000
0000
0130
0000
0001
1000
0100
0000
0010
0000
0001
1000
0010
0000
0100
0000
,
0101
0000
0000
0000
1001
0000
1000
0001
0100
0010
1000
0001
0010
0000
0210
0000
,
0000
0000
1300
0001
0100
0001
1000
0100
1000
0001
0100
0010
1000
0001
0010
0000
,
0001
0100
0010
2010
0000
3100
0220
0000
,
0330
0000
0010
0000
0011
0000
0000
0000
0001
0010
0100
1000
0100
0010
0001
1000
,
0010
0100
1000
0100
0010
0001
0010
2000
,
0000
0000
3001
0000
0010
0100
1000
0000
0001
0000
0100
0010
1000
0000
0001
0000
,
0010
0100
0001
0100
0010
1000
0010
0002
,
0000
0000
1003
0000
0010
0100
0001
0000
1000
0000
0001
1000
0100
0010
0001
0000
,
1000
0000
0001
0000
0100
0000
0010
1000
0001
0010
0100
0010
0001
0000
0201
0000
,
0000
0000
0301
1000
0001
0100
0010
1000
0010
0100
0001
1000
0100
0010
0001
0000
,
1000
0000
0010
0000
0001
0000
0020
0000
0000
0000
0130
0000
1000
0100
0002
0000
,
0000
0000
1003
0000
0100
0000
0010
0000
0001
1000
0010
1000
0001
0010
0100
0000
,
1000
0001
0000
0100
0010
0000
1000
0001
0000
0010
0100
0000
1000
0000
1002
0000
,
0000
1003
0010
0001
0010
0100
0010
1000
,
0001
1000
0000
0010
0100
0000
0001
1000
0000
0100
0010
0000
0001
0000
2001
0000
,
0000
3100
1000
0100
0010
1000
0010
0001
,
1000
0001
0000
0010
0100
0000
1000
0001
0000
0100
0010
0000
1000
0000
1020
0000
,
0000
0130
0001
0010
1000
0010
0100
1000
,
0001
0010
0000
0100
1000
0000
0001
0100
0000
0010
1000
0000
0001
0000
0201
0000
,
0000
0000
0310
0000
1000
0000
0001
0000
0010
0100
1000
0001
0100
0010
1000
0000
,
0002
0000
0100
0000
1000
0000
0013
0100
,
0010
0000
0000
0000
0001
0000
0100
0000
0010
0000
0001
0000
0010
0100
0001
0100
,
0002
0000
0010
0000
1000
0000
0103
0010
,
1000
0000
0000
0100
0000
0000
0001
0000
0000
1000
0000
0000
0010
0000
0000
0001
1000
0001
1000
0000
0000
0000
0000
0000
;

//--------------- dance-double - Fred-104 ----------------
#NOTES:
     dance-double:
     Fred-104:
     Easy:
     6:
     :
00000000
00000000
00000000
00000000
,
00000000
00000000
00000000
00000000
,
00000000
00000000
00000000
00000000
,
00000000
00000000
00000000
00000000
,
00000000
00000000
00000000
00000000
,
10000000
00000000
00000000
00000000
00010000
00000000
00000000
00100000
,
00000000
00010000
10000000
00100000
,
02000000
03000000
00002000
00003000
,
00010000
00022000
00000000
00033000
,
00011000
00000000
00000000
00000000
,
00010000
00000000
00000010
00000000
,
00001000
00000100
00000010
00000000
,
00000001
00000000
00001000
00000000
,
00000001
00000100
00000001
00000100
,
00000010
00000000
00001000
00000000
,
00000100
00010000
00001000
00010000
,
00001000
00000000
00000000
00100000
00000000
00000000
00010000
00000000
,
00000000
10000000
00010000
10010000
,
01000000
00000000
00100000
00000000
,
00001000
00001000
00010000
00000100
,
00001000
00000000
00000001
00000000
,
00000100
00000100
00000010
00001000
,
00000001
00000000
00000100
00000000
,
00000001
00000010
00000100
00000010
,
00000001
00000000
00000000
00001000
00000000
00000010
00000000
00000110
,
00000000
00000100
00000010
00000100
,
00000002
00000003
00000020
00000030
,
00000200
00000300
00002000
00003000
,
00020000
00030000
00200000
00300000
,
02000000
03000000
20000000
30000000
,
00000000
00000000
00010000
00000000
01000000
00000000
00000000
00100000
,
00000000
01000000
00001000
00010000
,
00000000
00001000
00000000
00010000
,
00000000
00000100
00001000
00001000
,
00000000
00000000
00000001
00000000
00000010
00000000
00000000
00000001
,
00000000
00001000
00000010
00010000
,
00001000
00000000
00010000
00000000
,
00011000
00000000
00000010
00000010
,
00000000
00000000
00000100
00000000
00000001
00000000
00000000
00000100
,
00000000
00000010
00001000
00000010
,
00010000
00001000
00000000
00100000
,
00010000
10000000
01000000
10000000
,
00000000
00000000
10000000
00000000
01000000
00000000
00000000
00100000
,
00000000
00001000
00010000
00001000
,
00010000
00000000
00000100
00000000
00010000
00000000
00000000
00011000
,
00000000
00000010
00001000
00000001
,
00000100
00000000
00000100
00000000
00000000
00000010
00000000
00000010
,
00000000
00001000
00000010
00000100
,
00000001
00000000
00000001
00000000
00000000
00001000
00000000
00001000
,
00000000
00000010
00010000
00001000
,
00010000
00000000
00010000
00000000
00000000
00001000
00000000
00001000
,
00000000
00200000
00320000
01030000
,
01100000
00000000
10010000
00000000
,
10010000
00000000
01100000
00000000
,
10000000
00000000
01000000
00000000
,
00010000
00000000
00000000
00001000
00000000
00000000
00000010
00000000
,
00000000
00000001
00000000
00000000
00001000
00000000
00000000
00000010
,
00000000
00000000
00000100
00000000
00000000
00000001
00000000
00000000
,
00001000
00000000
00001001
00000000
,
00001000
00000000
00000010
00000000
,
00000100
00000100
00000001
00000010
,
00000001
00000000
00001000
00000000
,
00000010
00010000
00001000
00010000
,
00001000
00000000
00100000
00000000
,
00010000
10000000
00010000
01000000
,
00100000
00000000
00000000
10000000
00000000
00000000
00010000
00000000
,
00000000
01000000
00100000
01000000
,
00010000
00000000
10000000
00000000
01000000
00000000
00000000
00100000
,
00000000
00001000
00010000
00000010
,
00001000
00000000
00000001
00000000
00000010
00000000
00000000
00000100
,
00000000
00000010
00000001
00001000
,
00000001
00000000
00000100
00000000
00001000
00000000
00000000
00010000
,
00000000
00001000
00010000
01000000
,
00100000
00000000
00000000
00010000
00000000
00000000
10000000
00000000
,
00000000
00010000
00110000
00000000
,
00100000
00000000
00000000
00100000
00000000
00000000
00100000
00000000
,
00000000
00001000
00000000
00010000
,
00000100
00000000
00000000
00000100
00000000
00000000
00000100
00000000
,
00000000
00000010
00000000
00001000
,
00000001
00000000
00000000
00000001
00000000
00000000
00000001
00000000
,
00000000
00000100
00000000
00001000
,
00010000
00000000
00000000
00010000
00000000
00000000
00010000
00000000
,
00000000
01000000
00000000
10000000
,
20000000
30000000
02000000
03000000
,
00200000
00300000
00020000
00030000
,
00002000
00003000
00000200
00000300
,
00000020
00000030
00000001
00001001
;

//--------------- dance-double - Fred-104 ----------------
#NOTES:
     dance-double:
     Fred-104:
     Medium:
     10:
     :
00000000
00000000
00000000
00000000
,
00000000
00000000
00000000
00000000
,
00000000
00000000
00000000
00000000
,
00000000
00000000
00000000
00000000
,
00000000
00000000
00000000
00000000
,
00010000
00000000
00001000
00000000
00010000
00000000
00000000
00000100
,
00000000
00001000
00000001
00000010
,
00000100
00000000
00000000
00000100
00000010
00000000
00000000
00000010
,
00000001
00002002
00000000
00003003
,
00000000
00000000
00000000
00000000
00010000
00001000
00010000
00000000
,
00001000
00000000
00010000
00000000
00100000
00000000
10000000
00010000
,
00000000
10000000
00100000
00000000
01000000
00000000
00010000
00000000
,
10000000
00000000
01000000
00000000
00100000
00000000
00001000
00010000
,
00000000
00001000
00010000
00000000
00000100
00000000
00001000
00000000
,
00000001
00000000
00001000
00000000
00000010
00000100
00000010
00000100
,
00000000
00000001
00000100
00000000
00000010
00000000
00001000
00000000
,
00000001
00000000
00000001
00000010
00000000
00000100
00010000
00000000
,
00000000
00000000
00001000
00000000
00010000
01000000
00100000
00000000
,
00001000
00000000
00010000
00000000
00100000
00000000
10000000
01000000
,
00000000
10000000
01000000
00000000
00100000
00000000
00001000
00000000
,
00010000
00000000
00000100
00000000
00010000
00000000
00001000
00010000
,
00000000
00000100
00010000
00000000
00001000
00000000
00010000
00000000
,
00000010
00000000
00010000
00000000
00001000
00000100
00000010
00001000
,
00000000
00000001
00000010
00000000
00000100
00000000
00010000
00000000
,
00001000
00000000
01000000
00010000
00000000
10000000
01000000
00100000
,
00000000
00000000
00100000
00000000
00010000
10000000
00010000
00000000
,
10000000
11000000
01000000
01100000
,
00100000
00101000
00001000
00011000
,
00010000
00010100
00000100
00000110
,
00000010
00000011
00000001
00001001
,
00001000
00000010
00001000
00000000
00000001
00000010
00000000
00000001
,
00000000
00000100
00000010
00000100
,
00000010
00010000
00001000
00010000
00000000
00001000
00000000
00010000
,
00000000
00000000
00100000
00000000
01000000
00010000
10000000
00000000
,
00100000
01000000
00100000
00000000
10000000
01000000
00000000
00100000
,
00000000
00001000
00010000
00001000
,
00010000
00000010
00000100
00000001
,
00001001
00000000
00000000
00000000
00000010
00000100
00000010
00000000
,
00001000
00000010
00001000
00000000
00000001
00000010
00000000
00000100
,
00000000
00010000
00001000
00010000
,
00000100
00010000
00001000
00010000
00000000
00001000
00000000
01000000
,
00000000
00000000
00010000
00000000
10000000
00100000
10000000
00000000
,
01000000
00100000
01000000
00000000
10000000
01000000
00000000
00010000
,
00000000
00000000
00001000
00000000
00010000
00000010
00001000
00000000
,
00001001
00000000
00000010
00000000
00000100
00000000
00001000
00000001
,
00000000
00000010
00000100
00010000
00000000
00001000
01000000
00000000
,
00010000
00010000
00010000
00000000
00000000
10000000
00000000
10010000
,
00000000
01000000
00100000
10000000
,
00100000
00100000
00100000
00000000
00000000
00001000
00000000
00011000
,
00000000
00010000
00000100
00001000
,
00000001
00000001
00000001
00000000
00000000
00001000
00000000
00001000
,
00000020
00000230
00000302
00001003
,
00001010
00000000
00000000
00000100
00010000
00000000
00000000
00010000
,
00001000
00000000
01000000
00000000
00100000
01000000
00100000
00000000
,
10000000
01000000
10000000
00010000
,
10000000
01000000
00000000
00100000
00001000
00000000
00010000
00000100
,
00000000
00001000
00000010
00000000
00000100
00000001
00000000
00000010
,
00000100
00000000
00010000
00001000
00000000
00100000
01000000
00000000
,
10000000
00000000
00100000
00000000
00010000
00001000
00000000
00000000
,
00001000
00000000
00100000
00000000
00001000
00000000
01000000
00010000
,
00000000
01000000
00100000
00000000
10000000
00000000
00010000
00000000
,
00100000
00000000
01000000
00000000
00100000
00000000
00010000
01000000
,
00000000
00100000
01000000
00000000
10000000
00000000
01000000
00000000
,
00010000
00000000
00100000
00000000
01000000
00010000
00001000
00000010
,
00000000
00000100
00001000
00000000
00000001
00000000
00001000
00000000
,
00000001
00000100
00000010
00000100
00000000
00000001
00002000
00000000
,
00003000
00001100
00000100
00010000
,
00001000
00000000
01000000
00000000
00001000
00000000
00010000
00001000
,
00000000
01000000
00010000
00000000
00100000
00000000
01000000
00000000
,
00100000
00000000
00010000
00000000
10000000
00000000
01000000
00100000
,
00000000
01000000
00010000
00000000
01000000
00000000
00100000
00000000
,
00010000
00000000
10000000
00000000
00100000
01000000
00100000
01000000
,
00000000
00001000
00010000
00000000
00001000
00000000
01000000
00000000
,
00001000
00010000
00000100
00001000
00000000
00000001
00001000
00000001
,
00000000
00000010
00000100
00001000
,
00000001
00000000
00000000
00000001
00000000
00000000
00001000
00000000
00000000
00001000
00000000
00000000
00000010
00000000
00000100
00000000
,
00000000
00000001
00000010
00001000
,
00010000
00000000
00000000
00010000
00000000
00000000
00001000
00000000
00000000
00001000
00000000
00000000
01000000
00000000
00001000
00000000
,
00000000
01000000
00010000
10000000
,
00100000
00000000
00000000
00100000
00000000
00000000
10000000
00000000
00000000
10000000
00000000
00000000
00010000
00000000
01000000
00000000
,
00000000
00100000
01000000
00010000
,
00100000
00000000
00000000
00100000
00000000
00000000
00001000
00000000
00000000
00001000
00000000
00000000
00010000
00000000
00001000
00000000
,
00000000
00010000
00000100
00001000
,
00000001
00000011
00000010
00000110
,
00000100
00010100
00010000
00011000
,
00001000
00101000
00100000
00110000
,
00010000
01010000
01000000
10010000
;

//--------------- dance-double - Fred-104 ----------------
#NOTES:
     dance-double:
     Fred-104:
     Hard:
     14:
     :
00000000
00000000
00000000
00000000
,
00000000
00000000
00000000
00000000
,
00000000
00000000
00000000
00000000
,
00000000
00000000
00000000
00000000
,
00000000
00000000
00000000
00000000
,
00010000
00001000
00010000
00000000
00001000
00000010
00000001
00001000
,
00000000
00000001
00000100
00001000
00000100
00000001
00000010
00001000
,
00020000
00000000
00000000
00000000
00030000
00000000
00010000
00000010
00020000
00000000
00000000
00000000
00030000
00000000
00001000
00100000
,
00001000
00000000
00000000
00000000
00022000
00000000
00000000
00000000
00000000
00000000
00000000
00000000
00033000
00000000
00001000
00010000
,
00001000
00000000
00000000
00000000
00000000
00000000
00000000
00000000
01000000
00100000
01000000
00100000
01000000
00000000
00000000
00000000
,
00010000
10000000
01000000
00010000
01000000
10000000
00100000
02000000
,
00000000
03100000
10000000
00100000
00010000
00001000
00010000
00001000
,
00000100
00000001
00001000
00000100
00001000
00000010
00010000
00000020
,
00000000
00001030
00000001
00000010
00000100
00010000
00001000
00100000
,
01000000
00000000
10000000
00000000
00010000
00000000
01000000
00100000
01000000
00000000
10000000
00000000
01000000
00100000
01000000
00000000
,
00000000
00000000
00010000
10000000
00010000
00000000
00100000
00000000
01000000
00000000
00010000
00000000
00001000
00010000
00001000
00000000
,
00010000
00001000
00000100
00000010
00000000
00001000
00001001
00000000
,
00000010
00000100
00000110
00000000
00001100
00000000
00000101
00000000
,
00000001
00000100
00001000
00000100
00000010
00001000
00000001
00000200
,
00000000
00000310
00000100
00000001
00001000
00000100
00000010
00001000
,
00010000
01000000
00100000
00010000
10000000
00100000
01000000
20000000
,
00000000
31000000
00010000
00100000
00001000
00010000
00001000
00000010
,
00000100
00000000
00001000
00000000
00000010
00000000
00000100
00000001
00000100
00000000
00000010
00000000
00010000
00001000
00010000
00000000
,
00000000
00000000
00001000
00010000
00001000
00000000
00010000
00000000
00000010
00000000
00001000
00000000
00000001
00001000
00000001
00000000
,
00000010
00000000
00000100
00000000
00010000
00000000
00001000
00000000
00000000
00000000
00100000
00000000
00010000
10000000
00010000
00000000
,
00000000
01000000
00100000
10000000
00010000
00100000
01000000
10000000
,
20010000
31000000
00021000
00030100
,
00001002
00000013
00012000
00103000
,
20010000
31000000
00012000
00003100
,
00001002
00000013
00012000
00103000
,
00001000
00001000
00010000
00000000
01000000
00100000
00000000
00100000
,
00000000
00010000
10000000
00100000
01000000
00001000
00010000
00000000
,
00010000
00000000
00000000
00000000
00000000
00000000
00000000
00000000
00002000
00003000
00000000
00000000
00000000
00000000
00000000
00000000
00002000
00003000
00000000
00000000
00000000
00000000
00000000
00000000
00000100
00000000
00000000
00000000
00000000
00000000
00000000
00000000
00000000
00000000
00000000
00000000
00000000
00000000
00000000
00000000
00010000
00000000
00000000
00000000
00000000
00000000
00000000
00000000
00002000
00003000
00000000
00000000
00000000
00000000
00000000
00000000
00002000
00003000
00000000
00000000
00000000
00000000
00000000
00000000
,
00000000
00000010
00010000
00000000
00001000
00010000
00011000
00000000
,
00000010
00001000
00001000
00000000
00000001
00000100
00000000
00000010
,
00000000
00000000
00000100
00000010
00000100
00000000
00000001
00000000
00001000
00000000
00000100
00000000
00000010
00000000
00000001
00000000
,
00000100
00001000
00010000
02000000
10000000
00000000
00010000
00000000
,
13000000
00000000
01000000
00000000
00100000
00000000
00001000
00000000
00010000
00001000
00010000
00000000
00000100
00001000
00000100
00000000
,
00000010
00000001
00000001
00000000
00000001
00000010
00000100
00000010
,
00000000
00000001
00000100
00001000
00000100
00000010
00000100
00000001
,
00001000
00000100
00000010
00000100
00000000
00010000
00001000
00100000
,
00000000
00010000
10000000
00000000
00010000
10000000
10010000
00000000
,
00010000
01000000
10000000
00000000
01000000
00010000
10000000
00100000
,
00010000
00000000
00001000
00010000
00001000
00000000
00010000
00000000
00001000
00000000
00000010
00000000
00000100
00000000
00001000
00000000
,
00001010
00000000
00000101
00000000
00001001
00000000
00000100
00000010
,
00000000
00000000
00000000
00000000
00000000
00000000
00000000
00000000
00001000
00000000
00000000
00000000
00000000
00000000
00000000
00000000
00000020
00000030
00000000
00000000
00000000
00000000
00000000
00000000
00000020
00000030
00000000
00000000
00000000
00000000
00000000
00000000
00000001
00000000
00000000
00000000
00000000
00000000
00000000
00000000
00001000
00000000
00000000
00000000
00000001
00000000
00000000
00000000
00001000
00000000
00000000
00000000
00000001
00000000
00000000
00000000
00000100
00000000
00000000
00000000
00000000
00000000
00000000
00000000
,
00000001
00000001
00000001
00000000
00000000
00000100
00000010
00000110
,
00000000
00000001
00000010
00001000
00010000
01000000
10000000
00010000
,
01000000
01000000
01000000
00000000
00000000
00010000
10000000
10010000
,
00000000
00000000
00100000
00000000
00002000
00000000
00000000
00000000
00013000
00001000
00010000
00001000
00010000
00000000
00000000
00000000
,
00001000
00001000
00001000
00000000
00000000
00000010
00000100
00000110
,
00000000
00000001
00000020
00000000
00000230
00000000
00001300
00000000
,
00002001
00000000
00000000
00000000
00003000
00000000
00000010
00001000
00000020
00000000
00000000
00000000
00000030
00000000
00010000
00001000
,
00020000
00000000
00000000
00000000
00000010
00000000
00000000
00000000
00031000
00000000
00010000
00001000
00010000
00001000
00010000
00000000
,
00010000
00001000
00000100
00000001
00001000
00000100
00000010
00000001
,
00001000
00000010
00000001
00001000
00000100
00000001
00001000
00000100
,
00000010
00001000
00010000
01000000
00100000
00010000
01000000
00001000
,
00010000
00001000
00000100
00000010
00001000
00000100
00000010
00001000
,
00010000
00000000
00001000
00000000
01000000
00100000
01000000
00000000
00010000
00000000
20000000
00000000
00000000
00000000
30000000
00000000
,
00010000
00100000
00010000
00100000
10000000
00100000
00001000
00020000
,
00000000
00000000
00000000
00000000
00000000
00000000
00000000
00000000
00030100
00000000
00000000
00000000
00000000
00000000
00000000
00000000
00000020
00000030
00000000
00000000
00000000
00000000
00000000
00000000
00000020
00000030
00000000
00000000
00000000
00000000
00000000
00000000
00001000
00000000
00000000
00000000
00000000
00000000
00000000
00000000
00000001
00000000
00000000
00000000
00000000
00000000
00000000
00000000
00000100
00000000
00000000
00000000
00000000
00000000
00000000
00000000
00000010
00000000
00000000
00000000
00000000
00000000
00000000
00000000
,
00001010
00000000
00000101
00000000
00001000
00000001
00000100
00000020
,
00000000
00000000
00000000
00000000
00000000
00000000
00000000
00000000
00000130
00000000
00000000
00000000
00000000
00000000
00000000
00000000
00000001
00000000
00000000
00000000
00000000
00000000
00000000
00000000
00000020
00000030
00000000
00000000
00000000
00000000
00000000
00000000
00000020
00000030
00000000
00000000
00000000
00000000
00000000
00000000
00001000
00000000
00000000
00000000
00000000
00000000
00000000
00000000
00000001
00000000
00000000
00000000
00000000
00000000
00000000
00000000
00000100
00000000
00000000
00000000
00000000
00000000
00000000
00000000
,
00000110
00000000
00000000
00000000
00010000
00000000
00001000
00010000
00001000
00000000
00100000
00000000
00010000
10000000
01000000
00000000
,
00000000
00000000
01000000
10000000
00010000
00000000
01000000
00000000
00100000
00000000
01000000
00000000
00010000
01000000
00010000
00000000
,
10000000
01000000
00010000
00001000
00000000
00010000
00011000
00000000
,
00010000
00001000
00000100
00000000
00000001
00001000
00000001
00000000
,
00000010
00000100
00001000
00000100
00000010
00000001
00000100
00002000
,
00000000
00013000
00100000
01000000
00010000
00100000
01000000
10000000
,
10100000
00000000
10010000
00000000
00010000
10000000
01000000
00200000
,
00000000
00301000
00010000
00100000
10000000
00010000
01000000
00100000
,
01100000
00000000
00000000
00000000
00001000
00000000
00010000
00001000
00010000
00000000
00000010
00000000
00001000
00000100
00001000
00000000
,
00000000
00000000
00000001
00000100
00000001
00000000
00000100
00000000
00000010
00000000
00001000
00000000
00000001
00000010
00000001
00000000
,
00001000
00000000
00000001
00000000
00000010
00000000
00000100
00000000
00000000
00000000
00010000
00000000
00001000
00010000
00001000
00000000
,
00000000
00100000
10000000
00100000
00010000
01000000
10000000
01000000
,
00010000
00100000
00000000
01000000
10000000
00000000
00010000
01000000
00000000
00100000
10000000
00000000
00100000
00000000
20000000
00000000
,
00000000
31000000
00100000
00001000
00010000
00000100
00000010
00000001
,
00001000
00000100
00000000
00000010
00000001
00000000
00001000
00000010
00000000
00000100
00000001
00000000
00000100
00000000
00000020
00000000
,
00000000
00001030
00000001
00000100
00000010
00001000
00000100
00010000
,
00001000
00100000
00000000
00010000
01000000
00000000
00010000
10000000
00000000
00100000
01000000
00000000
00010000
00000000
20000000
00000000
,
00000000
31000000
00010000
01000000
10000000
00100000
00010000
00001000
,
00010000
00001000
00000000
00010000
00000010
00000000
00001000
00000010
00000000
00000100
00000001
00000000
00001000
00000000
00000002
00000000
,
00000000
00000000
00000103
00000000
00000010
00000000
00001000
00000000
00000001
00000000
00000100
00000001
00000100
00000000
00000010
00000000
,
00001002
00000013
00021000
00130000
,
20010000
31000000
00012000
00003100
,
00001002
00000013
00021000
00130000
,
20010000
31000000
00011000
00001001
;

//--------------- dance-double - Fred-104 ----------------
#NOTES:
     dance-double:
     Fred-104:
     Challenge:
     17:
     :
00000000
00000000
00000000
00000000
,
00000000
00000000
00000000
00000000
,
00000000
00000000
00000000
00000000
,
00000000
00000000
00000000
00000000
,
00000000
00000000
00000000
00000000
,
00020000
00000000
00000000
00000000
00031000
00010000
01000000
10000000
,
00000000
00000000
00000000
01000000
00000000
00000000
00100000
00000000
00000000
00010000
00000000
00000000
10000000
00000000
00000000
00100000
10000000
00100000
10000000
00000000
00000000
01000000
00000000
00000000
,
02200000
00000000
00000000
00000000
03300000
00000000
00001000
00010000
00002000
00000000
00000000
00000000
00000000
00000000
00013000
00000010
,
00010000
00000000
00000000
00000000
00022000
00000000
00000000
00000000
00000000
00000000
00000000
00000000
00033000
00000000
00010000
00001000
,
00010000
00000000
00000000
00000000
00000000
00000000
00000000
00000000
00000100
00001000
00000100
00001000
00000001
00001000
00000001
00001000
,
00000001
00000100
00001000
00010000
00100000
01000000
00010000
20000000
,
00000000
00000000
31000000
00000000
00100000
00010000
00100000
00000000
00001000
00000000
00010000
00000000
00001000
00000000
00000010
00000000
,
00000001
00000010
00000100
00001000
00000001
00000100
00001000
00020000
,
00000000
00000000
00031000
00000000
00100000
00010000
00100000
00000000
00001000
00000000
00010000
00000000
01000000
00000000
00100000
00000000
,
00010000
00000000
10000000
00000000
01000000
00000000
00100000
00010000
00100000
00001000
00010000
00001000
00100000
00000000
00102000
00000000
,
00000000
00000000
00013000
00000010
00001000
00000010
00000100
00000000
00000001
00001000
00000100
00000000
00000010
00000100
00001000
00000000
,
00000001
00000010
00001000
00020000
00000000
00031000
00022000
00033000
,
00001000
00000000
01000000
00000000
01010000
00000000
00000000
00000000
00010000
10000000
00010000
10000000
01000000
00100000
01000000
00100000
,
00010000
10000000
00100000
00010000
00001000
00000100
00000001
00000200
,
00000000
00000000
00000310
00000000
00001000
00000001
00000010
00000000
00000100
00000000
00010000
00000000
00001000
00000000
00010000
00000000
,
01000000
10000000
00010000
00100000
01000000
00010000
00001000
00020000
,
00000000
00000000
00031000
00000000
00010000
00100000
01000000
00000000
00001000
00000000
00010000
00000000
00100000
00000000
10000000
00000000
,
00010000
00000000
10000000
00000000
01000000
00000000
00100000
00010000
00100000
00001000
00010000
00000010
00001000
00000000
00002010
00000000
,
00000000
00000000
00003001
00001000
00000100
00001000
00000001
00000100
00000001
00001000
00000100
00000000
00010000
00001000
00100000
00000000
,
00001000
00000000
00010000
00000000
00100000
00000000
02000000
00000000
00000000
00000000
03001000
00000000
00010000
00001000
00000200
00000000
,
00000000
00000000
00000310
00000000
00001000
00000000
00000001
00000000
00000010
00000001
00001000
00000001
00000100
00000000
00000001
00000000
,
00002000
00000000
00000010
00000000
00003001
00000100
00001000
00010000
,
00002000
00000000
00000000
00000000
00010000
00000000
00000000
00000000
00003010
00000000
00001000
00000000
00010000
00001000
00100000
00001000
,
00020000
00000000
00001000
00000000
00130000
01000000
00010000
10000000
,
01000000
00000000
00000000
00000000
01100000
00000000
00000000
00000000
10010000
00000000
00000000
00000000
10000000
00010000
10000000
00010000
,
10000000
01000000
00020000
00000000
00031000
00010000
01000000
20000000
,
00000000
30100000
00010000
00001000
00010000
00100000
10000000
02000000
,
00000000
03010000
00001000
00000020
00000000
00000031
00000010
00000200
,
00000000
00010300
00011000
00000000
00011000
00011000
00011000
00000000
,
00010000
00001000
00000200
00000000
00000301
00000100
00001000
00020000
,
00000000
00000000
00031000
00010000
00001000
00000000
00010000
00000000
01000000
00000000
00100000
00000000
01000000
00000000
10000000
00000000
,
00100000
00010000
00001000
00000010
00000001
00000010
00000100
00010000
,
00022000
00000000
00000000
00000000
00000000
00000000
00033000
00000000
00001000
00100000
00010000
00100000
00001000
00010000
00000010
00001000
,
00000010
00000000
00001000
00000001
00000010
00000000
00000100
00000000
00001000
00000100
00010000
00000000
00001000
00000000
00021000
00000000
,
00000000
00000000
00031000
01000000
00010000
00000000
10000000
00000000
00010000
00100000
01000000
00000000
10000000
00010000
01000000
00000000
,
00001000
00000000
00100000
00010000
01000000
00000000
00001000
00000000
00010000
00000000
00000010
00001000
00000100
00000000
00020100
00000000
,
00000000
00031000
00011000
00000000
00010010
00011000
00101000
00000000
,
00010000
00000000
00001000
00000100
00000010
00000000
00001000
00000000
00000010
00000100
00000001
00000000
00001000
00000000
00000100
00000010
,
00001000
00000000
00010000
00001000
00010000
00000000
00100000
00000000
01000000
00000000
00010000
00000000
00100000
00000000
01000000
00000000
,
00200000
00010000
00302000
00010000
00103000
00010000
10000000
20200000
,
00000000
00000000
00000000
00000000
30300000
00000000
10000000
01000000
00100000
00010000
00100000
00001000
00010000
00000010
00001000
00000000
,
00001010
00001010
00001010
00000000
00000000
00000001
00001000
00000100
,
00000000
00010000
00001000
00000010
00000001
00000100
00001000
00010000
,
00011000
00011000
00011000
00000000
00000000
00001000
00010000
00100000
,
00000000
00000000
01000000
00000000
00001000
00000000
00010000
00000000
00100000
00000000
10000000
00010000
10000000
00010000
00100000
00000000
,
01100000
01100000
01100000
00000000
00000000
10000000
00100000
00010000
,
00002000
00000000
00000000
00000000
00003200
00000000
00000000
00000000
00000301
00001000
00000001
00000010
00000100
00001000
00000100
00000010
,
00000002
00000000
00000000
00000000
00000000
00000000
00000103
00001000
00020000
00000000
00000000
00000000
00000000
00000000
00130000
01000000
,
00020000
00000000
00000000
00000000
00000000
00000000
00000000
00000000
10030000
01000000
10000000
00010000
01000000
00010000
10000000
01000000
,
00100000
00010000
10000000
00100000
00010000
00001000
01000000
00001000
,
00010000
00000000
00001000
00000010
00000001
00000000
00000010
00000000
00000100
00001000
00000010
00000000
00010000
00000000
00001000
00000100
,
00000010
00000000
00001000
00000000
00000001
00000010
00000100
00000000
00000010
00001000
00010000
00000000
01000000
00100000
00010000
00000000
,
10000000
00000000
00010000
10000000
00100000
10000000
00010000
00100000
00001000
00010000
00000010
00001000
00000001
00001000
00000100
00000000
,
00000010
00000000
00000001
00001000
00000001
00000100
00000010
00000000
00010000
00000000
00002000
00000000
00000000
00000000
00003000
00000000
,
00010010
00000000
00101000
00000000
00010000
00001000
00000100
00000020
,
00000000
00000000
00010030
00000000
00000010
00001000
00000010
00000000
00010000
00000000
00001000
00000000
00100000
00000000
00001000
00000000
,
01001000
00000000
00010100
00000000
00001000
00010000
00100000
02000000
,
00000000
00000000
03001000
00000000
00100000
00010000
00100000
00000000
00001000
00000000
00010000
00000000
00000010
00000000
00000100
00000000
,
00000110
00000000
00000000
00000000
00011000
00000000
00010000
00000010
00001000
00000010
00010000
00001000
00100000
00000000
00120000
00000000
,
00000000
00000000
10030000
00010000
10000000
01000000
00100000
00010000
00100000
00001000
00010000
00000000
00000010
00001000
00000001
00000000
,
00000010
00000100
00010000
00001000
00000000
00010000
00020020
00030030
,
00010000
00000000
00001000
00000000
00011000
00000000
00000000
00000000
00001000
00100000
00010000
10000000
00100000
10000000
00010000
00100000
,
00001000
00010000
00001000
00000100
00000010
00000100
00001000
00020000
,
00000000
00000000
00031000
00000000
00000010
00000001
00000100
00000000
00000010
00000000
00000100
00000000
00001000
00000000
00010000
00000000
,
00100000
01000000
00100000
00010000
00001000
00010000
01000000
00200000
,
00000000
00000000
00301000
00000000
00010000
00000100
00001000
00000000
00000100
00000000
00010000
00000000
00001000
00000000
00000100
00000000
,
00000010
00000000
00001000
00000000
00000001
00000000
00000010
00000001
00001000
00000001
00000100
00000010
00001000
00000000
00001200
00000000
,
00000000
00000000
00010300
00001000
00010000
00000010
00001000
00000010
00010000
00001000
00100000
00000000
00010000
10000000
01000000
00000000
,
00100000
00000000
01000000
00000000
00010000
00000000
00002000
00000000
00000000
00000000
00013000
00000000
00100000
01000000
00002000
00000000
,
00000000
00000000
00013000
00000000
00001000
00000000
00010000
00000000
00000010
00001000
00000010
00010000
00001000
00010000
00000100
00000000
,
00001000
00000100
00000000
00000010
00000001
00000000
00001000
00000001
00000000
00000100
00001000
00000000
00010000
00000000
00012000
00000000
,
00000000
00013000
00100000
01000000
00001000
00010000
01000000
00100000
,
00010000
10000000
00000000
00100000
10000000
00000000
01000000
00100000
00000000
00001000
00010000
00000000
00001000
00000000
00201000
00000000
,
00000000
00301000
00010000
00001000
00000010
00000001
00001000
00000010
,
00000100
00000001
00000000
00001000
00000100
00000000
00010000
00001000
00000000
00000010
00001000
00000000
00010000
00000000
00012000
00000000
,
00000000
00103000
00001000
00010000
00100000
01000000
00010000
10000000
,
00010000
00100000
00000000
10000000
00100000
00000000
00001000
00010000
00000000
00000010
00010000
00000000
00001000
00000000
00021000
00000000
,
00000000
00000000
00031000
00000000
00010000
00000000
01000000
00000000
00100000
00010000
10000000
00100000
01000000
00010000
10000000
00000000
,
01000000
00010000
00001000
00000000
00000010
00000001
00001000
00000000
,
00000001
00000000
00000100
00000000
00001000
00000000
00010000
00000000
00100000
00000000
01000000
00000000
00010000
10000000
00010000
10000000
,
00010000
10000000
01000000
00010000
00001000
00010000
00100000
00010000
,
00001000
00000000
00000000
00000010
00000000
00000000
00000001
00000000
00000000
00000010
00000000
00000000
00000100
00000000
00000000
00010000
00001000
00010000
00001000
00000000
00000000
00000000
00000000
00000000
;
