#VERSION:0.83;
#TITLE:Crackpot Evangelist;
#ARTIST:BEMANI Sound Team "ZAQUVA";
#ARTISTTRANSLIT:ZAQUVA;
#BANNER:Crackpot Evangelist.png;
#BACKGROUND:Crackpot Evangelist-bg.png;
#CDTITLE:./CDTitles/jb Ave.png;
#MUSIC:Crackpot Evangelist.ogg;
#SAMPLESTART:68.4;
#SAMPLELENGTH:15;
#BPMS:0=200,68=400,69=200,71=400,72=200,76=400,77=200,79=400,80=200,84=400,85=200,87=400,88=200,99=400,100=200,131=400,133=200,140=400,141=200,192=400,196=200,295=400,295.5=200,303=400,303.5=200,311=400,311.5=200,319=400,319.5=200;
#STOPS:68=0.15,71=0.15,76=0.15,79=0.15,84=0.15,87=0.15,99=0.037,99.25=0.038,99.5=0.037,99.75=0.038,131=0.15,132=0.15,140=0.15,192=0.15,193=0.15,194=0.15,195=0.15,295=0.075,303=0.075,311=0.075,319=0.075;
#BGSTAGE:29;

//--------------- dance-single - Fred-104 ----------------
#NOTEDATA:;
#STEPSTYPE:dance-single;
#DESCRIPTION:Fred-104;
#DIFFICULTY:Beginner;
#METER:9;
#CREDIT:Fred-104;
#NOTES:
0000
0000
0000
0000
,
0000
0000
0000
0000
,
0000
0000
0000
0000
,
0000
0000
0000
0000
,
0000
0000
0000
0000
,
1000
1000
1000
0010
,
0100
0100
0001
0100
,
0001
1000
0001
0001
,
1000
0000
0000
1000
0000
0000
1000
0000
0001
0000
0000
0000
1001
0000
0000
0000
,
1000
0000
0010
0000
,
0100
0100
0001
0010
,
0001
0000
1000
0000
,
0001
0001
0010
0100
,
1000
0000
0010
0000
,
0100
0000
0001
0000
,
1000
0010
0100
0001
,
1000
0001
1000
0000
0001
1000
0001
0000
,
2002
3003
0000
0000
0000
0000
0000
0000
0000
0000
0000
0000
0000
0000
0000
0000
1000
0000
0000
0000
0000
0000
0000
0000
0000
0000
0000
0000
0000
0000
0000
0000
0010
0000
0000
0000
0000
0000
0000
0000
0000
0000
0000
0000
0000
0000
0000
0000
0220
0330
0000
0000
0000
0000
0000
0000
0000
0000
0000
0000
0000
0000
0000
0000
,
0100
0001
1000
0001
,
2002
3003
0000
0000
0000
0000
0000
0000
0000
0000
0000
0000
0000
0000
0000
0000
1000
0000
0000
0000
0000
0000
0000
0000
0000
0000
0000
0000
0000
0000
0000
0000
0100
0000
0000
0000
0000
0000
0000
0000
0000
0000
0000
0000
0000
0000
0000
0000
0220
0330
0000
0000
0000
0000
0000
0000
0000
0000
0000
0000
0000
0000
0000
0000
,
0010
0001
2000
3001
,
2002
3003
0000
0000
0000
0000
0000
0000
0000
0000
0000
0000
0000
0000
0000
0000
1000
0000
0000
0000
0000
0000
0000
0000
0000
0000
0000
0000
0000
0000
0000
0000
0100
0000
0000
0000
0000
0000
0000
0000
0000
0000
0000
0000
0000
0000
0000
0000
2200
3300
0000
0000
0000
0000
0000
0000
0000
0000
0000
0000
0000
0000
0000
0000
,
0100
0010
0001
1000
,
0001
0100
0001
0001
,
0100
0010
0100
0000
0001
1000
0002
0000
,
1003
0000
0010
0000
1000
0000
0001
0100
,
0001
0100
0010
0010
,
1000
0000
0001
0000
1000
0000
0001
1000
,
0001
0100
0010
0200
,
0301
0000
0100
0000
0010
0000
0100
0001
,
0100
0010
1000
1000
,
0001
0000
1000
0000
0100
0000
0010
0100
,
0010
0000
0000
0000
0000
0000
0000
0000
0000
0000
0000
0000
0000
0000
0000
0000
0001
0000
0000
0000
0000
0000
0000
0000
0000
0000
0000
0000
0000
0000
0000
0000
1000
0000
0000
0000
0000
0000
0000
0000
0000
0000
0000
0000
0000
0000
0000
0000
0002
0003
0000
0000
0000
0000
0000
0000
0000
0000
0000
0000
0000
0000
0000
0000
,
2002
3003
0000
0000
0000
0000
0000
0000
0000
0000
0000
0000
0000
0000
0000
0000
1000
0000
0000
0000
0000
0000
0000
0000
0000
0000
0000
0000
0000
0000
0000
0000
0010
0000
0000
0000
0000
0000
0000
0000
0000
0000
0000
0000
0000
0000
0000
0000
0100
0000
0000
0000
0000
0000
0000
0000
0000
0000
0000
0000
0000
0000
0000
0000
,
0100
0001
1000
0001
,
2002
3003
0000
0000
0000
0000
0000
0000
0000
0000
0000
0000
0000
0000
0000
0000
1000
0000
0000
0000
0000
0000
0000
0000
0000
0000
0000
0000
0000
0000
0000
0000
0010
0000
0000
0000
0000
0000
0000
0000
0000
0000
0000
0000
0000
0000
0000
0000
0000
0000
0000
0000
0000
0000
0000
0000
0000
0000
0000
0000
0000
0000
0000
0000
,
0100
0001
0100
0002
,
1003
0000
0010
0000
,
0100
0000
0001
0000
,
1000
0000
0001
0000
,
1000
0000
0001
0000
1000
0000
0002
0000
0000
0003
0000
0000
,
1000
0000
0010
0000
,
0100
0000
0001
0000
,
1000
0000
1000
0000
,
0001
0000
0100
0000
,
0010
0000
0100
0000
,
0001
0000
1000
0000
,
0001
0000
1000
0000
,
2002
0000
0000
3003
,
0001
0000
0100
0000
,
0010
0010
1000
0001
,
1000
0000
0001
0000
,
0100
0100
0010
0100
,
0001
0000
1000
0000
,
0010
0000
0100
0000
,
0001
0100
0010
1000
,
0001
0100
0001
0000
1000
0100
2000
0000
,
3001
0001
0100
0000
,
0010
1000
0010
0000
,
1000
0100
0010
0000
,
0001
0000
0100
0000
0010
0100
0010
0000
,
1000
0001
0100
0000
,
0001
0010
0100
0000
,
1000
0010
0100
0000
,
0001
0000
1000
0000
0001
1000
0002
0000
,
0103
0010
0100
0000
,
0001
0100
0010
0000
,
1000
0100
0010
0000
,
0001
1000
0001
0001
,
1000
0000
0001
0000
,
1000
0000
0010
0000
,
0100
0000
0001
0000
,
1000
0001
0100
0020
,
1030
0000
0000
0000
0000
0000
0000
0000
0000
0000
0000
0000
0000
0000
0000
0000
0000
0000
0000
0000
0000
0000
0000
0000
0001
0000
0000
0000
0000
0000
0000
0000
0000
0000
0000
0000
0000
0000
0000
0000
0000
0000
0000
0000
0000
0000
0000
0000
2000
3000
0000
0000
0000
0000
0000
0000
0000
0000
0000
0000
0000
0000
0000
0000
,
0010
0000
0000
0100
0000
0000
0010
0000
,
0100
0000
0000
0000
0000
0000
0000
0000
0000
0000
0000
0000
0000
0000
0000
0000
0000
0000
0000
0000
0000
0000
0000
0000
0001
0000
0000
0000
0000
0000
0000
0000
0000
0000
0000
0000
0000
0000
0000
0000
0000
0000
0000
0000
0000
0000
0000
0000
0200
0300
0000
0000
0000
0000
0000
0000
0000
0000
0000
0000
0000
0000
0000
0000
,
0001
0000
1000
0000
,
0001
0000
0000
0000
0000
0000
0000
0000
0000
0000
0000
0000
0000
0000
0000
0000
0000
0000
0000
0000
0000
0000
0000
0000
0100
0000
0000
0000
0000
0000
0000
0000
0000
0000
0000
0000
0000
0000
0000
0000
0000
0000
0000
0000
0000
0000
0000
0000
0020
0030
0000
0000
0000
0000
0000
0000
0000
0000
0000
0000
0000
0000
0000
0000
,
1000
0000
0000
0100
0000
0000
0010
0000
,
0001
0000
0000
0000
0000
0000
0000
0000
0000
0000
0000
0000
0000
0000
0000
0000
0000
0000
0000
0000
0000
0000
0000
0000
1000
0000
0000
0000
0000
0000
0000
0000
0000
0000
0000
0000
0000
0000
0000
0000
0000
0000
0000
0000
0000
0000
0000
0000
0002
0003
0000
0000
0000
0000
0000
0000
0000
0000
0000
0000
0000
0000
0000
0000
,
0100
0100
0010
0020
,
1030
0000
0010
0000
,
1000
0000
0001
0100
,
0001
0000
1000
0000
,
1001
0000
0110
0000
,
0100
0000
0010
0000
,
1000
0000
0100
0010
,
0001
0000
1000
0000
,
0001
0000
1000
0000
0001
1000
0001
0000
,
1001
0000
0000
0000
,
0100
0000
0010
0010
,
1001
0000
0000
0000
,
1010
0000
0000
0000
,
0101
0000
0000
0000
,
2002
3003
0000
0000
0000
0000
0000
0000
;

//--------------- dance-single - Fred-104 ----------------
#NOTEDATA:;
#STEPSTYPE:dance-single;
#DESCRIPTION:Fred-104;
#DIFFICULTY:Easy;
#METER:14;
#CREDIT:Fred-104;
#NOTES:
0000
0000
0000
0000
,
0000
0000
0000
0000
,
0000
0000
0000
0000
,
0000
0000
0000
0000
,
0000
0000
0000
0000
,
0001
0001
0100
0010
,
0100
0010
1000
0001
,
1000
1000
0001
1000
,
0001
0000
0000
0100
0000
0000
0001
0000
0100
0000
0010
0000
2000
0000
0000
0000
,
3001
0001
0100
0100
,
0010
0010
1000
1000
,
0100
0100
0010
0010
,
0001
0001
1000
1000
,
0001
0100
0001
0000
0100
0010
0100
0000
,
0010
1000
0010
0000
1000
0100
1000
0000
,
0001
0100
0010
1000
0100
0010
0001
1000
,
0001
0100
0001
0100
0010
1000
0001
0000
,
0022
0033
0000
0000
0000
0000
0000
0000
0000
0000
0000
0000
0000
0000
0000
0000
0001
0000
0000
0000
0000
0000
0000
0000
0100
0000
0000
0000
0000
0000
0000
0000
0010
0000
0000
0000
0000
0000
0000
0000
1000
0000
0000
0000
0000
0000
0000
0000
0020
0030
0000
0000
0000
0000
0000
0000
0000
0000
0000
0000
0000
0000
0000
0000
,
1000
0100
0100
1000
0010
0100
0001
1000
,
0002
0003
0000
0000
0000
0000
0000
0000
0000
0000
0000
0000
0000
0000
0000
0000
0001
0000
0000
0000
0000
0000
0000
0000
0010
0000
0000
0000
0000
0000
0000
0000
0100
0000
0000
0000
0000
0000
0000
0000
0010
0000
0000
0000
0000
0000
0000
0000
0002
0003
0000
0000
0000
0000
0000
0000
0000
0000
0000
0000
0000
0000
0000
0000
,
0001
0000
0000
0100
0000
0000
0010
0000
0000
1000
0000
0000
0001
0000
1000
0000
0001
0000
1000
0000
0000
0000
0000
0000
,
2002
3003
0000
0000
0000
0000
0000
0000
0000
0000
0000
0000
0000
0000
0000
0000
0001
0000
0000
0000
0000
0000
0000
0000
0100
0000
0000
0000
0000
0000
0000
0000
0010
0000
0000
0000
0000
0000
0000
0000
1000
0000
0000
0000
0000
0000
0000
0000
0002
0003
0000
0000
0000
0000
0000
0000
0000
0000
0000
0000
0000
0000
0000
0000
,
1000
0010
0010
1000
0001
0100
0002
0000
,
0103
0010
0100
0000
0001
0100
0010
0000
,
1000
0100
0010
0001
1000
0010
0200
0000
,
0301
0000
0100
0000
0010
0100
0010
1000
,
0010
0000
1000
0000
0001
0100
0001
0100
,
0001
0000
0000
0000
1000
0000
0000
0000
1010
0000
0000
0010
0000
0000
0100
0000
,
0001
1000
0001
0000
1000
0010
0200
0000
,
0301
0100
0001
0100
0010
0100
0010
0000
,
1000
0100
0010
0000
0001
1000
0001
0000
,
0100
0010
0100
0000
0001
0000
1000
0001
,
2000
0000
0000
0000
0000
0000
0000
0000
3020
0000
0000
0000
0000
0000
0000
0000
0230
0000
0000
0000
0000
0000
0000
0000
0000
0000
0000
0000
0000
0000
0000
0000
0302
0000
0000
0000
0000
0000
0000
0000
0203
0000
0000
0000
0000
0000
0000
0000
0320
0030
0000
0000
0000
0000
0000
0000
0000
0000
0000
0000
0000
0000
0000
0000
,
2002
3003
0000
0000
0000
0000
0000
0000
0000
0000
0000
0000
0000
0000
0000
0000
1000
0000
0000
0000
0000
0000
0000
0000
0200
0300
0000
0000
0000
0000
0000
0000
0200
0300
0000
0000
0000
0000
0000
0000
0001
0000
0000
0000
0000
0000
0000
0000
1000
0000
0000
0000
0000
0000
0000
0000
0100
0000
0000
0000
0000
0000
0000
0000
,
0020
0030
0000
0000
0000
0000
0000
0000
0020
0030
0000
0000
0000
0000
0000
0000
1000
0000
0000
0000
0000
0000
0000
0000
0001
0000
0000
0000
0000
0000
0000
0000
0200
0300
0000
0000
0000
0000
0000
0000
0000
0000
0000
0000
0200
0300
0000
0000
0000
0000
0000
0000
0000
0000
0000
0000
1000
0000
0000
0000
0000
0000
0000
0000
,
2002
3003
0000
0000
0000
0000
0000
0000
0000
0000
0000
0000
0000
0000
0000
0000
0001
0000
0000
0000
0000
0000
0000
0000
1000
0000
0000
0000
0000
0000
0000
0000
0020
0030
0000
0000
0000
0000
0000
0000
0020
0030
0000
0000
0000
0000
0000
0000
0001
0000
0000
0000
0000
0000
0000
0000
0100
0000
0000
0000
0000
0000
0000
0000
,
0001
0000
0000
0000
0000
0000
0000
0000
0200
0300
0000
0000
0000
0000
0000
0000
0200
0300
0000
0000
0000
0000
0000
0000
1000
0000
0000
0000
0000
0000
0000
0000
0020
0030
0000
0000
0000
0000
0000
0000
0020
0030
0000
0000
0000
0000
0000
0000
0002
0000
0000
0000
0000
0000
0000
0000
0000
0000
0000
0000
0000
0000
0000
0000
,
1003
0000
0000
1000
0000
0000
0010
0000
0100
0000
0000
0001
0000
0000
0001
0000
,
1000
0000
0000
0000
0000
0000
0000
0000
0020
0030
0000
0000
0000
0000
0000
0000
0020
0030
0000
0000
0000
0000
0000
0000
0001
0000
0000
0000
0000
0000
0000
0000
0100
0000
0000
0000
0000
0000
0000
0000
0010
0000
0000
0000
0000
0000
0000
0000
0200
0000
0000
0000
0000
0000
0000
0000
0000
0000
0000
0000
0000
0000
0000
0000
,
0301
0100
0001
0100
0010
1000
0010
1000
,
0002
0000
0000
0000
2003
0000
0000
0000
3020
0000
0000
0000
0130
0000
0000
0010
0000
0000
0200
0000
0000
0000
0000
0000
,
0301
0000
1000
0000
,
0010
1000
0001
0001
,
0100
0000
0010
0000
,
1000
0100
0010
0001
,
1000
0000
0010
0000
,
0100
0001
0010
0100
,
1000
0010
0100
0001
,
0022
0033
0000
0000
0000
0000
0000
0000
0000
0000
0000
0000
0000
0000
0000
0000
2020
3030
0000
0000
0000
0000
0000
0000
0000
0000
0000
0000
0000
0000
0000
0000
0202
0303
0000
0000
0000
0000
0000
0000
0000
0000
0000
0000
0000
0000
0000
0000
2200
3300
0000
0000
0000
0000
0000
0000
0000
0000
0000
0000
0000
0000
0000
0000
,
1001
1000
0010
0100
,
0001
0000
0000
0100
0000
0000
0010
0000
1000
0000
0000
0100
0000
0000
0010
0000
,
0001
1000
0010
0100
,
0001
0000
0000
0001
0000
0000
1000
0000
0100
0000
0000
0010
0000
0000
0001
0000
,
1000
0010
1000
0000
0001
0010
0001
0000
,
1000
0100
1000
0000
0001
0100
0001
0000
,
0100
0010
0100
0010
1000
0100
0010
0001
,
1000
0010
0100
0000
0001
0100
0020
0000
,
1030
0000
0000
0010
0000
0000
0100
0000
0001
0000
0000
0010
0000
0000
0010
0000
,
0001
0000
0000
0100
0000
0000
0010
0000
1000
0000
0000
0100
0000
0000
0010
0000
,
0001
0000
0000
1000
0000
0000
0001
0000
0100
0000
0000
0010
0000
0000
0100
0000
,
0002
0000
0000
0023
0000
0000
0032
0000
1003
0000
0001
0000
1001
0000
0000
0000
,
1000
0000
0000
0000
0000
0000
0000
0000
0000
0000
0000
0000
0100
0000
0000
0000
0000
0000
0000
0000
0000
0000
0000
0000
0010
0000
0000
0000
0000
0000
0000
0000
0001
0000
0000
0000
0000
0000
0000
0000
0000
0000
0000
0000
0200
0300
0000
0000
0000
0000
0000
0000
0000
0000
0000
0000
0200
0300
0000
0000
0000
0000
0000
0000
,
1000
0000
0000
0000
0000
0000
0000
0000
0000
0000
0000
0000
0020
0030
0000
0000
0000
0000
0000
0000
0000
0000
0000
0000
0020
0030
0000
0000
0000
0000
0000
0000
0001
0000
0000
0000
0000
0000
0000
0000
0000
0000
0000
0000
0100
0000
0000
0000
0000
0000
0000
0000
0000
0000
0000
0000
0010
0000
0000
0000
0000
0000
0000
0000
,
1000
0000
0000
0000
0000
0000
0000
0000
0000
0000
0000
0000
0100
0000
0000
0000
0000
0000
0000
0000
0000
0000
0000
0000
0020
0030
0000
0000
0000
0000
0000
0000
0020
0030
0000
0000
0000
0000
0000
0000
0000
0000
0000
0000
1000
0000
0000
0000
0000
0000
0000
0000
0000
0000
0000
0000
0001
0000
0000
0000
0000
0000
0000
0000
,
0200
0000
0000
0320
0000
0000
0230
0000
0301
0000
1000
0000
1001
0000
0000
0000
,
0001
0000
0000
0000
0000
0000
0000
0000
0000
0000
0000
0000
0200
0300
0000
0000
0000
0000
0000
0000
0000
0000
0000
0000
0200
0300
0000
0000
0000
0000
0000
0000
1000
0000
0000
0000
0000
0000
0000
0000
0000
0000
0000
0000
0020
0030
0000
0000
0000
0000
0000
0000
0000
0000
0000
0000
0020
0030
0000
0000
0000
0000
0000
0000
,
0001
0000
0000
0000
0000
0000
0000
0000
0000
0000
0000
0000
0020
0030
0000
0000
0000
0000
0000
0000
0000
0000
0000
0000
0020
0030
0000
0000
0000
0000
0000
0000
1000
0000
0000
0000
0000
0000
0000
0000
0000
0000
0000
0000
0200
0300
0000
0000
0000
0000
0000
0000
0000
0000
0000
0000
0200
0300
0000
0000
0000
0000
0000
0000
,
0001
0000
0000
0010
0000
0000
0100
0000
1000
0000
0000
0010
0000
0000
0100
0000
,
0002
0000
0000
0203
0000
0000
0320
0000
1030
0000
0001
0000
1001
0000
0000
0000
,
0001
0000
0000
0100
0000
0000
0001
0000
0100
0000
0000
0010
0000
0000
1000
0000
,
0100
0000
0000
0010
0000
0000
0001
0000
1000
0000
0000
0010
0000
0000
0100
0000
,
0001
0100
0001
0000
0100
0010
1000
0100
,
0010
0000
0000
0010
0000
0000
0001
0000
1000
0000
0001
0000
0201
0000
0000
0000
,
0310
0000
0000
0010
0000
0000
0100
0000
0010
0000
0000
0010
0000
0000
0000
0000
,
1000
0000
0000
1000
0000
0000
0001
0000
1000
0000
0000
0001
0000
0000
0000
0000
,
0001
0000
0000
0001
0000
0000
0100
0000
0001
0000
0000
0100
0000
0000
0000
0000
,
0200
0000
0000
0320
0000
0000
0230
0000
0301
0000
1000
0000
1001
0000
0000
0000
,
1000
0000
0000
0010
0000
0000
1000
0000
0010
0000
0000
0010
0000
0000
0000
0000
,
0100
0000
0000
0001
0000
0000
0100
0000
0001
0000
0000
0001
0000
0000
0000
0000
,
0100
0000
0000
0010
0000
0000
0100
0000
0001
0000
0000
1000
0000
0000
0000
0000
,
0002
0000
0000
2003
0000
0000
3020
0000
0130
0000
0010
0000
0110
0000
0000
0000
,
0100
0000
0000
0100
0000
0000
0001
0000
0100
0000
0000
0100
0000
0000
0010
0000
,
1000
0000
0000
0100
0000
0000
0010
0000
0001
0000
1000
0000
0001
0000
0000
0000
,
1000
0000
0000
0010
0000
0000
0100
0000
0001
0000
0000
1000
0000
0000
0001
0000
,
0020
0032
2003
3010
,
0100
0000
0000
0001
0000
0000
0100
0000
0001
0000
0000
0010
0000
0000
0001
0000
,
1000
0000
0000
0010
0000
0000
0100
0000
0001
0000
0000
1000
0000
0000
0100
0000
,
0010
0001
1000
0010
,
0100
0000
0000
0001
0000
0000
0100
0000
0001
0000
1000
0000
0002
0000
0000
0000
,
1003
1000
0001
0001
,
1000
0010
1000
0000
0001
0100
0002
0000
,
1003
0000
0010
0000
0100
0010
0200
0000
,
0301
1000
0001
0000
1000
0010
2000
0000
,
3001
0100
0010
1000
,
0001
1001
0000
0000
0000
0000
0000
0000
;

//--------------- dance-single - Fred-104 ----------------
#NOTEDATA:;
#STEPSTYPE:dance-single;
#DESCRIPTION:Fred-104;
#DIFFICULTY:Medium;
#METER:16;
#CREDIT:Fred-104;
#NOTES:
0000
0000
0000
0000
,
0000
0000
0000
0000
,
0000
0000
0000
0000
,
0000
0000
0000
0000
,
0000
0000
0000
0000
,
0010
0000
1000
0010
0100
0001
1000
0000
,
0001
0100
0010
0100
0001
0100
0010
1000
,
0100
0000
0010
0001
1000
0010
0000
0100
,
0001
0000
0000
0001
0000
0000
1000
0000
0010
0000
1000
0000
1001
0000
0000
0000
,
1010
1000
0010
0010
,
0100
0100
0001
0001
,
0010
0010
0100
0100
,
1000
1000
0001
0001
,
1000
0100
0010
0001
0100
0010
1000
0010
,
0100
0001
1000
0100
0010
0001
1000
0001
,
0100
0001
0100
0000
0001
0010
0001
0000
1000
0010
1000
0000
0001
0100
0001
0000
,
1000
0000
0001
0100
0001
0000
1000
0100
1000
0000
0010
0000
0100
0000
0000
0000
,
2002
3003
0000
0000
0000
0000
0000
0000
0000
0000
0000
0000
0000
0000
0000
0000
0100
0000
0000
0000
0010
0000
0000
0000
0100
0000
0000
0000
0000
0000
0000
0000
0001
0000
0000
0000
0000
0000
0000
0000
1000
0000
0000
0000
0000
0000
0000
0000
0002
0003
0000
0000
0000
0000
0000
0000
0000
0000
0000
0000
0000
0000
0000
0000
,
1000
0000
0000
0000
0000
0000
0000
0000
0010
0000
0000
0000
1000
0000
0000
0000
0010
0000
0000
0000
0000
0000
0000
0000
0200
0300
0000
0000
0000
0000
0000
0000
0200
0300
0000
0000
0000
0000
0000
0000
1000
0000
0000
0000
0000
0000
0000
0000
0001
0000
0000
0000
0000
0000
0000
0000
0000
0000
0000
0000
0000
0000
0000
0000
,
2002
3003
0000
0000
0000
0000
0000
0000
0000
0000
0000
0000
0000
0000
0000
0000
1000
0000
0000
0000
0000
0000
0000
0000
0001
0000
0000
0000
1000
0000
0000
0000
0001
0000
0000
0000
0000
0000
0000
0000
0200
0300
0000
0000
0000
0000
0000
0000
0200
0300
0000
0000
0000
0000
0000
0000
0000
0000
0000
0000
0000
0000
0000
0000
,
1000
0000
0000
0000
0000
0000
0001
0000
0000
0010
0000
0000
0001
0000
0000
0000
0000
0000
0100
0000
0000
0000
0000
0000
0001
0000
0000
0000
1000
0000
0000
0000
0001
0000
0000
0000
0100
0000
0000
0000
0000
0000
0000
0000
0000
0000
0000
0000
,
0220
0330
0000
0000
0000
0000
0000
0000
0000
0000
0000
0000
0000
0000
0000
0000
0100
0000
0000
0000
0000
0000
0000
0000
0001
0000
0000
0000
1000
0000
0000
0000
0001
0000
0000
0000
0000
0000
0000
0000
0100
0000
0000
0000
0000
0000
0000
0000
0002
0003
0000
0000
0000
0000
0000
0000
0000
0000
0000
0000
0000
0000
0000
0000
,
1000
0000
0000
0000
0000
0000
0000
0000
0001
0000
0000
0000
0100
0000
0000
0000
0001
0000
0000
0000
0000
0000
0000
0000
0200
0300
0000
0000
0000
0000
0000
0000
0200
0300
0000
0000
0000
0000
0000
0000
1000
0000
0000
0000
0000
0000
0000
0000
0002
0000
0000
0000
0000
0000
0000
0000
0000
0000
0000
0000
0000
0000
0000
0000
,
1003
0010
0100
0010
1000
0001
0010
0001
,
1000
0000
0000
0000
0010
0000
0000
0000
1000
0000
0000
0000
0000
0000
0000
0000
0001
0000
0000
0000
0100
0000
0000
0000
0001
0000
0000
0000
0000
0000
0000
0000
0100
0000
0000
0000
0000
0000
0000
0000
0010
0000
0000
0000
0000
0000
0000
0000
0200
0300
0000
0000
0020
0030
0000
0000
0200
0300
0000
0000
0020
0030
0000
0000
,
0100
0000
0010
0000
0100
0000
0001
0000
1000
0000
0100
0000
0010
0001
0000
0010
,
0001
0000
1000
0000
0001
0100
0010
0000
0100
0000
0001
0000
1000
0010
1000
0000
,
1010
0000
0000
0000
0101
0000
0000
0000
1000
0000
0001
0010
0000
0001
1000
0000
,
0001
0000
0100
0010
0100
0010
0100
0000
0001
0000
0100
0010
0200
0000
0000
0000
,
0301
1000
0001
1000
0001
0000
1000
0100
1000
0000
0100
0000
0010
0001
0000
1000
,
0001
0000
0000
0000
0000
0000
0000
0000
0100
0000
0000
0000
0000
0000
0000
0000
0020
0030
0000
0000
0000
0000
0000
0000
0020
0030
0000
0000
0000
0000
0000
0000
0001
0000
0000
0000
0000
0000
0000
0000
1000
0000
0000
0000
0001
0000
0000
0000
1000
0000
0000
0000
0001
0000
0000
0000
1000
0000
0000
0000
0000
0000
0000
0000
,
0001
0000
0100
0000
0010
0000
0100
0000
0001
0010
0000
0100
1000
0000
0001
1000
,
0002
0000
0000
0000
0000
0000
0000
0000
0203
0000
0000
0000
0000
0000
0000
0000
0320
0000
0000
0000
0000
0000
0000
0000
2030
0000
0000
0000
0000
0000
0000
0000
3200
0000
0000
0000
0000
0000
0000
0000
0320
0000
0000
0000
0000
0000
0000
0000
0032
0003
0000
0000
0000
0000
0000
0000
0000
0000
0000
0000
0000
0000
0000
0000
,
2002
3003
0000
0000
0000
0000
0000
0000
0000
0000
0000
0000
0000
0000
0000
0000
1000
0000
0000
0000
0000
0000
0000
0000
0001
0000
0000
0000
0100
0000
0000
0000
0001
0000
0000
0000
0000
0000
0000
0000
1000
0000
0000
0000
0000
0000
0000
0000
0100
0000
0000
0000
0000
0000
0000
0000
0010
0000
0000
0000
0001
0000
0000
0000
,
0010
0001
0010
0000
0001
0000
1000
0000
0001
0000
0100
0010
0000
1000
0010
0000
,
2002
3003
0000
0000
0000
0000
0000
0000
0000
0000
0000
0000
0000
0000
0000
0000
1000
0000
0000
0000
0000
0000
0000
0000
0001
0000
0000
0000
1000
0000
0000
0000
0001
0000
0000
0000
0000
0000
0000
0000
0100
0000
0000
0000
0010
0000
0000
0000
0100
0000
0000
0000
0000
0000
0000
0000
0001
0000
0000
0000
0000
0000
0000
0000
,
1000
0100
1000
0000
0001
0000
0010
0100
0010
0100
0010
0000
0002
0000
0000
0000
,
1003
0000
0000
1010
0000
0000
0100
0000
0001
0000
0000
0011
0000
0000
0100
0000
,
1000
0000
0000
0000
0000
0000
0000
0000
0200
0300
0000
0000
0000
0000
0000
0000
0200
0300
0000
0000
0000
0000
0000
0000
0001
0000
0000
0000
1000
0000
0000
0000
0001
0000
0000
0000
0000
0000
0000
0000
0100
0000
0000
0000
0000
0000
0000
0000
0120
0000
0000
0000
0000
0000
0000
0000
0000
0000
0000
0000
0000
0000
0000
0000
,
1030
0100
1000
0000
0001
0100
0001
0000
0100
0010
0100
0000
0001
1000
0001
0000
,
2000
0000
0000
0000
0000
0000
0000
0000
3200
0000
0000
0000
0000
0000
0000
0000
0320
0000
0000
0000
0000
0000
0000
0000
0031
0000
0000
1000
0000
0000
0001
0000
0000
1000
0000
0000
0002
0000
0000
0000
0000
0000
0000
0000
0000
0000
0000
0000
,
1003
0010
0100
0001
,
1000
0000
0100
0000
0010
0000
0000
0000
0001
0000
0000
0100
0000
0000
0001
0000
,
0010
0001
1000
0010
,
0100
0000
0010
0000
0100
0000
0000
0000
0001
0000
0000
0100
0000
0000
0010
0100
,
0010
1000
0100
0010
,
0001
0000
1000
0000
0100
0000
0000
0000
1000
0000
0000
0010
0000
0000
0100
0000
,
0001
0010
1000
0100
,
2200
3300
0000
0000
0000
0000
0000
0000
0000
0000
0000
0000
0000
0000
0000
0000
0202
0303
0000
0000
0000
0000
0000
0000
0000
0000
0000
0000
0000
0000
0000
0000
0022
0033
0000
0000
0000
0000
0000
0000
0000
0000
0000
0000
0000
0000
0000
0000
2020
3030
0000
0000
0000
0000
0000
0000
0000
0000
0000
0000
0000
0000
0000
0000
,
1001
0000
0000
0000
0000
0000
0000
0000
0000
0000
0000
0000
1000
0000
0000
0000
0000
0000
0000
0000
0000
0000
0000
0000
0010
0000
0000
0000
0000
0000
0000
0000
0100
0000
0000
0000
0000
0000
0000
0000
0001
0000
0000
0000
0000
0000
0000
0000
0020
0030
0000
0000
0000
0000
0000
0000
0020
0030
0000
0000
0000
0000
0000
0000
,
1000
0000
0001
0000
0100
0000
0010
0000
0100
0000
0000
0001
0000
0000
0001
0000
,
1000
0000
0000
0100
0000
0000
0010
0000
0001
0000
0100
0010
0100
0000
0001
0000
,
1000
0000
0000
0001
0000
0000
0100
0000
0010
0000
0000
1000
0000
0000
0100
0000
,
0010
0001
1000
0010
0100
0001
0010
0001
,
1000
0100
1000
0010
0100
0001
1000
0001
,
1000
0100
1000
0000
0001
0100
0001
0000
1000
0010
1000
0000
0001
0010
0001
0000
,
1000
0001
1000
0000
0001
0000
0100
0010
0100
0000
0100
0000
0002
0000
0000
0000
,
1003
0000
0100
1000
0000
0100
1000
0000
0001
0100
0000
0001
0000
0000
0000
0000
,
1000
0000
0010
0100
0000
0010
1000
0000
0001
0010
0000
0001
0000
0000
0000
0000
,
1000
0000
0100
0010
0000
0010
0001
0000
0100
0010
0000
1000
0000
0000
0000
0000
,
0001
0000
0100
0000
0010
0000
1000
0000
0001
1000
0001
1000
0002
0000
0000
0000
,
1003
0000
0001
1000
0000
0100
1000
0000
0001
1000
0000
0010
0000
0000
0000
0000
,
0100
0000
0001
1000
0000
0100
1000
0000
0001
0100
0000
0010
0000
0000
0000
0000
,
1000
0000
0100
0010
0000
0001
1000
0000
0001
0100
0000
0010
0000
0000
0000
0000
,
1000
0000
0100
0000
0010
0000
0001
0000
0100
0010
0100
0010
0200
0000
0000
0000
,
0301
0000
0000
0010
0000
0000
0100
1000
0100
0000
0000
0010
0000
0000
0001
0100
,
0001
0000
0000
0100
0000
0000
0010
1000
0010
0000
0000
1000
0000
0000
0001
1000
,
0001
0000
0000
0000
0000
0000
0000
0000
0000
0100
0000
0000
0000
0000
0000
0000
0000
0000
0010
0000
0000
0000
0000
0000
0100
0000
0000
0000
0010
0000
0000
0000
1000
0000
0000
0000
0001
0000
0000
0000
0000
0000
0000
0000
0001
0000
0000
0000
,
1000
0000
0000
0100
0000
0000
0010
0000
0001
0010
0001
0010
0002
0000
0000
0000
,
1003
0000
0100
0010
0000
0001
0010
0000
0001
1000
0000
0010
0000
0000
0000
0000
,
1000
0000
0001
0100
0000
0010
0100
0000
0001
0100
0000
0010
0000
0000
0000
0000
,
1000
0000
0100
0000
0010
0100
0010
0000
0001
1000
0000
0010
0100
0000
0010
0000
,
1000
0000
1000
0000
0100
0000
0010
0000
0001
1000
0001
1000
0002
0000
0000
0000
,
1003
0000
0000
0000
0000
0000
0000
0000
0010
0000
0000
0000
1000
0000
0000
0000
0000
0000
0000
0000
0010
0000
0000
0000
1000
0000
0000
0000
0000
0000
0000
0000
0010
0000
0000
0000
1000
0000
0000
0000
0000
0000
0000
0000
0010
0000
0000
0000
2000
3000
0000
0000
0000
0000
0000
0000
0000
0000
0000
0000
0000
0000
0000
0000
,
0001
0000
0010
0001
0000
0010
0001
0000
0010
0001
0000
0010
0001
0000
0000
0000
,
0100
0000
0000
0000
0000
0000
0000
0000
0010
0000
0000
0000
0100
0000
0000
0000
0000
0000
0000
0000
0010
0000
0000
0000
0100
0000
0000
0000
0000
0000
0000
0000
0010
0000
0000
0000
0100
0000
0000
0000
0000
0000
0000
0000
0010
0000
0000
0000
0200
0300
0000
0000
0000
0000
0000
0000
0000
0000
0000
0000
0000
0000
0000
0000
,
0001
0000
0100
0000
0010
0000
1000
0000
0001
0010
0001
0010
0200
0000
0000
0000
,
1300
0000
0000
0000
0000
0000
0000
0000
0010
0000
0000
0000
0100
0000
0000
0000
0000
0000
0000
0000
0010
0000
0000
0000
0100
0000
0000
0000
0000
0000
0000
0000
0001
0000
0000
0000
0100
0000
0000
0000
0000
0000
0000
0000
0001
0000
0000
0000
0020
0030
0000
0000
0000
0000
0000
0000
0000
0000
0000
0000
0000
0000
0000
0000
,
0001
0000
0100
0010
0000
1000
0010
0000
1000
0100
0000
1000
0001
0000
0000
0000
,
1000
0000
0000
0000
0000
0000
0000
0000
0010
0000
0000
0000
0100
0000
0000
0000
0000
0000
0000
0000
0010
0000
0000
0000
1000
0000
0000
0000
0000
0000
0000
0000
0001
0000
0000
0000
0010
0000
0000
0000
0000
0000
0000
0000
0100
0000
0000
0000
0020
0030
0000
0000
0000
0000
0000
0000
0000
0000
0000
0000
0000
0000
0000
0000
,
0001
0000
1000
0000
0010
0000
0100
0000
0001
0100
0001
0100
0020
0000
0000
0000
,
2030
0000
0000
3200
0000
0000
0320
0000
0032
0000
0000
2003
0000
0000
3002
0000
,
0203
0000
0000
0320
0000
0000
2030
0000
3200
0000
0000
0302
0000
0000
0203
0000
,
2300
0000
0000
3020
0000
0000
0230
0000
0302
0000
0000
0203
0000
0000
0302
0000
,
1003
0010
1000
0001
0010
0001
0200
0000
0000
0301
0000
0000
,
1000
0000
0000
0010
0000
0000
0100
0000
0001
0010
0000
0010
0001
0000
1000
0000
,
0010
0000
0000
0100
0000
0000
0001
0000
1000
0100
0000
0100
0010
0000
0001
0000
,
1000
0010
1000
0010
0100
0001
0010
0001
,
1000
0000
0100
0000
0010
0000
0001
0000
0100
0010
0100
0010
0200
0000
0000
0000
,
0302
0000
0000
0000
1000
0000
0000
0000
1000
0000
0000
0000
1003
0000
0000
0001
,
0100
0010
0100
0000
0001
1000
1001
0000
,
1000
0010
1000
0000
0001
0000
0010
0000
0100
0000
0010
0001
0020
0000
0000
0000
,
0031
0010
0001
1000
1000
0010
0100
0001
,
1000
0100
1000
0000
0001
0000
1000
0100
1000
0000
0001
0000
0100
0000
0010
0000
,
1000
1001
0000
0000
0000
0000
0000
0000
;

//--------------- dance-single - クラックショットスパルタンFred ----------------
#NOTEDATA:;
#STEPSTYPE:dance-single;
#DESCRIPTION:クラックショットスパルタンFred;
#DIFFICULTY:Hard;
#METER:18;
#CREDIT:クラックショットスパルタンFred;
#NOTES:
0000
0000
0000
0000
,
0000
0000
0000
0000
,
0000
0000
0000
0000
,
0000
0000
0000
0000
,
0000
0000
0000
0000
,
1000
0000
0000
0000
0000
0000
0000
0000
0000
0000
0000
0000
0000
0000
0000
0000
0200
0300
0000
0000
0000
0000
0000
0000
0200
0300
0000
0000
0000
0000
0000
0000
0001
0000
0000
0000
0000
0000
0000
0000
1000
0000
0000
0000
0000
0000
0000
0000
0100
0000
0000
0000
0000
0000
0000
0000
0010
0000
0000
0000
0000
0000
0000
0000
,
0001
0100
0010
0100
1000
0100
0010
0200
,
0302
0000
0000
0000
0000
0000
0000
0000
0000
0000
0000
0000
0000
0000
0000
0000
0023
0030
0000
0000
0000
0000
0000
0000
0020
0030
0000
0000
0000
0000
0000
0000
1000
0000
0000
0000
0000
0000
0000
0000
1010
0000
0000
0000
0000
0000
0000
0000
0000
0000
0000
0000
0000
0000
0000
0000
0200
0000
0000
0000
0000
0000
0000
0000
,
0301
0000
0000
0011
0000
0000
0001
0100
0010
0100
0010
0000
1000
0000
0000
0000
,
1001
0001
0010
0010
,
0100
0100
1000
1000
,
0001
0001
0100
0100
,
0010
0010
1000
1000
,
0100
1000
0010
0100
0001
0010
0100
1000
,
0100
0010
0001
1000
0001
0100
0001
0010
,
0001
0010
0100
1000
0001
0100
0010
1000
0001
0100
0010
0100
0001
0100
0010
1000
,
0001
0000
0100
0001
0100
0000
0010
1000
0100
0010
0001
0100
0001
0000
0000
0000
,
2200
3300
0000
0000
0000
0000
0000
0000
0000
0000
0000
0000
0000
0000
0000
0000
0010
0000
0000
0000
0100
0000
0000
0000
0010
0000
0000
0000
0000
0000
0000
0000
0100
0000
0000
0000
0000
0000
0000
0000
0001
0000
0000
0000
0000
0000
0000
0000
2002
3003
0000
0000
0000
0000
0000
0000
0000
0000
0000
0000
0000
0000
0000
0000
,
0110
0000
0001
0100
0001
0000
0100
0001
0100
0000
0010
0000
2000
0000
3200
0300
,
0220
0330
0000
0000
0000
0000
0000
0000
0000
0000
0000
0000
0000
0000
0000
0000
0010
0000
0000
0000
0000
0000
0000
0000
0010
0000
0000
0000
0001
0000
0000
0000
0010
0000
0000
0000
0000
0000
0000
0000
0001
0000
0000
0000
0000
0000
0000
0000
2002
3003
0000
0000
0000
0000
0000
0000
0000
0000
0000
0000
0000
0000
0000
0000
,
1100
0000
0000
0000
0000
0000
0100
0000
0000
0010
0000
0000
0100
0000
0000
0000
0000
0000
0010
0000
0000
0001
0000
0000
0100
0000
0000
0000
0010
0000
0000
0000
1000
0000
0000
0000
0010
0000
0000
0000
0000
0000
0000
0000
0000
0000
0000
0000
,
2002
3003
0000
0000
0000
0000
0000
0000
0000
0000
0000
0000
0000
0000
0000
0000
0100
0000
0000
0000
0000
0000
0000
0000
0100
0000
0000
0000
0010
0000
0000
0000
0100
0000
0000
0000
0000
0000
0000
0000
0010
0000
0000
0000
0000
0000
0000
0000
0220
0330
0000
0000
0000
0000
0000
0000
0000
0000
0000
0000
0000
0000
0000
0000
,
1001
0000
0001
0100
0001
0000
0100
0001
0100
0000
0010
0000
0120
0000
0000
0000
,
1030
0000
0100
0000
0100
0000
1000
0001
0100
0000
0010
0000
0100
0000
0001
1000
,
0001
0000
0000
0000
0010
0000
0000
0000
0100
0000
0000
0000
0000
0000
0000
0000
1000
0000
0000
0000
0010
0000
0000
0000
0100
0000
0000
0000
0000
0000
0000
0000
0001
0000
0000
0000
0100
0000
0000
0000
0010
0000
0000
0000
1000
0000
0000
0000
0200
0300
0000
0000
0020
0030
0000
0000
0200
0300
0000
0000
0020
0030
0000
0000
,
0001
0000
1000
0100
0010
0000
0001
0100
0010
1000
0010
0000
1000
0100
0000
0010
,
0001
0000
0001
0000
0100
0010
0100
0000
0010
0000
1000
0100
0010
0001
0010
0100
,
1000
0000
1000
0000
0001
0000
0100
0001
0100
0000
0001
0100
0010
1000
0010
0100
,
0001
0000
0000
0000
0000
0000
0000
0000
1000
0000
0000
0000
0100
0000
0000
0000
1000
0000
0000
0000
0010
0000
0000
0000
0100
0000
0000
0000
0000
0000
0000
0000
0001
0000
0000
0000
0100
0000
0000
0000
0010
0000
0000
0000
1000
0000
0000
0000
0200
0300
0000
0000
0000
0000
0000
0000
0200
0300
0000
0000
0000
0000
0000
0000
,
0001
0100
0001
0100
0001
0000
1000
0100
1000
0010
0100
0000
0001
0010
0100
1000
,
0001
0000
0100
0000
0010
1000
0100
0000
0010
0000
0001
0010
0100
0010
0001
0010
,
0001
0000
0010
0000
0100
1000
0010
0000
0100
0001
0000
1000
0100
0000
0100
0010
,
0200
0000
0000
0000
0000
0000
0000
0000
0320
0000
0000
0000
0000
0000
0000
0000
0032
0000
0000
0000
0000
0000
0000
0000
2003
0000
0000
0000
3002
0000
0000
0000
0203
0000
0000
0000
0000
0000
0000
0000
0320
0000
0000
0000
0030
0000
0000
0000
0220
0330
0000
0000
0000
0000
0000
0000
0000
0000
0000
0000
0000
0000
0000
0000
,
2002
3003
0000
0000
0000
0000
0000
0000
0000
0000
0000
0000
0000
0000
0000
0000
0001
0000
0000
0000
0000
0000
0000
0000
1000
0000
0000
0000
0100
0000
0000
0000
0010
0000
0000
0000
0000
0000
0000
0000
0001
0000
0000
0000
0100
0000
0000
0000
0010
0000
0000
0000
0000
0000
0000
0000
1000
0000
0000
0000
0010
0000
0000
0000
,
0100
0001
0100
0000
0100
0000
0001
1000
0010
0000
1000
0100
0000
0010
0100
0010
,
0002
0003
0000
0000
0000
0000
0000
0000
0000
0000
0000
0000
0000
0000
0000
0000
1000
0000
0000
0000
0000
0000
0000
0000
0100
0000
0000
0000
0010
0000
0000
0000
0001
0000
0000
0000
0000
0000
0000
0000
0100
0000
0000
0000
0010
0000
0000
0000
1000
0000
0000
0000
0000
0000
0000
0000
0100
0000
0000
0000
0010
0000
0000
0000
,
0001
1000
0100
0000
0001
0000
0100
1000
0001
0100
0001
0100
0020
0000
2030
0000
,
3001
0000
0001
0010
0000
0010
0100
0000
1000
0000
1000
0010
0000
0010
0100
0000
,
0001
0000
0000
0000
0000
0000
0000
0000
0100
0000
0000
0000
0000
0000
0000
0000
0020
0030
0000
0000
0000
0000
0000
0000
0020
0030
0000
0000
0001
0000
0000
0000
1000
0000
0000
0000
0000
0000
0000
0000
0100
0000
0000
0000
0000
0000
0000
0000
0120
0000
0000
0000
0000
0000
0000
0000
0000
0000
0000
0000
0000
0000
0000
0000
,
0031
0100
0010
0100
0001
0010
0100
1000
0010
1000
0010
0100
0010
1000
0001
0100
,
0002
0000
0000
0000
0000
0000
0000
0000
0023
0000
0000
0000
0000
0000
0000
0000
2030
0000
0000
0000
0000
0000
0000
0000
3010
0000
0000
0001
0000
0000
0010
0000
0000
0001
0000
0000
2000
0000
0000
0000
0000
0000
0000
0000
0000
0000
0000
0000
,
3001
0010
0100
0010
,
0001
0000
1000
0000
0100
0000
0000
0000
0010
0000
0000
0011
0000
0000
0001
0000
,
1000
0010
0100
0001
,
1000
0000
0100
0000
0001
0000
0000
0000
0100
0000
0000
1010
0000
0000
0010
0100
,
0001
0100
0010
0100
,
0001
0000
0100
0000
0010
0000
0000
0000
1000
0000
0000
1001
0000
0000
0001
0000
,
0100
0001
1000
0100
,
2200
3300
0000
0000
0000
0000
0000
0000
0000
0000
0000
0000
0000
0000
0000
0000
0202
0303
0000
0000
0000
0000
0000
0000
0000
0000
0000
0000
0000
0000
0000
0000
0022
0033
0000
0000
0000
0000
0000
0000
0000
0000
0000
0000
0000
0000
0000
0000
2020
3030
0000
0000
0000
0000
0000
0000
0000
0000
0000
0000
0000
0000
0000
0000
,
1000
0000
0000
0000
0000
0000
0000
0000
0001
0000
0000
0000
0100
0000
0000
0000
0000
0000
0000
0000
0010
0000
0000
0000
0100
0000
0000
0000
0000
0000
0000
0000
0001
0000
0000
0000
0000
0000
0000
0000
1000
0000
0000
0000
0000
0000
0000
0000
0200
0300
0000
0000
0000
0000
0000
0000
0200
0300
0000
0000
0000
0000
0000
0000
,
0001
0000
0100
0010
0000
0100
0010
0000
1000
0000
0000
1000
0001
0000
1000
0000
,
0001
0000
0100
0010
0000
1000
0010
0000
1000
0000
0001
0100
0001
0000
1000
0100
,
1000
0000
0010
0100
0000
0001
0100
0000
0001
0000
0000
0001
0000
0000
0100
0010
,
1000
0100
1000
0010
0100
0001
0010
0001
,
1000
0100
0001
0100
1000
0010
0100
0001
,
1000
0100
0010
0001
0100
0010
1000
0100
0010
0001
0100
0010
1000
0100
0010
0001
,
1000
0001
0100
0000
0001
0000
0100
0010
0100
0001
1000
0001
0200
0000
0000
0000
,
0301
0000
0010
0001
0000
0001
0100
0000
0001
0100
0000
0010
0000
1000
0100
0010
,
0001
0000
1000
0001
0000
0001
1000
0000
0100
0010
0000
0001
0000
0100
0010
1000
,
0010
0000
1000
0100
0000
0010
0100
0000
0001
0010
0000
0100
0000
0010
0001
1000
,
0001
0100
0000
0010
1000
0000
0001
0010
0100
1000
0001
0100
0002
0000
2003
3020
,
0130
0000
0001
0010
0000
0010
0001
0000
1000
0010
0000
0100
0000
0001
0010
0100
,
0010
0000
0001
0100
0000
0100
0010
0000
1000
0100
0000
0010
0000
0001
0010
0100
,
1000
0000
0010
0100
0000
0001
0100
0000
0001
0010
0000
0010
0000
0001
1000
0001
,
1000
0010
1000
0001
0000
0100
0010
0000
1000
0100
0010
0001
2000
0000
3002
0000
,
1003
0000
0000
0010
0000
1000
0010
0100
0001
0000
0000
1000
0000
0100
0010
0001
,
0010
0000
0000
0001
0000
0100
0001
0010
0001
0100
0000
0010
0000
0100
0010
1000
,
0010
0000
0000
0000
0000
0000
0000
0000
0000
0100
0000
0000
0000
0000
0000
0010
0000
0000
1000
0000
0000
0100
0000
0000
0010
0000
0000
0000
0100
0000
0000
0000
1000
0000
0000
0000
0001
0000
0000
0000
0000
0000
0000
0000
0100
0000
0000
0000
,
0001
0010
0000
0100
1000
0000
0001
0100
0010
1000
0001
0010
0200
0000
2300
3002
,
0103
0000
0001
0010
0000
0010
0100
0000
1000
0010
0000
0100
0000
0010
1000
0100
,
0010
0000
0100
0010
0000
0010
0100
0000
0001
0010
0000
0100
0000
1000
0001
0100
,
0010
1000
0010
0000
1000
0100
0010
0001
1000
0010
0000
0100
0000
0010
1000
0001
,
1000
0100
1000
0001
0100
0001
1000
0100
1000
0010
0100
0001
2000
0000
0000
0000
,
3001
0000
0000
0000
0000
0000
0000
0000
0010
0000
0000
0000
0100
0000
0000
0000
0000
0000
0000
0000
0010
0000
0000
0000
0001
0000
0000
0000
0000
0000
0000
0000
0010
0000
0000
0000
0100
0000
0000
0000
0000
0000
0000
0000
0010
0000
0000
0000
0002
0003
0000
0000
0000
0000
0000
0000
1000
0000
0000
0000
0001
0000
0000
0000
,
1000
0000
0100
0010
0000
0100
1000
0000
0100
0010
0000
0100
1000
0001
0100
0000
,
0001
0000
0000
0000
0000
0000
0000
0000
1000
0000
0000
0000
0001
0000
0000
0000
0000
0000
0000
0000
0100
0000
0000
0000
0001
0000
0000
0000
0000
0000
0000
0000
1000
0000
0000
0000
0001
0000
0000
0000
0000
0000
0000
0000
0100
0000
0000
0000
0002
0003
0000
0000
0000
0000
0000
0000
1000
0000
0000
0000
0001
0000
0000
0000
,
1000
0010
1000
0001
0000
0010
0001
0000
1000
0100
0010
0001
0200
0000
0320
0230
,
0301
0000
0000
0000
0000
0000
0000
0000
0010
0000
0000
0000
0100
0000
0000
0000
0000
0000
0000
0000
0100
0000
0000
0000
1000
0000
0000
0000
0000
0000
0000
0000
0010
0000
0000
0000
0100
0000
0000
0000
0000
0000
0000
0000
0100
0000
0000
0000
0002
0003
0000
0000
0000
0000
0000
0000
1000
0000
0000
0000
0001
0000
0000
0000
,
1000
0000
0010
0100
0000
0100
0001
0000
0010
0100
0000
0100
1000
0001
0100
0000
,
0001
0000
0000
0000
0000
0000
0000
0000
0010
0000
0000
0000
0001
0000
0000
0000
0000
0000
0000
0000
0001
0000
0000
0000
0100
0000
0000
0000
0000
0000
0000
0000
0010
0000
0000
0000
1000
0000
0000
0000
0000
0000
0000
0000
1000
0000
0000
0000
0200
0300
0000
0000
0000
0000
0000
0000
0010
0000
0000
0000
0100
0000
0000
0000
,
0010
0001
1000
0010
0000
0100
0010
0000
1000
0010
0100
0001
2000
0000
0000
0000
,
3001
0000
0000
0010
0000
0001
0100
0000
0010
0000
0000
1000
0000
0100
0010
0000
,
0001
0000
0000
1000
0000
0010
0100
0000
0001
0100
0001
0100
0010
1000
0010
0000
,
1000
0000
0100
1000
0000
0010
0100
0001
0100
0000
0001
0010
0100
1000
0001
0000
,
1000
0000
0000
0000
0010
0000
0000
0000
0001
0000
0000
0000
1000
0000
0000
0000
0100
0000
0000
0000
0001
0000
0000
0000
2000
0000
0000
0000
0000
0000
0000
0000
0000
0000
0000
0000
3001
0000
0000
0000
0000
0000
0100
0000
0000
0010
0000
0000
,
0100
0000
0001
0010
0000
0100
1000
0000
0001
1000
0000
0010
0000
1000
0100
0010
,
0001
0000
1000
0100
0000
0010
0001
0000
0100
0001
0000
0010
0000
0001
1000
0010
,
0100
0001
0100
0001
0100
0010
0100
0010
1000
0010
1000
0010
1000
0100
0010
0001
,
1000
0100
1000
0001
0100
0001
1000
0010
1000
0100
0010
0001
2000
0000
0000
0000
,
3002
0000
0000
0000
0013
0000
0000
0000
2000
0000
0000
0000
3100
0000
0000
0001
,
1000
0001
1000
0000
0100
0010
0110
0000
,
0001
0100
0001
0000
0100
0001
0000
0100
0010
0000
1000
0010
2000
0000
3002
0000
,
1003
0000
0100
1000
0001
0100
0000
0001
0100
0000
0001
0000
0100
0010
0100
0010
,
1000
0100
0010
0001
1000
0000
0001
0100
0010
1000
0001
0000
1000
0000
0100
0000
,
0010
0110
0000
0000
0000
0000
0000
0000
;

//--------------- dance-single - Fred-104† ----------------
#NOTEDATA:;
#STEPSTYPE:dance-single;
#DESCRIPTION:Fred-104†;
#DIFFICULTY:Challenge;
#METER:19;
#CREDIT:Fred-104†;
#NOTES:
0000
0000
0000
0000
,
0000
0000
0000
0000
,
0000
0000
0000
0000
,
0000
0000
0000
0000
,
0000
0000
0000
0000
,
0002
0000
0000
0000
,
0203
0000
0320
0000
,
2030
0000
3002
0000
,
1003
0100
0000
0010
0001
0000
1000
0010
0100
0001
0100
0001
1000
0000
0000
0000
,
0001
0000
0100
0000
0010
0000
0100
0000
1000
0000
0100
0000
0001
0000
1000
0100
,
0010
0000
0100
0000
0001
0000
0100
0000
1000
0000
0001
0000
0010
0000
0100
1000
,
0100
0000
0010
0000
1000
0000
0010
0000
0001
0000
0100
0000
0010
0000
0001
0010
,
1000
0100
0010
0000
0001
1000
1001
0000
,
1000
0100
0010
0000
0100
0010
0001
0000
0010
0001
1000
0000
0001
1000
0100
0000
,
1000
0001
0010
0000
0100
1000
0001
0000
0100
0010
1000
0000
0010
0100
0001
0000
,
1000
0001
0010
0100
1000
0001
1000
0010
0100
0001
0100
0010
1000
0001
0010
0100
,
0010
0001
1000
0010
0100
0001
1000
0001
0010
0001
1000
0010
0100
0000
0000
0000
,
0022
0033
0000
0000
0000
0000
0000
0000
0000
0000
0000
0000
0000
0000
0000
0000
0001
0000
0000
0000
1000
0000
0000
0000
0010
0000
0000
0000
0000
0000
0000
0000
1000
0000
0000
0000
0000
0000
0000
0000
0010
0000
0000
0000
0000
0000
0000
0000
0220
0330
0000
0000
0000
0000
0000
0000
0000
0000
0000
0000
0000
0000
0000
0000
,
1001
0000
0001
0010
0100
0000
1000
0001
0010
0000
0001
0000
1000
0000
0010
0000
,
0220
0330
0000
0000
0000
0000
0000
0000
0000
0000
0000
0000
0000
0000
0000
0000
0100
0000
0000
0000
0000
0000
0000
0000
0001
0000
0000
0000
1000
0000
0000
0000
0100
0000
0000
0000
0000
0000
0000
0000
0010
0000
0000
0000
0000
0000
0000
0000
0022
0033
0000
0000
0000
0000
0000
0000
0000
0000
0000
0000
0000
0000
0000
0000
,
1001
0000
0000
0000
0000
0000
1000
0000
0000
0001
0000
0000
0010
0000
0000
0000
0000
0000
0001
0000
0000
1000
0000
0000
0010
0000
0000
0000
0100
0000
0000
0000
0001
0000
0000
0000
1000
0000
0000
0000
0000
0000
0000
0000
0000
0000
0000
0000
,
2002
3003
0000
0000
0000
0000
0000
0000
0000
0000
0000
0000
0000
0000
0000
0000
0001
0000
0000
0000
0000
0000
0000
0000
0010
0000
0000
0000
0100
0000
0000
0000
1000
0000
0000
0000
0000
0000
0000
0000
0100
0000
0000
0000
0000
0000
0000
0000
0220
0330
0000
0000
0000
0000
0000
0000
0000
0000
0000
0000
0000
0000
0000
0000
,
1001
0000
1000
0100
0010
0000
0001
1000
0010
0000
0100
0000
0101
0000
0000
0000
,
0001
0000
0100
0000
0010
0000
0001
0010
0100
0000
0010
0000
1000
0000
0001
0010
,
0100
0000
0000
0000
1000
0000
0000
0000
0100
0000
0000
0000
1000
0000
0000
0000
0001
0000
0000
0000
0100
0000
0000
0000
0001
0000
0000
0000
0100
0000
0000
0000
0010
0000
0000
0000
1000
0000
0000
0000
0010
0000
0000
0000
1000
0000
0000
0000
0002
0003
0000
0000
0020
0030
0000
0000
0200
0300
0000
0000
2000
3000
0000
0000
,
0001
0000
0100
0001
1000
0000
0001
0010
0100
0010
0001
0000
1000
0001
0100
0010
,
1000
0000
0000
0000
0000
0000
0001
0000
0000
0000
0000
0000
0100
0000
0000
0010
0000
0000
0100
0000
0000
0000
0000
0000
0001
0000
0000
0000
0000
0000
1000
0000
0100
0000
0010
0000
0001
0000
0000
1000
0000
0000
0010
0000
0000
0100
0000
0000
,
0001
0000
0000
0000
0000
0000
1000
0000
0000
0000
0000
0000
0100
0000
0000
0010
0000
0000
0001
0000
0000
0000
0000
0000
1000
0000
0000
0001
0000
0000
0100
0000
0000
0001
0000
0000
0010
0000
0000
0100
0000
0000
1000
0000
0001
0000
1000
0000
,
0001
0000
0100
0010
1000
0010
0100
0000
0010
1000
0001
0010
0100
0010
0001
1000
,
0001
0000
1000
0001
0010
0000
0100
1000
0010
1000
0001
0010
0001
1000
0010
0100
,
0001
0000
0010
0000
0100
0001
0100
0000
0010
0000
0001
1000
0010
0100
0001
1000
,
0100
0000
0010
0001
1000
0000
0001
1000
0010
0000
0100
0001
1000
0001
0010
0000
,
0100
0000
0000
0000
0000
0000
0000
0000
1000
0000
0000
0000
0000
0000
0000
0000
0001
0000
0000
0000
0000
0000
0000
0000
0100
0000
0000
0000
1000
0000
0000
0000
0100
0000
0000
0000
0000
0000
0000
0000
0001
0000
0000
0000
0000
0000
0000
0000
2002
3003
0000
0000
0000
0000
0000
0000
0000
0000
0000
0000
0000
0000
0000
0000
,
2200
3300
0000
0000
0000
0000
0000
0000
0000
0000
0000
0000
0000
0000
0000
0000
0110
0000
0000
0000
0000
0000
0000
0000
0010
0000
0000
0000
0001
0000
0000
0000
0010
0000
0000
0000
0000
0000
0000
0000
0001
0000
0000
0000
1000
0000
0000
0000
0010
0000
0000
0000
0000
0000
0000
0000
0100
0000
0000
0000
0001
0000
0000
0000
,
1000
0100
0010
0000
0001
0000
0100
0001
1000
0000
0001
0010
0000
0100
1000
0000
,
2002
3003
0000
0000
0000
0000
0000
0000
0000
0000
0000
0000
0000
0000
0000
0000
0110
0000
0000
0000
0000
0000
0000
0000
1000
0000
0000
0000
0001
0000
0000
0000
0010
0000
0000
0000
0000
0000
0000
0000
0100
0000
0000
0000
0010
0000
0000
0000
0001
0000
0000
0000
0000
0000
0000
0000
0100
0000
0000
0000
0010
0000
0000
0000
,
0001
0000
0000
0010
0000
0000
0100
0000
0000
0000
0000
0000
0001
0000
0000
0000
0000
0000
0010
0000
0000
0100
0000
0000
1000
0000
0000
0001
0000
0000
0100
0000
0000
0010
0000
0000
1000
0000
0000
0001
0000
0000
0010
0000
0100
0000
1000
0000
,
0001
0000
0010
1000
0000
0010
0001
0000
1000
0000
0010
0001
0000
0010
1000
0000
,
0001
0000
0000
0000
0000
0000
0010
0000
0000
0000
0000
0000
0100
0000
0000
0000
0000
0000
1000
0000
0001
0000
0010
0000
0001
0000
0000
1000
0000
0000
0001
0000
0000
0010
0000
0000
0200
0000
0000
0000
0000
0000
0000
0000
0000
0000
0000
0000
,
1300
0001
0010
0100
0010
0001
1000
0010
0100
0001
0100
0010
1000
0001
0010
0100
,
2000
0000
0000
0000
0000
0000
0000
0000
3001
1000
0001
1000
0002
0000
0000
0000
,
1003
0001
0010
0100
,
1000
0000
0001
0000
1000
0000
0000
0000
0001
0000
0100
0001
0000
1000
0001
0010
,
0100
1000
0001
0100
,
0010
0000
1000
0000
0001
0000
0000
0000
1000
0000
0001
0010
0000
0100
0010
0100
,
1000
0001
0100
0010
,
0100
0000
0001
0000
1000
0000
0000
0000
0001
0000
0100
0010
0000
1000
0010
0100
,
0001
0000
1000
0100
0010
0001
1000
0000
,
2200
3300
0000
0000
0000
0000
0000
0000
0000
0000
0000
0000
0000
0000
0000
0000
0202
0303
0000
0000
0000
0000
0000
0000
0000
0000
0000
0000
0000
0000
0000
0000
0022
0033
0000
0000
0000
0000
0000
0000
0000
0000
0000
0000
0000
0000
0000
0000
2020
3030
0000
0000
0000
0000
0000
0000
0000
0000
0000
0000
0000
0000
0000
0000
,
1001
0000
0001
1000
0000
0001
0010
0000
0100
0000
1000
0001
0100
0000
0010
0000
,
1000
0000
0001
1000
0010
1000
0001
0000
1000
0100
0000
0100
0001
0000
1000
0000
,
0001
0000
0100
0001
0000
1000
0001
0000
0010
0000
0100
1000
0001
0000
0100
0010
,
1000
0000
0001
0000
1001
0000
0000
0000
0001
0100
0000
0100
1000
0000
0100
0010
,
0001
1000
0001
1000
0010
0100
0010
0100
0001
1000
0100
1000
0100
0010
0001
0010
,
0001
1000
0001
0100
0010
1000
0010
0100
0001
1000
0100
0010
0001
1000
0010
0100
,
0001
1000
0100
0010
0001
1000
0010
0100
0010
1000
0001
0010
0100
1000
0001
0100
,
0001
0100
0010
0000
0001
0000
0010
0100
0001
1000
0100
1000
0002
0000
0000
0003
,
1001
0000
1000
0100
0000
0010
0001
1000
0001
0100
0000
0001
0000
1000
0001
0010
,
0100
0000
0010
0001
0000
1000
0001
0100
0001
1000
0000
0100
0000
0010
0001
1000
,
0010
0000
0100
0001
0000
1000
0001
0010
0001
1000
0000
0100
0000
1000
0001
0010
,
0100
0000
0000
1000
0000
0000
0000
0000
0000
0001
0000
0000
1000
0000
0000
0000
0000
0000
0010
0000
0000
0100
0000
0000
0001
0000
0000
1000
0000
0000
0100
0000
0000
0010
0000
0000
0001
0000
1000
0000
0001
0000
1000
0000
0000
0000
0000
0000
,
0001
0000
0100
0010
0000
1000
0010
1000
0001
0010
0000
0100
0000
1000
0001
1000
,
0010
0000
0100
0001
0000
1000
0001
0010
0001
1000
0000
0010
0100
0001
1000
0001
,
0010
0000
0001
1000
0000
0100
0010
0001
0010
0100
0000
0010
0000
0001
1000
0001
,
1000
0000
0000
0100
0000
0000
0010
0000
0000
0001
0000
0000
0100
0000
0000
0010
0000
0000
1000
0000
0000
0100
0000
0000
0010
0000
0000
0001
0000
0000
1000
0000
0000
0001
0000
0000
1000
0000
0001
0000
1000
0000
0001
0000
0000
0000
0000
0000
,
1000
0000
0001
0010
0000
0100
1000
0000
0001
0000
0100
0001
0000
1000
0001
0000
,
0010
0000
0001
1000
0000
0010
0100
0000
0001
1000
0000
0100
0010
0001
1000
0010
,
0100
0000
0000
0000
0000
0000
0001
0000
0000
1000
0000
0000
0000
0000
0000
0100
0000
0000
0010
0000
0000
0000
0000
0000
0100
0000
0000
0000
1000
0000
0000
0000
0001
0000
0000
0000
0100
0000
0000
0000
0010
0000
0000
0000
1000
0000
0000
0000
,
0100
0000
0000
0010
0000
0000
0000
0000
0000
0100
0000
0000
1000
0000
0000
0000
0000
0000
0001
0000
0000
0100
0000
0000
0010
0000
0000
1000
0000
0000
0001
0000
0000
0010
0000
0000
0100
0000
1000
0000
0100
0000
2000
0000
0000
0000
0000
0000
,
3001
0000
0010
0001
0000
1000
0001
0000
0100
0001
0000
1000
0001
0010
0100
1000
,
0001
0000
1000
0100
0000
1000
0001
0000
1000
0010
0000
0100
0001
1000
0001
0010
,
0100
1000
0001
0000
1000
0010
1000
0001
0010
0000
0100
0000
0010
0001
1000
0010
,
0100
0001
1000
0100
1000
0001
0010
0001
1000
0010
0100
0001
2000
0000
0000
0000
,
3001
0000
0100
1000
0000
0100
0001
0000
0100
1000
0000
0100
0001
0000
1000
0001
,
1000
0000
0010
0001
0000
0010
1000
0000
0010
0001
0000
0010
1000
0001
1000
0000
,
0001
0000
0010
0100
0000
0001
0100
0000
0010
0001
0000
1000
0001
0000
1000
0001
,
1000
0000
0000
0010
0000
0000
1000
0000
0000
0001
0000
0000
0100
0000
0000
0001
0000
0000
1000
0000
0000
0100
0000
0000
1000
0000
0000
0001
0000
0000
0100
0000
0000
0010
0000
0000
0100
0000
0001
0000
1000
0000
0001
0000
0000
0000
0000
0000
,
1000
0000
0100
0010
0000
1000
0010
0000
0100
1000
0000
0001
0100
0000
0001
1000
,
0010
0000
1000
0010
0000
0100
1000
0000
0100
0010
0000
1000
0001
0010
0100
0000
,
1000
0000
0001
0100
0000
1000
0100
0000
0010
1000
0000
0001
0010
0000
0100
1000
,
0100
1000
0001
0100
0001
1000
0010
1000
0001
0010
0100
1000
0001
0000
0000
0000
,
1001
0000
0001
0100
0000
0001
0010
0000
0100
0000
1000
0001
0000
0100
0010
0000
,
1000
0000
0001
0010
0000
0100
0010
0000
0001
1000
0001
1000
0100
0010
0001
0010
,
0100
0000
0000
0000
0000
0000
1000
0000
0000
0001
0000
0000
0000
0000
0000
0100
0000
0000
0010
0000
0000
0000
0000
0000
1000
0000
0000
0000
0000
0000
0001
0000
0010
0000
0001
0000
0010
0000
0000
0100
0000
0000
1000
0000
0000
0000
0000
0000
,
0001
0000
0000
0000
0010
0000
0000
0000
1000
0000
0000
0000
0001
0000
0000
0000
0100
0000
0000
0000
1000
0000
0000
0000
0002
0000
0000
0000
0000
0000
0000
0000
0000
0000
0000
0000
1003
0000
0000
0001
0000
0000
1000
0000
0000
0001
0000
0000
,
1000
0000
0001
0010
0000
0001
0100
0000
0001
1000
0000
0001
0000
0010
0100
0010
,
0001
0000
1000
0001
0000
0100
0001
0000
1000
0001
0000
0010
0000
0100
1000
0100
,
0010
0001
1000
0001
0100
0010
1000
0010
0100
0001
1000
0100
0010
0001
1000
0001
,
0100
0000
0000
0010
0000
0000
1000
0000
0000
0010
0000
0000
0100
0000
0000
0001
0000
0000
0010
0000
0000
0100
0000
0000
1000
0000
0000
0010
0000
0000
0100
0000
0000
0001
0000
0000
1000
0000
0100
0000
0010
0000
0001
0000
1000
0000
0001
0000
,
0000
0000
0000
0000
,
0000
0000
0000
0000
0000
0100
1001
0000
,
1000
0000
0000
0001
0000
0000
0010
0000
0000
0000
0000
0000
0100
0000
0000
1000
0000
0000
0000
0000
0000
0001
0000
0000
0100
0000
0001
0000
1000
0000
0001
0000
0000
1000
0000
0000
0000
0000
0000
0001
0000
0000
0010
0000
0000
0000
0000
0000
,
0100
0000
0000
0000
0000
0000
1000
0000
0001
0000
1000
0000
0010
0000
0000
0100
0000
0000
0000
0000
0000
0001
0000
0000
1000
0000
0000
0000
0000
0000
0001
0000
0000
0100
0000
0000
0010
0000
0000
1000
0000
0000
0001
0000
0000
0010
0000
0000
,
0001
0000
1000
0000
0010
0000
0100
0000
0000
0001
0000
0000
1000
0000
0000
0100
0000
0000
0010
0000
0000
0001
0000
0000
1000
0000
0000
0001
0000
0000
0100
0000
0000
0010
0000
0000
1000
0000
0001
0000
0010
0000
0001
0000
0000
1000
0000
0000
,
0100
0010
0000
0000
0000
0000
0000
0000
;

//--------------- dance-double - Fred-104 ----------------
#NOTEDATA:;
#STEPSTYPE:dance-double;
#DESCRIPTION:Fred-104;
#DIFFICULTY:Easy;
#METER:14;
#CREDIT:Fred-104;
#NOTES:
00000000
00000000
00000000
00000000
,
00000000
00000000
00000000
00000000
,
00000000
00000000
00000000
00000000
,
00000000
00000000
00000000
00000000
,
00000000
00000000
00000000
00000000
,
10000000
00000000
00100000
00000000
,
10000000
00010000
00100000
01000000
,
10000000
00000000
00010000
01000000
,
00001000
00000000
00000000
00001000
00000000
00000000
00010000
00000000
00001000
00000000
00010000
00000000
00011000
00000000
00000000
00000000
,
00010000
00010000
00001000
00001000
,
00000100
00000100
00000001
00000001
,
00001000
00001000
00000001
00000001
,
00000010
00000100
00001000
00000100
,
00010000
00001000
00010000
00000000
00001000
01000000
00001000
00000000
,
00100000
00010000
00100000
00000000
01000000
10000000
01000000
00000000
,
00100000
00010000
00100000
00000000
00001000
00010000
00000010
00000000
,
00001000
00000001
00000100
00000010
00010000
00001000
01000000
00000000
,
02200000
03300000
00000000
00000000
00000000
00000000
00000000
00000000
00000000
00000000
00000000
00000000
00000000
00000000
00000000
00000000
00100000
00000000
00000000
00000000
00000000
00000000
00000000
00000000
10000000
00000000
00000000
00000000
00000000
00000000
00000000
00000000
01000000
00000000
00000000
00000000
00000000
00000000
00000000
00000000
00100000
00000000
00000000
00000000
00000000
00000000
00000000
00000000
00020000
00030000
00000000
00000000
00000000
00000000
00000000
00000000
00000000
00000000
00000000
00000000
00000000
00000000
00000000
00000000
,
00001000
00010000
00000100
00000000
00001000
00000001
00000100
00000000
,
00000220
00000330
00000000
00000000
00000000
00000000
00000000
00000000
00000000
00000000
00000000
00000000
00000000
00000000
00000000
00000000
00000100
00000000
00000000
00000000
00000000
00000000
00000000
00000000
00000001
00000000
00000000
00000000
00000000
00000000
00000000
00000000
00001000
00000000
00000000
00000000
00000000
00000000
00000000
00000000
00000001
00000000
00000000
00000000
00000000
00000000
00000000
00000000
00000020
00000030
00000000
00000000
00000000
00000000
00000000
00000000
00000000
00000000
00000000
00000000
00000000
00000000
00000000
00000000
,
00000001
00000100
00000010
00001000
00000100
00000000
00010000
00000000
,
00022000
00033000
00000000
00000000
00000000
00000000
00000000
00000000
00000000
00000000
00000000
00000000
00000000
00000000
00000000
00000000
00001000
00000000
00000000
00000000
00000000
00000000
00000000
00000000
00010000
00000000
00000000
00000000
00000000
00000000
00000000
00000000
00100000
00000000
00000000
00000000
00000000
00000000
00000000
00000000
10000000
00000000
00000000
00000000
00000000
00000000
00000000
00000000
00020000
00030000
00000000
00000000
00000000
00000000
00000000
00000000
00000000
00000000
00000000
00000000
00000000
00000000
00000000
00000000
,
10000000
00100000
00010000
00001000
00000010
00000001
00002000
00000000
,
00003001
00000100
00000010
00000000
00001000
00000100
00010000
00000000
,
00001000
00000000
00100000
00000000
00010000
10000000
02000000
00000000
,
03100000
00010000
10000000
00100000
01000000
00100000
10000000
00000000
,
01000000
00000000
00100000
00000000
00001000
00010000
00001000
00000000
,
00010000
00000000
00000100
00000000
00001000
00000000
00000000
00000000
00000100
00000000
00000000
00000010
00000000
00000000
00000001
00000000
,
00001000
00000001
00000100
00000010
00001000
00000001
00000010
00000000
,
00000001
00001000
00000010
00000100
00000001
00000100
00000001
00000000
,
00001000
00000100
00001000
00000000
00000010
00010000
00001000
00000000
,
00100000
00010000
00100000
01000000
,
20000000
00000000
00000000
00000000
00000000
00000000
00000000
00000000
30020000
00000000
00000000
00000000
00000000
00000000
00000000
00000000
02030000
00000000
00000000
00000000
00000000
00000000
00000000
00000000
00000000
00000000
00000000
00000000
00000000
00000000
00000000
00000000
03200000
00000000
00000000
00000000
00000000
00000000
00000000
00000000
20300000
00000000
00000000
00000000
00000000
00000000
00000000
00000000
30200000
00300000
00000000
00000000
00000000
00000000
00000000
00000000
00000000
00000000
00000000
00000000
00000000
00000000
00000000
00000000
,
20020000
30030000
00000000
00000000
00000000
00000000
00000000
00000000
00000000
00000000
00000000
00000000
00000000
00000000
00000000
00000000
10000000
00000000
00000000
00000000
00000000
00000000
00000000
00000000
02000000
03000000
00000000
00000000
00000000
00000000
00000000
00000000
02000000
03000000
00000000
00000000
00000000
00000000
00000000
00000000
00010000
00000000
00000000
00000000
00000000
00000000
00000000
00000000
00200000
00300000
00000000
00000000
00000000
00000000
00000000
00000000
00200000
00300000
00000000
00000000
00000000
00000000
00000000
00000000
,
10000000
00000000
01000000
00000000
00100000
00000000
00000000
00000000
00001000
00000000
00000000
00010000
00000000
00000000
00001000
00000000
,
00022000
00033000
00000000
00000000
00000000
00000000
00000000
00000000
00000000
00000000
00000000
00000000
00000000
00000000
00000000
00000000
00010000
00000000
00000000
00000000
00000000
00000000
00000000
00000000
00000100
00000000
00000000
00000000
00000000
00000000
00000000
00000000
00001000
00000000
00000000
00000000
00000000
00000000
00000000
00000000
00000100
00000000
00000000
00000000
00000000
00000000
00000000
00000000
00010000
00000000
00000000
00000000
00000000
00000000
00000000
00000000
00000000
00000000
00000000
00000000
00000000
00000000
00000000
00000000
,
00000010
00010000
00001000
00010000
00001000
00010000
00200000
00000000
,
01300000
00000000
00000000
01000000
00000000
00000000
01000000
00000000
00010000
00000000
00000000
00100000
00000000
00000000
01000000
00000000
,
10000000
00000000
00000000
00000000
00000000
00000000
00000000
00000000
00010000
00000000
00000000
00000000
00000000
00000000
00000000
00000000
02000000
03000000
00000000
00000000
00000000
00000000
00000000
00000000
02000000
03000000
00000000
00000000
00000000
00000000
00000000
00000000
10000000
00000000
00000000
00000000
00000000
00000000
00000000
00000000
01000000
00000000
00000000
00000000
00000000
00000000
00000000
00000000
00200000
00000000
00000000
00000000
00000000
00000000
00000000
00000000
00000000
00000000
00000000
00000000
00000000
00000000
00000000
00000000
,
00301000
00010000
00001000
00010000
00000010
00001000
00000010
00000100
,
00000002
00000000
00000000
00000000
00000203
00000000
00000000
00000000
00002300
00000000
00000000
00000000
00013000
00000000
00000000
00001000
00000000
00000000
00020000
00000000
00000000
00000000
00000000
00000000
,
00031000
00001000
00100000
00100000
,
00010000
00000000
00000000
00000000
10000000
00000000
00000000
00000000
00100000
00000000
00000000
00100000
00000000
00000000
01000000
00000000
,
00010000
10000000
01000000
00100000
,
00001000
00000000
00000000
00000000
00001000
00000000
00000000
00000000
00010000
00000000
00000000
00000010
00000000
00000000
00001000
00000000
,
00000100
00010000
00000100
00000100
,
00001000
00000000
00000000
00000000
00000001
00000000
00000000
00000000
00000100
00000000
00000000
00000100
00000000
00000000
00000010
00000000
,
00001000
00000001
00000100
00001000
,
00022000
00000000
00000000
00033000
,
00001000
00010000
00100000
10000000
,
01000000
00000000
00100000
00000000
00010000
00000000
10000000
00000000
00100000
00000000
00000000
00100000
00000000
00000000
00100000
00000000
,
01000000
00010000
00100000
00001000
,
00010000
00000000
00000000
00000100
00000000
00000000
00001000
00000000
00000100
00000000
00000000
00000010
00000000
00000000
00000001
00000000
,
00000100
00001000
00010000
00100000
,
01000000
00010000
10000000
01000000
,
00010000
00001000
00010000
00000100
00001000
00000100
00000010
00000001
,
00001000
00000010
00000100
00000001
00001000
00000100
00000020
00000000
,
00000031
00000000
00000000
00000010
00000000
00000000
00000001
00000000
00001000
00000000
00000000
00000100
00000000
00000000
00010000
00000000
,
00001000
00000000
00000000
01000000
00000000
00000000
00010000
00000000
10000000
00000000
00000000
01000000
00000000
00000000
00100000
00000000
,
00001000
00000000
00000000
00010000
00000000
00000000
00001000
00000000
00000010
00000000
00000000
00000001
00000000
00000000
00001000
00000000
,
00000100
00000010
00000001
00000000
00000010
00000100
00002000
00000000
,
00003001
00000000
00000000
00001000
00000000
00000000
00000010
00000000
00010000
00000000
00000000
00001000
00000000
00000000
00010000
00000000
,
00000100
00000000
00000000
00010000
00000000
00000000
00001000
00000000
01000000
00000000
00000000
00010000
00000000
00000000
10000000
00000000
,
00010000
00000000
00000000
00100000
00000000
00000000
01000000
00000000
10000000
00000000
00000000
00010000
00000000
00000000
01000000
00000000
,
00100000
10000000
01000000
00000000
00100000
00001000
00011000
00000000
,
00001000
00010000
01000000
00000000
10000000
00010000
00100000
00000000
,
01000000
00100000
00001000
00000000
00010000
00000100
00001000
00000000
,
00000001
00000100
00000010
00000000
00001000
00000001
00000010
00000000
,
00000001
00000000
00000000
00000100
00000000
00000000
00000010
00000000
00001000
00000000
00000001
00000000
00001001
00000000
00000000
00000000
,
00000001
00000000
00000000
00000010
00000000
00000000
00000001
00000000
00001000
00000000
00000000
00000010
00000000
00000000
00000100
00000000
,
00000001
00000000
00000000
00000100
00000000
00000000
00001000
00000000
00010000
00000000
00000000
01000000
00000000
00000000
00100000
00000000
,
00010000
00000000
00000000
01000000
00000000
00000000
00010000
00000000
10000000
00000000
00000000
00100000
00000000
00000000
01000000
00000000
,
00010000
00100000
00001000
00000000
00010000
00001000
00020000
00000000
,
00030100
00000000
00000000
00000100
00000000
00000000
00000100
00000000
00000010
00000000
00000000
00010000
00000000
00000000
00000000
00000000
,
00010000
00000000
00000000
00010000
00000000
00000000
00010000
00000000
00001000
00000000
00000000
00001000
00000000
00000000
00000000
00000000
,
00100000
00000000
00000000
00100000
00000000
00000000
00100000
00000000
01000000
00000000
00000000
10000000
00000000
00000000
00000000
00000000
,
00010000
00000000
00000000
10000000
00000000
00000000
00010000
00000000
01000000
00000000
00100000
00000000
01100000
00000000
00000000
00000000
,
10000000
00000000
00000000
10000000
00000000
00000000
01000000
00000000
00100000
00000000
00000000
00001000
00000000
00000000
00000000
00000000
,
00010000
00000000
00000000
00010000
00000000
00000000
00000100
00000000
00001000
00000000
00000000
00000001
00000000
00000000
00000000
00000000
,
00000100
00000000
00000000
00000100
00000000
00000000
00000010
00000000
00000100
00000000
00000000
00000001
00000000
00000000
00000000
00000000
,
00001000
00000000
00000000
00000001
00000000
00000000
00000100
00000000
00000010
00000000
00000100
00000000
00000110
00000000
00000000
00000000
,
00000001
00000000
00000010
00000001
00001000
00000000
00000010
00010000
,
00001000
00000000
00100000
00010000
00100000
00000000
00010000
10000000
,
01000000
00000000
00010000
00001000
00010000
00000000
00001000
00000100
,
00000002
00000023
00000230
00002300
,
00003001
00000000
00000000
00001000
00000000
00000000
00000100
00000000
00010000
00000000
00000000
00001000
00000000
00000000
01000000
00000000
,
00010000
00000000
00000000
10000000
00000000
00000000
01000000
00000000
00100000
00000000
00000000
00001000
00000000
00000000
00010000
00000000
,
00000100
00001000
00000100
00001000
00000100
00000010
00000100
00000010
,
00000001
00000100
00001000
00000000
00010000
01000000
00200000
00000000
,
00310000
00010000
01000000
01000000
,
00100000
10000000
01000000
00000000
00100000
00001000
00020000
00000000
,
00031000
00000000
00010000
00000010
00001000
00000010
00000200
00000000
,
00000301
00000000
00000100
00000000
00001000
00010000
00001000
00000000
,
01000000
00100000
10000000
10000000
01000000
00100000
00010000
00010000
,
10000000
10010000
00000000
00000000
00000000
00000000
00000000
00000000
;

//--------------- dance-double - Fred-104 ----------------
#NOTEDATA:;
#STEPSTYPE:dance-double;
#DESCRIPTION:Fred-104;
#DIFFICULTY:Medium;
#METER:16;
#CREDIT:Fred-104;
#NOTES:
00000000
00000000
00000000
00000000
,
00000000
00000000
00000000
00000000
,
00000000
00000000
00000000
00000000
,
00000000
00000000
00000000
00000000
,
00000000
00000000
00000000
00000000
,
00001000
00010000
01000000
10000000
,
00010000
01000000
10000000
01000000
00010000
10000000
00010000
00000000
,
10000000
00000000
01000000
00100000
00001000
00010000
00000000
00010000
,
00001000
00000000
00000000
00000100
00000000
00000000
00000010
00000000
00001000
00000000
00000001
00000000
00001001
00000000
00000000
00000000
,
00000001
00000001
00000100
00000100
,
00001000
00001000
00010000
00010000
,
01000000
01000000
10000000
10000000
,
00010000
00010000
01000000
01000000
,
00100000
10000000
01000000
00100000
00001000
00010000
00000100
00001000
,
00000100
00000001
00000100
00000010
00000001
00000010
00000100
00001000
,
00000100
00001000
00000100
00000000
00010000
00001000
00010000
00000000
00001000
01000000
00001000
00000000
00010000
00001000
00010000
00000000
,
00001000
00010000
00000010
00001000
00000001
00000100
00000110
00000000
,
00002002
00003003
00000000
00000000
00000000
00000000
00000000
00000000
00000000
00000000
00000000
00000000
00000000
00000000
00000000
00000000
00000001
00000000
00000000
00000000
00000010
00000000
00000000
00000000
00000001
00000000
00000000
00000000
00000000
00000000
00000000
00000000
00001000
00000000
00000000
00000000
00000000
00000000
00000000
00000000
00000010
00000000
00000000
00000000
00000000
00000000
00000000
00000000
00000200
00000300
00000000
00000000
00000000
00000000
00000000
00000000
00000000
00000000
00000000
00000000
00000000
00000000
00000000
00000000
,
00000001
00000000
00000000
00000000
00000000
00000000
00000000
00000000
00001000
00000000
00000000
00000000
00000010
00000000
00000000
00000000
00001000
00000000
00000000
00000000
00000000
00000000
00000000
00000000
00000200
00000300
00000000
00000000
00000000
00000000
00000000
00000000
00000200
00000300
00000000
00000000
00000000
00000000
00000000
00000000
00000001
00000000
00000000
00000000
00000000
00000000
00000000
00000000
00001000
00000000
00000000
00000000
00000000
00000000
00000000
00000000
00000000
00000000
00000000
00000000
00000000
00000000
00000000
00000000
,
00020020
00030030
00000000
00000000
00000000
00000000
00000000
00000000
00000000
00000000
00000000
00000000
00000000
00000000
00000000
00000000
00010000
00000000
00000000
00000000
00000000
00000000
00000000
00000000
00001000
00000000
00000000
00000000
00100000
00000000
00000000
00000000
00001000
00000000
00000000
00000000
00000000
00000000
00000000
00000000
01000000
00000000
00000000
00000000
00000000
00000000
00000000
00000000
00200000
00300000
00000000
00000000
00000000
00000000
00000000
00000000
00000000
00000000
00000000
00000000
00000000
00000000
00000000
00000000
,
10000000
00000000
00000000
00000000
00000000
00000000
00010000
00000000
00000000
01000000
00000000
00000000
00010000
00000000
00000000
00000000
00000000
00000000
10000000
00000000
00000000
00000000
00000000
00000000
01000000
00000000
00000000
00000000
10000000
00000000
00000000
00000000
00010000
00000000
00000000
00000000
01000000
00000000
00000000
00000000
00000000
00000000
00000000
00000000
00000000
00000000
00000000
00000000
,
02200000
03300000
00000000
00000000
00000000
00000000
00000000
00000000
00000000
00000000
00000000
00000000
00000000
00000000
00000000
00000000
01000000
00000000
00000000
00000000
00000000
00000000
00000000
00000000
00001000
00000000
00000000
00000000
00010000
00000000
00000000
00000000
00001000
00000000
00000000
00000000
00000000
00000000
00000000
00000000
00100000
00000000
00000000
00000000
00000000
00000000
00000000
00000000
00002000
00003000
00000000
00000000
00000000
00000000
00000000
00000000
00000000
00000000
00000000
00000000
00000000
00000000
00000000
00000000
,
00010000
00000000
00001000
00010000
00001000
00000000
00100000
00000000
00010000
00000000
01000000
00000000
01200000
00000000
00000000
00000000
,
10300000
01000000
00100000
00001000
00010000
00100000
10000000
01000000
,
00100000
00000000
00000000
00000000
00000000
00000000
00000000
00000000
00100000
00000000
00000000
00000000
00000000
00000000
00000000
00000000
00001000
00000000
00000000
00000000
00000000
00000000
00000000
00000000
00001000
00000000
00000000
00000000
00000000
00000000
00000000
00000000
00010000
00000000
00000000
00000000
00000000
00000000
00000000
00000000
00001000
00000000
00000000
00000000
00000000
00000000
00000000
00000000
00020000
00030000
00000000
00000000
00002000
00003000
00000000
00000000
00020000
00030000
00000000
00000000
00002000
00003000
00000000
00000000
,
00010000
00001000
00000100
00000010
00001000
00000001
00000010
00000000
,
00000010
00000000
00000100
00000000
00001000
00000000
00000001
00000000
00000010
00000000
00000100
00000000
00010000
00001000
00010000
00000000
,
00011000
00000000
00000000
00000000
00101000
00000000
00000000
00000000
00100000
00000000
00010000
10000000
00000000
00100000
01000000
00000000
,
00100000
00000000
10000000
00000000
01000000
00000000
00100000
00000000
00001000
00000000
00001000
00000000
00010000
00001000
00010000
00000000
,
00000010
00001000
00000010
00000000
00001000
00000000
00000001
00000010
00000001
00000000
00000100
00000000
00000010
00000000
00001000
00000000
,
00000001
00000010
00001000
00010000
00100000
10000000
00010000
00000000
,
01000000
00000000
00100000
00000000
10000000
00000000
01000000
00000000
00100000
00001000
00000000
00001000
00010000
00000000
00000100
00000000
,
00002000
00000000
00000000
00000000
00000000
00000000
00000000
00000000
00003020
00000000
00000000
00000000
00000000
00000000
00000000
00000000
00000230
00000000
00000000
00000000
00000000
00000000
00000000
00000000
00000302
00000000
00000000
00000000
00000000
00000000
00000000
00000000
00000203
00000000
00000000
00000000
00000000
00000000
00000000
00000000
00000320
00000000
00000000
00000000
00000000
00000000
00000000
00000000
00002030
00003000
00000000
00000000
00000000
00000000
00000000
00000000
00000000
00000000
00000000
00000000
00000000
00000000
00000000
00000000
,
00002002
00003003
00000000
00000000
00000000
00000000
00000000
00000000
00000000
00000000
00000000
00000000
00000000
00000000
00000000
00000000
00000001
00000000
00000000
00000000
00000000
00000000
00000000
00000000
00000100
00000000
00000000
00000000
00000010
00000000
00000000
00000000
00000100
00000000
00000000
00000000
00000000
00000000
00000000
00000000
00000010
00000000
00000000
00000000
00000000
00000000
00000000
00000000
00001000
00000000
00000000
00000000
00000000
00000000
00000000
00000000
00000100
00000000
00000000
00000000
00000000
00000000
00000000
00000000
,
00000010
00000100
00000010
00000000
00000001
00000000
00000100
00000000
00001000
00000000
00000000
00010000
00000000
00000000
00001000
00000000
,
00022000
00033000
00000000
00000000
00000000
00000000
00000000
00000000
00000000
00000000
00000000
00000000
00000000
00000000
00000000
00000000
00001000
00000000
00000000
00000000
00000000
00000000
00000000
00000000
00010000
00000000
00000000
00000000
00001000
00000000
00000000
00000000
00010000
00000000
00000000
00000000
00000000
00000000
00000000
00000000
00100000
00000000
00000000
00000000
00000000
00000000
00000000
00000000
01000000
00000000
00000000
00000000
00000000
00000000
00000000
00000000
00010000
00000000
00000000
00000000
00000000
00000000
00000000
00000000
,
10000000
01000000
10000000
00000000
01000000
00000000
00100000
00001000
00100000
00000000
00001000
00000000
00020000
00000000
00000000
00000000
,
00031000
00000000
00000000
00010100
00000000
00000000
00001000
00000000
00000100
00000000
00000000
00000011
00000000
00000000
00000001
00000000
,
00001000
00000000
00000001
00000000
00000010
00000000
00000100
00001000
00000100
00000000
00010000
00000000
00011000
00000000
00000000
00000000
,
00000010
00010000
00000010
00000000
00010000
00001000
00010000
00000000
00001000
00000000
00100000
00000000
00010000
00000000
10000000
00000000
,
00010000
00000000
00000000
00000000
00000000
00000000
00000000
00000000
20000000
00000000
00000000
00000000
00000000
00000000
00000000
00000000
32000000
00000000
00000000
00000000
00000000
00000000
00000000
00000000
13000000
00000000
00000000
00100000
00000000
00000000
10000000
00000000
00000000
00100000
00000000
00000000
10000000
00000000
00000000
00000000
00000000
00000000
00000000
00000000
00000000
00000000
00000000
00000000
,
00010000
00010000
10000000
10000000
,
01000000
00000000
00010000
00000000
00001000
00000000
00000000
00000000
00000010
00000000
00000000
00000100
00000000
00000000
00001000
00000000
,
00000001
00000010
00000100
00001000
,
00000001
00000000
00000010
00000000
00000100
00000000
00000000
00000000
00001000
00000000
00000000
00001000
00000000
00000000
00000100
00010000
,
00000100
00010000
00001000
01000000
,
00010000
00000000
00100000
00000000
00001000
00000000
00000000
00000000
01000000
00000000
00000000
00100000
00000000
00000000
10000000
00000000
,
01000000
00100000
00001000
00010000
,
00022000
00033000
00000000
00000000
00000000
00000000
00000000
00000000
00000000
00000000
00000000
00000000
00000000
00000000
00000000
00000000
00000020
00000030
00000000
00000000
00000000
00000000
00000000
00000000
00000000
00000000
00000000
00000000
00000000
00000000
00000000
00000000
00002002
00003003
00000000
00000000
00000000
00000000
00000000
00000000
00000000
00000000
00000000
00000000
00000000
00000000
00000000
00000000
00000200
00000300
00000000
00000000
00000000
00000000
00000000
00000000
00000000
00000000
00000000
00000000
00000000
00000000
00000000
00000000
,
00000001
00000000
00000000
00000100
00000000
00000000
00000010
00000000
00001000
00000000
00000001
00000000
00000010
00000000
00000100
00000000
,
00010000
00000000
00001000
00000000
00010000
00000000
00000000
00000000
01000000
00000000
00000000
00100000
00000000
00000000
00010000
00000000
,
10000000
00000000
00000000
00100000
00000000
00000000
10000000
00000000
00010000
00000000
01000000
00100000
01000000
00000000
00000000
00000000
,
00010000
00000000
00000000
00100000
00000000
00000000
00001000
00000000
00010000
00000000
00000000
00000100
00000000
00000000
00001000
00000000
,
00000100
00000010
00000001
00001000
00000010
00000100
00000010
00001000
,
00000001
00000010
00000100
00010000
00001000
00100000
01000000
10000000
,
00010000
01000000
00010000
00000000
01000000
00100000
01000000
00000000
00100000
10000000
00100000
00000000
10000000
00010000
10000000
00000000
,
00010000
01000000
00010000
00000000
10000000
00000000
00010000
00100000
00010000
00000000
00100000
00000000
00002000
00000000
00000000
00000000
,
00013000
00000000
00000100
00001000
00000000
00001000
00000010
00000000
00000100
00000000
00000000
00000001
00000000
00000000
00001000
00000000
,
00000100
00000000
00000010
00000001
00000000
00000001
00001000
00000000
00000010
00000000
00000000
00010000
00000000
00000000
00001000
00000000
,
00100000
00000000
00001000
00010000
00000000
00010000
00001000
00000000
01000000
00000000
00000000
00001000
00000000
00000000
00010000
00000000
,
00000100
00000000
00000000
00001000
00000000
00000000
00000010
00000000
00000100
00000001
00000100
00000001
00000200
00000000
00000000
00000000
,
00000301
00000000
00000100
00000010
00000000
00000100
00000010
00000000
00001000
00000000
00000000
00000100
00000000
00000000
00010000
00000000
,
00000010
00000000
00001000
00000100
00000000
00001000
00000100
00000000
00010000
00000000
00000000
00001000
00000000
00000000
01000000
00000000
,
00010000
00000000
00100000
00010000
00000000
00100000
00010000
00000000
10000000
00000000
00000000
01000000
00000000
00000000
00100000
00000000
,
00001000
00000000
00000000
00010000
00000000
00000000
00000100
00000000
00010000
00001000
00010000
00001000
00020000
00000000
00000000
00000000
,
00030010
00000000
00000000
00001000
00000000
00000000
00000100
00000010
00000100
00000000
00000000
00000010
00000000
00000000
00000001
00000100
,
00000001
00000000
00000000
00001000
00000000
00000000
00000010
00001000
00000010
00000000
00000000
00010000
00000000
00000000
00001000
00010000
,
00001000
00000000
00000000
00000000
00000000
00000000
00000000
00000000
00000000
01000000
00000000
00000000
00000000
00000000
00000000
00000000
00000000
00000000
00010000
00000000
00000000
00000000
00000000
00000000
00100000
00000000
00000000
00000000
00010000
00000000
00000000
00000000
10000000
00000000
00000000
00000000
00010000
00000000
00000000
00000000
00000000
00000000
00000000
00000000
10000000
00000000
00000000
00000000
,
00010000
00000000
00000000
10000000
00000000
00000000
01000000
00000000
00100000
00010000
00100000
00010000
00200000
00000000
00000000
00000000
,
00301000
00000000
00010000
00001000
00000000
00010000
00001000
00000000
00010000
00000000
00000000
00000100
00000000
00000000
00001000
00000000
,
00000100
00000000
00000010
00000001
00000000
00001000
00000001
00000000
00000100
00000000
00000000
00000010
00000000
00000000
00001000
00000000
,
00000001
00000000
00000010
00000100
00000000
00000100
00001000
00000000
00000001
00000000
00000000
00000100
00000000
00000000
00000010
00000000
,
00001000
00000000
00000000
00000100
00000000
00000000
00010000
00000000
00001000
00010000
00001000
00010000
00002000
00000000
00000000
00000000
,
00013000
00000000
00000000
00000000
00000000
00000000
00000000
00000000
00001000
00000000
00000000
00000000
00010000
00000000
00000000
00000000
00000000
00000000
00000000
00000000
00001000
00000000
00000000
00000000
00010000
00000000
00000000
00000000
00000000
00000000
00000000
00000000
01000000
00000000
00000000
00000000
00100000
00000000
00000000
00000000
00000000
00000000
00000000
00000000
00010000
00000000
00000000
00000000
20000000
30000000
00000000
00000000
00000000
00000000
00000000
00000000
00000000
00000000
00000000
00000000
00000000
00000000
00000000
00000000
,
00010000
00000000
00100000
01000000
00000000
10000000
01000000
00000000
10000000
01000000
00000000
00100000
00010000
00000000
00000000
00000000
,
10000000
00000000
00000000
00000000
00000000
00000000
00000000
00000000
00010000
00000000
00000000
00000000
01000000
00000000
00000000
00000000
00000000
00000000
00000000
00000000
00010000
00000000
00000000
00000000
01000000
00000000
00000000
00000000
00000000
00000000
00000000
00000000
00010000
00000000
00000000
00000000
01000000
00000000
00000000
00000000
00000000
00000000
00000000
00000000
00001000
00000000
00000000
00000000
00020000
00030000
00000000
00000000
00000000
00000000
00000000
00000000
00000000
00000000
00000000
00000000
00000000
00000000
00000000
00000000
,
00001000
00000000
00000000
00010000
00000000
00000000
00000100
00000000
00001000
00000001
00001000
00000001
00002000
00000000
00000000
00000000
,
00003001
00000000
00000000
00000000
00000000
00000000
00000000
00000000
00000010
00000000
00000000
00000000
00000001
00000000
00000000
00000000
00000000
00000000
00000000
00000000
00000010
00000000
00000000
00000000
00000001
00000000
00000000
00000000
00000000
00000000
00000000
00000000
00001000
00000000
00000000
00000000
00000010
00000000
00000000
00000000
00000000
00000000
00000000
00000000
00001000
00000000
00000000
00000000
00000020
00000030
00000000
00000000
00000000
00000000
00000000
00000000
00000000
00000000
00000000
00000000
00000000
00000000
00000000
00000000
,
00010000
00000000
00001000
00010000
00000000
00001000
00010000
00000000
00001000
00100000
00000000
00010000
01000000
00000000
00000000
00000000
,
00010000
00000000
00000000
00000000
00000000
00000000
00000000
00000000
01000000
00000000
00000000
00000000
00100000
00000000
00000000
00000000
00000000
00000000
00000000
00000000
01000000
00000000
00000000
00000000
00100000
00000000
00000000
00000000
00000000
00000000
00000000
00000000
10000000
00000000
00000000
00000000
01000000
00000000
00000000
00000000
00000000
00000000
00000000
00000000
10000000
00000000
00000000
00000000
02000000
03000000
00000000
00000000
00000000
00000000
00000000
00000000
00000000
00000000
00000000
00000000
00000000
00000000
00000000
00000000
,
00100000
00000000
00000000
00001000
00000000
00000000
00010000
00000000
00000010
00001000
00000010
00001000
00000200
00000000
00000000
00000000
,
00010300
00000000
00000000
00001000
00000000
00000000
00000010
00000000
00000001
00000000
00000000
00000100
00000000
00000000
00001000
00000000
,
00010000
00000000
00000000
01000000
00000000
00000000
10000000
00000000
00100000
00000000
00000000
00010000
00000000
00000000
00001000
00000000
,
00000010
00000000
00000000
00000001
00000000
00000000
00000100
00000000
00001000
00000000
00000000
00010000
00000000
00000000
01000000
00000000
,
10000000
01000000
10000000
00010000
01000000
00010000
20000000
00000000
00000000
30010000
00000000
00000000
,
01000000
00000000
00000000
00100000
00000000
00000000
10000000
00000000
01000000
00100000
00000000
00100000
00001000
00000000
00010000
00000000
,
00000100
00000000
00000000
00001000
00000000
00000000
00000100
00000000
00000010
00000001
00000000
00001000
00000001
00000000
00000100
00000000
,
00000010
00000000
00000000
00001000
00000000
00000000
00000001
00000000
00000010
00000100
00000000
00000100
00010000
00000000
00001000
00000000
,
00100000
00000000
00010000
10000000
00000000
00010000
10000000
00000000
00100000
01000000
00100000
01000000
00200000
00000000
00000000
00000000
,
20300000
00000000
00000000
00000000
31000000
00000000
00000000
00000000
00020000
00000000
00000000
00000000
01030000
00000000
00000000
10000000
,
00010000
10000000
00010000
00000000
01000000
00100000
01100000
00000000
,
00010000
00000000
10000000
00000000
01000000
00000000
00100000
00000000
00001000
00000000
00010000
00001000
00020000
00000000
00000000
00000000
,
00030010
00001000
00000100
00000001
00000100
00001000
00000002
00000000
,
00001003
00000010
00001000
00000000
00000001
00000000
00001000
00000100
00001000
00000000
00000010
00000000
00000100
00000000
00000001
00000000
,
00001000
00001001
00000000
00000000
00000000
00000000
00000000
00000000
;

//--------------- dance-double - クラックショットスパルタンFred ----------------
#NOTEDATA:;
#STEPSTYPE:dance-double;
#DESCRIPTION:クラックショットスパルタンFred;
#DIFFICULTY:Hard;
#METER:18;
#CREDIT:クラックショットスパルタンFred;
#NOTES:
00000000
00000000
00000000
00000000
,
00000000
00000000
00000000
00000000
,
00000000
00000000
00000000
00000000
,
00000000
00000000
00000000
00000000
,
00000000
00000000
00000000
00000000
,
00010000
00000000
00001000
00010000
00000010
00001000
00000100
00000000
,
00010000
00001000
00010000
00100000
01000000
00001000
00010000
00100000
,
10000000
00000000
01000000
00010000
00001000
00011000
00000000
00010000
,
00000010
00000000
00000000
00001000
00000000
00000000
00000001
00000100
00000001
00000100
00000010
00000000
00000110
00000000
00000000
00000000
,
00000001
00000100
00001000
00010000
,
01000000
10000000
00010000
10000000
,
01000000
00010000
00001000
00000100
,
00000001
00000010
00000100
00000010
,
00000001
00000100
00000010
00000100
00001000
00010000
00100000
01000000
,
00100000
10000000
01000000
00100000
00010000
00100000
00001000
00010000
,
00001000
00010000
00001000
00000000
00010000
00000010
00010000
00000000
00001000
00100000
00001000
00100000
00010000
10000000
00010000
10000000
,
01000000
00000000
00100000
00010000
00100000
00000000
00010000
10000000
00100000
01000000
00100000
00000000
01100000
00000000
00000000
00000000
,
00022000
00033000
00000000
00000000
00000000
00000000
00000000
00000000
00000000
00000000
00000000
00000000
00000000
00000000
00000000
00000000
00010000
00000000
00000000
00000000
00000100
00000000
00000000
00000000
00010000
00000000
00000000
00000000
00000000
00000000
00000000
00000000
00000100
00000000
00000000
00000000
00000000
00000000
00000000
00000000
00001000
00000000
00000000
00000000
00000000
00000000
00000000
00000000
00002002
00003003
00000000
00000000
00000000
00000000
00000000
00000000
00000000
00000000
00000000
00000000
00000000
00000000
00000000
00000000
,
00001001
00000000
00001000
00000100
00001000
00000000
00000001
00000100
00000001
00000000
00000100
00000000
00000020
00000000
00020030
00030000
,
00022000
00033000
00000000
00000000
00000000
00000000
00000000
00000000
00000000
00000000
00000000
00000000
00000000
00000000
00000000
00000000
00010000
00000000
00000000
00000000
00000000
00000000
00000000
00000000
00001000
00000000
00000000
00000000
00010000
00000000
00000000
00000000
00001000
00000000
00000000
00000000
00000000
00000000
00000000
00000000
00100000
00000000
00000000
00000000
00000000
00000000
00000000
00000000
00220000
00330000
00000000
00000000
00000000
00000000
00000000
00000000
00000000
00000000
00000000
00000000
00000000
00000000
00000000
00000000
,
10010000
00000000
00000000
00000000
00000000
00000000
00010000
00000000
00000000
01000000
00000000
00000000
00010000
00000000
00000000
00000000
00000000
00000000
10000000
00000000
00000000
01000000
00000000
00000000
00100000
00000000
00000000
00000000
01000000
00000000
00000000
00000000
00010000
00000000
00000000
00000000
00001000
00000000
00000000
00000000
00000000
00000000
00000000
00000000
00000000
00000000
00000000
00000000
,
00022000
00033000
00000000
00000000
00000000
00000000
00000000
00000000
00000000
00000000
00000000
00000000
00000000
00000000
00000000
00000000
00010000
00000000
00000000
00000000
00000000
00000000
00000000
00000000
00000100
00000000
00000000
00000000
00001000
00000000
00000000
00000000
00000100
00000000
00000000
00000000
00000000
00000000
00000000
00000000
00010000
00000000
00000000
00000000
00000000
00000000
00000000
00000000
00022000
00033000
00000000
00000000
00000000
00000000
00000000
00000000
00000000
00000000
00000000
00000000
00000000
00000000
00000000
00000000
,
00001010
00000000
00000010
00000100
00000010
00000000
00001000
00000100
00001000
00000000
00000001
00000000
00000201
00000000
00000000
00000000
,
00000301
00000000
00000100
00000000
00000010
00000000
00000100
00000010
00000100
00000000
00000001
00000000
00001000
00000000
00000100
00000010
,
00000001
00000000
00000000
00000000
00000000
00000000
00000000
00000000
00000001
00000000
00000000
00000000
00000000
00000000
00000000
00000000
00001000
00000000
00000000
00000000
00000000
00000000
00000000
00000000
00001000
00000000
00000000
00000000
00000000
00000000
00000000
00000000
00000010
00000000
00000000
00000000
00001000
00000000
00000000
00000000
00000100
00000000
00000000
00000000
00010000
00000000
00000000
00000000
00002000
00003000
00000000
00000000
00020000
00030000
00000000
00000000
00002000
00003000
00000000
00000000
00020000
00030000
00000000
00000000
,
00001000
00000000
00100000
00010000
00100000
00000000
00010000
10000000
00010000
10000000
00010000
00000000
01000000
00100000
00000000
01000000
,
00100000
00000000
10000000
00000000
01000000
00100000
01000000
00000000
00100000
00000000
00001000
00010000
00001000
00010000
00001000
00000000
,
00010000
00000000
00001000
00000000
00000100
00000000
00000010
00000100
00000010
00000000
00000100
00000001
00001000
00000001
00001000
00000000
,
00000100
00000000
00000000
00000000
00000000
00000000
00000000
00000000
00000010
00000000
00000000
00000000
00000100
00000000
00000000
00000000
00000010
00000000
00000000
00000000
00000000
00000000
00000000
00000000
00000001
00000000
00000000
00000000
00000000
00000000
00000000
00000000
00001000
00000000
00000000
00000000
00000010
00000000
00000000
00000000
00001000
00000000
00000000
00000000
00000000
00000000
00000000
00000000
00000020
00000030
00000000
00000000
00000000
00000000
00000000
00000000
00000020
00000030
00000000
00000000
00000000
00000000
00000000
00000000
,
00000001
00000100
00000010
00000000
00001000
00000000
00000100
00000010
00000001
00000000
00001000
00000000
00000010
00000100
00000010
00000000
,
00001000
00000000
00000001
00000000
00000010
00000100
00000010
00000000
00000100
00000000
00010000
00001000
00010000
00001000
00010000
00000000
,
01000000
00000000
00100000
00000000
00010000
10000000
00010000
00000000
10000000
01000000
00000000
00010000
01000000
00000000
10000000
01000000
,
00200000
00000000
00000000
00000000
00000000
00000000
00000000
00000000
00302000
00000000
00000000
00000000
00000000
00000000
00000000
00000000
00023000
00000000
00000000
00000000
00000000
00000000
00000000
00000000
00032000
00000000
00000000
00000000
00023000
00000000
00000000
00000000
00032000
00000000
00000000
00000000
00000000
00000000
00000000
00000000
00023000
00000000
00000000
00000000
00030000
00000000
00000000
00000000
00022000
00033000
00000000
00000000
00000000
00000000
00000000
00000000
00000000
00000000
00000000
00000000
00000000
00000000
00000000
00000000
,
00022000
00033000
00000000
00000000
00000000
00000000
00000000
00000000
00000000
00000000
00000000
00000000
00000000
00000000
00000000
00000000
00010000
00000000
00000000
00000000
00000000
00000000
00000000
00000000
00000010
00000000
00000000
00000000
00001000
00000000
00000000
00000000
00000010
00000000
00000000
00000000
00000000
00000000
00000000
00000000
00010000
00000000
00000000
00000000
00000010
00000000
00000000
00000000
00010000
00000000
00000000
00000000
00000000
00000000
00000000
00000000
00001000
00000000
00000000
00000000
00000000
00000000
00000000
00000000
,
00000100
00000010
00000100
00000000
00000001
00000000
00001000
00000100
00001000
00000000
00000001
00000100
00000000
00000010
00001000
00000000
,
00002002
00003003
00000000
00000000
00000000
00000000
00000000
00000000
00000000
00000000
00000000
00000000
00000000
00000000
00000000
00000000
00000001
00000000
00000000
00000000
00000000
00000000
00000000
00000000
00000100
00000000
00000000
00000000
00000010
00000000
00000000
00000000
00001000
00000000
00000000
00000000
00000000
00000000
00000000
00000000
00000100
00000000
00000000
00000000
00000010
00000000
00000000
00000000
00000001
00000000
00000000
00000000
00000000
00000000
00000000
00000000
00001000
00000000
00000000
00000000
00000000
00000000
00000000
00000000
,
00000010
00010000
00001000
00000000
00100000
00000000
00001000
00010000
00001000
00010000
00100000
00000000
02000000
00000000
03020000
00000000
,
10030000
00000000
01000000
00100000
00000000
00000000
00010000
00000000
01000000
00000000
00001000
00010000
00000000
00000000
00000100
00000000
,
00001000
00000000
00000000
00000000
00000000
00000000
00000000
00000000
00000020
00000030
00000000
00000000
00000000
00000000
00000000
00000000
00000020
00000030
00000000
00000000
00000000
00000000
00000000
00000000
00000001
00000000
00000000
00000000
00000100
00000000
00000000
00000000
00000010
00000000
00000000
00000000
00000000
00000000
00000000
00000000
00001000
00000000
00000000
00000000
00000000
00000000
00000000
00000000
00001001
00000000
00000000
00000000
00000000
00000000
00000000
00000000
00000000
00000000
00000000
00000000
00000000
00000000
00000000
00000000
,
00000001
00000100
00000001
00000000
00001000
00000100
00001000
00000000
00000100
00010000
00001000
00100000
00010000
10000000
01000000
00000000
,
20000000
00000000
00000000
00000000
00000000
00000000
00000000
00000000
30200000
00000000
00000000
00000000
00000000
00000000
00000000
00000000
00320000
00000000
00000000
00000000
00000000
00000000
00000000
00000000
00031000
00000000
00000000
00010000
00000000
00000000
00001000
00000000
00000000
00010000
00000000
00000000
00002000
00000000
00000000
00000000
00000000
00000000
00000000
00000000
00000000
00000000
00000000
00000000
,
00013000
00001000
00000010
00000001
,
00001000
00000000
00000010
00000000
00000100
00000000
00000000
00000000
00000001
00000000
00000000
00000100
00000000
00000000
00000010
00000000
,
00001000
00010000
01000000
00100000
,
10000000
00000000
01000000
00000000
00100000
00000000
00000000
00000000
00001000
00000000
00000000
00001000
00000000
00000000
00010000
00000100
,
00010000
00001000
00010000
00000010
,
00000100
00000000
00001000
00000000
00010000
00000000
00000000
00000000
00100000
00000000
00000000
01000000
00000000
00000000
00001000
00000000
,
00010000
00000100
00010000
00001000
,
00022000
00033000
00000000
00000000
00000000
00000000
00000000
00000000
00000000
00000000
00000000
00000000
00000000
00000000
00000000
00000000
00000020
00000030
00000000
00000000
00000000
00000000
00000000
00000000
00000000
00000000
00000000
00000000
00000000
00000000
00000000
00000000
00022000
00033000
00000000
00000000
00000000
00000000
00000000
00000000
00000000
00000000
00000000
00000000
00000000
00000000
00000000
00000000
02000000
03000000
00000000
00000000
00000000
00000000
00000000
00000000
00000000
00000000
00000000
00000000
00000000
00000000
00000000
00000000
,
00010000
00000000
00000000
00000000
00000000
00000000
00000000
00000000
10000000
00000000
00000000
00000000
01000000
00000000
00000000
00000000
00000000
00000000
00000000
00000000
00100000
00000000
00000000
00000000
01000000
00000000
00000000
00000000
00000000
00000000
00000000
00000000
10000000
00000000
00000000
00000000
00000000
00000000
00000000
00000000
00200000
00300000
00000000
00000000
00000000
00000000
00000000
00000000
00200000
00300000
00000000
00000000
00000000
00000000
00000000
00000000
00010000
00000000
00000000
00000000
00000000
00000000
00000000
00000000
,
10000000
00000000
00100000
01000000
00000000
00010000
00100000
00000000
00001000
00000000
00000000
00001000
00000000
00000000
00001000
00000000
,
00010000
00000000
00000100
00001000
00000000
00000100
00000010
00000000
00000001
00000000
00000100
00000000
00001000
00000000
00000100
00000000
,
00000001
00000000
00000000
00000100
00000000
00000000
00001000
00000000
00010000
00000000
00000000
01000000
00000000
00000000
10000000
00010000
,
10000000
01000000
10000000
00100000
01000000
00010000
00100000
00001000
,
00010000
00000100
00001000
00000010
00000100
00000001
00001000
00000001
,
00000010
00000001
00000010
00000000
00000100
00001000
00000100
00000000
00010000
00001000
00100000
00010000
10000000
00100000
01000000
00010000
,
10000000
00010000
10000000
00000000
00010000
00000000
01000000
00100000
10000000
00100000
10000000
00100000
02000000
00000000
00000000
00000000
,
03010000
00000000
10000000
01000000
00000000
00100000
00001000
00000000
00010000
00000100
00000000
00001000
00000000
00000100
00000010
00000000
,
00000001
00000000
00000100
00000010
00000000
00001000
00000010
00000000
00000100
00000001
00000000
00001000
00000000
00000001
00000100
00000000
,
00000001
00000000
00000010
00000100
00000000
00001000
00000100
00000000
00000010
00000001
00000000
00001000
00000000
00000010
00000100
00000000
,
00000001
00000100
00000000
00000010
00001000
00000000
00000100
00010000
00001000
00010000
00001000
00000000
00020000
00000000
00032000
00000000
,
00103000
00000000
00010000
00100000
00000000
01000000
10000000
00000000
00010000
01000000
00000000
00100000
00000000
10000000
01000000
00000000
,
00100000
00000000
00001000
00010000
00000000
00100000
01000000
00000000
00001000
00100000
00000000
00010000
00000000
01000000
00001000
00000000
,
00010000
00000000
00000100
00001000
00000000
00000010
00010000
00000000
00000100
00001000
00000000
00000100
00000000
00000010
00000001
00000000
,
00001000
00000100
00000000
00000010
00000001
00000000
00001000
00000010
00000100
00000001
00000100
00000001
00000200
00000000
00000320
00000000
,
00001030
00000000
00000001
00000010
00000000
00000001
00001000
00000000
00000010
00000000
00001000
00000100
00000000
00010000
00001000
00000000
,
00100000
00000000
00010000
10000000
00000000
00100000
01000000
00000000
00010000
01000000
00000000
00100000
00000000
10000000
01000000
00000000
,
00100000
00000000
00000000
00000000
00000000
00000000
00001000
00000000
00000000
00010000
00000000
00000000
00000000
00000000
00000000
00001000
00000000
00000000
00010000
00000000
00000000
00000000
00000000
00000000
00000100
00000000
00000000
00000000
00001000
00000000
00000000
00000000
00000010
00000000
00000000
00000000
00000100
00000000
00000000
00000000
00000000
00000000
00000000
00000000
00000010
00000000
00000000
00000000
,
00001000
00000010
00000000
00000100
00000001
00000000
00001000
00000100
00000010
00000001
00000010
00000100
00002000
00000000
00003002
00000000
,
00000103
00000000
00000001
00000010
00000000
00000100
00000010
00000000
00000001
00001000
00000000
00000010
00000000
00001000
00000100
00000000
,
00010000
00000000
00001000
00010000
00000000
00001000
01000000
00000000
00001000
00010000
00000000
00001000
00000000
00100000
00010000
00000000
,
10000000
01000000
10000000
00000000
00010000
01000000
00010000
00100000
00000000
00010000
00000000
10000000
00000000
01000000
00100000
00000000
,
00001000
00010000
00000100
00000000
00001000
00000001
00000100
00000000
00000001
00001000
00000001
00001000
00000002
00000000
00000000
00000000
,
00001003
00000000
00000000
00000000
00000000
00000000
00000000
00000000
00000100
00000000
00000000
00000000
00000010
00000000
00000000
00000000
00000000
00000000
00000000
00000000
00000010
00000000
00000000
00000000
00000001
00000000
00000000
00000000
00000000
00000000
00000000
00000000
00000001
00000000
00000000
00000000
00000100
00000000
00000000
00000000
00000000
00000000
00000000
00000000
00000100
00000000
00000000
00000000
00000020
00000030
00000000
00000000
00000000
00000000
00000000
00000000
00001000
00000000
00000000
00000000
00000100
00000000
00000000
00000000
,
00010000
00000000
00010000
00001000
00000000
00001000
00100000
00000000
00100000
00010000
00000000
00010000
10000000
00100000
01000000
00000000
,
00010000
00000000
00000000
00000000
00000000
00000000
00000000
00000000
10000000
00000000
00000000
00000000
01000000
00000000
00000000
00000000
00000000
00000000
00000000
00000000
01000000
00000000
00000000
00000000
00100000
00000000
00000000
00000000
00000000
00000000
00000000
00000000
00100000
00000000
00000000
00000000
00001000
00000000
00000000
00000000
00000000
00000000
00000000
00000000
00001000
00000000
00000000
00000000
00020000
00030000
00000000
00000000
00000000
00000000
00000000
00000000
00000100
00000000
00000000
00000000
00001000
00000000
00000000
00000000
,
00000100
00000010
00000000
00000010
00000001
00000000
00001000
00000001
00000100
00000001
00000100
00000010
00000200
00000000
00000320
00000000
,
00001030
00000000
00000000
00000000
00000000
00000000
00000000
00000000
00000010
00000000
00000000
00000000
00001000
00000000
00000000
00000000
00000000
00000000
00000000
00000000
00001000
00000000
00000000
00000000
00000100
00000000
00000000
00000000
00000000
00000000
00000000
00000000
00000100
00000000
00000000
00000000
00010000
00000000
00000000
00000000
00000000
00000000
00000000
00000000
00010000
00000000
00000000
00000000
00002000
00003000
00000000
00000000
00000000
00000000
00000000
00000000
00100000
00000000
00000000
00000000
00010000
00000000
00000000
00000000
,
00100000
00000000
00001000
01000000
00000000
01000000
00010000
00000000
00010000
10000000
00000000
10000000
01000000
00100000
00001000
00000000
,
00010000
00000000
00000000
00000000
00000000
00000000
00000000
00000000
00000100
00000000
00000000
00000000
00001000
00000000
00000000
00000000
00000000
00000000
00000000
00000000
00001000
00000000
00000000
00000000
00000010
00000000
00000000
00000000
00000000
00000000
00000000
00000000
00000010
00000000
00000000
00000000
00000100
00000000
00000000
00000000
00000000
00000000
00000000
00000000
00000100
00000000
00000000
00000000
00000002
00000003
00000000
00000000
00000000
00000000
00000000
00000000
00001000
00000000
00000000
00000000
00000001
00000000
00000000
00000000
,
00001000
00000010
00000000
00000100
00000001
00000000
00000100
00000010
00001000
00000100
00001000
00000100
00020000
00000000
00000000
00000000
,
00031000
00000000
00010000
00100000
00000000
10000000
00010000
00000000
10000000
00000000
00010000
01000000
00000000
00010000
01000000
00000000
,
00100000
00000000
10000000
01000000
00000000
10000000
01000000
00000000
00100000
00001000
00000000
00010000
00000000
00001000
00000100
00000000
,
00000001
00000000
00001000
00000100
00000000
00000100
00000010
00000000
00000001
00000000
00000100
00000010
00000000
00000010
00001000
00000000
,
00000100
00000000
00000000
00000000
00000010
00000000
00000000
00000000
00001000
00000000
00000000
00000000
00010000
00000000
00000000
00000000
01000000
00000000
00000000
00000000
00100000
00000000
00000000
00000000
00020000
00000000
00000000
00000000
00000000
00000000
00000000
00000000
00000000
00000000
00000000
00000000
10030000
00000000
00000000
00000000
00000000
00000000
00010000
00000000
00000000
01000000
00000000
00000000
,
00010000
00000000
10000000
01000000
00000000
00100000
00010000
00000000
01000000
00100000
00000000
01000000
00000000
00001000
00010000
00000000
,
00000100
00000000
00010000
00001000
00000000
00000100
00000010
00000000
00001000
00000100
00000000
00000010
00000000
00000010
00000001
00000000
,
00000100
00000001
00001000
00000000
00000010
00001000
00000100
00000000
00010000
00001000
00000000
00100000
00000000
00010000
01000000
00000000
,
00100000
10000000
00100000
00000000
01000000
00010000
01000000
00000000
00001000
00010000
00000010
00001000
00000002
00000000
00000000
00000000
,
00000203
00000000
00000000
00000000
00001300
00000000
00000000
00000000
00000020
00000000
00000000
00000000
00000031
00000000
00000000
00000100
,
00001000
00010000
00001000
00000000
00000010
00000001
00001001
00000000
,
00000001
00000100
00000001
00000000
00000100
00000010
00000000
00000010
00001000
00000000
00000100
00010000
00000200
00000000
00020300
00000000
,
00031000
00000000
00100000
00010000
00100000
00010000
00000000
10000000
00010000
00000000
01000000
00000000
00010000
01000000
00100000
00000000
,
10000000
01000000
00100000
01000000
00010000
00000000
00001000
00000010
00000100
00000010
00000001
00000000
00000100
00000000
00001000
00000000
,
00010000
00011000
00000000
00000000
00000000
00000000
00000000
00000000
;

//--------------- dance-double - Fred-104† ----------------
#NOTEDATA:;
#STEPSTYPE:dance-double;
#DESCRIPTION:Fred-104†;
#DIFFICULTY:Challenge;
#METER:19;
#CREDIT:Fred-104†;
#NOTES:
00000000
00000000
00000000
00000000
,
00000000
00000000
00000000
00000000
,
00000000
00000000
00000000
00000000
,
00000000
00000000
00000000
00000000
,
00000000
00000000
00000000
00000000
,
00020000
00000000
00032000
00000000
,
00003020
00000000
00000032
00000000
,
00002003
00000000
00003001
00000100
,
00000001
00000010
00000000
00000100
00001000
00000000
00000100
00010000
00001000
00010000
00100000
01000000
00100000
00000000
00000000
00000000
,
10000000
01000000
00010000
00001000
00010000
00100000
01000000
00001000
,
00010000
00001000
00000010
00000100
00001000
00000001
00000100
00000000
,
00000001
00001000
00000001
00000100
00000010
00000100
00001000
00010000
,
00100000
10000000
00100000
01000000
00010000
10000000
00010000
00000000
,
10000000
01000000
00100000
00000000
01000000
00100000
00010000
00000000
00100000
00001000
00010000
00000000
00001000
00010000
00000010
00000000
,
00001000
00000010
00000100
00000000
00000001
00000100
00000010
00000000
00001000
00000001
00000010
00000000
00000100
00001000
00000100
00000000
,
00010000
00001000
00010000
00000010
00001000
00000010
00010000
00001000
00010000
00000100
00001000
00000100
00010000
00001000
00010000
00000010
,
00001000
00000000
00000001
00000010
00000100
00000000
00010000
00001000
00100000
00010000
10000000
00010000
01000000
00000000
00000000
00000000
,
20020000
30030000
00000000
00000000
00000000
00000000
00000000
00000000
00000000
00000000
00000000
00000000
00000000
00000000
00000000
00000000
10000000
00000000
00000000
00000000
01000000
00000000
00000000
00000000
00010000
00000000
00000000
00000000
00000000
00000000
00000000
00000000
00001000
00000000
00000000
00000000
00000000
00000000
00000000
00000000
00000010
00000000
00000000
00000000
00000000
00000000
00000000
00000000
00000200
00000300
00000000
00000000
00000000
00000000
00000000
00000000
00000000
00000000
00000000
00000000
00000000
00000000
00000000
00000000
,
00001000
00000000
00000001
00000100
00000010
00000000
00001000
00000001
00000010
00000000
00000100
00000000
00010000
00000000
00001000
00000000
,
00022000
00033000
00000000
00000000
00000000
00000000
00000000
00000000
00000000
00000000
00000000
00000000
00000000
00000000
00000000
00000000
00001000
00000000
00000000
00000000
00000000
00000000
00000000
00000000
00010000
00000000
00000000
00000000
00100000
00000000
00000000
00000000
01000000
00000000
00000000
00000000
00000000
00000000
00000000
00000000
00010000
00000000
00000000
00000000
00000000
00000000
00000000
00000000
20020000
30030000
00000000
00000000
00000000
00000000
00000000
00000000
00000000
00000000
00000000
00000000
00000000
00000000
00000000
00000000
,
01100000
00000000
00000000
00000000
00000000
00000000
10000000
00000000
00000000
00010000
00000000
00000000
00100000
00000000
00000000
00000000
00000000
00000000
00001000
00000000
00000000
00010000
00000000
00000000
00000010
00000000
00000000
00000000
00001000
00000000
00000000
00000000
00000001
00000000
00000000
00000000
00000100
00000000
00000000
00000000
00000000
00000000
00000000
00000000
00000000
00000000
00000000
00000000
,
00002002
00003003
00000000
00000000
00000000
00000000
00000000
00000000
00000000
00000000
00000000
00000000
00000000
00000000
00000000
00000000
00000001
00000000
00000000
00000000
00000000
00000000
00000000
00000000
00000010
00000000
00000000
00000000
00000100
00000000
00000000
00000000
00010000
00000000
00000000
00000000
00000000
00000000
00000000
00000000
00001000
00000000
00000000
00000000
00000000
00000000
00000000
00000000
00022000
00033000
00000000
00000000
00000000
00000000
00000000
00000000
00000000
00000000
00000000
00000000
00000000
00000000
00000000
00000000
,
00010010
00000000
00010000
00000010
00001000
00000000
00000010
00010000
00001000
00000000
00100000
00000000
00120000
00000000
00000000
00000000
,
10030000
00000000
00010000
00000000
10000000
00000000
01000000
00100000
00001000
00000000
00010000
00000000
00100000
00000000
01000000
00001000
,
00010000
00000000
00000000
00000000
00000100
00000000
00000000
00000000
00010000
00000000
00000000
00000000
00000100
00000000
00000000
00000000
00001000
00000000
00000000
00000000
00000001
00000000
00000000
00000000
00001000
00000000
00000000
00000000
00000001
00000000
00000000
00000000
00000010
00000000
00000000
00000000
00000100
00000000
00000000
00000000
00001000
00000000
00000000
00000000
00000100
00000000
00000000
00000000
00020000
00030000
00000000
00000000
00002000
00003000
00000000
00000000
00020000
00030000
00000000
00000000
00002000
00003000
00000000
00000000
,
00010000
00000000
00001000
00010000
01000000
00000000
00100000
00010000
10000000
00010000
01000000
00000000
00010000
10000000
01000000
10000000
,
00010000
00000000
00100000
00000000
01000000
00010000
00001000
00000000
00000010
00000000
00000100
00000010
00000001
00001000
00000001
00000100
,
00000010
00000000
00001000
00000000
00000001
00000010
00000100
00000000
00000010
00001000
00010000
01000000
00100000
01000000
10000000
00010000
,
01000000
00000000
00010000
10000000
00100000
10000000
00010000
00000000
10000000
01000000
00100000
00010000
00100000
00001000
00010000
00001000
,
01000000
00000000
00001000
00010000
00001000
00000000
01000000
00001000
00010000
00001000
00100000
00000000
00010000
00100000
00001000
00010000
,
00000010
00000000
00001000
00000000
00000010
00010000
00001000
00000000
00010000
00000000
00000010
00010000
00001000
00100000
00010000
00100000
,
00001000
00000000
00010000
00001000
01000000
00000000
00001000
00010000
00001000
00000000
00010000
00000100
00001000
00000100
00010000
00000000
,
00001000
00000000
00000000
00000000
00000000
00000000
00000000
00000000
00000100
00000000
00000000
00000000
00000000
00000000
00000000
00000000
00000010
00000000
00000000
00000000
00000000
00000000
00000000
00000000
00001000
00000000
00000000
00000000
00000001
00000000
00000000
00000000
00000010
00000000
00000000
00000000
00000000
00000000
00000000
00000000
00000100
00000000
00000000
00000000
00000000
00000000
00000000
00000000
00002200
00003300
00000000
00000000
00000000
00000000
00000000
00000000
00000000
00000000
00000000
00000000
00000000
00000000
00000000
00000000
,
00000220
00000330
00000000
00000000
00000000
00000000
00000000
00000000
00000000
00000000
00000000
00000000
00000000
00000000
00000000
00000000
00000011
00000000
00000000
00000000
00000000
00000000
00000000
00000000
00000001
00000000
00000000
00000000
00001000
00000000
00000000
00000000
00000001
00000000
00000000
00000000
00000000
00000000
00000000
00000000
00000100
00000000
00000000
00000000
00000001
00000000
00000000
00000000
00001000
00000000
00000000
00000000
00000000
00000000
00000000
00000000
00000001
00000000
00000000
00000000
00000010
00000000
00000000
00000000
,
00000100
00000010
00001000
00000000
00010000
00000000
01000000
00100000
00010000
00000000
00100000
01000000
00000000
10000000
00010000
00000000
,
02020000
03030000
00000000
00000000
00000000
00000000
00000000
00000000
00000000
00000000
00000000
00000000
00000000
00000000
00000000
00000000
10010000
00000000
00000000
00000000
00000000
00000000
00000000
00000000
00010000
00000000
00000000
00000000
10000000
00000000
00000000
00000000
01000000
00000000
00000000
00000000
00000000
00000000
00000000
00000000
00100000
00000000
00000000
00000000
00001000
00000000
00000000
00000000
00000000
00000000
00000000
00000000
00010000
00000000
00000000
00000000
00001000
00000000
00000000
00000000
01000000
00000000
00000000
00000000
,
00001000
00010000
00001000
00000000
00010000
00000000
00000100
00000010
00000001
00001000
00000001
00000100
00000010
00001000
00000001
00000010
,
00000100
00000000
00000001
00000100
00000000
00000010
00000001
00000000
00001000
00000000
00000010
00000100
00000000
00001000
00000100
00000000
,
00000010
00000000
00000000
00000000
00000000
00000000
00010000
00000000
00000000
00000000
00000000
00000000
00001000
00000000
00000000
00000000
00000000
00000000
00010000
00000000
00001000
00000000
00010000
00000000
00001000
00000000
00000000
00000000
00000000
00000000
01000000
00000000
00000000
00010000
00000000
00000000
20000000
00000000
00000000
00000000
00000000
00000000
00000000
00000000
00000000
00000000
00000000
00000000
,
30010000
10000000
01000000
10000000
00010000
00100000
00001000
00010000
00000010
00001000
00000010
00000100
00000001
00001000
00000100
00000010
,
00000200
00000000
00000000
00000000
00000000
00000000
00000000
00000000
00001300
00000001
00001000
00000001
00002000
00000000
00000000
00000000
,
00003001
00000100
00001000
00010000
,
01000000
00000000
10000000
00000000
00010000
00000000
00000000
00000000
01000000
00000000
00010000
10000000
00000000
00100000
10000000
00010000
,
10000000
00100000
00010000
00001000
,
00000010
00000000
00000001
00000000
00001000
00000000
00000000
00000000
00000001
00000000
00000100
00000010
00000000
00001000
00000001
00000010
,
00000001
00000100
00001000
00010000
,
00100000
00000000
01000000
00000000
00010000
00000000
00000000
00000000
10000000
00000000
00100000
10000000
00000000
00010000
10000000
01000000
,
00100000
00000000
00001000
00010000
00100000
01000000
00001000
00000000
,
00022000
00033000
00000000
00000000
00000000
00000000
00000000
00000000
00000000
00000000
00000000
00000000
00000000
00000000
00000000
00000000
00020020
00030030
00000000
00000000
00000000
00000000
00000000
00000000
00000000
00000000
00000000
00000000
00000000
00000000
00000000
00000000
02002000
03003000
00000000
00000000
00000000
00000000
00000000
00000000
00000000
00000000
00000000
00000000
00000000
00000000
00000000
00000000
00022000
00033000
00000000
00000000
00000000
00000000
00000000
00000000
00000000
00000000
00000000
00000000
00000000
00000000
00000000
00000000
,
00010100
00000000
00010000
00001000
00000000
00010000
00000010
00000000
00001000
00000000
00000001
00000010
00000100
00000000
00000010
00000000
,
00000001
00000000
00001000
00000001
00000100
00000010
00000100
00000000
00001000
00000000
00010000
00100000
00000000
01000000
00010000
01000000
,
00010000
00000000
01000000
00001000
00000000
00010000
00001000
00000000
00000100
00000000
00000010
00000000
00001000
00000000
00010000
00000000
,
01000000
00000000
00001000
00000000
00011000
00000000
00000000
00000000
00010000
00001000
00000000
00100000
00001000
00000000
00010000
00000100
,
00001000
00000001
00000010
00000000
00000001
00001000
00000100
00000000
00000010
00000001
00001000
00000000
00000100
00010000
00001000
00000000
,
00100000
00010000
10000000
00010000
01000000
00010000
10000000
00000000
00010000
00100000
01000000
10000000
01000000
00100000
00010000
00000000
,
10000000
00100000
10000000
00010000
01000000
00001000
00010000
00000100
00001000
00000001
00000100
00000001
00001000
00000010
00000100
00000001
,
00001000
00000010
00010000
00000000
00001000
00000000
00010000
00100000
01000000
00010000
10000000
01000000
20000000
00000000
00000000
30000000
,
10010000
00000000
10000000
00010000
00000000
10000000
01000000
00000000
00100000
00001000
00000000
00010000
00000000
00000010
00001000
00000001
,
00001000
00000000
00000100
00000010
00000000
00000001
00001000
00000000
00000001
00000010
00000000
00000100
00000000
00000010
00000001
00001000
,
00000100
00000000
00010000
00001000
00000000
00010000
00000010
00000000
00010000
00001000
00000000
00100000
00001000
00010000
00001000
01000000
,
00001000
00010000
00000000
00001000
00100000
00000000
00001000
00010000
00100000
01000000
00010000
10000000
01000000
00100000
00010000
00000000
,
10000000
00000000
00010000
00100000
00000000
00010000
10000000
00000000
00010000
01000000
00000000
00100000
00000000
01000000
00001000
00010000
,
00001000
00000000
00100000
00001000
00000000
00010000
00001000
00000000
00010000
00001000
00000000
00000100
00000000
00000010
00010000
00001000
,
00000100
00000000
00000010
00001000
00000000
00000001
00001000
00000100
00000010
00000001
00000000
00001000
00000000
00000001
00000010
00000100
,
00001000
00000001
00000100
00000001
00001000
00000100
00010000
00001000
00100000
00010000
10000000
00010000
02000000
00000000
03020000
00000000
,
10030000
00000000
01000000
00100000
00000000
00100000
00010000
00000000
00100000
00000000
00001000
00010000
00000000
00010000
00000010
00000000
,
00001000
00000000
00000001
00000100
00000000
00000100
00000010
00000000
00001000
00000001
00000000
00000010
00000100
00000010
00000001
00001000
,
00000010
00000000
00000000
00000000
00000000
00000000
00001000
00000000
00000000
00000001
00000000
00000000
00000000
00000000
00000000
00000001
00000000
00000000
00000010
00000000
00000000
00000000
00000000
00000000
00000100
00000000
00000000
00000000
00010000
00000000
00000000
00000000
00001000
00000000
00000000
00000000
01000000
00000000
00000000
00000000
00100000
00000000
00000000
00000000
10000000
00000000
00000000
00000000
,
00010000
00100000
00000000
01000000
10000000
00000000
00010000
01000000
00100000
01000000
00010000
10000000
01000000
00100000
00001000
00010000
,
00001000
00000000
00010000
00000010
00000000
00001000
00000010
00000000
00010000
00001000
00000000
00010000
00000000
00000100
00001000
00000100
,
00010000
00000000
00001000
00010000
00000000
00001000
01000000
00000000
00010000
01000000
00000000
00001000
00000000
00010000
00001000
00100000
,
00010000
10000000
00010000
00000000
00100000
01000000
10000000
00010000
01000000
00000000
00100000
00000000
10000000
00010000
00100000
00010000
,
10000000
00100000
01000000
00010000
00100000
00001000
00010000
00000100
00001000
00000010
00000100
00000001
00002000
00000000
00000000
00000000
,
00003001
00000000
00000000
00000000
00000000
00000000
00000000
00000000
00000100
00000000
00000000
00000000
00000010
00000000
00000000
00000000
00000000
00000000
00000000
00000000
00000100
00000000
00000000
00000000
00001000
00000000
00000000
00000000
00000000
00000000
00000000
00000000
00010000
00000000
00000000
00000000
00100000
00000000
00000000
00000000
00000000
00000000
00000000
00000000
01000000
00000000
00000000
00000000
00020000
00030000
00000000
00000000
00000000
00000000
00000000
00000000
10000000
00000000
00000000
00000000
00010000
00000000
00000000
00000000
,
10000000
00000000
01000000
00100000
00000000
01000000
00010000
00000000
00001000
00000010
00000000
00000100
00001000
00000001
00001000
00000000
,
00000001
00000000
00000000
00000000
00000000
00000000
00000000
00000000
00000100
00000000
00000000
00000000
00000001
00000000
00000000
00000000
00000000
00000000
00000000
00000000
00001000
00000000
00000000
00000000
00000100
00000000
00000000
00000000
00000000
00000000
00000000
00000000
00010000
00000000
00000000
00000000
00001000
00000000
00000000
00000000
00000000
00000000
00000000
00000000
01000000
00000000
00000000
00000000
00020000
00030000
00000000
00000000
00000000
00000000
00000000
00000000
10000000
00000000
00000000
00000000
00010000
00000000
00000000
00000000
,
00100000
00010000
10000000
00010000
01000000
00100000
10000000
00000000
00010000
01000000
00010000
01000000
00001000
00010000
00001000
00010000
,
00001000
00000000
00000000
00000000
00000000
00000000
00000000
00000000
00010000
00000000
00000000
00000000
00000010
00000000
00000000
00000000
00000000
00000000
00000000
00000000
00001000
00000000
00000000
00000000
00000001
00000000
00000000
00000000
00000000
00000000
00000000
00000000
00000010
00000000
00000000
00000000
00000100
00000000
00000000
00000000
00000000
00000000
00000000
00000000
00010000
00000000
00000000
00000000
00002000
00003000
00000000
00000000
00000000
00000000
00000000
00000000
01000000
00000000
00000000
00000000
00100000
00000000
00000000
00000000
,
01000000
00000000
00010000
10000000
00000000
00100000
01000000
00000000
00010000
10000000
00000000
01000000
00100000
00010000
00100000
00000000
,
00001000
00000000
00000000
00000000
00000000
00000000
00000000
00000000
00010000
00000000
00000000
00000000
00000010
00000000
00000000
00000000
00000000
00000000
00000000
00000000
00001000
00000000
00000000
00000000
00000010
00000000
00000000
00000000
00000000
00000000
00000000
00000000
00010000
00000000
00000000
00000000
00000010
00000000
00000000
00000000
00000000
00000000
00000000
00000000
00001000
00000000
00000000
00000000
00000002
00000003
00000000
00000000
00000000
00000000
00000000
00000000
00000100
00000000
00000000
00000000
00000001
00000000
00000000
00000000
,
00001000
00000001
00000010
00000001
00001000
00000100
00010000
00000000
00001000
01000000
00010000
10000000
00100000
00000000
00000000
00000000
,
01100000
00000000
01000000
00010000
00000000
10000000
00010000
00000000
00100000
00000000
01000000
00100000
00000000
00001000
00010000
00000000
,
00000100
00000000
00000010
00000100
00000000
00001000
00000001
00000000
00001000
00000010
00000000
00010000
00000000
00001000
00010000
00000010
,
00010000
00000000
00001000
01000000
00000000
00010000
10000000
00000000
01000000
00000000
00100000
00010000
00000000
00100000
00001000
00000000
,
00010000
00000000
00000000
00000000
00001000
00000000
00000000
00000000
00000100
00000000
00000000
00000000
00000001
00000000
00000000
00000000
00001000
00000000
00000000
00000000
00000100
00000000
00000000
00000000
00000020
00000000
00000000
00000000
00000000
00000000
00000000
00000000
00000000
00000000
00000000
00000000
00000031
00000000
00000000
00001000
00000000
00000000
00000001
00000000
00000000
00001000
00000000
00000000
,
00000001
00000000
00000100
00000001
00000000
00001000
00000001
00000000
00000010
00000100
00000000
00001000
00000000
00000100
00010000
00001000
,
00010000
00000000
00100000
01000000
00000000
00100000
10000000
00000000
00010000
10000000
00000000
00100000
00000000
10000000
00010000
10000000
,
01000000
00100000
00010000
00100000
00001000
00010000
00001000
01000000
00010000
01000000
00001000
00010000
00000100
00001000
00000100
00010000
,
00001000
00000000
00000000
00010000
00000000
00000000
00000010
00000000
00000000
00001000
00000000
00000000
00000010
00000000
00000000
00010000
00000000
00000000
00001000
00000000
00000000
00010000
00000000
00000000
00000010
00000000
00000000
00001000
00000000
00000000
00000001
00000000
00000000
00000010
00000000
00000000
00000100
00000000
00000000
00001000
00000000
00000000
00000001
00000000
00001000
00000000
00000001
00000000
,
00001000
00000000
00000000
00000000
,
00000000
00000000
00000000
00000000
00000000
00010000
00001000
00000000
,
00001000
00000000
00000000
00100000
00000000
00000000
00001000
00000000
00000000
00000000
00000000
00000000
00010000
00000000
00000000
00001000
00000000
00000000
00000000
00000000
00000000
01000000
00000000
00000000
00010000
00000000
10000000
00000000
00010000
00000000
10000000
00000000
00000000
01000000
00000000
00000000
00000000
00000000
00000000
00100000
00000000
00000000
00001000
00000000
00000000
00000000
00000000
00000000
,
00010000
00000000
00000000
00000000
00000000
00000000
00001000
00000000
00010000
00000000
00001000
00000000
00010000
00000000
00000000
00000010
00000000
00000000
00000000
00000000
00000000
00001000
00000000
00000000
00000001
00000000
00000000
00000000
00000000
00000000
00001000
00000000
00000000
00000100
00000000
00000000
00000010
00000000
00000000
00000001
00000000
00000000
00001000
00000000
00000000
00000001
00000000
00000000
,
00000010
00000100
00001000
00000100
00010000
00001000
00100000
00010000
10000000
00100000
01000000
00010000
10000000
01000000
00100000
00010000
,
00100000
00001000
00000000
00000000
00000000
00000000
00000000
00000000
;
