#VERSION:0.83;
#TITLE:Cosmic Cat;
#ARTIST:8bit Moonside;
#GENRE:FUTURE BASS;
#BANNER:Cosmic Cat.png;
#BACKGROUND:Cosmic Cat-bg.png;
#CDTITLE:./CDTitles/bm IIDX 22 PENDUAL.png;
#MUSIC:Cosmic Cat.ogg;
#SAMPLESTART:97.478;
#SAMPLELENGTH:15;
#BPMS:0=160;
#STAGE:5;

//--------------- dance-single - Fred-104 ----------------
#NOTEDATA:;
#STEPSTYPE:dance-single;
#DESCRIPTION:Fred-104;
#DIFFICULTY:Beginner;
#METER:3;
#CREDIT:Fred-104;
#NOTES:
0000
0000
0000
0000
,
0000
0000
0000
0000
,
0000
0000
0000
0000
,
0000
0000
0000
0000
,
0000
0000
0000
0000
,
0000
0000
0000
0000
,
0000
0000
0000
0000
,
0000
0000
0000
0000
,
0000
0000
0000
0000
,
1000
0000
1000
0000
,
0001
0000
0010
0000
,
0001
0000
1000
0000
,
0001
0000
0100
0100
,
0100
0000
0001
0000
,
1000
0000
0001
0001
,
0001
0000
1000
0000
,
0001
0001
0001
0000
,
1001
0000
0000
0000
,
1001
0000
0000
0000
,
1001
0000
0000
0000
,
2002
0000
3003
0000
,
0110
0000
0000
0000
,
0110
0000
0000
0000
,
0110
0000
0000
0000
,
0220
0000
0330
0000
,
0000
1000
0000
0010
,
0000
0010
0000
1000
,
0000
0001
0000
0001
,
0000
0100
0000
0100
,
0100
0100
0000
0010
,
0000
1000
0000
0001
,
0000
1000
0000
0000
,
0001
0001
0001
0000
,
1001
0000
1000
0000
,
0010
0000
0010
0000
,
1000
0000
1000
0000
,
0100
0000
0100
0000
,
0010
0000
0010
0000
,
0100
0000
0100
0000
,
0001
0001
0001
0000
,
2000
0000
0000
3000
,
1000
0000
0010
0000
,
1000
0000
1000
0000
,
0100
0000
0100
0000
,
0001
0000
0100
0000
,
1000
0000
1000
0000
,
0001
0000
1000
0000
,
0001
0001
0001
0000
,
1000
1000
1000
0000
,
1001
0000
0000
0000
,
0100
0000
0100
0000
,
0010
0000
0000
0000
,
0001
0000
0001
0000
,
1000
0000
0000
0000
,
0010
0000
0000
0000
,
1000
0000
1000
0000
,
0100
0000
0000
0000
,
0100
0000
0100
0000
,
0010
0010
0010
0000
,
0100
0000
1000
0000
,
0001
0001
0001
0000
,
1000
0000
0010
0000
,
0100
0100
0100
0000
,
0001
0000
1000
0000
,
0001
0001
0001
0000
,
1001
0000
0000
0000
,
1001
0000
0000
0000
,
0110
0000
0000
0000
,
0220
0000
0330
0000
,
1001
0000
0000
0000
,
1001
0000
0000
0000
,
0110
0000
0000
0000
,
0220
0000
0330
0000
,
2002
0000
3003
1000
,
0100
0000
0100
0000
,
0010
0000
0010
0000
,
0001
0001
0001
0000
,
2000
0000
3001
0001
,
0002
0000
1003
1000
,
1000
0000
0001
0000
,
0100
0100
0100
0000
,
1001
0000
0000
0000
;

//--------------- dance-single - Fred-104 ----------------
#NOTEDATA:;
#STEPSTYPE:dance-single;
#DESCRIPTION:Fred-104;
#DIFFICULTY:Easy;
#METER:8;
#CREDIT:Fred-104;
#NOTES:
0000
0000
0000
0000
,
0000
0000
0000
0000
,
0000
0000
0000
0000
,
0000
0000
0000
0000
,
0000
0000
0000
0000
,
0000
0000
0000
0000
,
0000
0000
0000
0000
,
0000
0000
0000
0000
,
0000
0000
0000
0000
,
1000
1000
0100
0100
,
0010
0010
0001
0001
,
1000
1000
0100
0100
,
0001
0001
1000
1000
,
0001
0010
0100
1000
,
0001
0000
0100
0000
0010
1000
0001
0000
,
0011
0000
1010
0000
,
0002
0203
0320
2030
,
3001
0000
0000
0001
0000
0000
0010
0000
0000
0100
0000
0000
0000
0000
0000
0000
,
1000
0000
0000
0100
0000
0000
0010
0000
0000
0100
0000
0000
0000
0000
0000
0000
,
0001
0000
0000
0100
0000
0000
0010
0000
0000
1000
0000
0000
0000
0000
0000
0000
,
1000
0000
0000
0100
0000
0000
1000
0000
0000
0000
2002
0000
3003
0000
0000
0000
,
0010
0000
0000
1000
0000
0000
0001
0000
0000
1000
0000
0000
0000
0000
0000
0000
,
0010
0000
0000
0001
0000
0000
1000
0000
0000
0100
0000
0000
0000
0000
0000
0000
,
0001
0000
0000
0001
0000
0000
0001
0000
1000
0000
0000
1000
0000
0000
1000
0000
,
0002
0023
0230
2300
,
3001
0000
0000
0100
0000
0000
0010
0000
0000
1000
0000
0000
0100
0000
0000
0000
,
0100
0000
0000
0010
0000
0000
0001
0000
0000
0100
0000
0000
0100
0000
0000
0000
,
0010
0000
0000
1000
0000
0000
0001
0000
0000
1000
0000
0000
0001
0000
0000
0000
,
0100
0000
0000
0010
0000
0000
0100
0000
0000
0000
2002
0000
3003
0000
0000
0000
,
0001
0000
0000
0010
0000
0000
0100
0000
0000
1000
0000
0000
0010
0000
0000
0000
,
1000
0000
0000
0010
0000
0000
0100
0000
0000
0001
0000
0000
1000
0000
0000
0000
,
0001
0000
0000
0001
0000
0000
0001
0000
1000
0000
0000
1000
0000
0000
1000
0000
,
0002
0203
0320
2030
,
3001
1000
0100
0100
,
1000
0100
0100
0001
,
0010
0010
0001
0010
,
0001
0010
0001
0000
1000
0010
1000
0000
,
0001
0001
0100
0100
,
0010
1000
0010
0010
,
1000
0100
0100
1000
,
0001
0010
0100
0000
1000
0010
0200
0000
,
0301
0000
0010
0000
0001
1000
0001
0000
,
1000
0100
0100
0010
,
0100
0100
1000
0001
,
1000
1010
0001
0011
,
1000
0000
0100
0000
0010
0100
0010
0000
,
0001
1000
0001
0100
,
0001
0000
0010
0000
0100
0010
0100
0000
,
2000
3020
0032
0203
,
1300
0000
0010
0000
,
0010
0000
0001
0100
,
1000
0000
1000
0000
,
0100
0000
0001
0010
,
0100
0000
0010
0000
,
0001
0000
0010
1000
,
0001
0000
0100
0000
,
1000
0000
0001
1000
,
0001
0001
0010
0010
,
0100
1000
0010
0100
,
0001
0001
1000
0100
,
0100
1000
0010
0100
,
0001
1000
0001
0000
1000
0000
0100
0000
,
0010
0100
0010
0000
0100
0000
1000
0000
,
1010
0000
0011
0000
,
2000
3002
0203
0320
,
1030
0000
0000
0100
0000
0000
0010
0000
0000
0100
0000
0000
0110
0000
0000
0000
,
0001
0000
0000
0100
0000
0000
0010
0000
0000
0100
0000
0000
1001
0000
0000
0000
,
1000
0000
0000
0010
0000
0000
1000
0000
0000
0001
0000
0000
0101
0000
0000
0000
,
0100
0000
0000
0010
0000
0000
0100
0000
0000
0000
0220
0000
0330
0000
0000
0000
,
0001
0000
0000
0010
0000
0000
0001
0000
0000
1000
0000
0000
1100
0000
0000
0000
,
1000
0000
0000
0010
0000
0000
0100
0000
0000
0001
0000
0000
0101
0000
0000
0000
,
0001
0000
0000
0001
0000
0000
0001
0000
1000
0000
0000
1000
0000
0000
1000
0000
,
0002
0023
0230
2300
,
3002
0000
0000
0000
0003
0000
1000
0000
0000
0100
0000
0000
0010
0000
0000
0000
,
0001
0000
0000
0001
0000
0000
1000
0000
0000
0010
0000
0000
0110
0000
0000
0000
,
0001
0000
0000
0100
0000
0000
0010
0000
0000
0100
0000
0000
0110
0000
0000
0000
,
0010
0000
0000
1000
0000
0000
0100
0000
0000
0000
0220
0000
0330
0000
0000
0000
,
1002
0000
0103
0010
,
2000
0000
3010
1000
,
0001
0000
0000
0010
0000
0000
0010
0000
0001
0000
0000
1000
0000
0000
1000
0000
,
0100
0010
0100
1000
,
1001
0000
0000
0000
;

//--------------- dance-single - Fred-104 ----------------
#NOTEDATA:;
#STEPSTYPE:dance-single;
#DESCRIPTION:Fred-104;
#DIFFICULTY:Medium;
#METER:10;
#CREDIT:Fred-104;
#NOTES:
0000
0000
0000
0000
,
0000
0000
0000
0000
,
0000
0000
0000
0000
,
0000
0000
0000
0000
,
0000
0000
0000
0000
,
0000
0000
0000
0000
,
0000
0000
0000
0000
,
0000
0000
0000
0000
,
0000
0000
0000
0000
,
0001
0000
0010
0000
0001
0100
0010
0000
,
1000
0000
0100
0000
1000
0100
0010
0000
,
0001
0000
1000
0000
0010
0100
0001
0000
,
1000
0100
2000
0000
3001
0100
0002
0000
,
1003
0000
0010
0000
1000
0010
0100
0000
,
0001
0000
0010
0000
0100
0010
0100
0010
,
2000
3100
0002
0103
,
1000
0000
0001
0000
0100
0010
0110
0000
,
1000
0000
0000
0100
0000
0000
0010
0000
0000
0001
0000
0000
0011
0000
0000
0000
,
0001
0000
0000
0100
0000
0000
0010
0000
0000
1000
0000
0000
1010
0000
0000
0000
,
1000
0000
0000
0001
0000
0000
0100
0000
0000
0010
0000
0000
0110
0000
0000
0000
,
0001
0000
0000
0100
0000
0000
0010
0000
0000
0000
2200
0000
3300
0000
0000
0000
,
1000
0000
0000
0100
0000
0000
0010
0000
0000
0001
0000
0000
1001
0000
0000
0000
,
0001
0000
0000
0100
0000
0000
0010
0000
0000
1000
0000
0000
1010
0000
0000
0000
,
1000
0000
0000
0100
0000
0000
0010
0000
0001
0000
0000
0100
0000
0000
0010
0000
,
2000
3200
0302
0023
,
1030
0000
0000
1000
0000
0000
0010
0000
0000
0100
0000
0000
0010
0000
1000
0000
,
0001
0000
0000
0001
0000
0000
0010
0000
0000
0100
0000
0000
0010
0000
0001
0000
,
0100
0000
0000
0100
0000
0000
0010
0000
0000
1000
0000
0000
0010
0000
0100
0000
,
0010
0000
0000
1000
0000
0000
0001
0000
0000
0000
2002
0000
3003
0000
0000
0000
,
1000
0000
0000
0100
0000
0000
1000
0000
0000
0001
0000
0000
0100
0000
0010
0000
,
0100
0000
0000
0001
0000
0000
0010
0000
0000
0001
0000
0000
1000
0000
0010
0000
,
0100
0000
0000
0100
0000
0000
0010
0000
1000
0000
0000
0001
0000
0000
0100
0000
,
0002
0203
0320
2030
,
3001
0000
0010
0000
0001
1000
0010
0100
,
0001
0000
1000
0000
0100
0000
0010
0001
,
1000
0001
0100
0010
0000
0110
0000
0000
,
1000
0010
0000
1000
0000
0001
0000
0100
,
0100
0000
0010
0000
1000
0100
0010
0001
,
0000
0100
0010
0000
1000
0000
0001
0100
,
1000
0001
0100
0010
0000
1000
0100
0000
,
1000
0010
1000
0001
0010
0001
1000
0010
,
0100
0000
0000
0010
0000
0000
0001
0000
0000
1000
0000
0000
0100
0000
0100
0000
,
1000
0000
0000
0010
0000
0000
0100
0000
0000
0010
0000
0000
1000
0000
0000
0000
,
0001
0000
0000
0010
0000
0000
0100
0000
0000
0010
0000
0000
0001
0000
0001
0000
,
1000
0000
0000
0010
0000
0000
0100
0000
0000
0000
2002
0000
3003
0000
0000
0000
,
0001
0000
0000
0010
0000
0000
0100
0000
0000
1000
0000
0000
0010
0000
1000
0000
,
0100
0000
0000
0100
0000
0000
1000
0000
0000
0001
0000
0000
0100
0000
0100
0000
,
0001
0010
0100
1000
0000
0010
0200
0000
,
0301
0010
0001
1000
0010
1000
0001
0100
,
0010
0000
1000
0000
,
0001
0010
0100
2000
,
3001
0000
0000
0000
1001
0000
0000
1000
,
0000
0001
0000
1000
0000
0010
0000
0100
,
0100
0000
0010
0000
,
1000
0010
0100
0002
,
0103
0000
0000
0000
0110
0000
0000
0100
,
0000
0001
0000
1000
0000
0010
0000
0010
,
1000
0100
1000
0001
,
1000
0100
0010
0000
0001
1000
0010
0000
,
0100
0010
0100
0001
,
1000
0001
0010
0000
0001
1000
0100
0000
,
0010
0001
1000
0010
,
0100
0001
0010
0000
0100
1000
0010
0000
,
0100
0000
0010
0100
1000
0000
0010
0100
,
0001
0000
1000
0000
0001
1000
1001
0000
,
2000
0000
0000
3200
0000
0000
0320
0000
0000
0032
0000
0000
0103
0000
0010
0000
,
0200
0000
0000
0302
0000
0000
2003
0000
0000
3020
0000
0000
0130
0000
0010
0000
,
2000
0000
0000
3200
0000
0000
0302
0000
0000
0203
0000
0000
1300
0000
0001
0000
,
0100
0000
0000
0010
0000
0000
0100
0000
0000
0000
2002
0000
3003
0000
0000
0000
,
0002
0000
0000
0023
0000
0000
0230
0000
0000
2300
0000
0000
3010
0000
0100
0000
,
0020
0000
0000
2030
0000
0000
3002
0000
0000
0203
0000
0000
0310
0000
1000
0000
,
0001
0000
0000
0010
0000
0000
0010
0000
1000
0000
0000
0100
0000
0000
0100
0000
,
0002
0203
2300
3020
,
0032
0000
0000
0000
0003
0000
1001
0000
0000
0100
0000
0000
0010
0000
0001
0000
,
1000
0000
0000
0100
0000
0000
1000
0000
0000
0001
0000
0000
0010
0000
0100
0000
,
0010
0000
0000
0001
0000
0000
1000
0000
0000
0010
0000
0000
0100
0000
0010
0000
,
1000
0000
0000
0100
0000
0000
1000
0000
0000
0000
2002
0000
3003
0000
0000
0000
,
0210
0000
0310
0100
,
2000
0000
0000
0000
3001
0100
0010
0000
,
1000
0000
0000
0100
0000
0000
0010
0000
0001
0000
0000
0100
0000
0000
0010
0000
,
1000
0100
0001
0000
1000
0010
0001
0000
,
1001
0000
0000
0000
;

//--------------- dance-single - Fred-104 ----------------
#NOTEDATA:;
#STEPSTYPE:dance-single;
#DESCRIPTION:Fred-104;
#DIFFICULTY:Hard;
#METER:14;
#CREDIT:Fred-104;
#NOTES:
0000
0000
0000
0000
,
0000
0000
0000
0000
,
0000
0000
0000
0000
,
0000
0000
0000
0000
,
0000
0000
0000
0000
,
0000
0000
0000
0000
,
0000
0000
0000
0000
,
0000
0000
0000
0000
,
0000
0000
0000
0000
,
1000
0100
0010
0000
1000
0001
0100
0010
,
1000
0000
0001
0010
0000
0100
0010
0001
,
1000
0010
0100
0100
0001
0010
0001
1000
,
0010
0010
1000
0100
0010
0100
1000
0010
,
0100
0001
1000
0000
0001
0010
1000
0010
,
0001
0000
0000
0000
1000
0000
0010
0000
0100
0000
0001
1000
0001
1000
0001
1000
,
0100
0000
1100
0100
0010
0000
0101
0100
,
0010
0000
0010
0000
0010
0100
2002
3003
,
1100
0000
0000
1010
0000
0000
1100
0000
0000
1010
0000
0000
0010
0000
0100
0001
,
1000
0000
0000
1100
0000
0000
0110
0000
0000
1100
0000
0000
1001
0000
0000
0000
,
0101
0000
0000
0110
0000
0000
0101
0000
0000
0110
0000
0000
0001
0000
1000
0001
,
0100
0000
0000
0110
0000
0000
0101
0000
0000
0000
2002
0000
0000
0000
3003
0000
,
1010
0000
0000
1100
0000
0000
1010
0000
0000
0110
0000
0000
0001
0000
1000
0001
,
0100
0000
0000
0110
0000
0000
1010
0000
0000
0110
0000
0000
1001
0000
0000
0000
,
1000
0000
0000
1100
0000
0000
0010
0000
0001
0000
0000
0101
0000
0000
0010
0000
,
2000
0000
3200
0000
0320
0032
2003
3000
,
1000
0000
0010
1000
0000
0001
1000
0000
0100
1000
0000
0001
0100
0000
0010
0100
,
0010
0000
1000
0010
0000
0100
0010
0000
1000
0010
0000
0100
0010
0000
1000
0001
,
1000
0000
0001
0010
0000
0001
1000
0000
0001
0100
0000
0001
1000
0000
0010
0100
,
0010
0000
0000
1010
0000
0000
0101
0000
0000
0000
2002
0000
0000
0000
3003
0000
,
1000
0000
0000
1000
0100
0000
0010
0000
0001
0000
1000
0000
0010
0000
0100
0010
,
0100
0000
0000
0100
0001
0000
1000
0000
0010
0000
0100
0000
0010
0000
1000
0001
,
0010
0000
0000
0010
0001
0000
1000
0000
0100
0000
0000
0100
1000
0000
0001
0000
,
0100
0000
0010
0000
0100
0010
1001
0000
,
1000
0100
1000
0001
0100
0010
1000
0200
,
0000
0301
0100
1000
0100
0001
0100
1000
,
0010
0100
0001
2000
0000
3010
1000
0100
,
0010
0002
0103
2000
3100
0002
0103
2000
,
3010
0100
0010
0100
0001
0100
0010
2000
,
0000
3010
0100
0010
1000
0100
0010
1000
,
0001
0100
0010
2000
0000
0010
3010
0100
,
0002
0000
2003
0000
3020
0000
0230
0000
0301
0100
0010
1000
0001
0100
0001
0100
,
0010
1000
0010
0100
0001
0101
1000
1200
,
0000
0310
0100
0001
0010
1000
0010
0001
,
1000
0100
0010
0210
0000
0301
0100
0010
,
1000
2010
3001
0012
1003
2100
3001
0102
,
1003
0010
0100
0001
1000
1010
0001
0012
,
0000
1003
0100
0010
0001
1000
0010
0100
,
0001
0100
0010
2010
0000
3100
0210
0000
,
0301
0000
0100
0000
0010
0000
1000
0000
0001
0010
0100
1000
0001
0010
0001
0010
,
0001
1000
0000
0000
0010
2000
3010
2000
,
3001
0000
0100
0000
0010
0100
0000
0100
1000
0000
0000
0000
2000
0000
3001
0000
,
0100
0100
0000
0010
1000
0000
0001
2000
,
0000
3200
0000
0302
0000
0203
0000
2300
,
3001
0001
0000
0000
1000
0020
1030
0020
,
0130
0000
0001
0000
1000
0010
0000
0010
0100
0000
0000
0000
0002
0000
1003
0000
,
0100
0100
0100
0000
1001
0000
1000
0020
,
0000
0032
0000
0023
0000
2030
0000
3002
,
1003
0001
0100
0010
1000
0010
0100
0010
,
1000
0100
1000
0100
0001
0100
0001
0100
,
1000
0010
1000
0001
0010
0100
0010
0001
,
1000
0010
0100
0100
0001
0010
0100
0100
,
0010
0001
1000
0010
0100
0010
1000
0100
,
0001
0000
0100
0000
1000
0000
0010
0000
0100
0000
0001
0100
0010
0100
0010
0100
,
0001
0000
0100
0010
0011
0000
0100
0010
,
1010
0000
0000
0000
0011
0000
0000
0000
1000
0000
0001
1000
0001
0000
0000
0000
,
2001
0000
0000
3200
0000
0000
0320
0000
0000
0032
0000
0000
1003
0000
0001
0100
,
0002
0000
0000
0023
0000
0000
0230
0000
0000
0320
0000
0000
0031
0000
1000
0010
,
0200
0000
0000
0320
0000
0000
2030
0000
0000
3020
0000
0000
0130
0000
0001
1000
,
0010
0000
0000
1010
0000
0000
0101
0000
0000
0000
2002
0000
3003
0000
0000
0000
,
2000
0000
0000
3200
0000
0000
0302
0000
0000
0203
0000
0000
1300
0000
0001
0100
,
0020
0000
0000
2030
0000
0000
3020
0000
0000
0032
0000
0000
1003
0000
0001
1000
,
0002
0000
0000
0103
1000
0000
0100
0000
0002
0000
0000
0013
1000
0000
0010
0000
,
0001
0000
1000
0100
1000
0100
1000
0000
0001
0100
0001
0100
0010
0000
0000
0000
,
1000
0100
0010
0001
1000
0000
1001
0000
0000
0101
0000
0000
0001
0000
1000
0010
,
0100
0000
0001
0100
0000
0010
0100
0000
0001
0100
0000
0010
0100
0000
0001
1000
,
0001
0000
1000
0100
0000
0010
0100
0000
1000
0100
0000
0010
0100
0000
1000
0001
,
0100
0000
0000
0010
0000
0010
0100
0010
0000
0000
2002
0000
0000
0000
3003
0000
,
1020
0000
0000
0000
0000
0000
0130
0001
0100
0001
0100
0010
,
2000
0000
0000
0000
0000
0000
3001
0000
0100
0010
0000
0010
0100
0000
1000
0000
,
0001
0000
0000
0001
0100
0000
1000
0000
0100
0000
0000
0100
0001
0000
1000
0000
,
0001
0000
0100
0010
0100
0000
0001
0100
0001
0000
1000
0000
0010
0100
0010
0000
,
1001
0000
0000
0000
;

//--------------- dance-single - Fred-104 ----------------
#NOTEDATA:;
#STEPSTYPE:dance-single;
#DESCRIPTION:Fred-104;
#DIFFICULTY:Challenge;
#METER:16;
#CREDIT:Fred-104;
#NOTES:
0000
0000
0000
0000
,
0000
0000
0000
0000
,
0000
0000
0000
0000
,
0000
0000
0000
0000
,
0000
0000
0000
0000
,
0000
0000
0000
0000
,
0000
0000
0000
0000
,
0000
0000
0000
0000
,
0000
0000
0000
0000
,
1000
0100
1000
0010
1000
0100
1000
0010
,
0100
0001
0010
0100
0010
0001
0010
0100
,
1000
0001
0100
0001
1000
0100
0010
0001
,
1000
0000
0010
0000
0100
0000
0010
0000
1000
0000
0001
0000
0010
0000
0100
0010
,
1000
0100
0001
0100
1000
0100
0010
0001
,
1000
0000
0010
0000
0100
0000
0001
0000
0010
0000
0100
1000
0001
0100
0010
1000
,
0001
0010
0100
1000
1001
0100
0010
1000
,
0102
0000
0003
0000
2100
0000
3000
0000
1001
0000
0100
0010
0200
0000
0300
0000
,
1100
0000
0000
0101
0000
0000
1100
0000
0000
0101
0000
0000
0100
0000
0010
1000
,
0001
0000
0000
0011
0000
0000
1010
0000
0000
0001
0010
0001
1000
0100
0010
0001
,
1000
0000
0000
1010
0000
0000
0101
0000
0000
1100
0000
0000
0001
0000
0100
0010
,
1000
0000
0000
1010
0000
0000
0101
0000
0000
0000
0220
0000
0330
0000
0000
0000
,
0011
0000
0000
1010
0000
0000
0011
0000
0000
1010
0000
0000
0001
0000
0100
0010
,
1000
0000
0000
1010
0000
0000
0101
0000
0000
1000
0010
0100
0001
0010
0100
1000
,
0001
0000
0000
0100
1000
0000
0100
0001
1000
0000
0000
0010
0001
0000
0010
1000
,
0002
0000
0023
0000
0230
2300
3002
0000
,
1003
0000
0010
0100
0000
0010
1000
0000
0010
0100
0000
0010
1000
0000
0001
0010
,
0100
0000
0010
0001
0000
0100
0001
0000
1000
0100
0010
0001
0100
0010
1000
0010
,
0100
0000
0001
0100
0000
0010
1000
0000
0001
0010
0000
0100
1000
0000
0001
1000
,
0100
0000
0001
0100
0000
1000
0001
0000
0000
0000
0110
0000
2002
0000
3003
0000
,
1000
0000
0001
0100
0000
0001
1000
0000
0001
0010
0000
0100
1000
0000
0001
0010
,
0001
0000
0100
0010
0000
1000
0001
0000
1000
0100
0010
0001
0100
0010
1000
0100
,
2000
3000
0100
0002
0003
0100
0002
0103
2000
3000
0010
0002
0003
0010
0002
0013
,
2000
0000
3020
0000
0230
0302
2003
0000
,
3001
0000
0010
0001
0000
1000
0010
0000
0100
0001
0000
1000
0100
0000
0010
0000
,
0001
0010
1000
0010
0001
0100
0010
1000
,
0100
1000
0010
0210
0000
0301
0100
0010
,
1000
0000
2010
0000
3001
0000
0012
0000
1003
0000
2100
0000
3001
0000
0100
0001
,
0010
0000
0100
1000
0000
0010
0100
0000
0001
0010
0000
0100
1000
0000
0001
0000
,
0100
0000
0010
0000
1000
0000
0010
0000
0001
0000
1000
0000
0100
0000
0001
1000
,
0001
0100
0010
2010
0000
3100
1001
0000
,
0002
0000
0000
0000
0000
0000
0203
0000
0000
0000
0000
0000
0320
0000
0000
0000
0000
0000
2030
0000
0000
0000
0000
0000
3001
0000
0000
0010
0000
0000
0100
0000
0000
1000
0000
0000
0001
0000
0100
0000
0001
0000
0100
0000
0001
0000
0100
0000
,
0001
0000
1000
0010
0000
0100
0010
0000
1000
0001
0000
0010
0100
0000
1000
0000
,
0001
0000
0100
0010
0000
1000
0010
0000
0100
0010
0000
1000
0001
0000
0010
0000
,
0001
0000
1000
0100
0000
0010
0100
0000
1000
0010
0000
0100
0010
0000
1000
0100
,
2000
3100
0002
0103
2000
3010
0002
0013
,
1000
0000
0001
0010
0000
0010
0100
0000
1000
0010
0100
0010
1000
0000
0001
0000
,
0010
0000
0100
0010
0000
0010
0001
0000
1000
0001
0100
0001
1000
0000
0001
0000
,
2100
3010
0102
0013
0000
0110
1001
0000
,
0001
0000
0000
0000
0000
0000
0100
0000
0000
0010
0000
0000
1000
0000
0000
0010
0000
0000
0200
0000
0000
0000
0000
0000
0301
0000
0000
0010
0000
0000
0100
0000
0000
1000
0000
0000
0001
0000
1000
0000
0001
0000
1000
0000
0001
0000
1000
0000
,
0001
1000
0000
0000
0001
0200
0301
0200
,
0310
0000
0100
0000
0100
0010
0000
0000
1000
0000
0000
0000
0002
0000
1003
0000
,
0100
0100
0000
0000
0110
0000
1000
1200
,
0000
0000
0000
0000
0000
0000
0000
0300
0102
0000
0000
0000
0000
0000
0000
0000
0000
0000
0000
0000
0000
0000
0000
0003
0021
0000
0000
0000
0000
0000
0000
0000
0000
0000
0000
0000
0000
0000
0000
0030
2010
0000
0000
0000
0000
0000
0000
0000
0000
0000
0000
0000
0000
0000
0000
0000
3001
0000
0000
0000
1000
0000
0000
0000
,
0001
0100
0000
0000
0100
0020
1030
0020
,
0130
0000
0001
0000
1000
0001
0000
0000
1001
0000
0000
0000
0200
0000
0310
0000
,
1000
0001
0100
0000
1001
0000
1000
1020
,
0000
0000
0000
0000
0000
0000
0000
0030
0012
0000
0000
0000
0000
0000
0000
0000
0000
0000
0000
0000
0000
0000
0000
0003
0201
0000
0000
0000
0000
0000
0000
0000
0000
0000
0000
0000
0000
0000
0000
0300
2100
0000
0000
0000
0000
0000
0000
0000
0000
0000
0000
0000
0000
0000
0000
0000
3001
0000
0000
0000
1000
0000
0000
0000
,
0001
0000
0100
0010
0100
0000
0001
0000
1000
0100
1000
0000
0001
0000
0010
0100
,
0010
0000
0001
0000
1000
0010
1000
0000
0001
0000
0010
0100
1000
0000
0001
0000
,
0100
0000
0010
1000
0100
0000
0010
0000
0100
1000
0010
0000
0100
0000
0001
0010
,
0100
0000
0010
0000
0100
0010
0001
0000
0100
0000
0001
1000
0001
0000
0100
0010
,
1000
0000
0100
0010
0001
0000
1000
0000
0001
0010
0100
0000
1000
0000
0001
0100
,
0010
0000
1000
0000
0010
0100
0001
0000
1000
0100
0010
0001
0100
0010
1000
0100
,
0010
0000
0101
0010
1000
0000
1100
0010
,
0011
0000
0001
0000
1001
0000
1000
0000
0010
0000
0100
0010
0100
0000
0000
0000
,
1001
0000
1000
0100
0000
0010
0001
0000
1000
0010
0000
0100
0001
0000
1000
0100
,
1000
0000
0001
0010
0000
0100
1000
0000
0001
0100
0010
1000
0100
0010
0100
1000
,
0001
0000
0010
0100
0000
1000
0010
0000
0100
0001
0000
1000
0100
0000
0010
0100
,
0010
0000
1000
0001
0000
0010
0100
0000
0000
0000
1100
0000
1001
0000
0000
0000
,
1000
0000
0100
0010
0000
0001
0010
0000
0100
1000
0000
0010
0100
0000
0001
0010
,
0001
0000
1000
0100
0000
1000
0001
0000
1000
0100
1000
0001
0100
0001
0010
0100
,
2000
3000
0100
0002
0003
0100
0002
0103
2000
3000
0010
0002
0003
0010
0002
0013
,
1000
0000
0001
1000
0001
1000
0001
0000
1000
0010
0100
0001
1000
0000
0000
0000
,
0001
0000
0010
0000
0001
0000
0010
0000
0000
0100
0000
0000
1000
0000
0000
0000
0000
0000
1001
0000
0000
0000
0000
0000
0000
0000
0000
0110
0000
0000
0000
0000
0000
0000
0000
0000
0001
0000
0000
0000
0000
0000
1000
0000
0000
0010
0000
0000
,
0100
0000
0010
1000
0000
0010
0100
0000
0001
1000
0100
0010
0001
0000
1000
0010
,
0100
0000
0001
0100
0000
0010
0100
0000
0001
0100
0010
1000
0100
0000
0010
0001
,
1000
0000
0000
0110
0000
0010
1000
0001
0100
0002
2000
0000
0000
0000
3003
0000
,
0210
0000
0000
0000
0000
0000
0000
0000
0000
0000
0000
0000
0000
0000
0000
0000
0000
0000
0310
0000
0000
1000
0000
0000
0100
0000
0000
0000
0010
0000
0000
0000
0001
0000
0000
0000
0010
0000
0000
0100
0000
0000
1000
0000
0000
0010
0000
0000
,
0200
0000
0000
0000
0000
0000
0310
0000
0001
0100
0000
0100
0010
1000
0001
0000
,
1000
0000
0100
0010
0000
0100
0001
0100
0001
0000
0100
0010
0000
0100
1000
0100
,
2000
3100
0002
1003
0020
0032
2003
3000
,
1001
0000
0000
0000
;

//--------------- dance-double - Fred-104 ----------------
#NOTEDATA:;
#STEPSTYPE:dance-double;
#DESCRIPTION:Fred-104;
#DIFFICULTY:Easy;
#METER:8;
#CREDIT:Fred-104;
#NOTES:
00000000
00000000
00000000
00000000
,
00000000
00000000
00000000
00000000
,
00000000
00000000
00000000
00000000
,
00000000
00000000
00000000
00000000
,
00000000
00000000
00000000
00000000
,
00000000
00000000
00000000
00000000
,
00000000
00000000
00000000
00000000
,
00000000
00000000
00000000
00000000
,
00000000
00000000
00000000
00000000
,
00010000
00010000
00100000
00100000
,
10000000
10000000
00010000
00010000
,
01000000
01000000
00100000
00100000
,
10000000
01000000
00100000
00001000
,
00010000
00010000
00001000
00000100
,
00000001
00000000
00001000
00000000
00000010
00000100
00000010
00000000
,
00001010
00001000
00000011
00000001
,
00000100
00000000
00001000
00000000
00010000
00001000
00010000
00000000
,
01000000
00000000
00000000
00100000
00000000
00000000
10000000
00000000
,
01000000
00000000
00000000
00100000
00000000
00000000
00001000
00000000
,
00010000
00000000
00000000
00001000
00000000
00000000
00000100
00000000
,
00000010
00000000
00000000
00000001
00000000
00002002
00003003
00000000
,
00000001
00000000
00000000
00000100
00000000
00000000
00001000
00000000
,
00010000
00000000
00000000
01000000
00000000
00000000
10000000
00000000
,
00010000
00000000
00000000
10000000
10000000
00000000
00000000
00100000
,
00200000
00320000
00032000
00003020
,
00001030
00000000
00000000
00010000
00000000
00000000
00001000
00000000
00000000
00001000
00000000
00000000
00010000
00000000
00000000
00000000
,
00100000
00000000
00000000
01000000
00000000
00000000
00100000
00000000
00000000
00100000
00000000
00000000
10000000
00000000
00000000
00000000
,
01000000
00000000
00000000
01000000
00000000
00000000
00100000
00000000
00000000
00001000
00000000
00000000
00010000
00000000
00000000
00000000
,
00001000
00000000
00000000
00000100
00000000
00000000
00000010
00000000
00000000
00000000
00002002
00000000
00003003
00000000
00000000
00000000
,
00000100
00000000
00000000
00000010
00000000
00000000
00000001
00000000
00000000
00001000
00000000
00000000
00000100
00000000
00000000
00000000
,
00010000
00000000
00000000
00000010
00000000
00000000
00010000
00000000
00000000
00001000
00000000
00000000
00100000
00000000
00000000
00000000
,
00010000
00000000
00000000
01000000
00000000
00000000
00100000
00000000
10000000
00000000
00000000
01000000
00000000
00000000
00100000
00000000
,
00002000
00023000
00030200
00000320
,
00000031
00000100
00000100
00000010
,
00001000
00000000
00010000
00000000
00100000
00000000
00010000
10000000
,
00010000
10000000
01000000
01000000
,
00100000
01000000
00100000
00000000
00010000
00001000
00010000
00000000
,
00001000
00000010
00000001
00001000
,
00000100
00000000
00000010
00000000
00000100
00000000
00000100
00001000
,
00000002
00000000
00000000
00000203
00000000
00000000
00000310
00000000
,
00001000
00001010
00010000
00011000
,
00001000
00000000
00100000
00000000
00010000
10000000
00010000
00000000
,
00100000
00000000
01000000
00000000
00010000
00000000
00001000
00010000
,
00001000
00000100
00000100
00000010
,
00000001
00000100
00000001
00000000
00000100
00001000
00000100
00000000
,
00001000
00000000
00010000
00000000
00100000
10000000
00100000
00000000
,
00010000
00000000
00001000
00000000
00010000
00000010
00010000
00000000
,
00001000
00000000
00000000
00000010
00000000
00000000
00000100
00000000
,
00000101
00000001
00000100
00000010
,
00001010
00000000
00010000
00000000
,
00001000
00000000
00010000
00000000
,
00100000
00000000
10000000
00000000
,
01000000
01000000
00100000
00000000
,
11000000
00000000
01000000
00000000
,
00010000
00000000
00001000
00000000
,
00000100
00000000
00000001
00000000
,
00001000
00001000
00000100
00000000
,
00000010
00000010
00000001
00001000
,
00000100
00010000
00001000
00001000
,
00010000
01000000
10000000
00010000
,
10000000
00100000
01000000
00000000
00010000
01000000
00100000
00000000
,
10000000
01000000
01000000
00100000
,
00001000
00000000
00010000
00000000
00001000
00000010
00000100
00000000
,
00000011
00000100
00001010
00001000
,
00010000
00000000
00001000
00000000
00100000
00010000
10000000
00000000
,
01000000
00000000
00000000
01000000
00000000
00000000
00100000
00000000
00000000
01000000
00000000
00000000
00010000
00000000
00000000
00000000
,
00100000
00000000
00000000
00001000
00000000
00000000
00010000
00000000
00000000
00001000
00000000
00000000
00001000
00000000
00000000
00000000
,
00000100
00000000
00000000
00000100
00000000
00000000
00000010
00000000
00000000
00000001
00000000
00000000
00001000
00000000
00000000
00000000
,
00000001
00000000
00000000
00000100
00000000
00000000
00000010
00000000
00000000
00000000
00002002
00000000
00003003
00000000
00000000
00000000
,
00010000
00000000
00000000
00001000
00000000
00000000
00100000
00000000
00000000
00001000
00000000
00000000
00010000
00000000
00000000
00000000
,
01000000
00000000
00000000
10000000
00000000
00000000
00010000
00000000
00000000
10000000
00000000
00000000
01000000
00000000
00000000
00000000
,
00100000
00000000
00000000
00100000
00000000
00000000
00010000
00000000
00001000
00000000
00000000
00001000
00000000
00000000
00000010
00000000
,
00000200
00000302
00002003
00003200
,
00000310
00000000
00000000
00000000
00000000
00000000
00000110
00000000
00000000
00001000
00000000
00000000
00000100
00000000
00000000
00000000
,
00010000
00000000
00000000
00001000
00000000
00000000
00100000
00000000
00000000
00010000
00000000
00000000
10000000
00000000
00000000
00000000
,
01000000
00000000
00000000
00100000
00000000
00000000
00001000
00000000
00000000
00010000
00000000
00000000
00000100
00000000
00000000
00000000
,
00000010
00000000
00000000
00000001
00000000
00000000
00001000
00000000
00000000
00000000
00002002
00000000
00003003
00000000
00000000
00000000
,
00021000
00000000
00031000
00010000
,
20000000
00000000
00000000
00000000
30100000
01000000
00100000
00000000
,
10000000
00000000
00000000
01000000
00000000
00000000
01000000
00000000
00100000
00000000
00000000
00001000
00000000
00000000
00001000
00000000
,
00010000
00000000
00000100
00000000
00000010
00000100
00000001
00000000
,
00001001
00000000
00000000
00000000
;

//--------------- dance-double - Fred-104 ----------------
#NOTEDATA:;
#STEPSTYPE:dance-double;
#DESCRIPTION:Fred-104;
#DIFFICULTY:Medium;
#METER:11;
#CREDIT:Fred-104;
#NOTES:
00000000
00000000
00000000
00000000
,
00000000
00000000
00000000
00000000
,
00000000
00000000
00000000
00000000
,
00000000
00000000
00000000
00000000
,
00000000
00000000
00000000
00000000
,
00000000
00000000
00000000
00000000
,
00000000
00000000
00000000
00000000
,
00000000
00000000
00000000
00000000
,
00000000
00000000
00000000
00000000
,
00010000
00000000
00010000
00000000
00001000
00000010
00000000
00000010
,
00000001
00000000
00000100
00000001
00000000
00000100
00000010
00000000
,
00001000
00000000
00000001
00000000
00000010
00000100
00000000
00001000
,
00010000
00001000
00200000
00000000
01300000
00100000
02000000
00000000
,
03010000
01000000
00100000
00000000
10000000
01000000
00100000
00000000
,
00001000
00010000
00001000
00000000
00000100
00000010
00000001
00000000
,
00000201
00000301
00001200
00001300
,
00011000
00000000
00010000
00000000
01000000
00100000
10010000
00000000
,
10000000
00000000
00000000
01000000
00000000
00000000
00010000
00000000
00000000
00001000
00000000
00000000
00000100
00000000
00000000
00000000
,
00000001
00000000
00000000
00000100
00000000
00000000
00001000
00000000
00000000
00010000
00000000
00000000
01000000
00000000
00000000
00000000
,
10000000
00000000
00000000
01000000
00000000
00000000
00010000
00000000
00000000
00001000
00000000
00000000
00000100
00000000
00000000
00000000
,
00000001
00000000
00000000
00000100
00000000
00000000
00001000
00000000
00000000
00000000
00022000
00000000
00033000
00000000
00000000
00000000
,
10000000
00000000
00000000
00100000
00000000
00000000
00010000
00000000
00000000
00001000
00000000
00000000
00000010
00000000
00000000
00000000
,
00000001
00000000
00000000
00000010
00000000
00000000
00001000
00000000
00000000
00010000
00000000
00000000
00100000
00000000
00000000
00000000
,
10000000
00000000
00000000
00100000
00000000
00000000
00010000
00000000
00001000
00000000
00000000
00000010
00000000
00000000
00000001
00000000
,
00000200
00000000
00000000
00000000
00000320
00000000
00000000
00000000
00002030
00000000
00000000
00003000
00020000
00000000
00000000
00000000
,
00130000
00000000
00000000
01000000
00000000
00000000
10000000
00000000
00000000
00100000
00000000
00000000
01000000
00000000
01000000
00000000
,
00010000
00000000
00000000
00001000
00000000
00000000
00000100
00000000
00000000
00000001
00000000
00000000
00000100
00000000
00000010
00000000
,
00000001
00000000
00000000
00000100
00000000
00000000
00000010
00000000
00000000
00010000
00000000
00000000
00001000
00000000
00100000
00000000
,
00010000
00000000
00000000
10000000
00000000
00000000
01000000
00000000
00000000
00000000
02200000
00000000
03300000
00000000
00000000
00000000
,
01000000
00000000
00000000
00010000
00000000
00000000
00001000
00000000
00000000
00000100
00000000
00000000
00000001
00000000
00000100
00000000
,
00000010
00000000
00000000
00001000
00000000
00000000
00010000
00000000
00000000
00001000
00000000
00000000
00000010
00000000
00000100
00000000
,
00000001
00000000
00000000
00000010
00000000
00000000
00001000
00000000
00010000
00000000
00000000
00100000
00000000
00000000
10000000
00000000
,
00020000
20030000
32000000
03200000
,
00301000
00000000
00010000
00000000
00000100
00001000
00000100
00000010
,
00000001
00000000
00000100
00000000
00000010
00000000
00010000
00000100
,
00010000
00001000
00010000
00000100
00000000
00011000
00000000
00000000
,
00010000
00010000
00000000
00100000
00000000
10000000
00000000
01000000
,
01000000
00000000
00010000
00000000
00100000
00001000
00010000
00001000
,
00000000
00010000
00001000
00000000
00000010
00000000
00000001
00001000
,
00000001
00000100
00000010
00001000
00000000
00000001
00000100
00000000
,
00000001
00000010
00000001
00000010
00001000
00010000
00001000
00010000
,
00200000
00000000
00000000
02300000
00000000
00000000
23000000
00000000
00000000
30200000
00000000
00000000
01300000
00000000
00010000
00000000
,
00200000
00000000
00000000
00302000
00000000
00000000
00023000
00000000
00000000
00032000
00000000
00000000
00103000
00000000
00001000
00000000
,
00020000
00000000
00000000
00030200
00000000
00000000
00002300
00000000
00000000
00003200
00000000
00000000
00010300
00000000
00000010
00000000
,
00001000
00000000
00000000
00000001
00000000
00000000
00001000
00000000
00000000
00000000
00002002
00000000
00003003
00000000
00000000
00000000
,
00000002
00000000
00000000
00000203
00000000
00000000
00002300
00000000
00000000
00023000
00000000
00000000
01030000
00000000
00100000
00000000
,
20000000
00000000
00000000
32000000
00000000
00000000
03200000
00000000
00000000
02300000
00000000
00000000
03010000
00000000
00100000
00000000
,
00001000
00010000
00001000
00000010
00000000
00000010
00000200
00000000
,
00000301
00000010
00000001
00000100
00000010
00001000
00000100
00010000
,
00001000
00000000
00100000
00000000
,
00010000
10000000
01000000
00000000
,
00100000
00000000
00001000
00000000
,
00010000
00001000
00000001
00000000
,
00000100
00000000
00000010
00000000
,
00000001
00001000
00010000
00000000
,
10000000
00000000
00010000
00000000
,
01000000
00010000
00001000
00000000
,
00000010
00001000
00000100
00000010
,
00000001
00000100
00000001
00000100
00000010
00000100
00000001
00000000
,
00000100
00000100
00000010
00001000
,
00000100
00010000
00001000
00010000
00000100
00010000
00001000
00000000
,
00100000
00010000
00100000
01000000
,
10000000
00100000
01000000
00100000
10000000
00100000
10000000
00000000
,
01100000
00100000
00011000
00010000
,
00001000
00000000
00000100
00000000
00010000
00001000
00011000
00000000
,
00002000
00000000
00000000
00023000
00000000
00000000
00230000
00000000
00000000
20300000
00000000
00000000
30100000
00000000
00001000
00000000
,
00020000
00000000
00000000
00030020
00000000
00000000
00002030
00000000
00000000
00003002
00000000
00000000
00001003
00000000
00000100
00000000
,
00020000
00000000
00000000
00032000
00000000
00000000
02003000
00000000
00000000
03020000
00000000
00000000
00130000
00000000
01000000
00000000
,
10000000
00000000
00000000
01000000
00000000
00000000
00100000
00000000
00000000
00000000
02200000
00000000
03300000
00000000
00000000
00000000
,
00200000
00000000
00000000
00302000
00000000
00000000
00023000
00000000
00000000
00030020
00000000
00000000
00010030
00000000
00001000
00000000
,
00000200
00000000
00000000
00000302
00000000
00000000
00002003
00000000
00000000
00003200
00000000
00000000
00000310
00000000
00000001
00000000
,
00001000
00000000
00000000
00000100
00000000
00000000
00000001
00000000
00000001
00000000
00000000
00000100
00000000
00000000
00001000
00000000
,
00020000
00230000
20300000
32000000
,
03020000
00000000
00000000
00000000
00030000
00000000
00011000
00000000
00000000
00001000
00000000
00000000
00000100
00000000
00000010
00000000
,
00000001
00000000
00000000
00000100
00000000
00000000
00000010
00000000
00000000
00001000
00000000
00000000
00000100
00000000
00000010
00000000
,
00000001
00000000
00000000
00000100
00000000
00000000
00001000
00000000
00000000
00010000
00000000
00000000
01000000
00000000
00100000
00000000
,
10000000
00000000
00000000
00010000
00000000
00000000
01000000
00000000
00000000
00000000
02200000
00000000
03300000
00000000
00000000
00000000
,
00012000
00000000
00003100
00000100
,
00001002
00000000
00000000
00000000
00000103
00000010
00001000
00000000
,
00000100
00000000
00000000
00010000
00000000
00000000
00001000
00000000
00100000
00000000
00000000
00010000
00000000
00000000
10000000
00000000
,
01000000
00010000
00001000
00010000
00001000
00000100
00000001
00000000
,
00001001
00000000
00000000
00000000
;

//--------------- dance-double - Fred-104 ----------------
#NOTEDATA:;
#STEPSTYPE:dance-double;
#DESCRIPTION:Fred-104;
#DIFFICULTY:Hard;
#METER:14;
#CREDIT:Fred-104;
#NOTES:
00000000
00000000
00000000
00000000
,
00000000
00000000
00000000
00000000
,
00000000
00000000
00000000
00000000
,
00000000
00000000
00000000
00000000
,
00000000
00000000
00000000
00000000
,
00000000
00000000
00000000
00000000
,
00000000
00000000
00000000
00000000
,
00000000
00000000
00000000
00000000
,
00000000
00000000
00000000
00000000
,
10000000
01000000
00100000
00000000
01000000
10000000
00000000
00010000
,
01000000
00000000
00001000
00010000
00000000
00000010
00001000
00000100
,
00000010
00000001
00000100
00000000
00000001
00000010
00000100
00000010
,
00001000
00000100
00010000
00001000
00010000
00000100
00010000
00001000
,
00010000
01000000
10000000
00000000
00010000
00100000
01000000
00100000
,
00010000
00000000
00000000
00000000
10000000
00000000
00100000
00000000
00010000
00000000
00001000
00010000
00001000
00100000
00001000
00010000
,
00001000
00000000
00000100
00000001
00001000
00000000
00000001
00000010
,
00000100
00000000
00010000
00000000
00001000
00010000
00022000
00033000
,
00011000
00000000
00000000
01010000
00000000
00000000
11000000
00000000
00000000
10010000
00000000
00000000
00100000
00000000
01000000
00100000
,
01000000
00000000
00000000
01100000
00000000
00000000
00110000
00000000
00000000
01100000
00000000
00000000
10010000
00000000
00000000
00000000
,
11000000
00000000
00000000
01010000
00000000
00000000
00011000
00000000
00000000
00001100
00000000
00000000
00000010
00000000
00000100
00000010
,
00000100
00000000
00000000
00000011
00000000
00000000
00001010
00000000
00000000
00000000
00002002
00000000
00003003
00000000
00000000
00000000
,
00001010
00000000
00000000
00010010
00000000
00000000
00011000
00000000
00000000
00101000
00000000
00000000
00100000
00000000
00010000
10000000
,
00010000
00000000
00000000
10010000
00000000
00000000
11000000
00000000
00000000
01100000
00000000
00000000
00010000
00000000
00100000
00001000
,
00010000
00000000
00000000
00011000
00000000
00000000
00000010
00000000
00001000
00000000
00000000
00011000
00000000
00000000
00100000
00000000
,
00020000
00000000
20030000
00000000
32000000
03200000
02300000
00000000
,
03001000
00010000
00000000
00001000
00010000
00000000
00001000
00010000
00000000
00001000
00010000
00000000
00000010
00000000
00001000
00000001
,
00000100
00000001
00000000
00000100
00000001
00000000
00000100
00000001
00000000
00000100
00000001
00000000
00001000
00000000
00000010
00010000
,
00001000
00010000
00000000
00001000
00010000
00000000
00001000
00010000
00000000
00001000
00010000
00000000
00001000
00000000
00100000
00010000
,
10000000
01000000
00000000
10000000
01000000
00000000
00100000
00000000
00000000
00000000
20020000
00000000
30030000
00000000
00000000
00000000
,
01000000
00100000
00000000
01000000
00100000
00000000
00010000
00100000
00000000
00010000
00100000
00000000
00010000
00000000
00001000
00010000
,
00000010
00001000
00000000
00000010
00001000
00000000
00000001
00000100
00000000
00000001
00000100
00000000
00000010
00000000
00001000
00000001
,
00000100
00000000
00000000
00001000
00000000
00000000
00011000
00000000
00010000
00000000
00000000
01000000
00000000
00000000
01100000
00000000
,
00200000
00000000
00302000
00000000
00023000
00030020
00002030
00000000
,
00013000
00001000
00010000
00000000
00001000
00010000
00100000
20000000
,
00000000
30100000
00010000
00000000
00001000
00000000
00010000
00001000
,
00000010
00000001
00001000
00000200
00000000
00000310
00000100
00000000
,
00000001
00000200
00001300
00000200
00000301
00000200
00001300
00000200
,
00000301
00000010
00000100
00000000
00010000
00001000
00010000
00200000
,
00000000
01300000
00100000
00000000
00010000
10000000
01000000
00100000
,
01000000
10000000
00010000
02000000
00000000
03010000
00001000
00000000
,
00010000
00000000
00001000
00000000
00000100
00000000
00000010
00000000
00000100
00000010
00000100
00000010
00000200
00000000
00000000
00000000
,
00000301
00000010
00000100
00000000
00001000
00001010
00000001
00000201
,
00000000
00000310
00001000
00000000
00000100
00000000
00010000
00001000
,
00010000
00100000
10000000
00100000
00000000
00001000
00010000
00000000
,
00001000
00012000
00013000
00021000
00031000
00012000
00013000
00021000
,
00031000
00000100
00000001
00000000
00001000
00000100
00000010
00000021
,
00000000
00000031
00000100
00000000
00000010
00001000
00010000
00100000
,
00001000
00010000
01000000
20000000
00000000
30010000
10010000
00000000
,
01000000
00000000
00100000
00000000
10000000
00000000
01000000
00000000
00100000
01000000
00100000
01000000
00010000
01000000
00010000
01000000
,
00100000
00000000
10000000
00000000
,
01000000
00010000
00001000
00000000
,
00000010
00000000
00000000
00000000
00000001
00000000
00000000
00000002
,
00000000
00000023
00000000
00002030
00000000
00003020
00000000
00000032
,
00000103
00000000
00000010
00000000
,
00001000
00010000
00100000
00000000
,
10000000
00000000
00000000
00000000
00100000
00000000
00000000
00020000
,
00000000
02030000
00000000
23000000
00000000
32000000
00000000
03020000
,
00130000
01000000
10000000
00100000
01000000
00100000
10000000
01000000
,
00100000
00010000
00100000
00001000
00010000
00001000
00000010
00001000
,
00010000
00000010
00001000
00000001
00000010
00000100
00000010
00000001
,
00001000
00000001
00000100
00000001
00000100
00001000
00010000
00000000
,
00001000
00010000
00001000
00010000
01000000
10000000
00010000
01000000
,
00100000
00000000
10000000
00000000
01000000
00000000
00100000
00000000
00001000
00000000
00010000
00001000
00010000
00000010
00010000
00001000
,
00010000
00000000
00010000
00001000
00011000
00000000
00001000
00000100
,
00000110
00000000
00000000
00000000
00001100
00000000
00000000
00000000
00000010
00000000
00000100
00000001
00000100
00000000
00000000
00000000
,
00001002
00000000
00000000
00000023
00000000
00000000
00000230
00000000
00000000
00020300
00000000
00000000
00031000
00000000
00100000
00010000
,
00200000
00000000
00000000
02300000
00000000
00000000
03200000
00000000
00000000
00320000
00000000
00000000
10030000
00000000
00100000
01000000
,
00200000
00000000
00000000
20300000
00000000
00000000
32000000
00000000
00000000
03020000
00000000
00000000
00031000
00000000
00010000
00001000
,
00010000
00000000
00000000
00011000
00000000
00000000
00001010
00000000
00000000
00000000
00002002
00000000
00003003
00000000
00000000
00000000
,
00000201
00000000
00000000
00000320
00000000
00000000
00002030
00000000
00000000
00003002
00000000
00000000
00000103
00000000
00001000
00000100
,
00002000
00000000
00000000
00023000
00000000
00000000
02030000
00000000
00000000
03020000
00000000
00000000
00031000
00000000
00000100
00000010
,
00000100
00000000
00000000
00001100
00000000
00000000
00000010
00000000
00000100
00000000
00000000
00000101
00000000
00000000
00000010
00000000
,
00001000
00000000
00000001
00000100
00000001
00000100
00000010
00000000
00001000
00000100
00010000
00001000
00010000
00000000
00000000
00000000
,
00100000
00010000
01000000
00100000
01000000
00000000
01100000
00000000
00000000
10010000
00000000
00000000
01000000
00000000
00100000
00000000
,
10000000
01000000
00000000
01000000
00100000
00000000
00100000
00001000
00000000
00001000
00010000
00000000
00000100
00000000
00001000
00000010
,
00000100
00000010
00000000
00000010
00001000
00000000
00001000
00000001
00000000
00000001
00000100
00000000
00000010
00000000
00001000
00000100
,
00010000
00000000
00000000
00001000
00000000
00100000
00010000
10000000
00000000
00000000
22000000
00000000
33000000
00000000
00000000
00000000
,
01020000
00000000
00000000
00000000
00000000
00000000
00031000
00010000
00001000
00000100
00001000
00000100
,
00000002
00000000
00000000
00000000
00000000
00000000
00000000
00000000
00000103
00000010
00000000
00000010
00000100
00000000
00000001
00000000
,
00001000
00000000
00000000
00001000
00000100
00000000
00000010
00000000
00000001
00000000
00000000
00000001
00000100
00000000
00000010
00000000
,
00001000
00000000
00000001
00000000
00000100
00000000
00001000
00000000
00010000
00000000
01000000
00000000
10000000
00010000
10000000
00010000
,
00100000
00000000
00000000
00000000
;

//--------------- dance-double - Fred-104 ----------------
#NOTEDATA:;
#STEPSTYPE:dance-double;
#DESCRIPTION:Fred-104;
#DIFFICULTY:Challenge;
#METER:16;
#CREDIT:Fred-104;
#NOTES:
00000000
00000000
00000000
00000000
,
00000000
00000000
00000000
00000000
,
00000000
00000000
00000000
00000000
,
00000000
00000000
00000000
00000000
,
00000000
00000000
00000000
00000000
,
00000000
00000000
00000000
00000000
,
00000000
00000000
00000000
00000000
,
00000000
00000000
00000000
00000000
,
00000000
00000000
00000000
00000000
,
00000010
00000001
00001000
00000010
00000100
00000010
00001000
00000001
,
00000010
00001000
00010000
00100000
00010000
00001000
00000010
00010000
,
00001000
00100000
00001000
00010000
01000000
00010000
00001000
00010000
,
00000100
00000000
00010000
00000000
00001000
00000000
00010000
00000000
01000000
00000000
10000000
00000000
00010000
00000000
10000000
00010000
,
10000000
01000000
00100000
00001000
00010000
00100000
10000000
00100000
,
01000000
00000000
00001000
00000000
00100000
00000000
00010000
00000000
00001000
00000000
00010000
00000100
00001000
00000100
00010000
00001000
,
00000100
00000000
00000000
00000100
00000010
00000000
00000001
00000000
00000100
00000000
00000000
00000100
00000010
00000000
00001000
00000000
,
00011000
00000000
00000000
00000000
00110000
00000000
00000000
00000000
00001000
00000000
00200000
00320000
20000000
00000000
30030000
00000000
,
11000000
00000000
00000000
01010000
00000000
00000000
11000000
00000000
00000000
01100000
00000000
00000000
00010000
00000000
00001000
00010000
,
00001000
00000000
00000000
00011000
00000000
00000000
00001010
00000000
00000000
00000010
00000100
00000010
00001000
00000001
00000010
00000100
,
00001000
00000000
00000000
00001100
00000000
00000000
00000110
00000000
00000000
00000011
00000000
00000000
00000001
00000000
00000100
00000010
,
00001000
00000000
00000000
00001010
00000000
00000000
00011000
00000000
00000000
00000000
00202000
00000000
00303000
00000000
00000000
00000000
,
00011000
00000000
00000000
00110000
00000000
00000000
00011000
00000000
00000000
00001010
00000000
00000000
00011000
00000000
00001000
00010000
,
00100000
00000000
00000000
00110000
00000000
00000000
10100000
00000000
00000000
00100000
00010000
10000000
00100000
01000000
00100000
10000000
,
01000000
00000000
00000000
01000000
00010000
00000000
00001000
00010000
00001000
00000000
00000000
00001000
00000100
00000000
00000010
00000001
,
00002000
00000000
00000010
00000000
00023000
00001000
00130000
00000000
,
00010000
01000000
00000000
00100000
10000000
00000000
01000000
00100000
00000000
01000000
10000000
00000000
00010000
00000000
10000000
01000000
,
00100000
00010000
00000000
00100000
00001000
00000000
00010000
00001000
00000000
00010000
00000100
00001000
00000010
00000100
00000010
00001000
,
00000001
00000010
00000000
00000100
00000010
00000000
00000001
00000010
00000000
00000100
00000010
00000000
00000001
00000000
00000100
00001000
,
00000100
00001000
00000000
00010000
00001000
00000000
00010000
00100000
00000000
00000000
01100000
00000000
20020000
00000000
30030000
00000000
,
10000000
00100000
00000000
01000000
00100000
00000000
10000000
01000000
00000000
00100000
00001000
00000000
00010000
00000000
00000100
00001000
,
00000100
00000010
00000000
00000100
00001000
00000000
00000010
00000100
00000000
00000001
00000010
00000001
00000010
00000100
00001000
00000100
,
00010000
00001000
00000000
00001000
00100000
00000000
01000000
00000000
00100000
00001000
00000000
00001000
00010000
00000000
00001000
00000000
,
00020000
00000000
20030000
00000000
32000000
03020000
00032000
00000000
,
00013000
00000010
00000000
00001000
00000010
00000000
00010000
00000010
00000000
00001000
00000020
00000000
00000130
00000000
00000002
00000000
,
00001003
00000010
00000001
00000010
00000001
00000010
00001000
00010000
,
00001000
00010000
00100000
20000000
00000000
00010000
30000000
01000000
,
00100000
00002000
00003010
00002000
00013000
00002000
00103000
00002000
,
00013000
00001000
00000000
00100000
00001000
00000000
00010000
00001000
00000000
00010000
00000200
00000000
00001300
00000000
00000200
00000000
,
00010300
00001000
00010000
00100000
10000000
00010000
00100000
01000000
,
10000000
00100000
01000000
00020000
00000000
00031000
00000100
00000000
,
00000011
00000000
00000010
00000000
00000100
00000000
00010000
00000000
00001000
00100000
00010000
10000000
01000000
00100000
01000000
00100000
,
00010000
01000000
00000000
01000000
10000000
00000000
10000000
01000000
00000000
01000000
00010000
00000000
00100000
00000000
00001000
00000000
,
00010000
00001000
00000000
00001000
00000100
00000000
00000100
00001000
00000000
00001000
00010000
00000000
00000010
00000000
00001000
00000000
,
00000001
00000010
00000000
00000010
00000100
00000000
00000100
00010000
00000000
00010000
00001000
00000000
00100000
00000000
00001000
00010000
,
00001000
00020000
00030010
00020000
00130000
00020000
00031000
00020000
,
00030100
00010000
00000000
00001000
00100000
00000000
00010000
10000000
00000000
00100000
01000000
00000000
00010000
00000000
10000000
00000000
,
01000000
00100000
00000000
00001000
00010000
00000000
00000100
00000010
00000000
00000001
00001000
00000000
00000010
00000000
00000100
00000000
,
00001001
00000001
00000100
00002000
00000000
00013000
00011000
00000000
,
00002000
00000000
00000000
00000000
00000000
00000000
00023000
00000000
00000000
00000000
00000000
00000000
00230000
00000000
00000000
00000000
00000000
00000000
20300000
00000000
00000000
00000000
00000000
00000000
30010000
00000000
00000000
01000000
00000000
00000000
00010000
00000000
00000000
01000000
00000000
00000000
00100000
00000000
10000000
00000000
00100000
00000000
10000000
00000000
00100000
00000000
10000000
00000000
,
00010000
00010000
00000000
00000000
01000000
00020000
00031000
00020000
,
00031000
00000000
00000100
00000000
00000000
00000010
00000000
00000000
00000001
00000000
00000000
00000000
00000200
00000000
00000310
00000000
,
00001000
00001000
00000000
00000000
00011000
00000000
00000000
00021000
,
00000000
00000000
00000000
00000000
00000000
00000000
00000000
00030000
00210000
00000000
00000000
00000000
00000000
00000000
00000000
00000000
00000000
00000000
00000000
00000000
00000000
00000000
00000000
00300000
20100000
00000000
00000000
00000000
00000000
00000000
00000000
00000000
00000000
00000000
00000000
00000000
00000000
00000000
00000000
30000000
10010000
00000000
00000000
00000000
00000000
00000000
00000000
00000000
00000000
00000000
00000000
00000000
00000000
00000000
00000000
00000000
01000000
00000000
00000000
00000000
00000000
00000000
00000000
00000000
,
00001000
00001000
00000000
00000000
00000100
00002000
00013000
00002000
,
00013000
00000000
01000000
00000000
00000000
00100000
00000000
00000000
10000000
00000000
00000000
00000000
02000000
00000000
03100000
00000000
,
00010000
00100000
00010000
00000000
00011000
00000000
00000000
00012000
,
00000000
00000000
00000000
00000000
00000000
00000000
00000000
00003000
00001020
00000000
00000000
00000000
00000000
00000000
00000000
00000000
00000000
00000000
00000000
00000000
00000000
00000000
00000000
00000030
00000012
00000000
00000000
00000000
00000000
00000000
00000000
00000000
00000000
00000000
00000000
00000000
00000000
00000000
00000000
00000003
00001001
00000000
00000000
00000000
00000000
00000000
00000000
00000000
00000000
00000000
00000000
00000000
00000000
00000000
00000000
00000000
00000100
00000000
00000000
00000000
00000010
00000000
00000000
00000000
,
00000100
00000000
00000001
00000010
00000001
00000000
00000100
00000000
00000010
00001000
00000010
00000000
00000100
00000000
00000001
00001000
,
00000001
00000000
00000100
00000000
00001000
00010000
00001000
00000000
00010000
00000000
00100000
10000000
00100000
00000000
00010000
00000000
,
00001000
00000000
00010000
00001000
00010000
00000000
00100000
00000000
00001000
00010000
00001000
00000000
00010000
00000000
00000010
00001000
,
00000010
00000000
00010000
00000000
00001000
00010000
00001000
00000000
00100000
00010000
10000000
00100000
01000000
00000000
00010000
00000000
,
10000000
00000000
00100000
01000000
00010000
00000000
10000000
00000000
01000000
00100000
00010000
00000000
10000000
00000000
00100000
01000000
,
00010000
00000000
00100000
00000000
00001000
00010000
00000010
00000000
00001000
00000100
00001000
00000100
00000010
00000100
00000010
00000100
,
00001000
00000000
00000000
00001000
00000010
00000000
00000010
00000001
00000010
00000000
00000000
00000010
00001000
00000000
00010000
00001000
,
00020000
00000000
00230000
00000000
10300000
00010000
10010000
00000000
,
10000000
01000000
00000000
01000000
00100000
00000000
00010000
01000000
00000000
01000000
00100000
00000000
10000000
00000000
01000000
00100000
,
00001000
00010000
00000000
00010000
00000100
00000000
00000100
00001000
00000000
00001000
00000001
00000100
00000001
00001000
00000100
00000010
,
00000001
00000010
00000000
00000010
00000100
00000000
00000100
00000010
00000000
00000010
00000001
00000000
00001000
00000000
00000001
00000100
,
00000010
00001000
00000000
00000100
00010000
00000000
00001000
00010000
00000000
00000000
00011000
00000000
00202000
00000000
00303000
00000000
,
00010000
00100000
00000000
00100000
10000000
00000000
10000000
00100000
00000000
00100000
00010000
00000000
00001000
00000000
00010000
00001000
,
00010000
00001000
00000000
00001000
00000100
00000000
00000100
00000001
00000000
00000001
00000100
00000001
00000100
00000010
00001000
00000100
,
00010000
00000000
00000000
00010000
00100000
00000000
10000000
00100000
10000000
00000000
00000000
00100000
00010000
00000000
00001000
00010000
,
00001000
00000000
00000010
00001000
00000010
00001000
00000001
00000000
00000100
00000010
00000100
00000010
00002000
00000000
00000000
00000000
,
00003100
00001000
00010000
00100000
01000000
00000000
01100000
00000000
00000000
11000000
00000000
00000000
10010000
00000000
01000000
00000000
,
00100000
10000000
00000000
10000000
00100000
00000000
01000000
00010000
00000000
00100000
00001000
00000000
00010000
00000000
00000100
00001000
,
00000100
00000010
00000000
00000001
00000100
00000000
00000010
00001000
00000000
00000010
00000100
00000000
00000010
00000000
00000100
00000001
,
00001000
00000000
00000000
00001100
00000000
00000100
00010000
00001000
00000000
00000000
00022000
00000000
00000000
00000000
00033000
00000000
,
02100000
00000000
00000000
00000000
00000000
00000000
00000000
00000000
00000000
00000000
00000000
00000000
00000000
00000000
00000000
00000000
00000000
00000000
03100000
00000000
00000000
10000000
00000000
00000000
01000000
00000000
00000000
00000000
00010000
00000000
00000000
00000000
01000000
00000000
00000000
00000000
10000000
00000000
00000000
00100000
00000000
00000000
01000000
00000000
00000000
00010000
00000000
00000000
,
02000000
00000000
00000000
00000000
00000000
00000000
03100000
00000000
00001000
00010000
00000000
00010000
00000010
00001000
00000010
00000000
,
00001000
00000000
00000100
00000010
00000000
00000001
00000100
00000010
00001000
00000000
00000100
00010000
00000000
00001000
00010000
00000010
,
00010000
00000000
00001000
00100000
00010000
00000000
10000000
00100000
01000000
00000000
00010000
00000000
10000000
00000000
00000000
00000000
,
10010000
00000000
00000000
00000000
;
