#VERSION:0.83;
#TITLE:コルドバの女;
#ARTIST:劇団レコード;
#TITLETRANSLIT:Cordoba no onna;
#ARTISTTRANSLIT:Gekidan Record;
#BANNER:Cordoba no onna.png;
#BACKGROUND:Cordoba no onna-bg.png;
#CDTITLE:./CDTitles/NOSTALGIA FORTE.png;
#MUSIC:Cordoba no onna.ogg;
#SAMPLESTART:10.14;
#SAMPLELENGTH:15;
#BPMS:0=142;
#BGSTAGE:17;

//--------------- dance-single - Fred-104 ----------------
#NOTEDATA:;
#STEPSTYPE:dance-single;
#DESCRIPTION:Fred-104;
#DIFFICULTY:Beginner;
#METER:1;
#CREDIT:Fred-104;
#NOTES:
0000
0000
0000
0000
,
0000
0000
0000
0000
,
0000
0000
0000
0000
,
0000
0000
0000
0000
,
0000
0000
0000
0000
,
0000
0000
0000
0000
,
0001
0000
0000
0000
,
1000
0000
0000
0000
,
0001
0000
0000
0000
,
0010
0000
0000
0000
,
0100
0000
0000
0000
,
1000
0000
0000
0000
,
0001
0000
0000
0000
,
1000
0000
0000
0000
,
0001
0000
0000
0000
,
0001
0000
0000
0000
,
1000
0000
0000
0000
,
1000
0000
0000
0000
,
0010
0000
0000
0000
,
0100
0000
0000
0000
,
0001
0000
0000
0000
,
1000
0000
0000
0000
,
0200
0000
0000
0000
,
0300
0000
0000
0000
,
0010
0000
0000
0000
,
0001
0000
0000
0000
,
1000
0000
0000
0000
,
0001
0000
0000
0000
,
0100
0000
0000
0000
,
0001
0000
0000
0000
,
1000
0000
0000
0000
,
0001
0000
0000
0000
,
1000
0000
0000
0000
,
0001
0000
0000
0000
,
0010
0000
0000
0000
,
0001
0000
0000
0000
,
1000
0000
0000
0000
,
0001
0000
0000
0000
,
1000
0000
0000
0000
,
0001
0000
0000
0000
,
2000
0000
0000
0000
,
3000
0000
0000
0000
,
0002
0000
0000
0000
,
0003
0000
0000
0000
,
1000
0000
0000
0000
,
0001
0000
0000
0000
,
1000
0000
0000
0000
,
0001
0000
0000
0000
,
1000
0000
0000
0000
,
0001
0000
0000
0000
,
0100
0000
0000
0000
,
0020
0000
0000
0000
,
0030
0000
0000
0000
,
1000
0000
0000
0000
,
0001
0000
0000
0000
,
1000
0000
0000
0000
,
0100
0000
0000
0000
,
1000
0000
0000
0000
,
0001
0000
0000
0000
,
0000
0000
2002
0000
,
0000
0000
0000
0000
,
0000
0000
3003
0000
;

//--------------- dance-single - Fred-104 ----------------
#NOTEDATA:;
#STEPSTYPE:dance-single;
#DESCRIPTION:Fred-104;
#DIFFICULTY:Easy;
#METER:6;
#CREDIT:Fred-104;
#NOTES:
0000
0000
0000
0000
,
0000
0000
0000
0000
,
0000
0000
0000
0000
,
0000
0000
0000
0000
,
0000
0000
0000
0000
,
0000
0000
0000
0000
,
1000
0100
1000
1000
,
0001
0100
0020
0030
,
0100
0100
0001
1000
,
0002
0003
0010
1000
,
0020
0030
0001
0100
,
2000
3000
0100
0001
,
1000
0100
0010
1000
,
0010
0001
0010
0100
,
1001
0000
0001
0100
,
0110
0000
1000
0100
,
0020
0031
2000
3010
,
0100
0000
0001
1000
,
0010
0100
0001
1000
,
0100
0100
0010
0001
,
0200
0310
0200
0301
,
2000
0000
3001
0010
0001
0000
1001
0000
,
1000
0100
0001
0100
,
1000
0001
0220
0330
,
1000
0100
0001
0010
,
1000
0000
0000
0001
0000
0000
1000
0000
,
0001
0100
1000
0010
,
0001
0000
0000
1000
0000
0000
0001
0000
,
1000
0100
0010
1001
,
0002
0000
1003
1000
0000
0000
0001
0000
,
1000
0100
0001
0010
,
1000
0100
0110
0000
,
0002
0000
2003
3200
,
0320
0000
0031
1000
,
0001
1000
1001
0000
,
2000
3200
0302
0203
,
1300
0001
0100
0010
,
0200
0000
0301
1000
,
0001
0010
1000
0010
,
0001
2002
3003
2000
,
3200
0000
0320
0000
,
0032
0000
0000
0003
,
2000
0000
3002
0000
,
0103
0100
0110
0000
,
2000
3200
0301
0100
,
1000
0200
0301
0100
,
2000
3002
0103
0010
,
0110
0000
0001
1000
,
0001
0100
0110
0000
,
0001
0100
0010
0001
,
0010
0100
0001
1000
,
2002
3003
0001
1000
,
0001
0100
0001
0100
,
1000
0100
1000
0100
,
0001
1000
0100
0010
,
0001
1000
0010
0100
,
0002
0000
2003
0000
,
3200
0000
0320
0030
,
0011
0000
0000
1100
0000
0000
0000
0000
,
0101
0000
2002
0000
,
0000
0000
0000
0000
,
0000
0000
3003
0000
;

//--------------- dance-single - Fred-104 ----------------
#NOTEDATA:;
#STEPSTYPE:dance-single;
#DESCRIPTION:Fred-104;
#DIFFICULTY:Medium;
#METER:10;
#CREDIT:Fred-104;
#NOTES:
0000
0000
0000
0000
,
0000
0000
0000
0000
,
0000
0000
0000
0000
,
0000
0000
0000
0000
,
0000
0000
0000
0000
,
0000
0000
0000
0000
,
0001
0100
0001
0010
0001
1000
0001
0000
,
1000
0100
1000
0010
1000
0001
1000
0000
,
0001
0010
0100
1000
0010
0100
0010
0000
,
1000
0001
0100
0001
0010
0100
1000
0001
,
0200
0000
0310
0100
0001
0100
0010
1000
,
0002
0000
0013
0001
1000
0001
0100
0010
,
1000
0001
0010
0010
0010
0100
1000
0000
,
0001
0100
0010
1000
0001
1000
0001
0000
,
0100
0100
0000
0010
1000
0000
1001
0000
,
0001
0001
0000
0010
0100
0000
1100
0000
,
1000
0000
0000
0100
0000
0000
0010
0000
0001
0000
0000
0100
0000
0000
0010
0000
,
0100
0100
0000
0001
0010
0000
0100
0100
,
1000
0000
0000
0100
0000
0000
0001
0000
0100
0000
0000
1000
0000
0000
0001
0000
,
0010
0100
1000
0001
0100
0010
1000
0010
,
0100
0000
0000
0001
0000
0000
0010
0000
0020
0000
0000
0000
0230
0000
0000
0000
,
1300
0000
0001
0000
1000
0000
0001
0000
0000
0100
0000
0000
0010
0000
0000
0000
0000
0000
1001
0000
0000
0000
0000
0000
,
0001
0000
0000
0100
0000
0000
1000
0000
0100
0000
0000
0000
0101
0000
0000
0000
,
1000
0001
0000
0010
0100
0110
0000
1000
,
0001
0000
0000
0001
0000
0000
0010
0000
0100
0000
0000
0100
0000
0000
1000
0000
,
0001
0100
0100
0010
0000
0100
0001
1000
,
0100
0000
0000
0010
0000
0000
0001
0000
0100
0000
0000
0010
0000
0000
1000
0000
,
0001
0010
0100
1000
0000
0001
0010
0100
,
1000
0000
0000
0001
0000
0000
0100
0000
0100
0000
0000
0000
1001
0000
0000
0000
,
0001
0000
0100
0000
0001
0000
1000
0000
0000
0200
0000
0000
0000
0000
0000
0310
0000
0000
0100
0000
0000
1000
0000
0000
,
0001
0000
0000
0010
0000
0000
0100
0000
1000
0000
0000
0010
0000
0000
0100
0000
,
0010
1000
0010
0100
0001
1000
1001
0000
,
2000
0000
0000
0000
0000
0000
3010
0000
0200
0000
0000
0001
0000
0000
0301
0000
,
2000
0100
3000
0100
0010
0001
0100
0010
,
0100
0000
0000
0100
0000
0000
0200
0000
0010
0000
0000
0000
0310
0000
0000
0000
,
2000
0000
3200
0000
0302
0000
0103
1000
,
0010
0000
0000
0100
0000
0000
0001
0000
0010
0000
0000
0100
0000
0000
1000
0000
,
0001
0001
0000
1000
1000
0010
0100
0001
,
1000
0000
0000
0000
0100
0000
0010
0000
0001
0000
0000
1000
0000
0000
0010
0000
,
0110
2002
3003
0002
,
1003
0100
1000
0002
0000
0100
0000
0103
,
0220
0000
0000
0000
0330
0000
0010
0100
,
0010
1000
0001
0020
0000
0130
1000
0001
,
0100
0000
0010
0000
0100
0000
0100
0000
0100
0000
0000
0001
1000
0000
0000
0001
,
0020
0000
0000
0000
0230
0000
0000
0000
1300
0000
0000
1000
0000
0000
1000
0000
,
0002
0000
0203
0000
0310
0100
0001
0100
,
0020
0000
0000
0000
0230
0000
0000
0000
0301
0000
0000
1000
0000
0000
0001
0000
,
1001
0000
0000
1000
0000
0000
0001
0000
0100
0000
0010
0000
1000
0000
0000
0000
,
0110
0000
0001
0010
0100
1000
0000
1000
,
0001
0001
0100
0010
0100
0001
1000
0000
,
0001
0000
0010
0000
0001
0000
1000
0000
0001
0000
0000
0100
0000
0000
0010
0000
,
0110
0000
1001
0000
0001
0010
0100
1000
,
0001
0100
0001
0000
0100
1000
0100
0000
,
0001
0010
0001
0000
0010
1000
0010
0000
,
0001
0010
0001
0010
0100
1000
0100
1000
,
0001
0100
0010
1000
0010
0100
0001
1000
,
0100
0000
0000
0010
0000
0000
0001
0000
1000
0000
0000
0001
0000
0000
0100
0000
,
0010
0000
0000
0100
0000
0000
0001
0000
1000
0000
0000
0100
0000
0000
0010
0000
,
0011
0000
0000
1010
0000
0000
0101
0000
0000
0000
1100
0000
0000
0000
0100
0000
,
0110
0000
2002
0000
,
0000
0000
0000
0000
,
0000
0000
3003
0000
;

//--------------- dance-single - Fred-104 ----------------
#NOTEDATA:;
#STEPSTYPE:dance-single;
#DESCRIPTION:Fred-104;
#DIFFICULTY:Hard;
#METER:15;
#CREDIT:Fred-104;
#NOTES:
0000
0000
0000
0000
,
0000
0000
0000
0000
,
0000
0000
0000
0000
,
0000
0000
0000
0000
,
0000
0000
0000
0000
,
0000
0000
0000
0000
,
1000
0100
0010
0001
1000
0010
0001
0010
,
0100
0001
1000
0100
1000
0010
0001
0010
,
1000
0001
0010
0100
1000
0100
0001
0100
,
0010
0000
0100
0000
1000
0000
0001
1000
0010
0100
0001
0000
0010
0100
0010
0100
,
2000
0000
0000
0000
3001
1000
0100
1000
0001
0000
0100
0010
0100
0000
0001
0000
,
0020
0000
0000
0000
0031
0010
0100
0010
0001
0000
1000
0010
0100
0000
0010
0000
,
1000
0000
0100
0000
0010
0001
0010
0001
0010
0000
0100
1000
0001
0000
0100
0000
,
0010
0000
1000
0001
0010
0000
0100
1000
0001
1000
0010
1000
0001
0000
0000
0000
,
1100
0000
1001
0000
0000
0000
0001
1000
0001
0000
0000
0000
0110
0000
0000
1000
,
0001
0000
0101
0000
0000
0000
0001
0010
0100
0000
0000
0000
1001
0000
0000
1000
,
0100
0000
0100
0020
0000
0000
0031
0100
0020
0000
0000
2030
0000
0000
3001
0010
,
0100
0000
1100
0000
0000
0000
1000
0010
0200
0000
0000
0000
0301
1000
0001
0100
,
0001
0000
0001
0010
0000
0000
0100
1000
0020
0000
0000
0230
0001
0000
0301
1000
,
0100
0010
0100
0010
0001
1000
0001
1000
0010
0100
0001
1000
0100
0010
0001
1000
,
0001
0000
0001
0200
0000
0000
0310
1000
0020
0000
0000
0000
2030
0000
0000
0000
,
3001
0000
0000
0000
0010
0000
0000
0000
0100
0000
0000
0000
1000
0000
0000
0000
0000
0000
0001
0000
0000
1000
0000
0000
0001
0000
0000
0000
0000
0000
0000
0000
0000
0000
0000
0000
1001
0000
0000
0000
0000
0000
1000
0000
0000
0000
0000
0000
,
0200
0000
0000
0302
0000
0000
0203
0000
0310
0000
0000
0000
0011
0000
0000
0001
,
1000
0000
1100
0000
0000
0000
0100
0010
0001
0000
0102
0000
0000
0000
1003
0001
,
0020
0000
0000
0230
0000
0000
0302
0000
0203
0000
0000
2300
0000
0000
3002
0000
,
1003
0000
0010
1000
0100
0010
0001
0000
0000
0000
0011
0000
1001
0000
1000
0100
,
0020
0000
0000
0230
0000
0000
0302
0000
0203
0000
0000
2300
0000
0000
3002
0000
,
0103
0010
1000
0001
0010
0100
1000
0000
0000
0000
1000
0100
0010
0000
0011
0000
,
0001
0000
0000
0010
0000
0000
1000
0010
0001
0000
0000
0000
0110
0000
1000
0000
,
0001
0000
0000
0000
0100
0000
0000
0000
0010
0000
0000
0000
1000
0000
0000
0001
0000
0000
2000
0000
0000
0000
0000
0000
0000
0000
0000
0000
0000
0000
3010
0000
0000
1000
0000
0000
0010
0000
0000
0100
0000
0000
0001
0000
0000
1000
0000
0000
,
0100
0000
0000
0010
0000
0000
0001
0000
0101
0000
0000
0010
0000
0000
1000
0000
,
0001
0010
0100
1000
0100
0010
0001
1000
0010
0000
0100
0000
0001
1000
0001
1000
,
0002
0000
0010
0000
0013
0000
0100
1000
0200
0000
0000
2300
0000
0000
3020
0000
,
0230
0001
0300
0001
0010
0100
1000
0001
,
1000
0000
0001
0100
0000
0010
1000
0000
0001
1000
0001
1000
0001
0000
1000
0100
,
0020
0000
0000
0000
0230
0000
0000
0000
2300
0000
0000
0000
3001
1000
0001
1000
,
0001
0000
0010
0100
0000
0010
0001
0000
1000
0000
0010
0100
0000
0010
1000
0000
,
0001
0000
0200
0300
0000
0000
0200
0300
1000
0000
0010
0100
0001
0000
1000
0000
,
0200
0000
0000
0000
1300
0000
0001
0000
0200
0000
0000
2300
0000
0000
3200
0000
,
0310
0000
0000
0000
2002
0000
0000
0000
3003
0000
0000
0000
1100
0000
0000
0100
,
0010
0000
0001
0000
1000
0000
0020
0000
0000
0000
0100
0000
0000
0000
1030
0001
,
2000
0000
0000
0000
0000
3000
1000
0100
,
0010
0001
0100
0020
0000
0031
0010
0100
,
0010
0000
1000
0000
0001
0010
0100
1000
0001
0000
0000
1000
0001
0000
0000
0001
,
2000
0000
0100
0000
3002
0000
0010
0000
1003
0000
0000
0001
0000
0000
0010
0000
,
0200
0000
1000
0000
0320
0000
0001
0000
0130
0000
1000
0000
0001
0000
0001
0100
,
0020
0000
0100
0000
2030
0000
0100
0000
3010
0000
0000
1000
0000
0000
0001
0000
,
1001
0000
0000
0001
0000
0000
1000
0010
0100
0001
0010
0100
1000
0000
0000
0000
,
0110
0000
0000
0000
0001
0010
0100
1000
0001
0100
0010
0000
0000
0000
1010
0000
,
0101
0000
0001
0000
1000
0000
0100
0000
0010
0100
1000
0000
0010
0000
0100
0001
,
1000
0100
1000
0100
0010
0001
0010
0001
1000
0000
0000
1100
0000
0000
0011
0000
,
1001
0000
0000
0001
0100
0000
0110
0000
1000
0001
0010
0100
1000
0001
0100
0010
,
1000
0100
1000
0100
0010
0000
0010
0001
0100
0000
0001
0000
0001
0000
0001
0000
,
1000
0000
0001
0010
0100
1000
0100
1000
0100
0000
0010
0000
0010
0000
0010
0000
,
0001
0010
0001
0010
0001
0100
0001
0100
0010
1000
0010
1000
0100
1000
0100
1000
,
0010
0100
0001
0100
0010
1000
0100
0010
0001
0000
1000
0100
0010
0000
0010
0000
,
0001
0000
0000
0100
0000
0000
0100
0000
1000
0000
0000
0001
0000
0000
0100
0010
,
0100
0000
0000
0001
0000
0000
1000
0100
0010
0000
0000
0001
0000
0000
1000
0001
,
0100
0000
0000
0110
0000
0000
1010
0000
0000
0000
0011
0000
0000
0000
1000
0001
,
0100
0000
0220
0000
,
0000
0000
0000
0000
,
0000
0000
0330
0000
;

//--------------- dance-double - Fred-104 ----------------
#NOTEDATA:;
#STEPSTYPE:dance-double;
#DESCRIPTION:Fred-104;
#DIFFICULTY:Easy;
#METER:6;
#CREDIT:Fred-104;
#NOTES:
00000000
00000000
00000000
00000000
,
00000000
00000000
00000000
00000000
,
00000000
00000000
00000000
00000000
,
00000000
00000000
00000000
00000000
,
00000000
00000000
00000000
00000000
,
00000000
00000000
00000000
00000000
,
00010000
00001000
00010000
00000010
,
00001000
00000010
00020000
00030000
,
00001000
00100000
00001000
00100000
,
00020000
00030000
10000000
01000000
,
00020000
00030000
01000000
10000000
,
00020000
00030000
10000000
01000000
,
00100000
01000000
10000000
00010000
,
10000000
00100000
00010000
00001000
,
00011000
00000000
00000100
00000010
,
00000110
00000000
00000001
00001000
,
00000200
00000310
00000200
00001300
,
00000001
00000000
00001000
00000000
,
00000010
00010000
00001000
00010000
,
00001000
00100000
00010000
00100000
,
02000000
13000000
00020000
10030000
,
02000000
00000000
03100000
01000000
00100000
00000000
10010000
00000000
,
10000000
01000000
00010000
00001000
,
00010000
00001000
00022000
00033000
,
00010000
00001000
00000100
00000001
,
00001000
00000000
00000000
00000100
00000000
00000000
00000010
00000000
,
00000001
00001000
00000010
00000100
,
00001000
00000000
00000000
00010000
00000000
00000000
00100000
00000000
,
01000000
00010000
10000000
10010000
,
02000000
00000000
03100000
00100000
00000000
00000000
00001000
00000000
,
00010000
01000000
00100000
00001000
,
00010000
00001000
00011000
00000000
,
00020000
00000000
00032000
00023000
,
00030020
00000000
00001030
00000010
,
00000100
00000001
00001001
00000000
,
00000002
00000203
00002300
00023000
,
00031000
00010000
01000000
10000000
,
02000000
00000000
03100000
00010000
,
00100000
00001000
00010000
00001000
,
00010000
00022000
00033000
00020000
,
00030200
00000000
00002300
00000000
,
00003002
00000000
00000000
00000003
,
00000200
00000000
00002300
00000000
,
00013000
00001000
00011000
00000000
,
00002000
00023000
01030000
00010000
,
00002000
00023000
00031000
00010000
,
00002000
00023000
01030000
10000000
,
10010000
00000000
10000000
01000000
,
00100000
00001000
00011000
00000000
,
00010000
00001000
00000100
00000010
,
00001000
00000001
00000100
00000010
,
00002002
00000000
00003003
00000000
,
00000001
00000010
00000001
00000010
,
00001000
00010000
00001000
00010000
,
00100000
10000000
00100000
10000000
,
00010000
10000000
01000000
00010000
,
00002000
00000000
00003200
00000000
,
00000302
00000000
00002003
00003000
,
00001100
00000000
00000000
00011000
00000000
00000000
00000000
00000000
,
01010000
00000000
20020000
00000000
,
00000000
00000000
00000000
00000000
,
00000000
00000000
30030000
00000000
;

//--------------- dance-double - Fred-104 ----------------
#NOTEDATA:;
#STEPSTYPE:dance-double;
#DESCRIPTION:Fred-104;
#DIFFICULTY:Medium;
#METER:10;
#CREDIT:Fred-104;
#NOTES:
00000000
00000000
00000000
00000000
,
00000000
00000000
00000000
00000000
,
00000000
00000000
00000000
00000000
,
00000000
00000000
00000000
00000000
,
00000000
00000000
00000000
00000000
,
00000000
00000000
00000000
00000000
,
00010000
00001000
00000010
00000001
00000010
00000100
00001000
00000000
,
00000001
00000100
00001000
00010000
00001000
00010000
00100000
00000000
,
01000000
00010000
10000000
01000000
00100000
00001000
00010000
00000000
,
00001000
00010000
00100000
01000000
00001000
00010000
00100000
10000000
,
00020000
00000000
10030000
01000000
00010000
00001000
00000100
00000001
,
00000020
00000000
00000031
00000100
00000010
00001000
00000001
00000010
,
00000100
00010000
00001000
00000100
00000001
00000100
00000010
00000000
,
00001000
00000001
00000010
00000100
00010000
00001000
00001000
00000000
,
00010000
00010000
00000000
00001000
00001000
00000000
01100000
00000000
,
10000000
10000000
00000000
01000000
00100000
00000000
00011000
00000000
,
00010000
00000000
00000000
00001000
00000000
00000000
00000100
00000000
00000010
00000000
00000000
00000100
00000000
00000000
00001000
00000000
,
00010000
00010000
00000000
00001000
00010000
00000000
01000000
01000000
,
10000000
00000000
00000000
01000000
00000000
00000000
00100000
00000000
00001000
00000000
00000000
00000010
00000000
00000000
00000100
00000000
,
00001000
00000001
00000100
00000010
00000100
00000000
00001000
00010000
,
00001000
00000000
00000000
00010000
00000000
00000000
00100000
00000000
02000000
00000000
00000000
00000000
03010000
00000000
10000000
00000000
,
01000000
00000000
00100000
00000000
00010000
00000000
00100000
00000000
00000000
00001000
00000000
00000000
00010000
00000000
00000000
00000000
00000000
00000000
00011000
00000000
00000000
00000000
00000000
00000000
,
00010000
00000000
00000000
00001000
00000000
00000000
00000010
00000000
00000001
00000000
00000000
00000000
00001001
00000000
00000000
00000000
,
00000001
00000100
00000000
00001000
00010000
00011000
00000000
01000000
,
00100000
00000000
00000000
10000000
00000000
00000000
00010000
00000000
00100000
00000000
00000000
00001000
00000000
00000000
00010000
00000000
,
00001000
00000010
00000100
00001100
00000000
00000100
00000010
00000001
,
00001000
00000000
00000000
00000010
00000000
00000000
00010000
00000000
00001000
00000000
00000000
00100000
00000000
00000000
00010000
00000000
,
00100000
01000000
10000000
01000000
00000000
00100000
00001000
00010000
,
00001000
00000000
00000000
00000010
00000000
00000000
00000001
00000000
00001000
00000000
00000000
00000000
00000110
00000000
00000000
00000000
,
00000001
00000000
00000100
00000000
00000010
00000000
00001000
00000000
00000000
00002000
00000000
00000000
00000000
00000000
00000000
00003100
00000000
00000000
00010000
00000000
00000000
00001000
00000000
00000000
,
00010000
00000000
00000000
00001000
00000000
00000000
00010000
00000000
01000000
00000000
00000000
00100000
00000000
00000000
00010000
00000000
,
10000000
01000000
00010000
00001000
00000100
00000001
00001000
00000100
,
00000220
00000000
00000000
00000000
00000330
00000000
00000001
00000000
00000100
00000000
00000000
00001000
00000000
00000000
00010000
00000000
,
00002000
00010000
00003000
00010000
00001000
00010000
01000000
00100000
,
02000000
00000000
00000000
10000000
00000000
00000000
13000000
00000000
00010000
00000000
00000000
00000000
10010000
00000000
00000000
00000000
,
20000000
00000000
30200000
00000000
00320000
00000000
00031000
00010000
,
00001000
00000000
00000000
00000100
00000000
00000000
00000010
00000000
00001000
00000000
00000000
00000100
00000000
00000000
00000010
00000000
,
00000001
00000001
00000000
00001000
00001000
00000001
00000010
00000100
,
00001000
00000000
00000010
00000000
00000100
00000000
00001000
00000000
00010000
00000000
00000000
00010000
00000000
00000000
00010000
00000000
,
00011000
02200000
03300000
10010000
,
10000000
01000000
00100000
02000000
00000000
03100000
00001000
00010000
,
00022000
00000000
00000000
00000000
00033000
00000000
00010000
00001000
,
00010000
00000100
00000010
00000002
00000000
00001003
00000010
00000100
,
00000001
00000000
00001000
00000000
00000100
00000000
00010000
00000000
00010000
00000000
00000000
00001000
01000000
00000000
00000000
00001000
,
00010000
00000000
00001000
00000000
00000010
00000000
00001000
00000000
00010000
00000000
00000000
00001000
00000000
00000000
00100000
00000000
,
00010000
01000000
10000000
01000000
00010000
00100000
00000000
00001000
,
00010000
00000000
00001000
00000000
00000100
00000000
00001000
00000000
00010000
00000000
00000000
00000010
00000000
00000000
00001000
00000000
,
00001001
00000000
00000000
00000001
00000000
00000000
00000010
00000000
00001000
00000000
00010000
00000000
00001000
00000000
00000000
00000000
,
00011000
00000000
00001000
00010000
01000000
00100000
00000000
00010000
,
00100000
01000000
10000000
00100000
00010000
00001000
00010000
00000000
,
00100000
00000000
01000000
00000000
00010000
00000000
10000000
00000000
01000000
00000000
00000000
00100000
00000000
00000000
00001000
00000000
,
00011000
00000000
00000110
00000000
00001000
00000100
00000010
00000000
,
00000001
00000100
00001000
00000000
00010000
01000000
10000000
00000000
,
10000000
00100000
00010000
00000000
00001000
00000010
00000001
00000000
,
00000001
00001000
00000010
00000100
00001000
00010000
00100000
01000000
,
00010000
10000000
01000000
00010000
00001000
00000100
00000001
00001000
,
00000100
00000000
00000000
00000010
00000000
00000000
00000001
00000000
00001000
00000000
00000000
00000001
00000000
00000000
00000100
00000000
,
00001000
00000000
00000000
00010000
00000000
00000000
01000000
00000000
00100000
00000000
00000000
00001000
00000000
00000000
00010000
00000000
,
00011000
00000000
00000000
01001000
00000000
00000000
00011000
00000000
00000000
00000000
00010100
00000000
00000000
00000000
00000100
00000000
,
00000110
00000000
00022000
00000000
,
00000000
00000000
00000000
00000000
,
00000000
00000000
00033000
00000000
;

//--------------- dance-double - Fred-104 ----------------
#NOTEDATA:;
#STEPSTYPE:dance-double;
#DESCRIPTION:Fred-104;
#DIFFICULTY:Hard;
#METER:15;
#CREDIT:Fred-104;
#NOTES:
00000000
00000000
00000000
00000000
,
00000000
00000000
00000000
00000000
,
00000000
00000000
00000000
00000000
,
00000000
00000000
00000000
00000000
,
00000000
00000000
00000000
00000000
,
00000000
00000000
00000000
00000000
,
00001000
00010000
01000000
00100000
00010000
00100000
01000000
10000000
,
00010000
00100000
10000000
00100000
00010000
01000000
00001000
00010000
,
00001000
00000100
00000010
00001000
00000001
00000010
00001000
00010000
,
00001000
00000000
00100000
00000000
01000000
00000000
10000000
00010000
10000000
00100000
01000000
00000000
00100000
10000000
01000000
00100000
,
00020000
00000000
00000000
00000000
00130000
00001000
00010000
00001000
00010000
00000000
00000010
00001000
00000010
00000000
00000100
00000000
,
00000002
00000000
00000000
00000000
00001003
00000100
00000010
00000001
00001000
00000000
00000010
00001000
00000100
00000000
00001000
00000000
,
00000010
00000000
00000100
00000000
00001000
00010000
00001000
00010000
00001000
00000000
00010000
00100000
01000000
00000000
00010000
00000000
,
10000000
00000000
01000000
00100000
00010000
00000000
00100000
00001000
00010000
00000010
00001000
00000010
00010000
00000000
00000000
00000000
,
00001000
00000000
00011000
00000000
00000000
00000000
00000010
00000100
00000010
00000000
00000000
00000000
00001001
00000000
00000000
00001000
,
00000100
00000000
00000110
00000000
00000000
00000000
00000010
00000001
00000010
00000000
00000000
00000000
00001001
00000000
00000000
00000001
,
00000100
00000000
00001000
00020000
00000000
00000000
00130000
01000000
00200000
00000000
00000000
20300000
00000000
00000000
30010000
10000000
,
01000000
00000000
01100000
00000000
00000000
00000000
00100000
00001000
00020000
00000000
00000000
00000000
00031000
00010000
00001000
00010000
,
00001000
00000000
00001000
00010000
00000000
00000000
00000010
00010000
00001000
00000000
00000000
00020000
00001000
00000000
00031000
00100000
,
00010000
10000000
00010000
10000000
01000000
00100000
00010000
00100000
00001000
00010000
00000100
00001000
00000001
00000100
00000010
00000000
,
00001000
00000000
00001000
00000020
00000000
00000000
00000130
00000001
00000100
00000000
00000000
00000000
00001001
00000000
00000000
00000000
,
00000001
00000000
00000100
00000000
00001000
00000000
00010000
00000000
00000000
00001000
00000000
00000000
00010000
00000000
00000000
00000000
00000000
00000000
00011000
00000000
00000000
00001000
00000000
00000000
,
02000000
00000000
00000000
03020000
00000000
00000000
20030000
00000000
31000000
00000000
00000000
00000000
01100000
00000000
00000000
00010000
,
10000000
00000000
11000000
00000000
00000000
00000000
00100000
00010000
00100000
00000000
00102000
00000000
00000000
00000000
00013000
00001000
,
00020000
00000000
00000000
00032000
00000000
00000000
00003200
00000000
00000302
00000000
00000000
00000203
00000000
00000000
00000320
00000000
,
00001030
00000000
00000001
00000010
00000100
00001000
00000010
00000000
00000000
00000000
00011000
00000000
00001000
00000000
00100000
00010000
,
00200000
00000000
00000000
02300000
00000000
00000000
23000000
00000000
30020000
00000000
00000000
20030000
00000000
00000000
30200000
00000000
,
01300000
00100000
10000000
01000000
00100000
00010000
00100000
00000000
00000000
00000000
00001000
00010000
00001000
00000000
00010000
00000000
,
00011000
00000000
00000000
00010000
00000000
00000000
00000010
00001000
00000001
00000000
00000000
00000000
00001000
00000000
00000100
00000000
,
00000010
00000000
00000000
00000000
00000001
00000000
00000000
00000000
00000010
00000000
00000000
00000000
00000001
00000000
00000000
00001000
00000000
00000000
00000020
00000000
00000000
00000000
00000000
00000000
00000000
00000000
00000000
00000000
00000000
00000000
00000130
00000000
00000000
00000001
00000000
00000000
00001000
00000000
00000000
00000100
00000000
00000000
00010000
00000000
00000000
00001000
00000000
00000000
,
00010000
00000000
00000000
01000000
00000000
00000000
10000000
00000000
01000000
00000000
00000000
00100000
00000000
00000000
00001000
00000000
,
00010000
00001000
00100000
00001000
00010000
00000010
00001000
00000010
00010000
00000000
00010000
00000000
00001000
00010000
00001000
00010000
,
00002000
00000000
00100000
00000000
00103000
00000000
00010000
01000000
00010000
00000000
00000000
00100000
00000000
00000000
00001000
00000000
,
00020000
00000100
00030000
00000100
00001000
00000010
00000100
00001000
,
00010000
00000000
00001000
00010000
00000000
00100000
01000000
00000000
00001000
00010000
00000000
00001000
00100000
00000000
00001000
00000000
,
00020000
00000000
00000000
00000000
00030020
00000000
00000000
00000000
00020030
00000000
00000000
00000000
00031000
00010000
00001000
01000000
,
00001000
00000000
00100000
00010000
00000000
01000000
00010000
00000000
00100000
00000000
00001000
00010000
00000000
00000010
00010000
00000000
,
00001000
00000000
00020000
00030000
00000000
00000000
00020000
00030000
10000000
00000000
01000000
00000000
00100000
00000000
00001000
00000000
,
00020000
00000000
00000000
00000000
00031000
00000000
00000100
00000000
00000020
00000000
00000000
00002030
00000000
00000000
00003002
00000000
,
00000013
00000000
00000000
00000000
00002002
00000000
00000000
00000000
00003003
00000000
00000000
00000000
00011000
00000000
00000000
00001000
,
01000000
00000000
00010000
00000000
10000000
00000000
02000000
00000000
00000000
00000000
03100000
00000000
00001000
00000000
00010000
00001000
,
00020000
00000000
00000000
00000000
00000000
00000000
00031000
00010000
,
00100000
10000000
00010000
00100000
00000000
01000000
00100000
00001000
,
00010000
00000000
00001000
00000000
00000010
00000100
00000010
00000100
00000010
00000000
00000001
00001000
00000001
00000000
00000000
00000000
,
00002000
00000000
00000100
00000000
00003002
00000000
00000010
00000000
00001003
00000000
00000000
00000010
00000000
00000000
00010000
00000000
,
00002000
00000000
00100000
00000000
00023000
00000000
00001000
00000000
00030010
00000000
00010000
00000000
00001000
00000000
00100000
00010000
,
20000000
00000000
01000000
00000000
30020000
00000000
00100000
00000000
10030000
00000000
00000000
01000000
00000000
00000000
00010000
00000000
,
00011000
00000000
00000000
00001000
00000000
00000000
00010000
00000100
00001000
00000100
00000010
00000001
00001000
00000000
00000000
00000000
,
00000110
00000000
00000000
00000000
00000001
00000100
00000001
00001000
00000100
00010000
00001000
00000000
00000000
00000000
00001000
00000000
,
01001000
00000000
01000000
00000000
00010000
00000000
10000000
00000000
01000000
00100000
00010000
00000000
00100000
00000000
00001000
00010000
,
00000010
00001000
00000010
00001000
00000001
00000010
00000001
00000010
00000100
00000000
00000000
00001100
00000000
00000000
00011000
00000000
,
01001000
00000000
00000000
01000000
00100000
00000000
10000000
00000000
01000000
00100000
00010000
00100000
00001000
00010000
00001000
00000000
,
00010000
00000010
00001000
00000010
00001000
00000000
00000001
00000010
00000100
00000000
00010000
00000000
00010000
00000000
00010000
00000000
,
00001000
00000000
00100000
00010000
10000000
00010000
01000000
00100000
10000000
00000000
00010000
00000000
00010000
00000000
00010000
00000000
,
10000000
01000000
10000000
00100000
01000000
00010000
00100000
00001000
00010000
00000100
00001000
00000010
00000100
00000001
00000010
00000100
,
00001000
00000001
00001000
00000010
00010000
00001000
01000000
00010000
10000000
00000000
00010000
00100000
00001000
00000000
00010000
00000000
,
00011000
00000000
00000000
00001000
00000000
00000000
00000100
00000000
00000001
00000000
00000000
00000010
00000000
00000000
00000100
00001000
,
00000010
00000000
00000000
00010000
00000000
00000000
00001000
00100000
00010000
00000000
00000000
10000000
00000000
00000000
00100000
01000000
,
00010000
00000000
00000000
11000000
00000000
00000000
00110000
00000000
00000000
00000000
00011000
00000000
00000000
00000000
00010000
00000010
,
00001000
00000000
00002002
00000000
,
00000000
00000000
00000000
00000000
,
00000000
00000000
00003003
00000000
;
