#TITLE:Confiserie;
#ARTIST:L.E.D. vs S-C-U;
#GENRE:HARD ELECTRIC POP;
#BANNER:Confiserie.png;
#BACKGROUND:Confiserie-bg.png;
#CDTITLE:./CDTitles/Cafe de Tran.png;
#MUSIC:Confiserie.ogg;
#SAMPLESTART:54.319;
#SAMPLELENGTH:15;
#BPMS:0=185;
#BGSTAGE:16;

//--------------- dance-single - Fred-104 ----------------
#NOTES:
     dance-single:
     Fred-104:
     Beginner:
     5:
     :
0000
0000
0000
0000
,
0000
0000
0000
0000
,
0000
0000
0000
0000
,
0000
0000
0000
0000
,
0000
0000
0000
0000
,
0000
0000
0000
0000
,
1000
0000
1000
0000
,
0001
0000
0001
0000
,
1000
0000
1000
0000
,
1001
0000
0000
0000
,
0001
0000
0001
0000
,
0010
0000
1000
0000
,
0100
0000
0010
0000
,
0100
0000
0000
0000
,
0001
0000
0001
0000
,
1000
0000
1000
0000
,
0001
0000
0000
0001
0000
0000
2000
0000
,
0000
0000
3000
0000
,
1000
0000
0010
0000
,
0001
0000
0100
0000
,
0010
0000
0100
0000
,
1000
0000
0000
0000
,
0001
0000
0001
0000
,
1000
0000
1000
0000
,
0001
0000
0000
1000
0000
0000
2002
0000
,
0000
0000
3003
0000
,
2000
0000
3000
0000
,
0002
0000
0003
0000
,
2000
0000
3000
0000
,
0001
0000
1000
0000
,
0020
0000
0030
0000
,
0200
0000
0300
0000
,
0001
0000
0001
0000
,
2000
0000
3000
0000
,
0002
0000
0003
0000
,
2000
0000
3000
0000
,
0200
0000
0300
0000
,
0010
0000
0010
0000
,
0001
0000
0001
0000
,
1000
0000
1000
0000
,
1001
0000
0000
0000
,
0000
0000
0000
0000
,
0001
0001
0010
0000
,
0100
0000
0100
0000
,
1000
0001
1000
0000
,
1001
0000
0000
0000
,
1001
0000
0001
0000
,
1000
0000
1000
0000
,
0001
0000
0001
0000
,
1001
0000
0000
0000
,
1000
1000
0010
0000
,
0100
0000
0010
0000
,
1000
0001
1000
0000
,
1001
0000
0001
0000
,
1001
0000
0000
0000
,
1001
0000
0000
0000
,
1000
0000
1000
0000
,
0001
0000
0001
0000
,
2000
0000
0000
3000
,
0002
0000
0000
0003
,
1001
0000
0000
0000
,
0000
0000
0000
0000
,
0000
0000
0000
0000
,
0000
0000
0000
0000
,
1000
0000
1000
0000
,
0001
0000
0001
0000
,
2000
0000
0000
3000
,
0000
0000
0000
0000
,
0002
0000
0000
0003
,
0000
0000
0000
0000
,
1000
1000
0010
0000
,
1000
0000
0001
0000
,
0010
0100
0010
0000
,
1001
0000
0000
0000
,
1001
0000
0001
0000
,
1000
0000
1000
0000
,
0001
0000
0001
0000
,
0100
0000
0100
0000
,
0020
0000
0000
0030
,
0100
0100
0100
0100
,
0110
0000
0100
0000
0000
0100
0000
0000
,
1001
0000
0000
1001
0000
0000
0000
0000
;

//--------------- dance-single - Fred-104 ----------------
#NOTES:
     dance-single:
     Fred-104:
     Easy:
     9:
     :
0000
0000
0000
0000
,
0000
0000
0000
0000
,
0000
0000
0000
0000
,
0000
0000
0000
0000
,
0000
0000
0000
0000
,
0000
0000
0000
0000
,
1001
0000
0110
0000
,
0001
0000
1000
0000
0100
0100
0100
0000
,
0110
0011
1100
1001
,
0001
0000
0000
0001
0000
0000
0001
0000
1000
0000
0000
0000
0000
0000
0000
0000
,
0001
0010
0100
0100
,
1000
0010
1000
0000
,
0100
0100
0010
0001
,
0100
0010
0100
0000
,
0010
1000
1000
0100
,
0010
0010
0001
1000
,
0001
0000
0000
1000
0000
0000
2002
0000
,
0000
0000
3003
0000
,
1000
0000
0100
0000
0010
0010
0001
0000
,
1000
0000
0010
0000
0100
0100
0100
0000
,
0010
0000
1000
0000
0100
0100
1000
0000
,
0001
0000
0010
0000
0100
0100
0100
0000
,
1000
0000
0001
0000
1000
1000
0100
0000
,
0010
0000
0001
0000
1000
1000
0001
0000
,
0100
0000
0000
0010
0000
0000
2002
0000
,
0000
0000
3003
0000
,
0001
0000
0000
0001
0000
0000
0010
0000
,
0100
0000
0000
0100
0000
0000
1000
0000
,
0001
0000
0000
0100
0000
0000
0010
0000
,
0200
0000
0301
1000
,
0100
0000
0000
0010
0000
0000
0001
0000
,
0100
0000
0000
0010
0000
0000
1000
0000
,
0001
0000
0000
1000
0000
0000
0001
0000
,
0100
0010
1001
0000
,
1000
0000
0000
0100
0000
0000
0001
0000
,
0001
0000
0000
0100
0000
0000
0010
0000
,
0100
0000
0000
1000
0000
0000
0001
0000
,
0200
0000
0000
0000
0310
0100
0010
0000
,
1000
1000
0100
0100
,
0010
0010
0001
0001
,
1000
0000
1000
0000
1000
0000
0001
0000
0001
0000
0001
0000
,
0000
0000
0000
0000
,
1000
0010
0001
0010
,
0001
0010
2000
3000
,
0001
0010
1000
0010
,
0002
0000
0000
0000
1003
0001
1000
0000
,
1001
0000
0110
0000
,
0001
0000
0000
0001
0000
0000
1000
0000
0010
0000
0000
0000
0000
0000
0000
0000
,
0100
0100
0001
0001
,
1000
0000
0000
1000
0000
0000
1000
0000
1001
0000
0000
0000
0000
0000
0000
0000
,
0001
0010
1000
0010
,
1000
0010
0002
0003
,
1000
0010
0001
0010
,
2000
0000
3001
0000
0010
0100
0010
0000
,
1001
0000
0000
0000
0110
0000
0001
1000
,
0001
0000
0000
0001
0000
0000
0100
0000
0010
0000
0000
0000
1001
0000
0000
0000
,
1000
0000
0000
1000
0000
0000
1000
0000
0001
0000
0000
0001
0000
0000
0001
0000
,
0010
0100
0010
0000
0100
1000
0100
0000
,
1000
0001
1000
0001
1000
0001
1000
0001
,
2000
0000
0000
3000
,
1001
0000
0000
0000
,
0000
0000
0000
0000
,
0000
0000
0000
0000
,
0000
0000
0000
0000
,
1001
1000
0100
0010
,
1001
0001
0100
0010
,
1000
0000
1000
0000
1000
0000
0001
0000
0001
0000
0001
0000
,
0000
0000
0000
0000
,
0010
0000
0010
0000
0010
0000
0100
0000
0100
0000
0110
0000
,
0000
0000
2002
3003
,
1000
0100
0001
0100
,
0001
0100
2000
3000
,
0001
0100
1000
0100
,
0002
0000
1003
0100
,
0110
0000
0001
1000
,
0010
0000
0000
0100
0000
0000
0100
0000
0110
0000
0000
0000
1000
0000
0000
0000
,
0001
0000
0000
0001
0000
0000
0001
0000
1000
0000
0000
1000
0000
0000
1000
0000
,
0010
0100
0010
0000
0100
0001
0100
0000
,
0002
0000
0000
0003
,
1000
0001
1000
0001
1000
0001
1000
0001
,
1000
0000
1001
0000
0000
0110
0000
0000
,
1001
0000
0000
1001
0000
0000
0000
0000
;

//--------------- dance-single - Fred-104 ----------------
#NOTES:
     dance-single:
     Fred-104:
     Medium:
     14:
     :
0000
0000
0000
0000
,
0000
0000
0000
0000
,
0000
0000
0000
0000
,
0000
0000
0000
0000
,
0000
0000
0000
0000
,
0000
0000
0000
0000
,
0001
0100
0001
1000
0100
0010
0001
2000
,
3001
0000
0001
0000
1000
0000
1000
0000
0010
0100
0010
0100
0010
0000
2000
0000
,
3001
0000
0010
0000
0001
0000
0010
0000
0100
0000
1000
0000
0100
0000
1000
0001
,
1000
0000
0000
0001
0000
0000
1000
0000
1001
0000
0000
0000
0000
0000
0000
0000
,
0001
0010
0100
1000
0001
0100
0010
0100
,
0000
0100
1000
0100
0000
0101
0000
1001
,
0001
0000
1000
0001
1000
0000
0010
0000
0001
0000
0010
0000
0100
0000
0010
0000
,
1000
0100
0010
1000
0000
1000
0001
0100
,
0000
0100
1000
0001
0010
0100
0000
0110
,
0000
0010
0001
1000
0010
0100
0010
1000
,
0100
0010
0000
0011
0000
0001
2002
0000
,
0000
0000
3003
0000
,
0001
0000
1000
0010
1000
0000
0001
0000
1000
0000
0010
0000
0100
0000
0001
0000
,
0000
1000
0001
0010
0000
0110
0000
0110
,
0100
0000
1000
0001
1000
0000
0010
0000
0100
0000
0001
0000
1000
0000
0100
0000
,
0010
0100
0001
1000
0000
0010
0001
1000
,
0000
0001
0010
1000
0001
0100
1000
0001
,
0000
0001
1000
0100
0001
1000
0010
0001
,
0100
0010
0000
0110
0000
0100
2002
0000
,
0000
0000
3003
0000
,
0001
0000
0000
0010
0000
0000
0100
0000
1000
0000
0001
0000
0100
0000
0010
0000
,
1000
0000
0000
0100
0000
0000
0001
0000
0000
0100
0000
0000
1000
0000
0001
0000
,
0100
0000
0000
0010
0000
0000
1000
0000
0001
0000
1000
0000
0100
0000
0002
0000
,
0000
0103
0001
0100
0010
0100
1000
0001
,
1000
0000
0000
0010
0000
0000
0100
0000
0010
0000
0100
0000
0001
0000
1000
0000
,
0100
0000
0000
0010
0000
0000
1000
0000
0010
0000
0100
0000
0010
0000
0001
0000
,
1000
0000
0000
0001
0000
0000
0100
0000
1000
0000
0001
0000
0010
0000
1000
0000
,
0000
0000
1000
0000
0100
0000
0010
0100
0010
0000
0001
1000
0001
0000
0100
0000
,
0010
0000
1000
0001
0000
0001
1000
0000
0100
0000
0010
0000
0001
0000
1000
0000
,
0001
0000
0100
0001
0000
0001
0100
0000
0001
0100
0000
0100
0001
0000
1000
0000
,
0100
0000
0010
0001
0000
0001
1000
0000
0010
0000
0100
0000
0001
0000
0020
0000
,
0000
0000
1030
0000
0010
0000
0001
1000
0001
0000
0100
0010
0100
0000
0001
0000
,
1000
0000
0100
0000
1000
0000
0100
0000
0010
0000
0001
0000
0010
0001
0010
0000
,
0001
0100
0001
0100
0010
1000
1001
0000
,
1000
0000
0100
0000
0010
0000
0001
0000
0100
0000
0110
0000
,
0000
0000
0000
0000
,
1000
0000
0100
0010
0000
0100
0010
0000
0001
0000
1000
0010
0000
1000
0010
0000
,
1000
0000
0001
0010
0000
0001
0010
0000
0100
0000
1000
0000
0001
0000
0000
0000
,
0100
0010
0001
0010
0100
0010
0001
0010
,
2000
0000
0000
0000
3001
0010
0100
1000
,
0001
0000
0100
0001
0000
0100
0001
0000
1000
0000
0001
0000
0010
0000
0100
0000
,
0010
0000
0000
0011
0000
0000
1010
0000
0101
0000
0000
0000
1100
0000
0000
0000
,
1000
0001
0010
0100
1000
0010
0100
0001
,
0100
0000
0100
0010
0000
0000
0110
0000
2002
0000
0000
0000
3003
0000
0000
0000
,
0001
0000
1000
0100
0000
1000
0100
0000
0010
0000
0001
1000
0000
0001
1000
0000
,
0010
0000
0100
0001
0000
0100
0001
0000
1000
0000
0001
0000
0010
0000
0000
0000
,
0100
0001
0100
0010
0100
0001
0100
1000
,
0002
0000
0103
0100
0010
0010
1000
1000
,
1001
0000
0000
0000
0000
0000
0000
0000
0110
0000
0000
0000
0001
0000
1000
0100
,
1000
0000
0000
0001
0000
0000
0100
0000
0110
0000
0000
0000
1000
0000
1000
0000
,
0001
0000
0000
0010
0000
0000
1000
0000
1000
0000
0000
0010
0000
0000
0001
0000
,
0010
0100
1000
0001
0100
0010
1000
0001
,
1000
0010
0001
0010
1000
0100
0010
0001
,
0200
0000
0000
0300
,
1001
0000
0000
0000
,
0000
0000
0000
0000
,
0000
0000
0000
0000
,
0000
0000
0000
0000
,
1001
0001
0010
0100
1000
0001
0100
0010
,
1010
1000
0001
0010
0001
1000
0010
0100
,
0001
0000
1000
0000
0100
0000
0010
0000
0001
0000
1001
0000
,
0000
0000
0000
0000
,
1000
0000
0001
0000
0100
0000
0010
0000
1000
0000
1001
0000
,
0000
0000
0000
0000
1000
0001
1001
0000
,
0001
0000
1000
0010
0000
1000
0010
0000
0100
0000
0001
1000
0000
0001
1000
0000
,
0100
0000
0010
0001
0000
0010
0001
0000
1000
0000
0001
0000
0100
0000
0000
0000
,
1000
0100
0010
0100
1000
0100
0010
0100
,
0002
0000
0000
0000
1003
0100
0001
0100
,
1000
0000
0001
0100
0000
0001
0100
0000
0001
0000
1000
0000
0100
0000
0010
0000
,
0011
0000
0000
0001
0000
0000
0100
0000
0110
0000
0000
0000
0001
0000
1000
0000
,
0001
0000
0000
0100
0000
0000
1000
0000
1000
0000
0000
0100
0000
0000
0001
0000
,
1000
0000
0100
0000
0010
0000
0001
0000
1000
0000
0010
0100
0000
0010
1000
0000
,
0001
0001
0010
0010
0100
0100
1000
1000
,
0001
1000
0001
1000
0001
1000
0001
1000
0001
0000
0200
0000
0310
0000
0200
0000
,
0301
0000
1001
0000
2000
3100
0000
0002
,
0103
1000
0001
1001
0000
0000
0000
0000
;

//--------------- dance-single - Fred-104 ----------------
#NOTES:
     dance-single:
     Fred-104:
     Hard:
     18:
     :
0000
0000
0000
0000
,
0000
0000
0000
0000
,
0000
0000
0000
0000
,
0000
0000
0000
0000
,
0000
0000
0000
0000
,
0000
0000
0000
0000
,
1001
0000
0000
0000
0000
0000
0000
0000
0000
0000
0000
0000
0110
0000
0000
0000
0000
0000
0000
0000
0000
0001
1000
0001
,
1000
0000
0000
0000
0000
0000
1000
0000
0000
0000
0000
0000
0100
0000
0000
0000
0000
0000
0100
0000
0000
0000
0000
0000
0010
0000
0000
0001
0000
0000
1000
0000
0000
0001
0000
0000
0100
0000
0000
0000
0000
0000
0010
0000
1000
0000
0010
0000
,
1000
0000
0000
1000
0000
0000
1001
0000
0000
0001
0000
0000
0011
0000
0000
0010
0000
0000
0110
0000
0000
0100
1000
0100
,
1000
0000
0000
0000
0000
0000
0000
0000
0000
1010
0000
0000
0000
0000
0000
0000
0000
0000
0101
0000
0000
0000
0000
0000
1001
0000
0000
0000
0000
0000
0000
0000
0000
0000
0000
0000
0000
0000
0000
0000
0000
0000
0001
0000
0100
0000
0001
0000
,
0100
0000
0010
1000
0001
0000
0010
0000
0100
0000
0001
0000
1000
0000
0010
0000
,
0000
0010
0001
0100
0000
0110
0000
0110
,
0010
0000
1000
0001
0100
0000
0010
0000
0001
0000
0010
0000
0100
0000
1000
0000
,
0001
0000
0010
1000
0100
0000
0010
0000
0000
0000
0010
0000
0001
0000
1000
0000
,
0000
1000
0001
0100
1000
0001
0000
1001
,
0000
0000
0000
0001
0000
0000
1000
0000
0000
0100
0000
0000
0001
0000
0000
0010
0100
0010
0100
0000
0000
1000
0000
0000
,
0020
0000
0002
0003
0000
0000
0200
0300
0000
0000
2030
3000
2002
0000
0000
0000
,
0000
0000
0000
0000
0000
0000
0000
0000
0000
0000
0000
0000
3003
0000
0000
0000
0000
0000
0000
0000
0000
1000
0100
1000
,
0100
0000
0010
0001
1000
0000
0010
0000
0100
0000
0001
1000
0200
0000
0010
0000
,
0000
0000
1300
0000
0001
0000
0100
0010
1000
0001
0010
0000
0100
0010
0001
0000
,
1000
0000
0001
0100
0010
0000
1000
0000
0001
0100
0001
0000
1000
0010
1000
0000
,
0001
1000
0100
1000
0001
0000
1000
0001
0010
0001
1000
0000
0001
0100
0010
1000
,
0001
0000
0010
0000
1000
0000
0001
0000
0100
0010
0001
0000
1000
0020
0100
0000
,
0000
0000
1030
0000
0001
0000
1000
0001
0100
0010
0100
0001
1000
0000
0001
0000
,
0020
0000
2000
3000
0000
0000
0200
0300
0000
0000
0032
0003
2002
0000
0000
0000
,
0000
0000
0000
0000
0000
0000
3003
0000
1000
0100
0010
0001
1000
0000
0001
0000
,
2000
0000
0000
3002
0000
0000
0023
0000
0130
0010
0001
1000
0010
0100
0010
1000
,
0200
0000
0000
0302
0000
0000
0203
0000
0310
0001
0000
0010
0100
0000
1000
0000
,
0020
0000
0000
0230
0000
0000
2300
0000
3100
0000
0002
0000
0023
0000
0100
0000
,
0000
0000
0031
0000
1000
0000
0010
0100
0001
1000
0100
1000
0010
0100
0001
1000
,
0200
0000
0000
0320
0000
0000
0032
0000
1003
0001
0010
0001
1000
0100
1000
0010
,
0200
0000
0000
2300
0000
0000
3200
0000
0301
1000
0001
0010
0100
1000
0010
0100
,
0002
0000
0000
2003
0000
0000
3200
0000
0320
0000
2030
0000
3020
0000
0032
0000
,
0013
0000
0100
1000
0010
0000
0100
0001
0010
0100
1000
0001
0100
0010
1000
0001
,
0010
0000
0100
1000
0000
1000
0001
0000
0100
0001
1000
0001
0010
0100
1000
0001
,
0100
0000
0010
1000
0000
1000
0001
0000
0010
0100
0000
0100
1000
0000
0001
1000
,
0010
0000
0100
1000
0000
1000
0100
0000
0010
0001
0010
0000
0200
0000
0001
0000
,
0000
0000
0310
0000
1000
0000
0001
0010
0001
0100
0010
1000
0100
1000
0001
0100
,
0010
0000
0010
0000
1000
0000
1000
0000
0001
0000
0001
0000
0010
0100
1000
0001
,
0100
0100
0010
0010
1000
1000
1001
0001
,
0011
0000
1010
0000
0101
0000
1100
0000
0110
0000
1001
0000
,
0000
0000
0000
0000
0000
0000
0000
0000
0000
0000
0000
0000
0000
0000
0001
1000
,
0001
0000
1000
0100
0000
1000
0001
1000
0010
0000
0100
0001
0000
1000
0001
0010
,
0001
0000
1000
0100
0000
0010
0100
0010
0001
0000
1000
0010
0100
0001
1000
0000
,
0001
0100
0010
1000
0001
0100
0010
1000
0100
0010
0001
0100
0010
1000
0100
1000
,
0002
0000
0000
0000
0000
0000
0000
0000
1003
0100
0010
0100
0001
0100
0010
0100
,
1000
0000
0000
0000
0000
0000
0001
0000
0000
0100
0000
0000
0000
0000
0000
0010
0000
0000
0100
0000
0000
0010
0000
0000
1000
0000
0000
0001
0000
0000
0010
0000
0000
0100
0000
0000
1000
0000
0000
0000
0000
0000
0001
0000
0100
0000
0010
0000
,
0100
0000
0000
0000
0000
0000
0000
0000
0000
1100
0000
0000
0000
0000
0000
0000
0000
0000
0110
0000
0000
0000
0000
0000
0101
0000
0000
0000
0000
0000
0000
0000
0000
0000
0000
0000
1001
0000
0000
0000
0000
0000
1000
0000
0100
0000
0010
0000
,
0001
1000
0020
0000
1030
0001
0020
0000
0031
1000
0010
0100
0001
1000
0100
0010
,
0011
0000
1000
0001
0000
0000
0110
0000
1000
0100
0010
0001
0010
0100
1000
0001
,
0100
0000
0010
1000
0001
0010
0100
0010
0001
0000
0100
0010
1000
0001
0010
0001
,
1000
0001
0100
0001
1000
0100
0010
0001
1000
0000
0010
0100
0001
1000
0100
0000
,
0010
0100
1000
0001
0100
0001
1000
0100
0010
0100
0001
0100
0010
0001
1000
0010
,
0200
0000
0000
0000
0301
1000
0001
1000
0100
0010
0001
0010
0100
1000
0001
0100
,
0010
0000
1000
0100
0000
0010
0001
1000
0001
0100
0010
1000
0100
1000
0001
0100
,
0001
0000
1000
0001
0000
0001
0010
0100
1000
0000
0000
0000
0001
0100
1000
0100
,
0001
0000
0000
0011
0000
0000
1010
0000
1100
0000
0000
0101
0000
0000
1001
0000
,
1000
0100
1000
0010
0100
0001
0010
0001
1000
0100
1000
0010
0100
0001
0010
0001
,
1000
0000
0000
0100
0000
0000
1000
0000
0000
0100
0000
0000
0001
0000
0000
0100
0000
0000
0001
0000
0000
0100
0000
0000
1000
0000
0000
0000
0000
0000
0001
0000
0100
0000
0010
0000
1000
0000
0000
0000
0000
0000
0001
0000
0010
0000
0100
0000
,
2000
0000
0000
3000
,
1001
0000
0000
0000
,
0000
0000
0000
0000
,
0000
0000
0000
0000
,
0000
0000
0000
0000
,
1010
0010
1000
0010
0100
0001
0100
0001
,
1001
0000
0000
1000
0000
0000
0100
0000
0000
0010
0000
0000
0001
0000
0000
0010
0100
1000
0001
0000
0000
0100
0010
1000
,
0001
0000
0101
0000
1100
0000
0011
0000
1010
0000
0101
0000
,
0000
0000
0000
0000
,
1100
0000
0101
0000
0011
0000
1010
0000
0110
0000
1001
0000
,
0000
0000
0000
0000
0001
0001
1001
0000
,
1000
0010
1000
0010
0000
0100
0001
1000
0001
0010
0001
0010
0000
0100
1000
0001
,
0100
0010
1000
0001
0000
0010
0001
1000
0100
0000
0010
0001
1000
0001
0100
0010
,
1000
0100
0010
0001
0010
0100
1000
0001
0100
0010
0100
1000
0100
0010
1000
0001
,
0020
0000
0000
0000
0000
0000
0000
0000
0031
1000
0100
0010
1000
0001
0100
0010
,
0001
0000
1000
0100
0000
0010
0001
1000
0010
0100
0001
0010
0001
0100
0001
1000
,
1001
0000
0001
1000
0000
1000
0100
0010
0001
0000
0000
0000
1000
0010
0001
0010
,
1000
0000
0000
1100
0000
0000
0101
0000
0011
0000
0000
1010
0000
0000
1001
0000
,
0001
0010
0100
0010
1000
0001
0100
0010
0001
1000
0010
0001
1000
0100
0010
1000
,
0001
0001
1000
1000
0010
0010
0100
0100
,
0001
0000
0000
0100
0000
0000
1000
0000
0000
0100
0000
0000
0001
0000
0000
0010
0000
0000
1000
0000
0000
0010
0000
0000
0001
0000
0000
0000
0000
0000
1000
0000
0100
0000
0010
0000
0001
0000
0000
0000
0000
0000
1000
0000
0010
0000
0100
0000
,
0001
0000
0000
0000
0000
0000
1001
0000
0000
0000
0000
0000
1000
0100
0010
0001
0000
0000
0000
0000
0000
0001
0100
0010
,
1000
1001
1001
1001
0000
0000
0000
0000
;

//--------------- dance-double - Fred-104 ----------------
#NOTES:
     dance-double:
     Fred-104:
     Easy:
     10:
     :
00000000
00000000
00000000
00000000
,
00000000
00000000
00000000
00000000
,
00000000
00000000
00000000
00000000
,
00000000
00000000
00000000
00000000
,
00000000
00000000
00000000
00000000
,
00000000
00000000
00000000
00000000
,
00001000
00010000
00001000
00000000
01000000
00010000
01000000
00000000
,
01100000
00000000
00100000
00000000
10000000
01000000
01000000
00000000
,
01100000
00110000
00101000
00011000
,
00010000
00000000
00000000
00010000
00000000
00000000
00001000
00000000
00001000
00000000
00000000
00000000
00000000
00000000
00000000
00000000
,
00010000
00001000
00000010
00000100
,
00000010
00000000
00000000
00000001
00000000
00000001
00000000
00000001
,
00000100
00000001
00000010
00000100
,
00010000
00000000
00000000
00001000
00000000
00001000
00000000
00001000
,
00000000
00000000
00010000
00000000
00001000
00000000
00000000
01000000
,
00000000
00100000
01000000
00001000
,
00010000
00000000
00000000
00000100
00000000
00000000
00000220
00000000
,
00000000
00000000
00000330
00000000
,
00000001
00000000
00000001
00000000
00000100
00000010
00000100
00000000
,
00000001
00000000
00000010
00000000
00000100
00001000
00000100
00000000
,
00010000
00000000
00010000
00000000
00001000
01000000
00001000
00000000
,
00100000
00000000
00010000
00000000
10000000
01000000
10000000
00000000
,
00010000
00000000
01000000
00000000
00100000
00010000
00001000
00000000
,
00010000
00000000
00000100
00000000
00000010
00000001
00001000
00000000
,
00000010
00000000
00000000
00010000
00000000
00000000
00022000
00000000
,
00000000
00000000
00033000
00000000
,
00001000
00000000
00000000
00010000
00000000
00000000
00000010
00000000
,
00001000
00000000
00000000
00000100
00000000
00000000
00000010
00000000
,
00000001
00000000
00000000
00000100
00000000
00000000
00000010
00000000
,
00000100
00000000
00001000
00000000
00010000
00001000
00010000
00000000
,
00001000
00000000
00000000
01000000
00000000
00000000
00001000
00000000
,
00010000
00000000
00000000
00000100
00000000
00000000
00010000
00000000
,
00001000
00000000
00000000
00010000
00000000
00000000
00100000
00000000
,
10000000
01000000
01100000
00000000
,
00010000
00000000
00000000
10000000
00000000
00000000
01000000
00000000
,
00100000
00000000
00000000
00001000
00000000
00000000
00010000
00000000
,
00001000
00000000
00000000
00000100
00000000
00000000
00000001
00000000
,
00001000
00000000
00000100
00000000
00000010
00000001
00000010
00000000
,
00000001
00000001
00000100
00000100
,
00000010
00000010
00001000
00001001
,
00000001
00000000
00000010
00000000
00001000
00000000
00010000
00000000
00100000
00000000
10000000
00000000
,
00000000
00000000
00000000
00000000
,
00010000
01000000
00100000
00010000
,
00001000
00000100
00001000
00010000
,
00001000
00100000
00001000
00000000
00010000
00000010
00010000
00000000
,
00022000
00000000
00033000
00000000
00010000
00010000
00001000
00000000
,
00011000
00000000
00000110
00000000
,
00001001
00000000
00000000
00000001
00000000
00000000
00000100
00000000
00000110
00000000
00000000
00000000
00000000
00000000
00000000
00000000
,
00000001
00000010
00000001
00000000
00001000
00000010
00001000
00000000
,
00000100
00000000
00000000
00010000
00000000
00000000
00001000
00000000
00022000
00000000
00000000
00000000
00033000
00000000
00000000
00000000
,
00010000
00001000
00000010
00000100
,
00001000
00000010
00010000
00001000
,
00100000
00010000
00100000
00000000
00001000
00010000
00001000
00000000
,
00011000
00000000
00010000
00000000
00001000
01000000
00001000
00000000
,
01001000
00000000
00000000
00000000
01000000
00000000
00100000
10000000
,
00100000
00000000
00000000
00100000
00000000
00000000
00100000
00000000
01000000
00000000
00000000
00000000
10010000
00000000
00000000
00000000
,
10000000
00000000
00000000
10000000
00000000
00000000
01000000
00000000
00100000
00000000
00000000
00100000
00000000
00000000
00001000
00000000
,
00010000
00001000
00010000
00100000
,
01000000
00100000
01000000
00100000
01000000
00100000
01000000
00100000
,
20000000
00000000
00000000
30000000
,
10010000
00000000
00000000
00000000
,
00000000
00000000
00000000
00000000
,
00000000
00000000
00000000
00000000
,
00000000
00000000
00000000
00000000
,
00011000
00010000
00000010
00001000
,
00001001
00000001
00000010
00000100
,
00010000
00000000
00010000
00000000
00010000
00000000
00001000
00000000
00001000
00000000
00011000
00000000
,
00000000
00000000
00000000
00000000
,
00001000
00000000
00001000
00000000
00001000
00000000
00010000
00000000
00010000
00000000
00011000
00000000
,
00000000
00000000
00022000
00033000
,
00001000
00010000
00100000
01000000
,
00010000
00100000
00001000
00010000
,
00001000
00100000
00001000
00000000
00010000
00000010
00010000
00000000
,
00022000
00000000
00033000
00000000
00001000
01000000
00010000
00000000
,
10010000
00000000
00010000
10000000
,
01000000
00000000
00000000
01000000
00000000
00000000
00100000
00000000
00101000
00000000
00000000
00000000
00001000
00000000
00000000
00000000
,
00010000
00000000
00000000
00010000
00000000
00000000
00010000
00000000
00001000
00000000
00000000
00001000
00000000
00000000
00001000
00000000
,
00010000
00001000
00100000
00010000
,
10000000
10000000
00010000
00010000
,
01000000
00100000
01000000
00100000
01000000
00100000
01000000
00100000
,
01000000
00000000
10010000
00000000
00000000
01100000
00000000
00000000
,
10010000
00000000
00000000
10010000
00000000
00000000
00000000
00000000
;

//--------------- dance-double - Fred-104 ----------------
#NOTES:
     dance-double:
     Fred-104:
     Medium:
     14:
     :
00000000
00000000
00000000
00000000
,
00000000
00000000
00000000
00000000
,
00000000
00000000
00000000
00000000
,
00000000
00000000
00000000
00000000
,
00000000
00000000
00000000
00000000
,
00000000
00000000
00000000
00000000
,
00010000
00000010
00001000
00000100
00000010
00000100
00001000
00000020
,
00000130
00000000
00000100
00000000
00001000
00000000
00001000
00000000
00010000
00001000
00010000
00001000
00010000
00000000
00200000
00000000
,
01300000
00010000
00100000
01000000
00010000
00001000
00010000
00000200
,
00000310
00000000
00000000
00000011
00000000
00000000
00001010
00000000
00000101
00000000
00000000
00000000
00000000
00000000
00000000
00000000
,
00001000
00000000
00000001
00000010
00000001
00000000
00000010
00000000
00000100
00000000
00010000
00000000
00001000
00000000
00010000
00000000
,
00000000
00010000
00100000
10000000
00000000
11000000
00000000
01100000
,
00100000
00000000
00010000
10000000
00010000
00000000
01000000
00000000
00100000
00000000
00010000
00000000
00001000
00000000
00000100
00000000
,
00000010
00001000
00000100
00000010
00000000
00000010
00000001
00000100
,
00000000
00000100
00000010
00000100
00001000
00010000
00001000
00010000
,
00000000
00001000
00010000
00100000
01000000
00010000
10000000
01000000
,
00100000
00010000
01000000
00100000
00010000
00001000
00022000
00000000
,
00000000
00000000
00033000
00000000
,
00010000
00000000
00001000
01000000
00001000
00000000
00010000
00000000
00001000
00000000
00100000
00000000
01000000
00000000
10000000
00000000
,
00010000
01000000
00100000
00010000
00000000
00011000
00000000
00010100
,
00000100
00000000
00001000
00000001
00001000
00000000
00000100
00000000
00000010
00000000
00000001
00000000
00001000
00000000
00000010
00000000
,
00000100
00001000
00010000
00100000
00000000
10000000
01000000
00100000
,
00000000
00001000
00010000
00001000
01000000
00100000
00010000
00001000
,
00000000
00000100
00000010
00000100
00001000
00010000
00001000
01000000
,
00010000
00100000
10000000
00010000
01000000
10000000
20020000
00000000
,
00000000
00000000
30030000
00000000
,
10000000
00000000
00000000
00100000
00000000
00000000
01000000
00000000
00100000
00000000
00010000
00000000
00001000
00000000
00010000
00000000
,
00000100
00000000
00000000
00000001
00000000
00000000
00000100
00000000
00000000
00000010
00000000
00000000
00000100
00000000
00001000
00000000
,
00000100
00000000
00000000
00010000
00000000
00000000
00001000
00000000
00010000
00000000
00100000
00000000
01000000
00000000
00020000
00000000
,
00000000
10030000
00010000
00100000
00001000
00000010
00001000
00010000
,
00001000
00000000
00000000
00010000
00000000
00000000
00000100
00000000
00001000
00000000
00000001
00000000
00000100
00000000
00000010
00000000
,
00001000
00000000
00000000
00000001
00000000
00000000
00000010
00000000
00000100
00000000
00000010
00000000
00001000
00000000
00010000
00000000
,
00001000
00000000
00000000
00010000
00000000
00000000
00000100
00000000
00000010
00000000
00000001
00000000
00001000
00000000
00000001
00000000
,
00000000
00000000
00000001
00000000
00000100
00000000
00001000
00010000
00001000
00000000
00010000
00001000
00010000
00000000
00001000
00000000
,
00100000
00000000
00000000
00001000
00000000
00000000
00010000
00000000
00001000
00000000
00010000
00000000
01000000
00000000
00100000
00000000
,
00010000
00000000
00000000
10000000
00000000
00000000
00100000
00000000
00000000
00010000
00000000
00000000
00100000
00000000
10000000
00000000
,
01000000
00000000
00000000
00010000
00000000
00000000
00001000
00000000
00010000
00000000
00000010
00000000
00000100
00000000
00000020
00000000
,
00000000
00000000
00000031
00000000
00000010
00000000
00001000
00000001
00001000
00000000
00000001
00000010
00000001
00000000
00001000
00000000
,
00000010
00000000
00000010
00000000
00000100
00000000
00000100
00000000
00001000
00000000
00001000
00000000
00010000
00001000
00010000
00000000
,
00100000
00100000
10000000
10000000
01000000
01000000
01100000
00000000
,
10000000
00000000
00100000
00000000
00010000
00000000
00001000
00000000
00000100
00000000
00000101
00000000
,
00000000
00000000
00000000
00000000
,
00000001
00000000
00001000
00000001
00000000
00000010
00000001
00000000
00000010
00000000
00000100
00001000
00000000
00000100
00001000
00000000
,
00000100
00000000
00010000
00001000
00000000
00010000
00001000
00000000
00010000
00000000
00100000
00000000
01000000
00000000
00000000
00000000
,
00010000
10000000
01000000
00100000
00010000
00001000
00000100
00010000
,
00002000
00000000
00000000
00000000
00013000
00001000
00000100
00001000
,
00010000
00000000
00001000
01000000
00000000
00001000
00010000
00000000
00000100
00000000
00001000
00000000
00000001
00000000
00000100
00000000
,
00000010
00000000
00000000
00000110
00000000
00000000
00010010
00000000
00011000
00000000
00000000
00000000
00001000
00000000
00001000
00000000
,
01000000
00010000
01000000
00001000
00100000
00010000
00001000
00000100
,
00010000
00000000
00010000
00001000
00000000
00000000
00011000
00000000
02002000
00000000
00000000
00000000
03003000
00000000
00000000
00000000
,
01000000
00000000
00010000
10000000
00000000
01000000
10000000
00000000
00010000
00000000
10000000
01000000
00000000
00100000
00001000
00000000
,
00010000
00000000
00000100
00001000
00000000
00000001
00001000
00000000
00000100
00000000
00000010
00000000
00000001
00000000
00000000
00000000
,
00000100
00000010
00000100
00001000
00010000
00100000
10000000
01000000
,
00200000
00000000
00301000
00010000
00100000
01000000
00001000
00010000
,
00010100
00000000
00000000
00000000
00000000
00000000
00000000
00000000
00001001
00000000
00000000
00000000
00000001
00000000
00000100
00000010
,
00000100
00000000
00000000
00000001
00000000
00000000
00001001
00000000
00001001
00000000
00000000
00000000
00000001
00000000
00001000
00000000
,
00000001
00000000
00000000
00000100
00000000
00000000
00001000
00000000
00010000
00000000
00000000
01000000
00000000
00000000
00100000
00000000
,
00010000
01000000
10000000
01000000
00010000
10000000
01000000
00100000
,
00001000
00010000
00100000
00010000
00001000
00010000
00000100
00000010
,
00000022
00000000
00000000
00000033
,
00001001
00000000
00000000
00000000
,
00000000
00000000
00000000
00000000
,
00000000
00000000
00000000
00000000
,
00000000
00000000
00000000
00000000
,
10010000
10000000
01000000
00100000
00001000
00010000
00000010
00000000
,
00001001
00000001
00000100
00000010
00001000
00000100
00000010
00000000
,
00000001
00000000
00000100
00000000
00001000
00000000
00010000
00000000
00100000
00000000
10100000
00000000
,
00000000
00000000
00000000
00000000
,
10000000
00000000
00100000
00000000
00010000
00000000
00001000
00000000
00000100
00000000
00000101
00000000
,
00000000
00000000
00000000
00000000
00000001
00001000
00001001
00000000
,
00000001
00000000
00001000
00000100
00000000
00001000
00000100
00000000
00000010
00000000
00000001
00001000
00000000
00000001
00001000
00000000
,
00000010
00000000
00000100
00001000
00000000
00010000
00001000
00000000
00100000
00000000
00010000
00000000
10000000
00000000
00000000
00000000
,
00010000
10000000
00100000
01000000
00010000
00001000
00000010
00010000
,
00002000
00000000
00000000
00000000
00013000
00001000
00000010
00001000
,
00010000
00000000
00001000
01000000
00000000
00010000
00100000
00000000
00001000
00000000
00010000
00000000
00000100
00000000
00000010
00000000
,
00000011
00000000
00000000
00000001
00000000
00000000
00001000
00000000
00001010
00000000
00000000
00000000
00000010
00000000
00000100
00000000
,
00000001
00000000
00000000
00000010
00000000
00000000
00001000
00000000
00010000
00000000
00000000
00100000
00000000
00000000
10000000
00000000
,
01000000
00000000
00100000
00000000
00010000
00000000
10000000
00000000
00100000
00000000
00010000
00001000
00000000
00001000
00010000
00000000
,
00001000
00001000
00010000
00010000
00000010
00000010
00010000
00010000
,
00001000
00010000
00001000
00010000
00001000
00010000
00001000
00010000
00001000
00000000
00020000
00000000
00130000
00000000
20000000
00000000
,
31000000
00000000
10010000
00000000
20000000
31000000
00000000
00020000
,
00031000
00000010
00000001
00001001
00000000
00000000
00000000
00000000
;

//--------------- dance-double - Fred-104 ----------------
#NOTES:
     dance-double:
     Fred-104:
     Hard:
     18:
     :
00000000
00000000
00000000
00000000
,
00000000
00000000
00000000
00000000
,
00000000
00000000
00000000
00000000
,
00000000
00000000
00000000
00000000
,
00000000
00000000
00000000
00000000
,
00000000
00000000
00000000
00000000
,
00011000
00000000
00000000
00000000
00000000
00000000
00000000
00000000
00000000
00000000
00000000
00000000
00011000
00000000
00000000
00000000
00000000
00000000
00000000
00000000
00000000
00010000
00001000
00010000
,
00001000
00000000
00000000
00000000
00000000
00000000
00001000
00000000
00000000
00000000
00000000
00000000
00000100
00000000
00000000
00000000
00000000
00000000
00000100
00000000
00000000
00000000
00000000
00000000
00000001
00000000
00000000
00001000
00000000
00000000
00000001
00000000
00000000
00001000
00000000
00000000
00000100
00000000
00000000
00000000
00000000
00000000
00000010
00000000
00000001
00000000
00000010
00000000
,
00000001
00000000
00001000
00000000
00001010
00000000
00000010
00000000
00010010
00000000
00010000
00000000
00001000
00100000
00010000
00100000
,
01000000
00000000
00000000
00000000
00000000
00000000
00000000
00000000
00000000
10000000
00000000
00000000
00000000
00000000
00000000
00000000
00000000
00000000
00010000
00000000
00000000
00000000
00000000
00000000
10010000
00000000
00000000
00000000
00000000
00000000
00000000
00000000
00000000
00000000
00000000
00000000
00000000
00000000
00000000
00000000
00000000
00000000
00010000
00000000
10000000
00000000
00010000
00000000
,
10000000
00000000
01000000
00100000
01000000
00000000
00010000
00000000
00001000
00000000
00010000
00000000
00000100
00000000
00000010
00000000
,
00000001
00001000
00000010
00000100
00000000
00000110
00000000
00001001
,
00000001
00000000
00001000
00000001
00000010
00000000
00000100
00000000
00000010
00000000
00001000
00000000
00010000
00000000
01000000
00000000
,
00100000
00000000
00010000
10000000
00100000
00000000
00010000
00000000
00000000
00000000
00010000
00000000
00001000
00000000
00010000
00000000
,
00000000
00010000
00001000
00000100
00000001
00000010
00000100
00000020
,
00000000
00000000
00000130
00000000
00001000
00000000
00000001
00000000
00000100
00000000
00001000
00010000
00001000
00000000
00010000
00000000
,
00001000
00100000
01000000
00010000
10000000
00100000
00220000
00000000
,
00000000
00000000
00000000
00000000
00000000
00000000
00000000
00000000
00000000
00000000
00000000
00000000
00330000
00000000
00000000
00000000
00000000
00000000
00000000
00000000
00000000
10000000
01000000
10000000
,
01000000
00000000
00100000
00001000
00010000
00000000
00001000
00000000
00010000
00000000
00000010
00000000
00000100
00000000
00000001
00000000
,
00001000
00000000
00000100
00000000
00000001
00000000
00000100
00000010
00000100
00000010
00000001
00000000
00001000
00000001
00000010
00000000
,
00000100
00000000
00001000
00000010
00010000
00000000
00001000
00000000
00100000
00010000
01000000
00000000
00001000
00010000
00001000
00000000
,
00100000
00010000
00100000
01000000
00100000
00000000
00010000
01000000
00100000
10000000
00010000
00000000
00100000
01000000
00010000
00000000
,
00001000
00010000
00000100
00000001
00001000
00000010
00000001
00002001
,
00000000
00000000
00003001
00000000
00000100
00000000
00001000
00000000
00010000
00001000
00010000
00001000
00010000
00000000
00000100
00000000
,
00010000
00000010
00000100
00001000
00000001
00000010
00002020
00000000
,
00000000
00000000
00000000
00000000
00000000
00000000
00003030
00000000
00001000
00000001
00000010
00000100
00010000
00000000
00001000
00000000
,
00020000
00000000
00000000
00032000
00000000
00000000
02003000
00000000
03010000
10000000
01000000
00000000
00100000
00001000
00010000
00000000
,
00002000
00000000
00000000
00003200
00000000
00000000
00000302
00000000
00000013
00000100
00000000
00000010
00001000
00000000
00010000
00000000
,
00002000
00000000
00000000
02003000
00000000
00000000
03020000
00000000
00130000
00000000
10000000
00000000
00200000
00000000
01000000
00000000
,
00000000
00000000
00310000
00000000
10000000
00000000
00010000
01000000
00010000
01000000
00001000
00000000
00010000
00000010
00010000
00000000
,
00002000
00000000
00000000
00003200
00000000
00000000
00000320
00000000
00001030
00000001
00000010
00000000
00000100
00010000
00001000
00000000
,
00020000
00000000
00000000
00230000
00000000
00000000
02300000
00000000
03010000
10000000
01000000
00000000
00100000
00001000
00010000
00000000
,
00002000
00000000
00000000
00023000
00000000
00000000
02030000
00000000
03200000
00000000
00320000
00000000
02030000
00000000
03200000
00000000
,
00310000
00000000
00001000
00010000
00000100
00000000
00001000
00000010
00000100
00000010
00001000
00000000
00000100
00000010
00000001
00000000
,
00001000
00000000
00000001
00000010
00000000
00000010
00000100
00000000
00010000
00001000
00100000
00010000
10000000
00100000
01000000
00000000
,
00010000
00000000
10000000
01000000
00000000
01000000
00010000
00000000
10000000
00100000
00000000
00100000
00010000
00000000
01000000
00000000
,
00100000
00000000
10000000
01000000
00000000
01000000
00010000
00000000
00001000
00010000
00000100
00000000
00000020
00000000
00000001
00000000
,
00000000
00000000
00000130
00000000
00001000
00000000
00000001
00000100
00000001
00000100
00000010
00000100
00001000
00010000
00001000
00000000
,
00011000
00000000
00010000
00000000
00001000
00000000
00001000
00000000
01000000
00000000
01000000
00000000
00010000
10000000
00010000
10000000
,
01000000
01000000
00100000
00100000
00001000
00001000
00011000
00000000
,
00011000
00000000
00001100
00000000
00000101
00000000
00000011
00000000
00001010
00000000
00011000
00000000
,
00000000
00000000
00000000
00000000
00000000
00000000
00000000
00000000
00000000
00000000
00000000
00000000
00000000
00000000
10000000
01000000
,
10000000
00000000
01000000
00100000
00000000
00100000
00001000
00000000
00010000
00000000
00000100
00001000
00000000
00001000
00000001
00000000
,
00000100
00000000
00000010
00000100
00000000
00000100
00001000
00000000
00010000
00000000
00100000
01000000
00100000
10000000
00010000
00000000
,
10000000
01000000
00100000
00000000
00001000
00010000
00000100
00000000
00001000
00000001
00000100
00000001
00001000
00000100
00000010
00000001
,
00000020
00000000
00000000
00000000
00000000
00000000
00000000
00000000
00000031
00001000
00000001
00001000
00000010
00000100
00001000
00010000
,
00001000
00000000
00100000
00010000
00000000
00010000
10000000
00000000
00010000
01000000
00100000
10000000
01000000
00100000
00010000
00100000
,
00001000
00000000
00000000
00000000
00000000
00000000
00000000
00000000
00000000
00011000
00000000
00000000
00000000
00000000
00000000
00000000
00000000
00000000
00001100
00000000
00000000
00000000
00000000
00000000
00000101
00000000
00000000
00000000
00000000
00000000
00000000
00000000
00000000
00000000
00000000
00000000
00001000
00000000
00000000
00000000
00000000
00000000
00000001
00000000
00000010
00000000
00000100
00000000
,
00001000
00000001
00000200
00000000
00000310
00001000
00000200
00000000
00000310
00000001
00001000
00000010
00010000
00001000
00010000
00001000
,
00100000
00000000
00010000
10000000
00000000
00000000
10010000
00000000
00010000
10000000
00010000
10000000
01000000
00100000
00010000
00100000
,
00001000
00000000
00010000
00000100
00000000
00001000
00000001
00000000
00000010
00000000
00000100
00001000
00000000
00000100
00010000
00000000
,
00001000
00000000
00010000
00100000
00000000
01000000
00010000
00000000
10000000
00000000
01000000
00100000
01000000
00010000
00001000
00000000
,
00010000
00000100
00001000
00000000
00000010
00000100
00000001
00000000
00000010
00000100
00001000
00000100
00010000
00001000
00100000
00001000
,
00020000
00000000
00000000
00000000
00031000
00100000
00010000
00000000
01000000
00100000
10000000
00000000
01000000
00100000
00010000
10000000
,
00010000
00000000
01000000
00001000
00000000
00010000
00000100
00000000
00001000
00000100
00000010
00000001
00000010
00000100
00001000
00000100
,
00010000
00000000
00001000
00010000
00000000
00010000
00100000
10000000
01000000
00000000
00000000
00000000
00010000
00001000
00000010
00001000
,
00010000
00000000
00000000
00011000
00000000
00000000
00001100
00000000
00000101
00000000
00000000
00000011
00000000
00000000
00001001
00000000
,
00001000
00000001
00000010
00000100
00001000
00000100
00010000
00000000
00001000
00100000
00010000
01000000
00100000
10000000
00010000
00000000
,
10000000
00000000
00000000
01000000
00000000
00000000
00100000
00000000
00000000
01000000
00000000
00000000
10000000
00000000
00000000
01000000
00000000
00000000
00100000
00000000
00000000
01000000
00000000
00000000
10000000
00000000
00000000
00000000
00000000
00000000
00010000
00000000
10000000
00000000
00010000
00000000
01000000
00000000
00000000
00000000
00000000
00000000
00001000
00000000
00010000
00000000
00001000
00000000
,
00020000
00000000
00000000
00030000
,
00011000
00000000
00000000
00000000
,
00000000
00000000
00000000
00000000
,
00000000
00000000
00000000
00000000
,
00000000
00000000
00000000
00000000
,
00001001
00000001
00000010
00000100
00001000
00000100
00010000
00001000
,
00011000
00000000
00000000
00001000
00000000
00000000
01000000
00000000
00000000
00010000
00000000
00000000
10000000
00000000
00000000
01000000
00100000
01000000
00100000
00000000
00000000
00001000
00010000
00001000
,
00010000
00000000
00011000
00000000
00110000
00000000
10100000
00000000
11000000
00000000
01010000
00000000
,
00000000
00000000
00000000
00000000
,
00011000
00000000
00001010
00000000
00000011
00000000
00000101
00000000
00001100
00000000
00011000
00000000
,
00000000
00000000
00000000
00000000
10000000
10000000
10010000
00000000
,
10000000
00000000
01000000
00100000
00000000
01000000
00100000
00001000
00010000
00000000
00000100
00001000
00000000
00000010
00001000
00000001
,
00001000
00000000
00000100
00000010
00000000
00000001
00001000
00000010
00010000
00000000
00001000
01000000
00010000
10000000
01000000
00000000
,
00100000
00010000
10000000
00000000
00100000
10000000
01000000
00000000
00100000
00010000
01000000
00100000
00010000
00001000
00010000
00000010
,
00002000
00000000
00000000
00000000
00000000
00000000
00000000
00000000
00003001
00000010
00000100
00001000
00000010
00000100
00001000
00010000
,
00001000
00000000
00100000
00010000
00000000
00010000
10000000
00100000
01000000
00010000
10000000
00010000
00100000
00010000
10000000
00100000
,
01100000
00000000
00010000
10000000
00000000
10000000
01000000
00010000
00001000
00000000
00000000
00000000
00010000
00001000
00000100
00001000
,
00010000
00000000
00000000
00011000
00000000
00000000
00110000
00000000
10100000
00000000
00000000
11000000
00000000
00000000
10010000
00000000
,
00010000
10000000
01000000
00100000
00010000
01000000
00100000
00010000
00001000
00000100
00000010
00001000
00000100
00000010
00000001
00001000
,
00000001
00000001
00000100
00000100
00001000
00001000
00010000
00010000
,
00001000
00000000
00000000
00010000
00000000
00000000
00100000
00000000
00000000
01000000
00000000
00000000
00010000
00000000
00000000
00100000
00000000
00000000
01000000
00000000
00000000
10000000
00000000
00000000
00010000
00000000
00000000
00000000
00000000
00000000
01000000
00000000
00001000
00000000
00010000
00000000
00001000
00000000
00000000
00000000
00000000
00000000
00010000
00000000
00000010
00000000
00001000
00000000
,
00000010
00000000
00000000
00000000
00000000
00000000
00001001
00000000
00000000
00000000
00000000
00000000
00000001
00000100
00000010
00001000
00000000
00000000
00000000
00000000
00000000
00000100
00010000
00000100
,
00010000
00001000
00100000
01100000
00000000
00000000
00000000
00000000
;
