#VERSION:0.83;
#TITLE:Colors (radio edit);
#ARTIST:dj TAKA;
#GENRE:TRANCE;
#BANNER:Colors (radio edit).png;
#BACKGROUND:Colors (radio edit)-bg.png;
#CDTITLE:./CDTitles/bm IIDX 6th style.png;
#MUSIC:Colors (radio edit).ogg;
#SAMPLESTART:54.4;
#SAMPLELENGTH:15;
#BPMS:0=150;
#BGSTAGE:22;

//--------------- dance-single - Fred-104 ----------------
#NOTEDATA:;
#STEPSTYPE:dance-single;
#DESCRIPTION:Fred-104;
#DIFFICULTY:Beginner;
#METER:2;
#CREDIT:Fred-104;
#NOTES:
0000
0000
0000
0000
,
0000
0000
0000
0000
,
0000
0000
0000
0000
,
0000
0000
0000
0000
,
0000
0000
0000
0000
,
0000
0000
0000
0000
,
1000
0000
0000
0000
,
0001
0000
0000
0000
,
1000
0000
0001
0000
,
1000
0000
0000
0000
,
0002
0000
0000
0000
,
0000
0000
0000
0000
,
2003
0000
0000
0000
,
0000
0000
0000
0000
,
3200
0000
0000
0000
,
0000
0000
0000
0000
,
0320
0000
0000
0000
,
0000
0000
0000
0030
,
0002
0000
0000
0003
,
2000
0000
0000
3000
,
0002
0000
0000
0003
,
0200
0000
0000
0300
,
0010
0000
0010
0000
,
1000
0000
1000
0000
,
0001
0000
0001
0000
,
2000
3000
0002
0003
,
1000
0000
1000
0000
,
0001
0000
0000
0000
,
0100
0000
0010
0000
,
0100
0000
0000
0000
,
0001
0000
1000
0000
,
0001
0000
0000
0000
,
1000
0000
0001
0000
,
1000
0000
0000
0000
,
0002
0000
0000
0000
,
0003
0000
0000
0000
,
2000
0000
0000
0000
,
3002
0000
0000
0000
,
0203
0000
0000
0000
,
0300
0000
0000
0000
,
0020
0000
0000
0000
,
0230
0000
0000
0000
,
0301
0000
0001
0000
,
1000
0000
0000
0000
,
0001
0000
1000
0000
,
0100
0000
0000
0000
,
1000
0000
0001
0000
,
1000
0000
0000
0000
,
0100
0000
0100
0000
,
0100
0000
0100
0000
,
2000
0000
0000
3000
,
0002
0000
0000
0003
,
2000
0000
0000
0000
,
0000
0000
0000
3000
,
0002
0000
0000
0003
,
2000
0000
0000
3000
,
0002
0000
0000
0003
,
2000
0000
0000
3000
,
0001
0000
1000
0000
,
0200
0000
0300
0000
,
1000
0000
0001
0000
,
0200
0000
0300
0000
,
0001
0000
1000
0000
,
0010
0000
1000
0000
,
0001
0000
1000
0000
,
0002
0000
0000
0003
,
1000
0000
0001
0000
,
0020
0000
0000
0030
,
0001
0000
1000
0000
,
0020
0000
0000
0030
,
0100
0000
0001
0000
,
2000
0000
0000
3000
,
0001
0000
1000
0000
,
0002
0000
0000
0003
,
2002
0000
0000
0000
,
3003
0000
0000
0000
;

//--------------- dance-single - Fred-104 ----------------
#NOTEDATA:;
#STEPSTYPE:dance-single;
#DESCRIPTION:Fred-104;
#DIFFICULTY:Easy;
#METER:5;
#CREDIT:Fred-104;
#NOTES:
0000
0000
0000
0000
,
0000
0000
0000
0000
,
0000
0000
0000
0000
,
0000
0000
0000
0000
,
0000
0000
0000
0000
,
0000
0000
0000
0000
,
1001
1000
0100
1000
,
1001
0001
0100
0001
,
1001
0000
0110
0000
,
1001
1000
0010
1000
,
2002
0000
0000
3003
,
0002
0000
0000
0000
,
2003
0000
0000
0000
,
3020
0000
0030
0000
,
0200
0000
0000
0000
,
0302
0000
2003
0000
,
3002
0000
0023
0000
,
0032
0000
0000
0003
,
2000
3000
0200
0300
,
0020
0030
0002
0003
,
2000
3000
0002
0003
,
0200
0300
0110
0000
,
1000
1000
0001
1000
,
1000
0100
0010
0000
,
0001
0001
1000
1000
,
0010
0100
0010
0100
,
0001
0000
0010
0000
,
0100
0100
1000
0001
,
0100
0000
0010
0000
,
0100
0001
1000
1000
,
0100
0000
0010
0000
,
0100
1000
0001
0010
,
0010
0000
0001
0000
,
1000
0001
1000
0001
,
1001
0000
0001
0000
,
1000
1000
0001
0100
,
0110
0000
0010
0000
,
0100
0100
0001
1000
,
1001
0000
0001
0000
,
1000
1000
0100
0010
,
0110
0000
0001
0000
,
1000
1000
0001
0100
,
0001
0000
1000
0000
,
0001
0010
0100
1000
,
0001
0000
0100
0000
,
0010
0100
0001
0010
,
0100
0000
1000
0000
,
0001
1000
0010
0100
,
0001
0000
1000
0000
,
0100
0010
0001
0000
,
2000
0000
3002
0000
,
2003
0000
3200
0000
,
0320
0000
0000
0000
,
0000
0000
0030
0000
,
0002
0000
0000
0000
,
2003
0000
3002
0000
,
0203
0000
0000
0000
,
0000
0000
0300
0000
,
0002
0000
2003
0000
,
3002
0000
0023
0000
,
0230
0000
0000
0000
,
0000
0000
0000
0300
,
1000
1000
0001
0001
,
0100
0100
0010
0010
,
1000
0001
0010
0100
,
2002
0000
0000
3003
,
0001
0000
0010
0100
,
0010
0000
0001
1000
,
0010
0000
0100
0100
,
0001
1000
0100
0010
,
0001
0000
0100
0001
,
0100
0000
1000
0010
,
1000
0000
0010
0000
,
0001
0000
1000
0000
,
2002
0000
0000
0000
,
3003
0000
0000
0000
;

//--------------- dance-single - Fred-104 ----------------
#NOTEDATA:;
#STEPSTYPE:dance-single;
#DESCRIPTION:Fred-104;
#DIFFICULTY:Medium;
#METER:9;
#CREDIT:Fred-104;
#NOTES:
0000
0000
0000
0000
,
0000
0000
0000
0000
,
0000
0000
0000
0000
,
0000
0000
0000
0000
,
0000
0000
0000
0000
,
0000
0000
0000
0000
,
0001
0010
0100
0000
1000
0000
0001
0000
,
0100
0010
0100
0000
0001
0000
1000
0000
,
0100
1000
0100
0000
0010
0001
0010
0000
,
0001
1000
0001
1000
0010
0100
0010
0100
,
0002
0000
0000
0000
,
2003
0000
0000
0000
,
3200
0000
0000
0000
,
0320
0000
0032
0000
,
2003
0000
0000
0000
,
3020
0000
0230
0000
,
0302
0000
2003
0000
,
0002
0000
0000
3003
,
0002
0010
0010
0013
,
0200
1300
0002
0103
,
0020
0100
0100
0130
,
0002
0000
1000
0000
1003
0100
0010
0001
,
1000
0100
0001
0100
,
1000
0100
0001
0100
,
1000
0001
0010
0000
0100
1000
0001
0000
,
0100
0010
0100
0000
0001
1000
0001
0000
,
0010
0000
0000
0000
0100
0000
0000
0000
1000
0000
0000
1000
0000
0000
0001
0000
,
0100
0000
0000
0000
0010
0000
0000
0000
0100
0000
0000
0001
0000
0000
0001
0000
,
0010
0000
0000
0000
0100
0000
0000
0000
1000
0000
0000
1000
0000
0000
0001
0000
,
0100
0010
0100
0000
0001
1000
0001
0000
,
0010
0000
0100
0000
1000
0000
0000
0000
0001
0000
0000
0001
0000
0000
1000
0000
,
0010
0000
0100
0000
0010
0000
0000
0000
1000
0000
0000
0001
0000
0000
0010
0000
,
0100
1000
0001
0000
0100
0001
1000
0000
,
0001
0010
0001
0010
0100
1000
0100
0000
,
0010
0000
1001
0000
0001
0010
0100
0000
,
2000
0001
0001
3001
,
0100
0000
1001
0000
0001
0010
0100
0020
,
0000
0031
1000
0020
0000
0130
0002
0000
,
0013
0000
1001
0000
0001
0100
0001
2000
,
0000
3001
0010
0200
0000
1300
0001
0000
,
2000
0000
3100
0010
0001
0000
1000
0020
,
0000
0100
0000
0230
0000
0002
0303
0000
,
0001
0000
0010
0100
0000
1000
0001
0000
,
0200
0010
0001
0310
,
2000
0100
0010
3100
,
2000
0000
0000
3002
0000
0000
0103
0000
,
0110
0000
0010
1000
0000
0001
0010
0000
,
0200
0000
1000
0000
0010
0000
1300
0100
,
0010
0001
1000
0001
,
0100
0010
0100
0010
0100
0010
0100
0000
,
1002
0000
2003
0000
,
3200
0000
0320
0032
,
2000
0000
0000
0000
,
0000
0000
3003
0000
,
0002
0000
0000
0203
,
0320
0000
2030
3002
,
0023
0000
0000
0000
,
0200
0000
0330
0000
,
2001
0000
0000
3001
,
0200
0000
0310
1000
,
0002
0010
0010
0013
,
0200
0010
0010
0310
,
0001
0010
0100
0000
1000
0010
0100
0000
,
0001
0100
0010
0000
1000
0100
0010
0000
,
0001
1000
0001
0100
0010
1000
0001
0010
,
0220
0000
0000
0000
0330
0000
1000
0100
,
0010
0000
0001
1000
0010
0100
0010
1000
,
0000
0001
0010
0100
0010
0001
1000
0010
,
0000
0000
0100
0000
0001
0000
1000
0000
0001
0000
0000
0010
0000
0000
0100
0000
,
0000
0010
0001
0000
1000
0001
0100
0010
,
1000
0000
0110
0000
0001
0010
0100
1000
,
0000
0001
0100
0000
0010
1000
0001
0010
,
0100
0000
0010
0001
1000
0100
0001
0100
,
1000
0000
0001
0000
0100
0010
0100
0001
,
2002
0000
0000
0000
,
3003
0000
0000
0000
;

//--------------- dance-single - Fred-104 ----------------
#NOTEDATA:;
#STEPSTYPE:dance-single;
#DESCRIPTION:Fred-104;
#DIFFICULTY:Hard;
#METER:13;
#CREDIT:Fred-104;
#NOTES:
0000
0000
0000
0000
,
0000
0000
0000
0000
,
0000
0000
0000
0000
,
0000
0000
0000
0000
,
0000
0000
0000
0000
,
0000
0000
0000
0000
,
1001
0001
0100
0000
0010
0000
1000
0000
,
1100
1000
0001
0000
0100
0000
0010
1000
,
1001
0001
0100
0000
1001
1000
0100
0000
,
1001
0000
0001
0000
1000
0000
0100
0000
0010
0001
0010
0000
0001
0010
0001
0000
,
0020
0000
0032
2003
,
3200
0000
2300
3002
,
0023
0000
0032
0203
,
0320
0000
2030
0000
,
3002
0000
0023
0000
0130
2000
0000
3002
,
0000
0000
0103
0000
0020
0000
0000
0000
0000
0000
0130
0000
0000
0001
0000
0000
,
2000
0000
0000
3100
0010
0002
0000
1003
,
2002
0000
0000
3003
,
1000
0100
1000
0001
0100
0010
0100
0001
,
1000
0000
0001
0000
0100
0010
0100
0000
0001
0000
1000
0000
0100
0010
0100
0000
,
0010
0000
0001
1000
0000
0001
0100
0000
0010
0000
1000
0001
0000
0010
0100
0000
,
1000
0000
0001
0100
0000
0010
1000
0000
0001
1000
0001
1000
0001
0000
1000
0000
,
0001
0100
1000
0100
0001
0100
1000
0100
,
0010
0001
0010
1000
0010
0001
0010
1000
,
0001
0010
0100
1000
0001
0100
0010
1000
,
0001
0100
0001
0000
1000
0100
1000
0000
0001
1000
0001
1000
0001
0000
0010
0000
,
0100
0000
1000
0000
0001
0010
0000
0010
0100
0000
0100
0010
0000
0010
0001
0000
,
1000
0000
0001
0000
0100
0010
0000
0010
1000
0000
1000
0010
0000
0010
0100
0000
,
0001
0000
1000
0000
0001
0100
0000
0100
0010
0000
0010
0100
0000
0100
0001
0000
,
1000
0100
1000
0000
0001
0100
0001
0000
0100
0010
0100
0000
0010
1000
0010
0000
,
1000
0000
0001
0000
0100
0001
0000
1000
0001
0000
0010
0001
0000
1000
0001
0000
,
0010
0000
0100
0000
1000
0001
0000
0100
0010
0000
1000
0001
0000
0010
0100
0000
,
1000
0100
1000
0000
0001
0100
0001
0000
0100
0010
0100
0000
0001
1000
0001
0000
,
0010
0100
0010
0000
0100
1000
0100
0000
1000
0000
0001
0000
0100
0000
0010
0000
,
0100
0000
0101
0000
1000
0100
0020
0000
,
0031
1000
0010
0100
0001
0010
0100
0010
,
0001
0100
0110
0000
1000
0100
0010
0002
,
0000
0103
1000
0200
0000
0310
0100
0001
,
1000
0000
1010
0000
1000
0100
0010
0002
,
0000
0103
0010
0001
0010
0100
0010
1000
,
2002
0000
3003
1000
0200
0000
0310
0200
,
0000
0000
1300
0000
0100
0000
0001
0000
0100
0000
0010
0000
0001
1000
0001
1000
,
0001
0010
0010
0100
0010
0010
0011
0000
,
1000
0000
0100
1000
0001
0000
0100
0001
1000
0000
0100
0000
0010
0000
0001
0000
,
0100
0000
0001
0000
0010
0100
1000
0000
0001
0000
0100
0000
0010
1000
0001
0000
,
1000
0000
0100
0000
0100
0000
0010
0000
0100
0000
0100
0000
1000
0000
0001
1000
,
0001
0000
0100
0000
0100
0000
0010
0000
0100
0000
0100
0000
0001
0000
0010
0100
,
1000
0000
0001
0000
0100
0010
1000
0000
0100
0000
0010
0000
0001
1000
0010
0000
,
0100
0001
0100
0000
0010
1000
0010
0000
1000
0100
1000
0000
0001
0010
0001
0000
,
0100
0010
0100
0000
0001
0100
0001
0000
1000
0100
1000
0000
0001
1000
0001
0000
,
0200
0000
0320
0000
,
0230
0000
0302
2003
,
3200
0000
0000
0000
,
0000
0000
0000
0000
,
0320
0000
0000
0032
,
2003
0000
0000
3001
1000
0001
0000
0001
,
0020
0000
0230
0000
,
2300
0000
0002
3003
,
2010
0000
0000
0000
0000
0000
3000
0100
,
0020
0000
0000
0000
0130
1000
0000
1000
,
2002
0000
0000
0000
,
0000
0000
0000
0000
0000
0000
3003
0001
,
1001
1000
0001
0100
0010
1000
0100
0010
,
0001
1000
0001
0000
0100
0000
0010
0000
1000
0100
1000
0000
0001
0000
0010
0000
,
0001
0100
0001
0000
1000
0100
1000
0000
0001
0010
0001
0000
1000
0100
1000
0000
,
2002
0000
0000
0000
3003
1000
0010
0100
,
0001
0000
0000
0000
1000
0000
0100
0000
0010
0001
0010
0000
0001
0000
1000
0000
,
0000
0000
0010
0000
0010
0000
0100
0000
0001
0000
1000
0000
0100
0010
0100
0000
,
0000
0000
1000
0000
0001
0000
0100
0010
0100
0000
0000
0001
0000
0000
1000
0000
,
0000
0000
0100
0000
0010
0000
0001
0000
1000
0000
0010
0000
0100
0001
0100
0000
,
0001
0000
0000
0000
1000
0000
0001
1000
0001
0000
0010
0000
0100
0000
0010
0000
,
0000
0000
0001
0000
1000
0000
0100
0000
1000
0000
0010
0000
0000
1000
0000
0000
,
0001
0000
0010
0100
1000
0010
0100
0001
,
1000
0000
0100
1000
0000
0001
0100
0000
0010
0100
0010
0100
0010
0000
1000
0000
,
2002
0000
0000
0000
,
3003
0000
0000
0000
;

//--------------- dance-single - Fred-104 ----------------
#NOTEDATA:;
#STEPSTYPE:dance-single;
#DESCRIPTION:Fred-104;
#DIFFICULTY:Challenge;
#METER:16;
#CREDIT:Fred-104;
#NOTES:
0000
0000
0000
0000
,
0000
0000
0000
0000
,
0000
0000
0000
0000
,
0000
0000
0000
0000
,
0000
0000
0000
0000
,
0000
0000
0000
0000
,
1000
0010
1000
0000
0001
0100
0001
0000
1000
0100
1000
0000
0001
0010
0001
0000
,
0100
0010
0100
0000
0001
0010
0001
0000
1000
0100
1000
0000
0010
0100
0010
0000
,
1000
0100
0010
0001
1000
0010
1000
0010
1000
0001
0010
0100
1000
0100
1000
0100
,
1000
0001
0100
0010
1000
0001
1000
0001
0010
0100
1000
0001
0100
0010
0100
0010
,
0200
0000
0000
0301
1000
0100
0010
0002
,
0000
0000
0000
0103
0010
1000
0001
0020
,
0000
0000
0000
0000
0000
0000
0130
0000
1000
0000
0000
0001
0000
0000
2000
0000
,
0000
3001
0200
0000
0000
0000
0000
0000
,
0300
0000
0002
0000
1003
0200
0000
0320
,
0000
0000
0130
0000
2000
0000
0000
0000
0000
0000
3001
0000
0000
1000
0000
0000
,
0020
0000
0000
0130
0001
2000
0000
3200
,
0020
0000
0000
0330
,
0001
0010
0100
0000
0010
0100
1000
0000
0001
1000
0010
0000
0100
0001
1000
0000
,
0001
0000
0010
0000
1000
0010
0001
0000
1000
0000
0010
0000
0001
0010
1000
0000
,
0001
0000
1000
0001
0000
0010
0001
0000
1000
0000
0001
0010
0000
0100
1000
0000
,
0001
0000
0000
0000
0000
0000
0100
0000
0000
0010
0000
0000
0000
0000
0000
1000
0000
0000
0001
0000
0000
0000
0000
0000
1000
0000
0100
0000
1000
0000
0100
0000
1000
0000
0100
0000
1000
0000
0000
0000
0000
0000
0001
0000
0000
1000
0000
0000
,
0010
1000
0001
0010
0100
1000
0001
0100
,
0010
0000
1000
0000
0001
0000
0010
0000
0100
0010
0001
0000
1000
0000
0001
0000
,
0100
0010
1000
0010
0100
0001
0010
0100
1000
0100
0010
0001
1000
0010
0100
0001
,
1000
0100
0001
0000
1000
0010
0001
0000
1000
0100
0010
0001
1000
0100
0010
0001
,
1000
0000
0001
0000
1000
0001
0000
0010
0100
0000
0010
0001
0000
0100
0010
0000
,
1000
0001
0010
0000
0100
1000
0000
0001
0100
0000
0010
0100
0000
0001
0010
0000
,
0100
1000
0010
0000
0100
0001
0000
1000
0001
0000
0010
0100
0000
1000
0001
0000
,
1000
0001
0100
0001
1000
0001
0010
0100
1000
0010
0100
0000
0001
0010
0100
0000
,
1000
0001
1000
0000
0001
0010
0000
0100
1000
0000
0001
0100
0000
0010
1000
0000
,
0001
1000
0010
0000
1000
0001
0010
0000
0001
1000
0100
0000
1000
0001
0100
0000
,
0001
1000
0001
0010
0100
1000
0100
0000
1000
0001
0100
0001
1000
0001
0010
0000
,
0100
1000
0100
1000
0001
0100
0001
0100
0010
1000
0010
1000
0001
0010
0100
1000
,
0002
0000
0100
0000
1000
1000
1003
0000
,
0001
0010
0100
0000
0001
0100
0010
0000
0001
0100
0010
0000
0001
0010
0100
0000
,
0002
1000
1000
0000
0100
0100
0100
0203
,
0000
0000
0301
1000
0001
0000
0020
0000
0000
0000
0130
1000
0001
0000
1000
0000
,
0200
0000
1000
0000
0010
0010
0010
0320
,
0000
0000
0031
1000
0010
0000
1000
0001
0010
0000
0100
1000
0010
0000
0100
0000
,
0002
0000
0000
0000
0103
0000
0001
0000
0010
0000
0100
1000
0001
0000
2000
0000
,
0100
0000
3020
0000
0100
0000
1030
0000
0001
0000
1000
0000
0001
1000
0001
1000
,
0001
0000
0100
0010
1000
0000
0001
0000
0100
0010
1000
0000
0001
0000
0010
0000
,
0100
0000
1000
0001
0010
0000
0001
0000
0100
0010
1000
0000
0001
0010
0100
0010
,
0001
0100
0010
0000
1000
0100
0010
0000
0001
0010
0100
0000
1000
0010
0100
0000
,
0002
0000
0010
0000
1003
0000
0200
0000
0010
0000
1300
0000
0001
0000
1000
0001
,
0010
0000
0001
1000
0100
0000
0010
0000
0001
1000
0010
0000
0100
0000
0010
0000
,
1000
0000
0001
1000
0100
0000
1000
0010
0100
0001
1000
0000
0001
0010
0100
0000
,
1000
0001
0100
0010
1000
0001
0100
0010
1000
0001
0010
0100
1000
0001
0010
0100
,
1000
0000
0000
0100
0000
0000
0010
0000
0000
0001
0000
0000
1000
0000
0000
0010
0000
0000
1000
0000
0000
0010
0000
0000
1000
0000
0000
0000
0000
0000
0001
0000
0000
0000
0000
0000
1000
0000
0100
0000
1000
0000
0100
0000
1000
0000
0100
0000
,
2000
0000
3002
0000
,
0203
0000
0000
0000
0310
1000
0100
0010
,
0002
0000
0000
0000
,
0000
0000
0000
0003
,
2002
0000
0000
0000
3003
0000
0220
0330
,
2002
0000
3003
0001
0010
0100
0001
0100
,
0020
0000
0032
0000
,
2003
0000
0002
3003
,
2100
0000
0010
0000
0001
0000
3100
1000
,
0002
0000
0010
0000
1000
0000
0103
0101
,
2001
0100
0001
0010
,
3200
0000
0010
0000
1300
0100
0001
0100
,
1000
0010
1000
0010
0100
0001
0100
0001
1000
0100
1000
0100
0010
0001
0010
0001
,
0100
0010
1000
0010
0100
0001
1000
0001
0010
0100
1000
0100
0010
0001
1000
0001
,
1000
0100
0010
0001
1000
0010
1000
0010
1000
0001
0010
0100
1000
0010
0100
0002
,
2000
0000
0000
0000
3003
1000
0100
0010
,
0001
0000
0100
1000
0100
0000
0001
0000
0010
0100
0010
0000
0001
0000
1000
0000
,
0001
0000
0010
1000
0010
0000
0001
0000
1000
0100
1000
0000
0001
0000
0100
0000
,
0010
0000
1000
0001
1000
0000
0010
0000
0100
0001
0000
0001
0010
0000
0100
0000
,
0010
0000
0001
0100
0000
0001
0010
0000
0100
1000
0100
1000
0001
0000
0100
0000
,
0010
1000
0010
0000
0100
0001
0100
0000
0001
0000
0010
0000
1000
0000
0020
0000
,
0000
0000
0130
1000
0100
0000
0010
0000
0001
0000
1000
0000
0010
0100
0010
0000
,
2000
0000
3100
0001
1000
0010
0001
0010
,
0100
0000
1000
0001
0000
0100
0001
0000
1000
0001
0100
0001
1000
0001
0010
0100
,
2002
0000
0000
0000
,
3003
0000
0000
0000
;

//--------------- dance-double - Fred-104 ----------------
#NOTEDATA:;
#STEPSTYPE:dance-double;
#DESCRIPTION:Fred-104;
#DIFFICULTY:Easy;
#METER:4;
#CREDIT:Fred-104;
#NOTES:
00000000
00000000
00000000
00000000
,
00000000
00000000
00000000
00000000
,
00000000
00000000
00000000
00000000
,
00000000
00000000
00000000
00000000
,
00000000
00000000
00000000
00000000
,
00000000
00000000
00000000
00000000
,
00010000
00000000
00001000
00000000
,
00010000
00000000
00000010
00000000
,
00001000
00000000
00000001
00000000
,
00000010
00000010
00000100
00000100
,
00002000
00000000
00000000
00000000
,
00003002
00000000
00000000
00000000
,
00002003
00000000
00000000
00000000
,
00003200
00000000
00000300
00000000
,
00020000
00000000
00000000
00000000
,
00032000
00000000
00000000
00000000
,
02003000
00000000
00000000
00000000
,
03020000
00000000
00030000
00000000
,
20000000
30000000
02000000
03000000
,
00200000
00300000
00020000
00030000
,
00200000
00300000
00002000
00003000
,
00020000
00030000
00002000
00003000
,
00000010
00000000
00000001
00000000
,
00000010
00000000
00000100
00000000
,
00001000
00001000
00000100
00000100
,
00010000
00010000
00001000
00001000
,
00020000
00030000
00002000
00003000
,
00020000
00030000
00200000
00300000
,
20000000
30000000
00020000
00030000
,
10000000
10000000
01000000
00100000
,
02000000
03000000
00200000
00300000
,
00002000
00003000
00020000
00030000
,
00000020
00000030
00002000
00003000
,
00000001
00000001
00000100
00000100
,
00000110
00000000
00001000
00000000
,
00000001
00000010
00000100
00000000
,
00010000
00000000
00001000
00000000
,
00010000
00010000
00001000
00001000
,
00010000
00000000
00001000
00000000
,
01000000
00001000
01000000
00000000
,
00010000
00000000
01000000
00000000
,
00100000
10000000
00010000
10000000
,
02000000
03000000
00200000
00300000
,
00001000
00001000
00010000
00000000
,
00001000
00000000
00010000
00000000
,
00000010
00001000
00000010
00000100
,
00000020
00000030
00002000
00003000
,
00000001
00000000
00000010
00000100
,
00000100
00000000
00001000
00000000
,
00000100
00000100
00010000
00001000
,
00022000
00000000
00000000
00000000
,
00000000
00000000
00000000
00000000
,
00000000
00000000
00000000
00000000
,
00000000
00000000
00033000
00000000
,
00002000
00000000
00000000
00000000
,
00023000
00000000
00000000
00000000
,
02030000
00000000
00000000
00000000
,
23000000
00000000
30000000
00000000
,
10010000
00000000
10000000
00000000
,
01000000
00000000
00100000
00010000
,
00100000
00000000
00001000
00000000
,
00010000
00000000
00000010
00001000
,
00000010
00000000
00010000
00000000
,
00001000
00000000
01000000
00000000
,
00010000
10000000
00010000
10000000
,
20020000
00000000
00000000
30030000
,
10000000
00000000
01000000
00000000
,
00010000
00001000
00010000
00000000
,
00001000
00000000
00000100
00000000
,
00000001
00001000
00000001
00000000
,
00000010
00000000
00001000
00000000
,
00010000
00001000
00010000
00000000
,
00100000
00000000
10000000
00000000
,
01000000
00100000
00001000
00010000
,
00022000
00000000
00000000
00000000
,
00033000
00000000
00000000
00000000
;

//--------------- dance-double - Fred-104 ----------------
#NOTEDATA:;
#STEPSTYPE:dance-double;
#DESCRIPTION:Fred-104;
#DIFFICULTY:Medium;
#METER:9;
#CREDIT:Fred-104;
#NOTES:
00000000
00000000
00000000
00000000
,
00000000
00000000
00000000
00000000
,
00000000
00000000
00000000
00000000
,
00000000
00000000
00000000
00000000
,
00000000
00000000
00000000
00000000
,
00000000
00000000
00000000
00000000
,
00001000
00100000
00001000
00000000
00010000
00000000
00100000
00000000
,
01000000
00100000
01000000
00000000
00010000
00000000
10000000
00000000
,
01000000
00100000
00010000
00000000
00100000
00001000
00010000
00000000
,
00001000
00000010
00000001
00000010
00000100
00001000
00000100
00000000
,
00020000
00000000
00000000
00000000
,
00032000
00000000
00000000
00000000
,
00023000
00000000
00000000
00000000
,
00032000
00000000
00023000
00000000
,
02030000
00000000
00000000
00000000
,
23000000
00000000
30020000
00000000
,
20030000
00000000
32000000
00000000
,
00200000
00000000
00000000
03300000
,
00002000
00010000
00010000
00013000
,
00010000
00000000
00000000
00001000
00000000
00000000
00001000
00000000
00010000
00000000
00000000
00000010
00000000
00000000
00000010
00000000
,
00001000
00000000
00000000
00000001
00000000
00000000
00000001
00000000
00000100
00000000
00000000
00000010
00000000
00000000
00000010
00000000
,
00010000
00000000
00000000
00001000
00000000
00000000
00001000
00000000
00010000
00000000
00001000
00000000
00010000
00000000
00000000
00000000
,
00001000
00010000
01000000
00010000
,
00001000
00010000
01000000
00010000
,
00001000
00010000
01000000
00000000
00010000
00001000
00010000
00000000
,
00001000
00010000
00000100
00000000
00001000
00000001
00000100
00000000
,
00000001
00000000
00000000
00000000
00000010
00000000
00000000
00000000
00000100
00000000
00000000
00010000
00000000
00000000
00001000
00000000
,
00010000
00000000
00000000
00000000
01000000
00000000
00000000
00000000
00100000
00000000
00000000
00010000
00000000
00000000
10000000
00000000
,
00100000
00000000
00000000
00000000
01000000
00000000
00000000
00000000
00010000
00000000
00000000
10000000
00000000
00000000
01000000
00000000
,
00100000
00010000
00100000
00000000
00001000
00010000
00001000
00000000
,
00010000
00000000
00000010
00000000
00001000
00000000
00000000
00000000
00000010
00000000
00000000
00000010
00000000
00000000
00000100
00000000
,
00000001
00000000
00001000
00000000
00000100
00000000
00000000
00000000
00000010
00000000
00000000
00000001
00000000
00000000
00000001
00000000
,
00001000
00000010
00010000
00000000
00001000
00100000
00010000
00000000
,
01000000
00100000
01000000
00100000
10000000
00010000
10000000
00000000
,
01000000
00000000
01100000
00000000
00100000
00001000
00010000
00000000
,
00001000
00010000
00010000
00000000
00001000
00001000
00010000
00000000
,
00001000
00000000
00011000
00000000
00010000
00001000
00010000
00000020
,
00000000
00001030
00000001
00002000
00000000
00003100
00000020
00000000
,
00000031
00000000
00000101
00000000
00000001
00001000
00000100
00002000
,
00000000
00003010
00010000
00002000
00000000
00013000
00001000
00000000
,
02000000
00000000
03100000
10000000
00100000
00000000
01000000
00020000
,
00000000
10000000
00000000
20030000
00000000
02000000
33000000
00000000
,
10000000
00000000
00000000
01000000
00000000
00100000
00001000
00000000
,
00020000
00001000
00001000
00031000
,
00020000
00001000
00001000
00031000
,
00010000
00000000
00000000
00000200
00000000
00000000
00001300
00000000
,
00001100
00000000
00000000
00000100
00000000
00000010
00000001
00000000
,
00002000
00000000
00000001
00000000
00000001
00000000
00003001
00000100
,
00000010
00000100
00001000
00010000
,
00100000
01000000
00100000
01000000
00100000
10000000
00010000
00000000
,
20010000
00000000
30020000
00000000
,
00230000
00000000
00302000
00023000
,
00002000
00000000
00000000
00000000
,
00000000
00000000
00033000
00000000
,
00020000
00000000
00000000
00032000
,
00003200
00000000
00000302
00000023
,
00002030
00000000
00000000
00000000
,
00020000
00000000
00033000
00000000
,
00012000
00000000
00000000
00013000
,
00002000
00000000
01003000
00010000
,
20000000
01000000
01000000
31000000
,
00200000
00010000
00010000
00310000
,
00100000
00001000
00100000
00000000
00001000
00010000
00001000
00000000
,
00010000
00000010
00010000
00000000
00000010
00001000
00000010
00000000
,
00001000
00000001
00000010
00000100
00001000
00000100
00010000
00000000
,
00022000
00000000
00000000
00000000
00033000
00000000
00001000
00100000
,
00001000
00000000
00100000
00010000
01000000
00010000
10000000
01000000
,
00000000
00100000
00010000
00100000
00001000
00010000
00001000
00010000
,
00000000
00000000
00100000
00000000
01000000
00000000
00010000
00000000
10000000
00000000
00000000
00100000
00000000
00000000
00010000
00000000
,
00000000
00001000
00010000
00000000
00001000
00000010
00000001
00000010
,
00000100
00000000
00001100
00000000
00000001
00000100
00001000
00010000
,
00000000
00001000
00010000
00000000
00100000
01000000
00010000
01000000
,
00010000
00000000
10000000
01000000
00100000
00001000
00000000
00001000
,
00010000
00000000
00001000
00000000
00010000
00100000
01000000
00000000
,
20020000
00000000
00000000
00000000
,
30030000
00000000
00000000
00000000
;

//--------------- dance-double - Fred-104 ----------------
#NOTEDATA:;
#STEPSTYPE:dance-double;
#DESCRIPTION:Fred-104;
#DIFFICULTY:Hard;
#METER:13;
#CREDIT:Fred-104;
#NOTES:
00000000
00000000
00000000
00000000
,
00000000
00000000
00000000
00000000
,
00000000
00000000
00000000
00000000
,
00000000
00000000
00000000
00000000
,
00000000
00000000
00000000
00000000
,
00000000
00000000
00000000
00000000
,
00001000
00010000
00001000
00010000
01000000
00100000
00010000
00100000
,
01000000
10000000
00010000
10000000
00100000
00010000
00001000
00010000
,
00011000
00010000
00000100
00000000
00001001
00001000
00000010
00000000
,
00001001
00000000
00001000
00000000
00000100
00000000
00000010
00000000
00000001
00000000
00000100
00000000
00001000
00010000
00001000
00010000
,
00002000
00000000
00000000
00013000
00100000
01000000
00100000
20000000
,
00000000
00000000
30000000
00010000
10000000
01000000
00010000
00002000
,
00000000
00000000
00000000
00000000
00000000
00000000
00013000
00000000
00001000
00000000
00000000
00000100
00000000
00000000
00000002
00000000
,
00000000
00001003
00000002
00000000
00000000
00000000
00000000
00000000
,
00000000
00000000
00000023
00000000
00000130
00000020
00000000
00002030
,
00000000
00000000
00013000
00000000
02000000
00000000
00000000
00000000
00000000
00000000
03100000
00000000
00000000
00010000
00000000
00000000
,
20000000
00000000
00000000
30010000
01000000
00002000
00000000
00013000
,
00002000
00000000
00000000
00003000
,
00010000
00001000
00000100
00000010
00000100
00000001
00001000
00000100
,
00000010
00000000
00000001
00000000
00001000
00000010
00001000
00000000
00000100
00000000
00010000
00000000
00001000
01000000
00001000
00000000
,
00010000
00000000
00001000
00010000
00000000
00100000
01000000
00000000
00100000
00000000
10000000
00010000
00000000
00100000
01000000
00000000
,
00100000
00000000
00010000
10000000
00000000
00100000
01000000
00000000
00001000
00010000
00001000
00000000
00010000
00000000
00001000
00000000
,
00010000
00001000
00000010
00001000
00010000
00001000
00000010
00001000
,
00010000
00001000
00000010
00001000
00010000
00001000
00000010
00001000
,
00010000
00001000
00000100
00000010
00001000
00000001
00000010
00000100
,
00001000
00000010
00001000
00000000
00000001
00000010
00000001
00000000
00000100
00000010
00000100
00000010
00000100
00000000
00000001
00000000
,
00001000
00000000
00000010
00000000
00010000
00001000
00000000
00010000
00001000
00000000
00100000
00001000
00000000
00010000
00001000
00000000
,
00010000
00000000
00001000
00000000
01000000
00001000
00000000
01000000
00001000
00000000
00010000
00001000
00000000
00100000
00001000
00000000
,
00010000
00000000
00000010
00000000
00010000
00001000
00000000
00010000
00000010
00000000
00010000
00001000
00000000
00010000
00001000
00000000
,
00100000
00010000
00100000
00000000
00010000
10000000
00010000
00000000
01000000
00100000
01000000
00000000
00100000
10000000
00100000
00000000
,
01000000
00000000
00010000
00000000
00100000
00001000
00000000
00010000
00001000
00000000
01000000
00001000
00000000
00010000
00001000
00000000
,
00010000
00000000
00000100
00000000
00010000
00001000
00000000
00010000
00000010
00000000
00001000
00000010
00000000
00010000
00001000
00000000
,
00010000
00001000
00010000
00000000
00000100
00001000
00000100
00000000
00010000
00001000
00010000
00000000
00000010
00001000
00000010
00000000
,
00010000
00001000
00000100
00000001
00000010
00000100
00001000
00000100
,
00010000
00000000
00011000
00000000
00001000
00010000
00100000
10000000
,
00010000
00100000
01000000
00100000
00010000
10000000
00100000
00000000
,
01100000
00000000
00011000
00000000
00010000
00001000
00000010
00000200
,
00000000
00001300
00000001
00000200
00000000
00000310
00001000
00000100
,
00000010
00000000
00001001
00000000
00000001
00000010
00001000
00010000
,
00000000
00001000
00010000
00100000
00000000
01000000
00010000
10000000
,
02000000
00000000
03100000
00001000
00020000
00000000
00030010
00002000
,
00000000
00000000
00003010
00000000
00010000
00000000
00001000
00000000
00000010
00000000
00000001
00000000
00001000
00000100
00001000
00000100
,
00000010
00000001
00000001
00000100
00000001
00000001
00000011
00000000
,
00000001
00000100
00001000
00010000
00100000
01000000
00100000
10000000
,
00010000
10000000
01000000
00010000
00000100
00000010
00000001
00001000
,
00000001
00000000
00000010
00000000
00001000
00000000
00010000
00000000
01000000
00000000
10000000
00000000
00010000
00000000
10000000
00010000
,
10000000
00100000
00100000
01000000
00100000
00100000
10100000
00000000
,
00010000
00000000
10000000
00000000
01000000
00100000
00010000
00000000
00100000
00000000
00001000
00000000
00010000
00000010
00001000
00000000
,
00000001
00000100
00000001
00000000
00001000
00000100
00001000
00000000
00000001
00000010
00000001
00000000
00001000
00000010
00001000
00000000
,
00000001
00000000
00000100
00000000
00001000
00000000
00010000
00000000
00001000
00010000
00001000
00010000
00001000
00010000
00001000
00010000
,
00002000
00000000
00023000
00000000
,
00032000
00000000
02003000
03020000
,
20030000
00000000
00000000
00000000
,
00000000
00000000
00000000
00000000
,
32000000
00000000
03200000
00302000
,
00023000
00000000
00000000
00031000
00010000
00000010
00000000
00000010
,
00002000
00000000
00003200
00000000
,
00000320
00000000
00000002
00000033
,
00001002
00000000
00000000
00000000
00000000
00000000
00000000
00001003
,
00000002
00000000
00000000
00000000
00001003
00000100
00000000
00010000
,
00022000
00000000
00000000
00000000
,
00000000
00000000
00000000
00000000
00000000
00000000
00033000
00001000
,
00011000
00010000
00001000
00100000
00010000
10000000
00100000
01000000
,
00010000
00100000
00010000
00000000
10000000
01000000
10000000
00000000
00010000
00100000
00010000
00000000
00100000
00001000
00100000
00000000
,
00001000
00010000
00001000
00000000
00010000
00000010
00010000
00000000
00000010
00001000
00000010
00000000
00000100
00000001
00000100
00000000
,
00000220
00000000
00000000
00000000
00000330
00001000
00000100
00000010
,
00000001
00000000
00000000
00000000
00001000
00000000
00000001
00000000
00000100
00000010
00000100
00000000
00000001
00000000
00001000
00000000
,
00000000
00000000
00000001
00000000
00000100
00000000
00000010
00000000
00000100
00000000
00001000
00000000
00010000
00001000
00010000
00000000
,
00000000
00000000
00001000
00000000
00010000
00000000
01000000
00100000
01000000
00000000
00000000
10000000
00000000
00000000
00010000
00000000
,
00000000
00000000
10000000
00000000
00100000
00000000
00010000
00000000
00001000
00000000
00000100
00000000
00000001
00000010
00000001
00000000
,
00001000
00000000
00000000
00000000
00000100
00000000
00010000
00001000
00010000
00000000
00000010
00000000
00010000
00000000
00001000
00000000
,
00000000
00000000
00010000
00000000
00100000
00000000
01000000
00000000
00100000
00000000
10000000
00000000
00000000
00010000
00000000
00000000
,
10000000
00000000
01000000
00100000
00001000
00010000
00000100
00000010
,
00000001
00000000
00001000
00000010
00000000
00000100
00000001
00000000
00001000
00000100
00001000
00000100
00000010
00000000
00000001
00000000
,
00002002
00000000
00000000
00000000
,
00003003
00000000
00000000
00000000
;

//--------------- dance-double - Fred-104 ----------------
#NOTEDATA:;
#STEPSTYPE:dance-double;
#DESCRIPTION:Fred-104;
#DIFFICULTY:Challenge;
#METER:16;
#CREDIT:Fred-104;
#NOTES:
00000000
00000000
00000000
00000000
,
00000000
00000000
00000000
00000000
,
00000000
00000000
00000000
00000000
,
00000000
00000000
00000000
00000000
,
00000000
00000000
00000000
00000000
,
00000000
00000000
00000000
00000000
,
00010000
00000010
00001000
00000000
00000001
00001000
00000100
00000000
00000010
00000001
00000100
00000000
00000010
00000100
00001000
00000000
,
00010000
00100000
01000000
00000000
00100000
10000000
00010000
00000000
10000000
01000000
00100000
00000000
00001000
00010000
00001000
00000000
,
00100000
00001000
00010000
00000010
00001000
00000010
00001000
00000010
00001000
00000001
00000010
00000100
00001000
00000100
00001000
00000100
,
00010000
00001000
00010000
01000000
10000000
01000000
00100000
00010000
01000000
00100000
00010000
00001000
00010000
00000010
00000100
00000001
,
00002000
00000000
00000000
00003010
00000100
00001000
00010000
00002000
,
00000000
00000000
00000000
00013000
00001000
00000010
00000100
00002000
,
00000000
00000000
00000000
00000000
00000000
00000000
00003010
00000000
00000100
00000000
00000000
00001000
00000000
00000000
00010000
00000000
,
00000000
00100000
02000000
00000000
00000000
00000000
00000000
00000000
,
03000000
00000000
00020000
00000000
00130000
02000000
00000000
03020000
,
00000000
00000000
00031000
00000000
00020000
00000000
00000000
00000000
00000000
00000000
00130000
00000000
00000000
01000000
00000000
00000000
,
00002000
00000000
00000000
00013000
00001000
00000020
00000000
00000230
,
00002000
00000000
00000000
00003300
,
00000001
00000100
00000010
00000000
00001000
00000010
00010000
00000000
00001000
01000000
00010000
00000000
10000000
00010000
00100000
00000000
,
00010000
00000000
01000000
00000000
10000000
01000000
00100000
00000000
10000000
00000000
01000000
00000000
00010000
01000000
00100000
00000000
,
00010000
00000000
10000000
01000000
00000000
00100000
00001000
00000000
00010000
00000000
00000100
00001000
00000000
00000001
00001000
00000000
,
00000001
00000000
00000000
00000000
00000000
00000000
00000010
00000000
00000000
00000100
00000000
00000000
00000000
00000000
00000000
00010000
00000000
00000000
00001000
00000000
00000000
00000000
00000000
00000000
00010000
00000000
00001000
00000000
00010000
00000000
00001000
00000000
00010000
00000000
00001000
00000000
00010000
00000000
00000000
00000000
00000000
00000000
00000100
00000000
00000000
00000000
00000000
00000000
,
00010000
00001000
00000010
00001000
00010000
00001000
00000010
00001000
,
00010000
00001000
00000100
00001000
00010000
00001000
00000100
00001000
,
00010000
00001000
00010000
00001000
00000010
00000100
00000010
00000001
00000010
00000100
00001000
00000001
00000100
00001000
00010000
00001000
,
00100000
01000000
10000000
00000000
00100000
01000000
00010000
00000000
10000000
01000000
00100000
00001000
00010000
00000100
00000010
00000001
,
00001000
00000000
00000100
00000000
00001000
00000100
00000000
00000010
00000001
00000000
00000100
00001000
00000000
00010000
00001000
00000000
,
00010000
00000000
00100000
00000000
01000000
00100000
00000000
10000000
00010000
00000000
00100000
01000000
00000000
10000000
00010000
00000000
,
01000000
00000000
00001000
00000000
00010000
00001000
00000000
00000010
00000100
00000000
00001000
00000001
00000000
00000100
00001000
00000000
,
00010000
00001000
00000100
00000010
00001000
00000100
00000010
00000000
00000001
00000100
00001000
00000000
00010000
01000000
10000000
00000000
,
00010000
10000000
00100000
00000000
10000000
01000000
00000000
00100000
00001000
00000000
00010000
00100000
00000000
01000000
00001000
00000000
,
00010000
00001000
00000100
00000000
00000010
00001000
00000100
00000000
00000010
00000001
00001000
00000000
00000100
00010000
00001000
00000000
,
00010000
00001000
00010000
00000010
00001000
00000001
00000100
00000000
00000010
00000100
00001000
00010000
00100000
01000000
00010000
00000000
,
10000000
01000000
10000000
00010000
01000000
00010000
00100000
00001000
00010000
00000010
00001000
00000100
00000010
00000001
00000010
00000100
,
00002000
00000000
00000100
00000000
00000001
00000001
00003001
00000000
,
00001000
00000100
00000010
00000000
00000001
00000100
00001000
00000000
00010000
00001000
00010000
00000000
01000000
00100000
00010000
00000000
,
20000000
00000000
01000000
00000000
00100000
00100000
00100000
30200000
,
00000000
00000000
01300000
00010000
10000000
00000000
02000000
00000000
00000000
00000000
03100000
00001000
00010000
00000000
00001000
00000000
,
00020000
00000000
00001000
00000000
00000100
00000100
00000100
00030200
,
00000000
00000000
00001300
00000010
00000100
00000000
00000010
00001000
00000100
00000000
00000010
00000001
00000100
00000000
00001000
00000000
,
00020000
00000000
00000000
00000000
00031000
00000000
00010000
00000000
00100000
00000000
01000000
00001000
00010000
00000000
00100000
00000000
,
10000000
00000000
00010000
00000000
10000000
00000000
01000000
00000000
00010000
00000000
00001000
00000000
00010000
00001000
00010000
00001000
,
00010000
00000000
00001000
00000010
00001000
00000000
00010000
00000000
00001000
00000100
00001000
00000000
00010000
00000000
00000100
00000000
,
00001000
00000000
00000010
00001000
00000100
00000000
00000010
00000000
00000001
00000010
00000100
00000000
00010000
00001000
00010000
00001000
,
00010000
00000000
00001000
00100000
00010000
00000000
10000000
00010000
00100000
00000000
01000000
00100000
00010000
00000000
10000000
00100000
,
02000000
00000000
00100000
00000000
03010000
00000000
20000000
00000000
00100000
00000000
31000000
00000000
00100000
00000000
00001000
00010000
,
00001000
00000000
00010000
00001000
00000010
00000000
00001000
00000000
00010000
00001000
00000100
00000000
00001000
00000000
00010000
00000000
,
00000010
00001000
00000100
00000000
00001000
00000001
00000100
00000000
00000001
00000010
00000100
00000000
00001000
00000100
00010000
00000000
,
00001000
00100000
00010000
10000000
00010000
10000000
00010000
10000000
01000000
00100000
00010000
00100000
00001000
00010000
00001000
00010000
,
00000010
00001000
00000100
00000010
00000001
00000100
00000001
00000100
00000010
00001000
00000100
00010000
00001000
00010000
00001000
00010000
,
00002000
00000000
00023000
00000000
,
00230000
00000000
00000000
00000000
01300000
00010000
10000000
01000000
,
00200000
00000000
00000000
00000000
,
00000000
00000000
00000000
00300000
,
00022000
00000000
00000000
00000000
00000000
00033000
00020020
00030030
,
00002002
00000000
00003003
00000001
00000100
00001000
00010000
00100000
,
20000000
00000000
32000000
00000000
,
03020000
00000000
00002000
00033000
,
00021000
00000000
00001000
00000000
00000010
00000000
00031000
00010000
,
00000200
00000000
00001000
00000000
00000010
00000000
00001300
00001100
,
00001002
00000000
00000100
00000000
00001000
00000000
00000013
00000100
,
00020000
00000000
00001000
00000000
00000010
00000000
00031000
00100000
,
00010000
10000000
00010000
10000000
01000000
00100000
01000000
00100000
00001000
00010000
00001000
00010000
00000010
00000100
00000010
00000100
,
00000001
00001000
00000001
00001000
00000001
00000100
00000001
00000100
00000010
00001000
00000010
00001000
00000001
00000010
00000001
00000010
,
00000001
00000010
00000100
00001000
00000100
00010000
00001000
00100000
00010000
00100000
01000000
10000000
00010000
01000000
00001000
00010000
,
00002000
00000000
00000000
00000000
00000000
00013000
00001000
00000100
,
00000001
00000000
00000010
00000100
00000010
00000000
00000001
00000000
00000100
00001000
00000100
00000000
00000010
00000000
00001000
00000000
,
00000001
00000000
00001000
00000100
00010000
00000000
00001000
00000000
00010000
00000010
00001000
00000000
00000100
00000000
00010000
00000000
,
00001000
00000000
00100000
00010000
10000000
00000000
00010000
00000000
00100000
01000000
00000000
01000000
10000000
00000000
00010000
00000000
,
01000000
00000000
00100000
10000000
00000000
01000000
00100000
00000000
00001000
00010000
00001000
00010000
00001000
00000000
00000010
00000000
,
00000100
00001000
00000100
00000000
00000010
00000001
00000010
00000000
00000001
00000000
00000100
00000010
00000100
00000000
00000002
00000000
,
00000000
00000000
00000013
00000100
00000010
00000000
00000001
00000000
00000100
00000000
00001000
00000000
00010000
00000000
01000000
00000000
,
00100000
00000000
00010000
00100000
01000000
00100000
00001000
00010000
,
00100000
00000000
10000000
00010000
00000000
10000000
01000000
00000000
00100000
00001000
00010000
00001000
01000000
00001000
00010000
00001000
,
00022000
00000000
00000000
00000000
,
00033000
00000000
00000000
00000000
;
