#TITLE:Clumsy thoughts;
#ARTIST:猫叉Master feat. *spiLa*;
#ARTISTTRANSLIT:Nekomata Master feat. *spiLa*;
#BANNER:Clumsy thoughts.png;
#BACKGROUND:Clumsy thoughts-bg.png;
#CDTITLE:./CDTitles/RB colette -Winter-.png;
#MUSIC:Clumsy thoughts.ogg;
#SAMPLESTART:75.881;
#SAMPLELENGTH:15;
#BPMS:0=153;
#BGSTAGE:2;

//--------------- dance-single - Fred-104 ----------------
#NOTES:
     dance-single:
     Fred-104:
     Beginner:
     1:
     :
0000
0000
0000
0000
,
0000
0000
0000
0000
,
0000
0000
0000
0000
,
0000
0000
0000
0000
,
0000
0000
0000
0000
,
1000
0000
0000
0000
,
0000
0000
0000
0000
,
0001
0000
0000
0000
,
0000
0000
0000
0000
,
0000
0000
0000
0000
,
1000
0000
0000
0000
,
0000
0000
0000
0000
,
0100
0000
0000
0000
,
0000
0000
0000
0000
,
0010
0000
0000
0000
,
0000
0000
0000
0000
,
0100
0000
0000
0000
,
0000
0000
0000
0000
,
1000
0000
0000
0000
,
1000
0000
0000
0000
,
0001
0000
0000
0000
,
0001
0000
0000
0000
,
1000
0000
0000
0000
,
0001
0000
0000
0000
,
1000
0000
0000
0000
,
0001
0000
0000
0000
,
0100
0000
0000
0000
,
0001
0000
0000
0000
,
0100
0000
0000
0000
,
0010
0000
0000
0000
,
1000
0000
0000
0000
,
0001
0000
0000
0000
,
0001
0000
0000
0000
,
0001
0000
0000
0000
,
0010
0000
0000
0000
,
0010
0000
0000
0000
,
1000
0000
0000
0000
,
1000
0000
0000
0000
,
0100
0000
0000
0000
,
0100
0000
0000
0000
,
0001
0000
0000
0000
,
0001
0000
0000
0000
,
1000
0000
0000
0000
,
1000
0000
0000
0000
,
1000
0000
0000
0000
,
0001
0000
0000
0000
,
1000
0000
0000
0000
,
0001
0000
0000
0000
,
0000
0000
0000
0000
,
1000
0000
0000
0000
,
0100
0000
0000
0000
,
1000
0000
0000
0000
,
0000
0000
0000
0000
,
0001
0000
0000
0000
,
1000
0000
0000
0000
,
0001
0000
0000
0000
,
0100
0000
0000
0000
,
0001
0000
0000
0000
,
0100
0000
0000
0000
,
0010
0000
0000
0000
,
0000
0000
0000
0000
,
1000
0000
0000
0000
,
0000
0000
0000
0000
,
0001
0000
0000
0000
,
0000
0000
0000
0000
,
1000
0000
0000
0000
,
1000
0000
0000
0000
,
0001
0000
0000
0000
,
0001
0000
0000
0000
,
1000
0000
0000
0000
,
0100
0000
0000
0000
,
0010
0000
0000
0000
,
0001
0000
0000
0000
,
0002
0000
0000
0000
,
0000
0003
0000
0000
0000
0000
0000
0000
;

//--------------- dance-single - Fred-104 ----------------
#NOTES:
     dance-single:
     Fred-104:
     Easy:
     4:
     :
0000
0000
0000
0000
,
0000
0000
0000
0000
,
0000
0000
0000
0000
,
0000
0000
0000
0000
,
0000
0000
0000
0000
,
0001
0000
0010
0000
,
0100
0000
1000
0000
,
0001
0100
0001
0000
,
1001
0000
0000
0000
,
0001
0000
0000
0000
,
1000
0000
0100
0000
,
0001
0000
0001
0000
,
0100
0000
0010
0000
,
0100
0000
1000
1000
,
0001
0000
0100
0000
,
1000
0000
0100
0000
,
0010
0000
0010
0100
,
0002
0000
0003
0000
,
2000
0000
3200
0000
,
0310
0001
2000
3000
,
0020
0000
2030
0000
,
3001
1000
0100
1000
,
0002
0000
1003
0001
,
0100
0010
0100
0100
,
0002
0000
2003
0000
,
3001
0010
0200
0300
,
2000
0000
3002
0000
,
0103
0010
1000
0001
,
0020
0000
0130
0010
,
0001
0001
1000
1000
,
0010
0010
0100
0001
,
1001
0000
0000
0000
,
2000
0000
3020
0000
,
2030
0000
3001
0001
,
0020
0000
0230
0000
,
1300
1000
0001
0000
,
0200
0000
0320
0000
,
0230
0000
0302
0000
,
2003
0000
3002
0000
,
0013
0010
0100
0000
,
2000
0000
3002
0000
,
0103
0100
0010
0000
,
2000
0000
3002
0000
,
0013
0010
0010
0000
,
0200
0000
2300
0000
,
3002
0000
0023
0000
,
0032
0000
1003
0001
,
0200
0320
0230
0320
,
0030
0000
0000
0000
,
1001
0000
1000
0000
,
0001
0000
0100
0100
,
0010
0000
0000
0010
,
0000
0000
1000
0000
,
0002
0000
0000
0000
,
0013
0000
0010
0000
,
0100
0000
1000
0000
,
0001
0000
1000
0000
,
0001
0000
0001
0000
,
1000
0000
0100
0100
,
0010
0000
0000
0010
,
0000
0000
0001
0000
,
2000
0000
0000
0000
,
3010
0000
0010
0000
,
0200
0000
0300
0000
,
0002
0000
0003
0000
,
1000
0000
0100
0000
,
1000
1000
1000
0000
,
0001
0000
0100
0000
,
0010
0010
0010
0000
,
0100
0000
0001
0000
,
1000
0100
0010
0000
,
0001
0000
1000
0000
,
0001
0000
0000
0000
,
2002
0000
0000
0000
,
0000
3003
0000
0000
0000
0000
0000
0000
;

//--------------- dance-single - Fred-104 ----------------
#NOTES:
     dance-single:
     Fred-104:
     Medium:
     9:
     :
0000
0000
0000
0000
,
0000
0000
0000
0000
,
0000
0000
0000
0000
,
0000
0000
0000
0000
,
0000
0000
0000
0000
,
0001
0011
1000
0001
,
0100
0101
1000
0100
,
0010
0100
0010
0000
0001
1000
0001
0000
,
0200
0000
0010
0000
,
0010
0000
0310
0000
0100
0010
0100
0000
,
1100
0000
0001
1000
0010
1000
0010
0000
,
0100
0001
0100
0000
0001
1000
0001
0000
,
0010
0000
0100
0000
1000
0001
0100
0000
,
0010
1000
0010
0000
0100
0001
0100
0000
,
1001
0000
0001
0010
0001
0010
0001
0000
,
1000
0100
1000
0000
0001
0100
0001
0000
,
0100
0010
1000
0000
0001
0010
0100
0000
,
0110
0000
1000
1000
,
0002
0000
2003
0000
,
3010
0100
0002
0003
,
2000
0000
3200
0000
,
0310
0100
1000
0001
,
0200
0000
0310
0100
,
0002
2003
3200
0320
,
0032
0000
2003
0000
,
3010
0000
0100
0000
0001
1000
0100
0000
,
0020
0000
0230
0000
,
0301
0000
0100
0000
1000
0001
1000
0000
,
0002
0000
0103
0010
,
0200
0302
2003
3200
,
0302
0000
0203
0000
0310
0001
0010
0000
,
0110
0100
1001
0000
,
1000
0100
1000
0000
0100
0001
0100
0000
,
1000
0100
1000
0000
0001
0000
1000
0000
,
0001
0100
0001
0000
0100
1000
0100
0000
,
0001
1000
1001
0000
,
1000
0010
1000
0000
0010
0001
0010
0000
,
1000
0001
1000
0000
0010
0100
0010
0000
,
1000
0010
1000
0000
0010
0001
0010
0000
,
0110
0100
1001
0000
,
0001
0100
1000
0000
1000
0100
0001
0000
,
1000
0100
0001
0100
1000
0000
0001
0000
,
1000
0010
0001
0000
0001
0010
1000
0000
,
0001
1000
1001
0000
,
0001
0010
1000
0000
1000
0010
0001
0000
,
1000
0010
0001
0000
0001
0010
1000
0000
,
0002
0000
0100
0000
0103
0010
1000
0000
,
0200
0320
0032
2003
,
3000
0000
0000
0000
,
1001
0000
0001
0000
0001
0100
0010
1000
,
0000
1001
0000
0001
0010
0000
0100
0000
,
1000
0000
0000
1000
0000
0000
0002
0000
,
0000
0000
0103
0100
,
0101
0000
0001
0000
0100
0010
0100
0000
,
0110
0000
1000
0001
0100
0001
1000
0000
,
0001
0010
0001
0000
1000
0010
1000
0000
,
0100
0010
0011
0000
,
1001
0000
1000
0010
0100
0000
0001
1000
,
0000
1000
0100
0010
0100
1000
0001
0000
,
0101
0000
0000
1010
0000
0000
1001
0000
,
1000
0000
0001
0000
1000
0100
0010
0000
,
0110
0000
1000
0000
0001
0100
0010
0000
,
1000
0001
0010
0000
0100
0010
0001
0000
,
0200
0310
0002
0013
,
0200
0310
1000
1001
,
0001
0000
0010
0000
0100
1000
0001
0000
,
1000
0000
0010
0000
0100
0001
1000
0000
,
0100
0000
0010
0000
0100
1000
0001
0000
,
0100
0010
1000
1001
,
0001
0000
0010
0000
0100
0010
0001
0000
,
1000
0000
0010
0000
0100
0001
1000
0000
,
0100
0000
0010
0000
0001
1000
0001
0000
,
1001
0000
1000
0000
,
0001
0000
0001
0000
0100
0010
1000
2002
,
0000
3003
0000
0000
0000
0000
0000
0000
;

//--------------- dance-single - Fred-104 ----------------
#NOTES:
     dance-single:
     Fred-104:
     Hard:
     13:
     :
0000
0000
0000
0000
,
0000
0000
0000
0000
,
0000
0000
0000
0000
,
0000
0000
0000
0000
,
0000
0000
0000
0000
,
1000
0000
1100
0000
0010
0001
1000
0000
,
0001
0000
0101
0000
0100
0010
1000
0000
,
0001
0010
0100
1000
0001
0100
0010
0100
,
0001
0000
0000
0000
,
1000
0000
0000
0000
1000
0000
0000
0000
0001
0000
1000
0001
1000
0000
0001
0000
,
0012
0000
1000
0000
0103
0010
1000
0002
,
0000
0013
1000
0010
0100
0010
0001
2000
,
0000
0000
3010
0000
0100
0000
0001
0000
0100
0001
0100
0000
0010
0000
1000
0000
,
0001
0000
0010
0000
0100
1000
0100
0000
1000
0000
0100
0010
0100
0000
1000
0000
,
0001
0000
1000
0001
1000
0000
0010
0000
1000
0000
0010
0000
0100
0000
0020
0000
,
0000
0000
1030
0001
1000
0000
0100
0000
0010
0000
0100
0000
0001
0000
0100
0000
,
1000
0000
0001
0000
0100
0000
0010
0000
0100
0001
0100
0000
0010
0000
1000
0000
,
0001
0000
0000
1000
0001
0001
1001
0000
,
0002
0000
0000
0010
0023
0000
0000
0100
,
0130
1000
0001
1000
0010
0100
0100
0010
,
2000
0000
0000
0100
3200
0000
0000
0010
,
0310
0001
1000
0001
0100
0010
1000
0001
,
0200
0000
0010
0000
1300
0100
0001
1000
,
0200
0000
0001
0000
0310
0100
1100
0000
,
2001
0000
3001
0100
2000
0000
3001
0010
,
1000
0001
0010
0100
1000
0001
0100
0000
,
0210
0000
0310
1000
0200
0000
0310
0001
,
0100
0010
1000
0001
0010
0100
0010
0001
,
2000
0000
0010
0000
3001
1000
0100
0010
,
0200
0000
0000
0000
0001
0000
0000
0000
0010
0000
0000
0000
1300
0000
0000
0001
,
0200
0000
1000
0000
0310
0010
1000
1000
,
0001
0000
0001
0000
0100
0010
1001
0000
,
1000
0100
1000
0100
0010
0001
0010
0001
,
1000
0010
0100
0001
1000
0000
0001
1000
,
0001
0100
0001
0100
0010
1000
0100
0010
,
0100
0010
0011
1001
,
1000
0010
1000
0010
0100
0001
0100
0001
,
0010
0100
0010
0100
1000
0001
0100
0010
,
1000
0100
1000
0001
0100
0010
1000
0001
,
0010
0000
0010
0000
0100
0010
1001
0000
,
0001
0100
0001
0100
1000
0100
1000
0100
,
0001
0010
0100
1000
0001
0000
1000
0001
,
1000
0100
1000
0100
0001
0100
1000
0001
,
0100
0010
0110
1001
,
0001
0010
0001
0010
1000
0010
0001
1000
,
0010
1000
0010
0001
0010
0100
0010
1000
,
0002
0000
0010
0000
1000
0000
0103
0010
,
2000
3200
0320
0032
,
0003
0000
0000
1000
0010
0100
0001
1000
,
1100
0000
0010
0001
1000
0001
0100
0110
,
0000
1010
0000
0001
1000
0100
0010
0100
,
1000
0000
0010
0100
0000
0001
2000
0000
,
0100
0000
0000
0000
3100
0000
0010
0100
0010
0000
0001
0000
1000
0000
0010
0000
,
0200
0000
0310
1000
0100
1000
0001
0100
,
0010
1000
0100
0001
0100
1000
0001
0000
,
1000
0100
0001
0100
1000
0001
0100
0010
,
1000
0000
0001
0010
0100
1000
1100
0000
,
1001
0000
0001
0100
0010
0100
0001
0010
,
0000
0010
0100
1000
0001
0100
0010
1000
,
1100
0000
0001
0101
0000
1000
1002
0000
,
0100
0000
0000
0000
0103
0000
0010
1000
0010
0000
0100
0000
0001
0000
1000
0000
,
0200
0000
0310
0100
1000
0010
0100
0001
,
1000
0001
0010
0100
0001
0100
0010
0001
,
1000
0010
0200
0000
0301
0010
0200
0000
,
0310
0001
0200
0000
0310
1000
1001
0000
,
0001
0010
0001
0010
0100
1000
0001
0100
,
0010
1000
0010
1000
0100
0010
0001
1000
,
0010
0100
0001
1000
0100
0001
0100
1000
,
0001
0100
1000
0001
0010
1000
1001
0000
,
0001
0000
0010
0000
0100
0000
1000
0000
0001
0000
0100
0010
0100
0000
0001
0000
,
1000
0000
0100
0000
0001
0000
0100
0000
1000
0000
0010
0100
0010
0000
1000
0000
,
0001
0000
0010
0000
1000
0000
0010
0000
0001
0000
1000
0010
1000
0000
0100
0000
,
0010
0001
0010
0001
0000
1000
0001
1000
,
1001
0000
0001
0000
0100
0000
0010
0000
1000
0000
0100
0010
0001
0000
2002
0000
,
0000
3003
0000
0000
0000
0000
0000
0000
;

//--------------- dance-double - Fred-104 ----------------
#NOTES:
     dance-double:
     Fred-104:
     Easy:
     4:
     :
00000000
00000000
00000000
00000000
,
00000000
00000000
00000000
00000000
,
00000000
00000000
00000000
00000000
,
00000000
00000000
00000000
00000000
,
00000000
00000000
00000000
00000000
,
00001000
00000000
00000100
00000000
,
00010000
00000000
00001000
00000000
,
00010000
00001000
01000000
00000000
,
01100000
00000000
00000000
00000000
,
00100000
00000000
00000000
00000000
,
10000000
00000000
00010000
00000000
,
10000000
00000000
01000000
00000000
,
00010000
00000000
00001000
00000000
,
00000100
00000000
00000001
00000001
,
00001000
00000000
00000001
00000000
,
00000010
00000000
00000100
00000000
,
00010000
00000000
00001000
00001000
,
00020000
00000000
00030000
00000000
,
00002000
00000000
00023000
00000000
,
00130000
10000000
00020000
00030000
,
20000000
00000000
32000000
00000000
,
03100000
00010000
00100000
00001000
,
00020000
00000000
00030100
00010000
,
00001000
00010000
00000010
00001000
,
00000020
00000000
00000230
00000000
,
00000301
00001000
00000200
00000300
,
00020000
00000000
00032000
00000000
,
00013000
00100000
10000000
00010000
,
00200000
00000000
01300000
10000000
,
00010000
01000000
00010000
01000000
,
00001000
00010000
00001000
00010000
,
00011000
00000000
00000000
00000000
,
00020000
00000000
00032000
00000000
,
00023000
00000000
00031000
01000000
,
00002000
00000000
00023000
00000000
,
00031000
00010000
00001000
00000000
,
00020000
00000000
00032000
00000000
,
00023000
00000000
00030200
00000000
,
00020300
00000000
00032000
00000000
,
00013000
00001000
00010000
00000000
,
00002000
00000000
00023000
00000000
,
00031000
00100000
00001000
00000000
,
00020000
00000000
00032000
00000000
,
00013000
00000010
00010000
00000000
,
00002000
00000000
00023000
00000000
,
00230000
00000000
20300000
00000000
,
32000000
00000000
13000000
00010000
,
00200000
00302000
00003020
00000032
,
00000003
00000000
00000000
00000000
,
00001001
00000000
00000001
00000000
,
00001000
00000000
00000100
00010000
,
00000100
00000000
00000000
00000100
,
00000000
00000000
00010000
00000000
,
00002000
00000000
00000000
00000000
,
00013000
00000000
00010000
00000000
,
00100000
00000000
10000000
00000000
,
01000000
00000000
00100000
00000000
,
00001000
00000000
00001000
00000000
,
00010000
00000000
00001000
00001000
,
00010000
00000000
00000000
00000100
,
00000000
00000000
00000010
00000000
,
00000002
00000000
00000000
00000000
,
00001003
00000000
00000010
00000000
,
00020000
00000000
00030000
00000000
,
00002000
00000000
00003000
00000000
,
01000000
00000000
00010000
00000000
,
01000000
00100000
01000000
00000000
,
00010000
00000000
10000000
00000000
,
01000000
00100000
01000000
00000000
,
00100000
00000000
00001000
00000000
,
00010000
00000010
00010000
00000000
,
00001000
00000000
01000000
00000000
,
00010000
00000000
00000000
00000000
,
20020000
00000000
00000000
00000000
,
00000000
30030000
00000000
00000000
00000000
00000000
00000000
00000000
;

//--------------- dance-double - Fred-104 ----------------
#NOTES:
     dance-double:
     Fred-104:
     Medium:
     8:
     :
00000000
00000000
00000000
00000000
,
00000000
00000000
00000000
00000000
,
00000000
00000000
00000000
00000000
,
00000000
00000000
00000000
00000000
,
00000000
00000000
00000000
00000000
,
10000000
00000000
01000000
00000000
00100000
00100000
00001000
00010000
,
00001000
00000000
00010000
00000000
00000010
00000010
00001000
00000010
,
00000100
00000000
00000001
00000000
00001000
00000010
00010000
00001000
,
00020000
00000000
00001000
00000000
,
00001000
00000000
00031000
00000000
00010000
00001000
00010000
00000000
,
00011000
00000000
00001000
00100000
00001000
00100000
00010000
00000000
,
01000000
00100000
10000000
00000000
00100000
01000000
00001000
00000000
,
00010000
00000100
00000010
00000001
,
00001000
00000010
00000100
00000000
00001000
00010000
00001000
00000000
,
00011000
00000000
00001000
00000010
00001000
00000010
00000001
00000000
,
00001000
00000001
00000100
00000000
00000010
00000000
00001000
00000000
,
00000010
00010000
00001000
00000000
00100000
00010000
01000000
00000000
,
01100000
00000000
00010000
00010000
,
20000000
00000000
32000000
00000000
,
03100000
00001000
00020000
00030000
,
00000200
00000000
00000320
00000000
,
00000031
00001000
00000010
00000100
,
00002000
00000000
00013000
00001000
,
00200000
00320000
00032000
00003200
,
00020300
00000000
00032000
00000000
,
01003000
00010000
20000000
30000000
,
00200000
00000000
00320000
00000000
,
00031000
00010000
01000000
10000000
,
00020000
00000000
10030000
01000000
,
00010000
00010000
00001000
00001000
,
00000010
00000000
00000001
00000000
00001000
00000010
00010000
00000000
,
00011000
00010000
00011000
00000000
,
00001000
00010000
00001000
00000000
00100000
00010000
00100000
00000000
,
00001000
00010000
00001000
00000000
00011000
00000000
00000000
00000000
,
00010000
00001000
00010000
00000000
00001000
00000010
00001000
00000000
,
00010000
00001000
00011000
00000000
,
00001000
00010000
00001000
00000000
01000000
00010000
01000000
00000000
,
00001000
00010000
00001000
00000000
00010000
01000000
00010000
00000000
,
00001000
00010000
00001000
00000000
00010000
00000100
00010000
00000000
,
00001000
00010000
00011000
00000000
,
00010000
00000100
00010000
00000000
00000100
00001000
00000100
00000000
,
00010000
00001000
00010000
00001000
00010000
00000000
00001000
00000000
,
00100000
00010000
00100000
00000000
00001000
00010000
00001000
00000000
,
00010000
00000010
00011000
00000000
,
00001000
00010000
00100000
00000000
01000000
00010000
01000000
00000000
,
00100000
00010000
00001000
00000000
00010000
00000010
00010000
00000000
,
00002000
00000000
00013000
00000100
,
00000020
00002030
00023000
00032000
,
00003000
00000000
00000000
00000000
,
01001000
00000000
00001000
00000000
00010000
00001000
00010000
00000100
,
00000000
00000110
00000000
00000010
00000100
00000000
00000010
00000000
,
00000001
00000000
00000000
00001000
00000000
00000000
00000020
00000000
,
00000000
00000000
00000000
00000000
00010030
00010000
00010000
00000000
,
00001000
00010000
00100000
01000000
,
00010000
00000000
00100000
00000000
01000000
10000000
00010000
00000000
,
10000000
00100000
01000000
00000000
00100000
00010000
00001000
00000000
,
00010000
00001000
00011000
00000000
,
00010000
00000000
00001000
00000000
00000010
00000100
00000010
00000000
,
00000001
00000000
00001000
00000000
00000010
00000100
00001000
00000000
,
00011000
00000000
00000000
00101000
00000000
00000000
00110000
00000000
,
10000000
00000000
00010000
00000000
01000000
00100000
10000000
00000000
,
10010000
00000000
00010000
00000000
00100000
01000000
00010000
00000000
,
00001000
00000000
00010000
00000000
00001000
00000010
00000100
00000000
,
00002000
00003010
00020000
00031000
,
00020000
00000000
00130000
00000000
10000000
01000000
01000000
00000000
,
00100000
00000000
00001000
00000000
00010000
00001000
00001000
00000000
,
00010000
00000000
00000010
00000000
00001000
00001000
00000100
00000000
,
00000010
00000000
00000001
00000000
00000100
00000100
00000010
00000000
,
00000100
00001000
00000100
00000000
00001000
00010000
00001000
00000000
,
00010000
00000000
00001000
00000000
00100000
00010000
10000000
00000000
,
00100000
00000000
01000000
00000000
00010000
10000000
01000000
00000000
,
00010000
00001000
00010000
00000000
00000100
00001000
00000100
00000000
,
00011000
00000000
00010000
00000000
,
00001000
00010000
00000000
00010000
00001000
00100000
00010000
02000000
,
00000000
03000000
00000000
00000000
00000000
00000000
00000000
00000000
;

//--------------- dance-double - Fred-104 ----------------
#NOTES:
     dance-double:
     Fred-104:
     Hard:
     13:
     :
00000000
00000000
00000000
00000000
,
00000000
00000000
00000000
00000000
,
00000000
00000000
00000000
00000000
,
00000000
00000000
00000000
00000000
,
00000000
00000000
00000000
00000000
,
00010000
00000000
00001010
00000000
00010000
00001000
01000000
00000000
,
00010000
00000000
00101000
00000000
00010000
10000000
01000000
00000000
,
00100000
00001000
00010000
00001000
00000100
00000001
00001000
00000100
,
00000010
00000000
00000000
00000000
,
00000001
00000000
00000000
00000000
00000001
00000000
00000000
00000000
00001000
00000000
00000001
00001000
00000001
00000000
00001000
00000000
,
00001002
00000000
00000103
00000001
00000010
00000100
00001000
00000100
,
00010000
00001000
00100000
01000000
10000000
00100000
01000000
00010000
,
10000000
00000000
01000000
00000000
00010000
00000000
01000000
00000000
10000000
00010000
10000000
00000000
00100000
00000000
01000000
00000000
,
00100000
00000000
00010000
00000000
00001000
00010000
00001000
00000000
00010000
00000000
00000010
00001000
00000010
00000000
00000100
00000000
,
00000001
00000000
00001000
00000100
00001000
00000000
00000001
00000000
00000010
00000000
00001000
00000000
00010000
00000000
00001000
00000000
,
00100000
00000000
00001000
00010000
00001000
00000000
00010000
00000000
00100000
00000000
01000000
00000000
00100000
00000000
10000000
00000000
,
00010000
00000000
00100000
00000000
01000000
00000000
00010000
00000000
00001000
00010000
00001000
00000000
00010000
00000000
00001000
00000000
,
00010000
00000000
00000000
00000010
00000100
00000010
00000110
00000000
,
00000002
00000000
00000000
00000100
00000203
00000000
00000000
00001000
,
00001300
00010000
00001000
01000000
00010000
01000000
00100000
10000000
,
02000000
00000000
00000000
00100000
03200000
00000000
00000000
00001000
,
00301000
00010000
00000100
00000010
00000001
00001000
00000010
00010000
,
00002000
00000000
00010000
00000000
00013000
00000100
00001000
00010000
,
00200000
00000000
00001000
00000000
00310000
00100000
01100000
00000000
,
20010000
00000000
30010000
01000000
20000000
00000000
30010000
00100000
,
10000000
01000000
00100000
00001000
00010000
00000100
00000010
00000000
,
00000120
00000000
00000130
00001000
00000020
00000000
00000130
00000001
,
00000010
00001000
00010000
00001000
00100000
01000000
00010000
00001000
,
00020000
00000000
00000010
00000000
00031000
00010000
00100000
10000000
,
02000000
00000000
00000000
00000000
00010000
00000000
00000000
00000000
10000000
00000000
00000000
00000000
03100000
00000000
00000000
01000000
,
20000000
00000000
00010000
00000000
30010000
01000000
00100000
00010000
,
00001000
00001000
00011000
00000000
,
00010000
00001000
00010000
00001000
00000010
00001000
00000010
00001000
,
00010000
00001000
00000100
00001000
00010000
00000000
00011000
00000000
,
00001000
00010000
00001000
00010000
01000000
00010000
01000000
00010000
,
00001000
00010000
00011000
00000000
,
00001000
00010000
00001000
00010000
00100000
00010000
00100000
00010000
,
00001000
00010000
00001000
00010000
01000000
00010000
01000000
00010000
,
00001000
00010000
00000100
00000010
00001000
00000010
00000100
00001000
,
00000100
00000000
00010000
00000000
00001000
00001000
00011000
00000000
,
00001000
00010000
00001000
00010000
00100000
10000000
00100000
10000000
,
00010000
00100000
01000000
10000000
00010000
00000000
10010000
00000000
,
10000000
00100000
10000000
00100000
00010000
00001000
00000100
00000001
,
00000010
00000100
00000110
00001001
,
00001000
00000001
00000100
00000001
00000100
00001000
00010000
00001000
,
00100000
01000000
00100000
00010000
01000000
00100000
10000000
00010000
,
02000000
00000000
00001000
00000000
10000000
00000000
03010000
10000000
,
02000000
03020000
00032000
00023000
,
00030000
00000000
00000000
00001000
00000010
00000001
00000100
00001000
,
00011000
00000000
00010000
00001000
00100000
00010000
10000000
00100000
,
00000000
01100000
00000000
01000000
10000000
01000000
00100000
00010000
,
00001000
00000000
00010000
00000100
00000000
00000001
00000200
00000000
,
00000010
00000000
00000000
00000000
00000310
00000000
00000001
00001000
00000001
00000000
00000100
00000000
00001000
00000000
00010000
00000000
,
00002000
00000000
00013000
00001000
00100000
00010000
10000000
00100000
,
01000000
00010000
10000000
01000000
00010000
01000000
10000000
00010000
,
01000000
00100000
01000000
00001000
00010000
00000010
00001000
00000100
,
00010000
00000000
00001000
00010000
00001000
00001000
00101000
00000000
,
00011000
00000000
00010000
00001000
01000000
00010000
01000000
00100000
,
00000000
00100000
00010000
00001000
00010000
00000100
00000010
00000001
,
00001001
00000000
00000010
00001010
00000000
00000100
00000102
00000000
,
00001000
00000000
00000000
00000000
00001003
00000000
00000100
00000010
00000100
00000000
00000010
00000000
00001000
00000000
00010000
00000000
,
00002000
00000000
00013000
00001000
01000000
00010000
00100000
00001000
,
00010000
00000100
00000010
00000100
00001000
00000010
00010000
00001000
,
00020000
00000100
00030020
00001000
,
00020030
00000000
00001000
00000000
00031000
00001000
00011000
00000000
,
00010000
00001000
00010000
00001000
00000100
00000001
00000100
00000001
,
00000010
00000100
00001000
00000001
00000010
00000100
00010000
00001000
,
01000000
00010000
10000000
00100000
01000000
00010000
10000000
01000000
,
00010000
00001000
00010000
00000100
00000010
00000001
00001001
00000000
,
00000001
00000000
00000100
00000000
00001000
00000000
00010000
00000000
00001000
00000000
00100000
00010000
00100000
00000000
00001000
00000000
,
00010000
00000000
00000100
00000000
00000010
00000000
00000001
00000000
00001000
00000000
00000010
00000100
00000010
00000000
00001000
00000000
,
00000010
00000000
00010000
00000000
00001000
00000000
00010000
00000000
00100000
00000000
01000000
00010000
01000000
00000000
00100000
00000000
,
10000000
01000000
10000000
01000000
00000000
00010000
00001000
00010000
,
00010100
00000000
00000100
00000000
00001000
00000000
00000001
00000000
00000100
00000000
00000010
00001000
00000010
00000000
00002002
00000000
,
00000000
00003003
00000000
00000000
00000000
00000000
00000000
00000000
;
