#TITLE:Close the World feat.a☆ru;
#ARTIST:天叢雲剣;
#TITLETRANSLIT:Close the World feat.aru;
#ARTISTTRANSLIT:Ama-no-Murakumo-no-Tsurugi;
#GENRE:J-CORE;
#BANNER:Close the World feat.aru.png;
#BACKGROUND:Close the World feat.aru-bg.png;
#CDTITLE:./CDTitles/bm IIDX 21 SPADA.png;
#MUSIC:Close the World feat.aru.ogg;
#SAMPLESTART:35.08;
#SAMPLELENGTH:15;
#BPMS:0=188,185=94,201=188;
#STOPS:40=0.957,345.5=0.16,346.5=0.159;
#TIMESIGNATURES:0=4=4,40=1=4,41=4=4,345=3=4,348=4=4;
#BGSTAGE:14;

//--------------- dance-single - Fred-104 ----------------
#NOTES:
     dance-single:
     Fred-104:
     Beginner:
     5:
     :
0000
0000
0000
0000
,
0000
0000
0000
0000
,
0000
0000
0000
0000
,
0000
0000
0000
0000
,
0000
0000
0000
0000
,
0000
0000
0000
0000
,
1000
0000
0010
1000
,
1000
0000
0001
0100
,
0001
0000
1000
0000
,
0001
0000
1000
0001
,
0000
2000
0000
3000
,
0000
0020
0000
0030
,
0000
0200
0000
0300
,
0000
0002
0000
0003
,
0000
2000
0000
3000
,
0000
0200
0000
0300
,
0000
0020
0000
0030
,
0000
0002
0000
0003
,
0000
1000
1000
1000
,
1000
0000
0001
0000
,
0001
0001
0000
1000
,
0000
1001
0000
0000
,
0000
1000
0000
0010
,
1000
1000
0000
0001
,
0001
1000
0000
0001
,
0000
2002
0000
0000
0000
0000
0000
0000
,
0000
3003
0000
0000
,
0000
1000
0000
0010
,
0000
1000
0000
0100
,
0100
0100
0000
0010
,
0000
0001
0001
1000
,
0000
1000
0000
0000
0000
0000
0001
0000
,
0000
0001
0000
0000
0000
0000
0000
0000
,
0100
0010
0010
1000
,
0000
1000
0000
0000
0000
0000
0001
0000
,
1000
0001
0000
0100
,
0010
1000
0000
1000
,
0010
1000
0000
0001
,
0000
0001
0001
1000
,
0000
1000
0000
0000
0000
0000
0001
0000
,
0000
1000
0000
0000
0000
0000
0010
0000
,
0000
1000
0000
0000
0000
0000
0001
0000
,
1000
1001
0000
0000
,
0000
0010
0000
0000
0000
0000
0000
0000
,
0000
0001
0000
1000
,
0000
1001
0000
0000
0000
0000
0000
0000
,
0000
2000
0000
0000
,
3000
0002
0000
0000
,
0003
2000
0000
0000
,
3000
0002
0000
0000
,
0003
1000
0000
0010
,
0000
1000
0000
0001
,
0000
1000
0000
0001
,
0000
1000
1000
1000
,
0000
0001
0000
0100
,
0000
0001
0000
0010
,
0000
0100
0000
1000
,
0000
0001
0001
0001
,
0001
1001
0000
0000
,
0000
1001
0000
0000
,
0000
0000
0000
0001
,
0000
1000
0000
0010
,
0000
1000
1000
1000
,
0000
0001
0000
0000
0000
0000
1000
0000
,
0000
0010
0000
0000
0000
0000
1000
0000
,
0001
1000
0000
0001
,
0000
1000
0000
0000
0000
0000
0001
0000
,
0000
0100
0000
0010
,
0000
0100
0000
0000
0000
0000
0001
0000
,
0001
1000
0000
0001
,
0000
1000
0000
0000
0000
0000
0001
0000
,
0000
0010
0000
0000
0000
0000
0001
0000
,
0000
1000
0000
0000
0000
0000
0010
0000
,
0000
1000
0000
0000
0000
0000
0001
0000
,
1000
0001
0000
0000
,
0000
1000
0000
0000
0000
0000
0000
0000
,
0000
0001
0000
0000
,
0000
2002
0000
0000
0000
0000
0000
0000
,
3003
1000
0000
0010
,
0000
1000
0000
0001
,
0000
1000
0000
0001
,
0000
1001
0000
0000
,
0000
0001
0000
1000
,
0000
0001
0000
0100
,
0000
0010
0000
1000
,
0000
0000
0000
0001
,
1000
0000
2002
0000
0000
0000
0000
3003
;

//--------------- dance-single - Fred-104 ----------------
#NOTES:
     dance-single:
     Fred-104:
     Easy:
     9:
     :
0000
0000
0000
0000
,
0000
0000
0000
0000
,
0000
0000
0000
0000
,
0000
0000
0000
0000
,
0000
0000
0000
0000
,
0000
0000
0000
0000
,
1000
0000
0000
0010
0000
0000
1000
0000
,
0100
0000
0000
0010
0000
0000
0001
0000
,
1000
0000
0000
0001
0000
0100
0000
0010
,
0000
0010
0000
1000
0001
0000
1001
0000
,
0000
0000
2000
0000
0000
3200
0000
0000
,
1300
0000
0020
0000
0000
2030
0000
0000
,
3100
0000
0020
0000
0000
0032
0000
0000
,
1003
0000
0002
0000
0000
0023
0000
0000
,
0130
0000
0020
0000
0000
0032
0000
0000
,
1003
0000
0002
0000
0000
0203
0000
0000
,
0310
0000
2000
0000
0000
3200
0000
0000
,
0310
0000
0001
0000
1000
1000
0000
0000
,
1001
0002
0100
0010
,
0103
0001
0010
0100
,
1000
0000
0010
0010
0000
0000
1000
1000
,
0000
0000
0001
0000
1000
1001
0000
0000
,
0000
1000
0010
1000
,
0100
0010
0100
0000
0010
0000
0001
0000
,
1000
0001
1000
0000
0001
0000
0100
0000
,
0001
2002
0000
0000
0000
0000
0000
0000
,
0000
3003
0000
0000
0000
0000
2000
0000
,
3002
2003
0000
3001
,
1000
0100
0000
0000
0010
0000
0001
0000
,
1000
0001
0100
0001
,
0010
0001
0000
0000
0000
0000
1000
0000
,
0001
1000
0000
0000
0010
0000
1000
0000
,
0100
0010
0000
0001
0000
1000
0000
0001
,
0100
0001
1000
0001
,
1000
1000
0000
0010
0000
1000
0001
0000
,
1001
2000
0000
3010
,
1000
0100
0000
0000
0010
0000
0001
0000
,
1000
0001
1000
0001
,
0100
0100
0000
0000
0010
0000
1000
0000
,
0001
1000
0000
0000
0010
0000
1000
0000
,
0100
0010
0000
0000
0001
0000
1000
0000
,
0001
0100
0001
0000
1000
0000
0001
1000
,
0001
1000
0001
0000
0000
0000
0000
0000
,
1000
1001
0000
0000
0000
0000
0000
0000
,
0001
0100
0010
0100
,
0001
2002
0000
0000
0000
0000
0000
0000
,
3003
0002
0000
0023
,
0230
2300
0000
0002
,
3003
2000
0000
3020
,
0230
0302
0000
2000
,
3003
1000
0000
0010
,
0000
1000
0000
0100
,
0010
0001
0000
1000
,
0000
0000
0000
0000
0001
0000
0000
0001
0000
0000
0001
0000
1000
0000
0100
0000
,
1000
0010
0100
0000
0100
0000
0001
0000
,
0010
0001
0010
0000
0001
0000
1000
0000
,
0001
0000
1000
0000
0001
0000
0000
0001
0000
0000
0001
0000
1000
0000
0000
1000
,
0000
1000
0010
0000
0100
0000
0001
1000
,
0001
1000
0001
0000
0000
0000
1000
0000
,
0001
0000
1001
0000
0000
0000
0010
0100
,
0000
0110
0000
0000
0000
0000
0001
0000
,
1000
0001
1000
0000
0010
0000
1000
0000
,
0100
0010
0001
0000
0001
0000
1000
0000
,
0010
0010
0000
0000
1000
0000
0100
0000
,
1000
1000
0000
0010
0000
1000
0000
0100
,
0010
0001
1000
0001
,
0100
0100
0000
0010
0000
1000
0001
0000
,
1000
0020
0000
1030
,
0100
0010
0000
0000
0001
0000
1000
0000
,
0100
1000
0100
0010
,
0100
0100
0000
0000
0001
0000
1000
0000
,
0001
0001
0000
0000
0010
0000
0001
0000
,
1000
0100
0100
1000
,
0001
0000
1000
0010
1000
0010
1000
0001
,
1000
0001
1000
0000
0000
0000
0000
0000
,
0001
0001
0000
0000
0000
0000
0000
0000
,
0010
0001
1000
0100
,
1000
2002
0000
0000
0000
0000
0000
0000
,
3003
0000
0001
0010
0001
0000
0100
0000
,
0001
0000
0100
0000
0000
1000
0000
0000
,
0100
0000
1000
0010
1000
0000
0010
0000
,
0001
0000
1000
0000
0000
1001
0000
0000
,
0000
0001
0001
0100
,
0010
1000
0001
0000
1000
0000
0100
0000
,
0010
0001
0010
0000
0001
0000
1000
0001
,
1000
0001
0000
0100
0000
0100
0010
0000
,
1001
0000
0002
0000
2003
0000
3010
0100
;

//--------------- dance-single - Fred-104 ----------------
#NOTES:
     dance-single:
     Fred-104:
     Medium:
     12:
     :
0000
0000
0000
0000
,
0000
0000
0000
0000
,
0000
0000
0000
0000
,
0000
0000
0000
0000
,
0000
0000
0000
0000
,
0000
0000
0000
0000
,
1000
0100
1000
0100
0000
0010
0001
0000
,
0001
0100
0001
0100
0000
0010
1000
0000
,
0001
1000
0001
1000
0000
0010
0000
1000
,
0000
0100
0000
0010
0001
0000
1001
0000
,
0000
0000
2000
0000
0010
0010
3000
0000
,
1010
0000
0002
0000
0010
0010
0003
0000
,
0011
0000
2000
0000
0100
0100
3000
0000
,
1100
0000
0002
0000
0100
0100
0003
0000
,
0101
0000
0001
0000
2000
0100
3000
0000
,
0110
0000
1000
0000
0002
0100
0003
0000
,
0110
0000
0010
0000
1000
0100
0000
1000
,
0010
0100
0001
0000
1000
2002
0000
0000
,
3003
2000
3200
0320
,
0230
2300
3200
0302
,
0203
0000
1300
0100
0001
0000
1000
0010
,
0001
0000
1000
0000
0001
1001
0000
0000
,
1000
0010
1000
0000
1000
0010
0100
0001
,
0100
0100
0000
1000
0010
0100
0001
1000
,
0010
0010
0000
0001
1000
0100
0010
0001
,
1000
2002
0000
0000
0000
0000
0000
0000
,
0000
3003
0000
0000
0000
0000
2000
0000
,
3002
0000
1003
0000
1000
0100
0010
0001
,
1000
0001
0000
0001
0100
0000
0010
1000
,
0001
1000
0001
0100
0010
0000
1000
0000
,
0100
0010
0011
0000
1010
0000
0001
0010
,
0100
1000
0000
1000
0010
0000
0100
0000
,
0001
1000
0020
2030
0000
3200
0000
0310
,
0001
1000
1010
0000
0101
0000
1100
0000
,
0001
1001
0000
0110
0000
0001
1000
0001
,
0100
0010
1000
0000
0010
0100
0001
0010
,
0001
1000
0000
0100
1000
0000
0001
0100
,
0010
1000
0001
0010
0100
0000
1000
0000
,
0001
0100
0110
0000
1010
0000
0010
0100
,
0001
1000
0000
0010
1000
0000
0001
1000
,
0010
0100
0002
0000
0100
0000
1003
0000
,
0001
1000
0010
0100
0001
1000
0100
0010
,
0001
0010
0200
0000
2300
0000
3002
0000
,
1003
1001
0000
0000
0000
0000
0000
0000
,
2000
3020
0032
0203
,
1300
2002
0000
0000
0000
0000
0000
0000
,
3003
0000
0000
0000
1000
0000
0100
0010
0001
1000
0001
0100
0010
0000
1000
0000
,
0001
0000
0010
0100
1000
0000
0001
0000
0100
0000
0010
0100
0020
0000
0000
0000
,
2030
0000
3002
0000
1003
0000
0001
0100
1000
0100
0001
0100
0010
0000
1000
0000
,
0100
0000
0010
0001
1000
0000
0001
0000
0100
0000
0010
1000
0020
0000
0000
0000
,
0230
0000
0301
1000
0001
0000
0000
0000
0000
0000
1000
0000
0010
0000
0000
0000
,
0000
0010
0100
0000
0000
0001
0010
0100
,
1000
0001
0100
0000
0000
0010
0100
0000
,
0000
0000
0001
0000
1000
0000
0000
0010
0000
0000
1000
0000
0001
0000
0100
0000
,
0010
1000
2100
0000
3010
0000
0102
0000
,
0013
1200
0310
0201
,
0310
0000
0000
0000
1000
0000
0000
0010
0000
0000
1000
0000
0100
0000
0000
0010
,
0000
0001
1000
0001
0100
0010
1000
0100
,
1000
0001
1001
0000
0000
0000
0001
0000
,
1000
0000
1010
0000
0000
0000
0010
0100
,
0000
0110
0000
0000
0000
0001
1000
0001
,
0100
0100
0010
1000
0100
0000
0010
0000
,
0001
0100
0110
0000
0101
0000
0100
0010
,
1000
1000
0000
0100
0010
0000
0001
0010
,
0100
0010
0002
0203
0000
2300
0000
3100
,
0001
0010
0100
0000
1000
0000
0001
0000
,
1000
0010
0000
1010
0000
1000
0001
0100
,
0010
0100
0001
0010
0100
0000
1000
0001
,
0010
0001
0000
0100
0001
0000
1000
0100
,
0010
0001
1000
0001
0100
0000
0010
1000
,
0001
0100
0101
0000
1001
0000
1000
0010
,
1000
0100
0000
0100
0010
0000
0001
1000
,
0100
0010
0001
0000
0001
0000
1000
0000
,
1000
0000
0001
0100
0001
0100
0010
1000
,
0001
1000
0200
0000
2300
0000
3002
0000
,
1003
1001
0000
0000
0000
0000
0000
0000
,
0002
0203
2300
3020
,
0031
2002
0000
0000
0000
0000
0000
0000
,
3003
0000
0001
0001
0001
0000
0100
0010
,
1000
0000
0001
0010
0100
1000
0000
0010
,
1000
0000
0100
0100
0100
0000
1000
0010
,
0100
0001
1000
1000
0000
2002
0000
0000
,
3003
0000
0001
0100
0001
0100
0000
0010
,
1000
0010
1000
0100
1000
0100
0000
0010
,
0100
0010
0001
1000
0001
0100
0000
0010
,
0000
1000
0000
0001
0000
0100
0100
0000
,
0110
0000
0001
0200
0310
2000
3001
1001
;

//--------------- dance-single - Fred-104 ----------------
#NOTES:
     dance-single:
     Fred-104:
     Hard:
     16:
     :
0000
0000
0000
0000
,
0000
0000
0000
0000
,
0000
0000
0000
0000
,
0000
0000
0000
0000
,
0000
0000
0000
0000
,
0000
0000
0000
0000
,
0001
0000
0010
0000
0100
0000
0020
0000
0000
0000
0031
0000
1000
0000
0010
1000
,
0010
0000
1000
0000
0100
0000
0020
0000
0000
0000
0031
0000
1000
0000
0001
0100
,
0001
0010
0100
1000
0000
0010
0000
0110
,
0000
1100
0000
0001
0100
0000
0110
0000
,
0000
0000
1001
0000
1000
0100
0000
0100
,
0010
0000
0011
0000
0001
0100
0000
0100
,
0010
0000
1100
0000
1000
0100
0000
0010
,
0001
0000
0101
0000
0001
0100
0000
0010
,
1000
0001
1001
0000
1000
0100
0000
0010
,
0001
0000
1001
0000
0001
0100
0000
0010
,
1000
0010
0200
0000
0001
0000
1300
0100
,
0010
0001
1000
0000
0001
2002
0000
3003
,
0001
0010
0100
1000
0200
0000
0000
0000
0010
0000
0000
0000
1000
0000
0000
0000
,
0310
0002
0100
1000
,
0013
0000
1001
1001
1000
0000
0110
0110
,
0100
0001
0010
0000
0011
2002
0000
3003
,
1000
0100
0010
0001
1000
0000
0100
0000
1000
0000
0010
0000
0100
0000
0001
0000
,
0020
0030
0000
0000
0000
0000
0000
0000
0020
0030
0000
0000
0000
0000
0000
0000
1000
0000
0000
0000
0000
0000
0000
0000
0100
0000
0000
0000
0000
0000
0000
0000
0010
0000
0000
0000
0000
0000
0000
0000
0001
0000
0000
0000
0000
0000
0000
0000
1000
0000
0000
0000
0000
0000
0000
0000
0001
0000
0000
0000
0000
0000
0000
0000
,
0200
0300
0000
0000
0000
0000
0000
0000
0200
0300
0000
0000
0000
0000
0000
0000
1000
0000
0000
0000
0000
0000
0000
0000
0001
0000
0000
0000
0000
0000
0000
0000
1000
0000
0000
0000
0000
0000
0000
0000
0100
0000
0000
0000
0000
0000
0000
0000
0010
0000
0000
0000
0000
0000
0000
0000
0100
0000
0000
0000
0000
0000
0000
0000
,
1000
0000
0010
1000
0001
0100
0001
0100
0010
0100
0010
0100
0010
1000
0010
1000
,
0001
0010
0001
0000
0000
0000
0000
0000
0000
0000
0000
0000
0002
0000
0000
0000
,
2003
0000
3001
0010
0100
1000
0010
1000
,
0100
0000
1000
0000
0001
0000
0100
0001
0100
0000
0010
1000
0010
0000
1000
0100
,
1000
0001
0010
0100
1000
0010
1000
0001
,
0100
0000
0010
0000
1010
0000
0000
0000
0101
0000
0000
0000
1000
0100
0010
0001
,
1000
1020
0000
0130
0001
1000
0002
0103
,
2000
3200
0302
0010
0000
1000
0000
0103
,
0002
0013
0200
1300
0020
0130
0020
1030
,
0100
1100
0000
0101
0000
1000
0001
0100
,
0001
0010
0100
1000
0001
0000
0100
0000
0010
0000
1000
0000
0010
0000
1000
0100
,
1000
0000
0010
0000
0100
0001
0100
0000
0010
0100
0010
0000
1000
0100
1000
0000
,
0001
0100
0001
0000
1000
0000
0010
0000
1000
0000
1000
0000
0001
0000
0100
0010
,
0100
0000
0001
0000
0011
0000
0000
0000
1001
0000
0000
0000
0010
1000
0001
0100
,
0010
0210
0000
0310
1000
0100
0020
0130
,
0002
0203
1000
0000
0001
0000
1300
0001
,
0100
0000
0010
0000
1000
0000
0001
0000
1000
0000
0100
0000
0010
0001
0100
0001
,
1000
0100
1000
0010
2000
0000
0000
0000
3200
0000
0000
0000
0302
0000
0000
0000
,
0103
1100
0000
0000
0000
0000
0000
0000
,
2000
0000
0000
0000
3002
0000
1003
0000
0020
0000
0130
0000
0001
0100
0001
0100
,
0010
0220
0000
0000
0000
0000
0000
0000
,
0330
0000
0000
0000
0002
0000
2003
0000
3000
0100
0001
0010
2000
0000
3020
0000
,
0230
0000
0000
0000
0320
0000
0000
0000
2030
0000
0000
0000
0000
0000
0000
0000
0000
0000
0000
0000
0000
0000
3100
1000
0002
0000
0000
0000
0000
0000
0000
0000
,
0000
0000
2003
0000
3020
0000
0230
0000
0301
0010
0100
0001
2000
0000
3020
0000
,
0230
0000
0000
0000
2300
0000
0000
0000
3002
0000
0000
0000
0000
0000
0000
0000
0000
0000
0000
0000
0000
0000
0013
0001
2000
0000
0000
0000
0000
0000
0000
0000
,
0000
0000
3001
1000
1001
0000
0000
0000
0000
0000
0010
0000
0100
0000
0000
0000
,
0000
0100
0010
0000
0001
1000
0100
0010
,
0100
0000
1000
0001
0100
0000
0000
0000
0000
0000
0010
0000
0100
0000
0000
0000
,
0001
0000
1000
0010
0100
0000
0000
0010
0000
0000
1000
0000
0001
0000
1000
0000
,
0001
0010
0100
1000
0001
0000
0000
0000
0100
0000
0000
0000
1000
0000
0000
0000
,
0010
0000
0001
0010
0001
0000
0000
0000
0010
0000
0000
0000
1000
0000
0000
0000
,
0100
0000
0001
0100
0001
0000
1000
0010
0000
0100
0001
0100
0001
0000
0010
0100
,
0000
1000
0010
1000
0001
0000
0010
0001
1000
0000
0001
0100
0010
1000
0100
1000
,
0010
0100
0001
1000
0001
0000
0000
0000
0000
0000
0000
0000
2000
0000
0000
0000
,
3020
0000
0000
0030
0110
0000
0000
0000
0000
0000
0000
0000
1000
0000
1010
0000
,
0000
0101
0000
0000
0000
1001
0001
0100
,
0010
1000
0001
1000
0100
0000
0010
0000
0001
0000
1000
0000
0001
0000
0100
0000
,
0010
0000
1000
0000
1010
0000
0000
0000
0101
0000
0000
0000
0001
0100
0010
1000
,
0010
0210
0000
0301
0010
0100
2000
3010
,
0200
0302
2003
0100
0000
0001
0000
3010
,
1000
0000
0001
0000
0100
0000
0001
0010
0100
0000
1000
0001
0100
0000
0010
1000
,
0001
0101
0000
1100
0000
0101
0001
0010
,
0100
1000
0100
1000
0100
0000
0010
0000
0001
0000
1000
0000
0010
0000
1000
0100
,
1000
0000
0100
0000
0010
0001
0010
0000
0001
1000
0001
0000
0100
0010
0100
0000
,
0010
1000
0010
0000
1000
0000
0100
0000
1000
0000
0010
0000
0100
0000
0001
0010
,
0100
0000
1000
0000
1100
0000
0000
0000
1010
0000
0000
0000
0001
1000
0001
1000
,
0100
0110
0000
0010
0001
1000
0002
0013
,
0200
0302
0103
1000
0020
0130
0002
1003
,
0200
0000
0302
0000
0103
0000
1000
0000
0001
0000
0100
0000
0001
0010
0001
0100
,
0010
1000
0100
0010
0002
0000
0000
0000
0203
0000
0000
0000
2300
0000
0000
0000
,
3100
0101
0000
0000
0000
0000
0000
0000
,
0002
0023
2030
3200
,
0301
2002
0000
0000
0000
0000
0000
0000
,
3003
0000
0000
0000
1100
0000
1100
0000
1100
0000
0000
0000
0001
0010
0100
0000
,
1000
0000
0000
0000
0001
0000
1000
0001
0100
0000
0020
0000
0000
0000
1030
0000
,
0100
0000
0010
0000
0001
0010
0100
1000
0001
0000
0000
0000
0100
0000
0010
1000
,
0001
1000
1001
1001
0000
0110
0100
0001
,
1000
0001
1000
0001
1000
0000
0100
0000
0010
0000
0002
0000
0000
0000
0103
0000
,
0010
0000
0001
0010
0100
0000
0001
0000
1000
0000
0200
0000
0000
0000
0301
0000
,
0100
0000
1000
0001
1000
0010
1000
0010
0100
0010
1000
0001
0100
0001
0010
0100
,
1000
0001
0100
0000
0000
0000
1100
0000
0000
0000
0100
0000
0001
0000
0000
0000
,
1001
0000
0000
0000
0000
0000
0000
0000
0000
0000
0000
0000
0000
0000
0000
0000
1000
0000
0000
0000
0000
0000
0000
0000
2020
3030
0000
0000
0000
0000
0000
0000
0001
0000
0000
0000
0000
0000
0000
0000
0022
0033
0000
0000
0000
0000
0000
0000
1000
0000
0000
0000
0000
0000
0000
0000
1001
0000
0000
0000
0000
0000
0000
0000
;

//--------------- dance-single - Fred-104† ----------------
#NOTES:
     dance-single:
     Fred-104†:
     Challenge:
     18:
     :
0000
0000
0000
0000
,
0000
0000
0000
0000
,
0000
0000
0000
0000
,
0000
0000
0000
0000
,
0000
0000
0000
0000
,
0000
0000
0000
0000
,
1000
0000
0100
0000
0010
0000
0002
0000
0000
0000
0103
0000
0010
0000
0001
0010
,
0100
0000
0001
0000
1000
0000
0200
0000
0000
0000
0310
0000
0100
0000
1000
0010
,
0100
0000
0001
1000
0100
0000
0010
0001
1000
0000
0010
1000
0100
0000
1100
0000
,
0000
0101
0000
1010
0011
0000
1001
0000
,
0000
0000
1000
0000
0100
2100
0000
3010
,
0100
0001
1000
0000
0010
0210
0000
0310
,
1000
0001
0100
0000
0001
0021
0000
0031
,
1000
0001
0100
0000
0010
0210
0000
0310
,
1000
0100
0010
0001
1000
0000
0000
0000
0100
0000
1200
0000
0000
0000
1300
0000
,
0010
0100
0001
0000
0010
0021
0000
0031
,
1000
0010
0100
0000
0010
1010
1000
0100
,
0010
0001
1001
0000
0110
2002
0000
3003
,
0001
0010
0100
1000
0001
0000
0100
0001
0010
0000
0100
1000
0010
0000
0100
0001
,
0010
0000
0100
0000
1000
0100
1000
0000
0100
0010
0100
0000
0010
0001
0010
0000
,
0001
1000
0001
0000
1100
0000
1100
0000
0010
0000
0100
0000
0101
0000
0101
0000
,
0010
0100
1100
0000
0110
2002
0000
3003
,
0001
0100
0010
1000
0001
0000
0100
0001
0010
0000
0100
1000
0010
0000
0100
0001
,
0010
0000
0001
1000
0001
0000
0010
0001
1000
0000
0010
1000
0100
0000
0010
0001
,
1000
0000
0001
0100
0001
0000
0010
0100
1000
0000
0001
1000
0010
0000
1000
0001
,
0100
0000
0001
0100
0001
0010
0001
0100
0001
0010
0001
1000
0001
0100
0010
1000
,
0001
0100
1000
0000
0000
0000
0000
0000
0000
0000
0000
0000
0200
0000
0000
0000
,
0302
0000
0000
0000
1003
0000
0001
0000
1000
0000
0010
0000
0100
0001
0010
0001
,
1000
0000
0001
0000
0100
0000
0010
0000
0100
0000
0001
0000
0010
0100
1000
0001
,
0100
0000
0010
0000
1000
0000
0001
0000
0010
0000
0001
0000
1000
0001
0100
0001
,
1000
0000
0010
0000
0100
0000
0001
1000
0100
0000
0010
0001
1000
0001
0100
0010
,
1000
1001
0000
0001
1000
0100
0002
0203
,
0320
0032
2003
3200
0000
0302
0000
0203
,
2300
0000
3002
0000
0103
0000
0001
0100
0001
0000
0100
0010
1000
0000
0001
0010
,
0100
0000
1100
0000
0000
0000
0101
0000
0000
0000
1010
0000
1000
0010
1000
0100
,
1000
0001
0100
0001
0010
0000
0001
0000
0100
0000
0010
0000
1000
0010
1000
0001
,
0100
0000
0010
0000
1000
0100
0010
0000
0001
0010
0100
0000
1000
0001
0100
0000
,
0001
1000
0010
0000
1000
0000
0010
0000
1000
0000
0100
0000
0010
0100
1000
0010
,
0100
0000
0001
0000
1000
0000
0001
1000
0100
0000
0010
0001
1000
0001
0100
0010
,
0100
0110
0000
0010
1000
0010
0200
0301
,
0200
2300
3100
0001
0010
0100
0002
0103
,
2000
0000
3002
0000
1003
0100
1000
0010
1000
0001
0100
0001
1000
0100
0010
0001
,
0010
0100
1000
0001
0200
0000
0000
0000
2300
0000
0000
0000
3200
0000
0000
0000
,
0301
0011
0000
0000
0000
0000
0000
0000
,
2000
0000
0000
0000
3002
0000
1003
0000
0020
0000
1030
0000
0001
0010
0100
1000
,
0001
2002
0000
0000
0000
0000
0000
0000
,
3003
0000
0000
0000
2000
0000
3020
0000
1030
0020
2030
3020
0032
0000
0203
0000
,
0302
0000
0000
0000
0203
0000
0000
0000
2300
0000
0000
0000
0000
0000
0000
0000
0000
0000
0000
0000
3000
0000
0001
1000
0020
0000
0000
0000
0000
0000
0000
0000
,
0000
0000
0030
0000
2000
0000
3020
0000
1030
0020
0032
0023
0032
0000
0203
0000
,
0302
0000
0000
0000
0203
0000
0000
0000
2300
0000
0000
0000
0000
0000
0000
0000
0000
0000
0000
0000
0000
0000
3001
1000
0200
0000
0000
0000
0000
0000
0000
0000
,
0000
0000
0310
0100
0110
0000
0000
0000
0000
0000
0010
0000
1010
0000
0000
0000
,
1000
0000
0100
0000
0110
0000
0010
0000
0001
0000
1000
0000
0001
0000
0010
0100
,
1000
0000
0001
0100
0010
0000
0000
0000
1000
0000
0010
0000
1010
0000
1000
0001
,
0100
0000
0001
0100
0010
0000
0000
0100
0000
0000
0100
0000
1000
0100
0010
0001
,
0100
0010
0100
0001
1000
0000
0100
0010
0001
0000
1000
0001
0100
0000
0010
1000
,
0001
0100
0001
1000
0001
0000
1000
0001
0010
0000
0001
0010
0100
0000
1000
0010
,
0100
0001
0010
0001
0100
0000
0001
0010
0000
0100
1000
0001
0100
0000
0001
0010
,
0000
0100
0010
0001
1000
0001
0010
0100
0010
0001
0010
0100
1000
0100
1000
0010
,
1000
0001
0100
1000
0100
0000
0000
0000
0000
0000
0000
0000
0002
0000
0000
0000
,
2003
0000
0000
3000
1001
0000
0000
0000
0000
0000
0000
0000
1010
0000
0011
0000
,
0000
1100
0000
0000
0000
0110
1001
0101
,
0001
0010
0100
1000
0001
0000
0100
0001
1000
0000
0100
0000
1000
0000
0010
1000
,
0001
0000
0100
0000
0010
1000
0001
1000
0100
1000
0001
1000
0010
0100
0001
1000
,
0001
1001
0000
1000
0100
0010
2000
3020
,
0230
2300
3002
0203
0310
0002
0013
0200
,
0302
0000
2003
0000
3010
0000
1000
0010
0100
0000
0001
1000
0100
0000
0010
0001
,
1000
0000
1010
0000
0000
0000
0101
0000
0000
0000
1100
0000
1000
0100
0010
0100
,
1000
0010
0100
0001
1000
0000
0001
1000
0010
0000
0100
0000
0001
1000
0100
0020
,
1000
0000
0031
0000
1000
0010
1000
0100
0010
0001
1000
0001
0100
0010
0100
0001
,
0100
0010
1000
0001
1000
0000
0010
1000
0100
0000
0010
0000
0001
1000
0010
0200
,
1000
0000
0301
0000
1000
0100
0010
0001
1000
0001
1000
0010
0100
0001
0010
0100
,
0010
0011
0000
0001
0100
0010
2000
3100
,
2000
3020
0031
0010
2000
3100
0002
0103
,
2000
0000
3020
0000
0130
0010
0100
0001
0010
0001
0010
0100
0010
0001
1000
0001
,
0100
0010
1000
0100
0002
0000
0000
0000
0203
0000
0000
0000
2300
0000
0000
0000
,
3001
1001
0000
0000
0000
0000
0000
0000
,
2000
3020
0032
0203
,
1300
2002
0000
0000
0000
0000
0000
0000
,
3003
0000
0000
0000
1010
0000
1010
0000
1010
0000
1000
0000
0001
0000
0100
0010
,
1000
0000
0001
0000
1000
0001
0100
0020
0001
0000
2030
0000
0000
0000
3010
0000
,
0100
0000
0001
0000
1000
0100
0010
0001
1000
0000
0010
0000
0100
0000
0001
1000
,
0100
0000
1000
0000
1100
0000
1001
0000
0000
0000
0101
0000
0001
0010
0100
1000
,
0001
1000
0010
1000
0100
0000
0010
0001
0100
0000
0001
0010
0100
0000
0010
0001
,
1000
0001
0100
0010
1000
0000
0010
1000
0100
0000
1000
0010
0100
0000
0010
1000
,
0100
0010
0001
1000
0001
0010
0100
0010
0001
0100
0001
1000
0100
1000
0010
0100
,
0001
0010
1000
0000
0000
0000
1010
0000
0000
0000
0011
0000
1001
0000
0000
0000
,
0110
0000
0000
0000
0000
0000
0000
0000
0000
0000
0000
0000
0000
0000
0000
0000
1100
0000
0000
0000
0000
0000
0000
0000
0202
0303
0000
0000
0000
0000
0000
0000
0011
0000
0000
0000
0000
0000
0000
0000
2020
3030
0000
0000
0000
0000
0000
0000
0110
0000
0000
0000
0000
0000
0000
0000
1001
0000
0000
0000
0000
0000
0000
0000
;

//--------------- dance-double - Fred-104 ----------------
#NOTES:
     dance-double:
     Fred-104:
     Easy:
     8:
     :
00000000
00000000
00000000
00000000
,
00000000
00000000
00000000
00000000
,
00000000
00000000
00000000
00000000
,
00000000
00000000
00000000
00000000
,
00000000
00000000
00000000
00000000
,
00000000
00000000
00000000
00000000
,
00010000
00000000
00000000
00001000
00000000
00000000
00100000
00000000
,
00010000
00000000
00000000
01000000
00000000
00000000
00001000
00000000
,
00010000
00000000
00000000
00000010
00000000
00001000
00000000
00000001
,
00000000
00000001
00000000
00001000
00000100
00000000
00000010
00000000
,
00000000
00000000
00000001
00000000
00000000
00000100
00000000
00000000
,
00001000
00000000
00010000
00000000
00000000
01000000
00000000
00000000
,
10000000
00000000
10000000
00000000
00000000
00100000
00000000
00000000
,
00010000
00000000
00001000
00000000
00000000
00000010
00000000
00000000
,
00000001
00000000
00000001
00000000
00000000
00000100
00000000
00000000
,
00001000
00000000
00010000
00000000
00000000
00100000
00000000
00000000
,
10000000
00000000
10000000
00000000
00000000
01000000
00000000
00000000
,
00010000
00000000
00001000
00000000
00010000
00001000
00000000
00000000
,
00010000
00002000
00013000
00000010
,
00010000
00002000
00013000
00000100
,
00010000
00000000
00001000
00001000
00000000
00000000
00010000
00010000
,
00000000
00000000
00001000
00000000
00010000
00011000
00000000
00000000
,
00000000
00001000
00010000
01000000
,
10000000
00010000
10000000
00000000
00100000
00000000
10000000
00000000
,
01000000
00100000
01000000
00100000
00001000
00000000
00010000
00001000
,
00010000
00000000
00000010
00001000
00000010
00000000
00001000
00000001
,
00001000
00000001
00000000
00000000
00000000
00000000
00000002
00000000
,
00002003
00003020
00000000
00010030
,
00001000
00010000
00000000
00000000
00001000
00000000
00100000
00000000
,
00001000
00010000
00001000
01000000
,
00100000
01000000
00000000
00000000
00100000
00000000
10000000
00000000
,
01000000
00100000
00000000
00000000
00100000
00000000
00001000
00000000
,
00010000
00001000
00000010
00000001
,
00000010
00000100
00001000
00000001
,
00001000
00001000
00000000
00000100
00000000
00010000
00001000
00000000
,
00011000
00002000
00000000
01003000
,
00100000
01000000
00000000
00000000
00100000
00000000
10000000
00000000
,
01000000
00100000
00100000
00001000
,
00010000
00001000
00000000
00000000
00010000
00000000
00000100
00000000
,
00001000
00000100
00000000
00000000
00001000
00000000
00000010
00000000
,
00000100
00000001
00000010
00000100
,
00000010
00000001
00000100
00001000
,
00010000
01000000
00000000
00000000
,
00100000
00110000
00000000
00000000
00000000
00000000
00000000
00000000
,
10000000
00100000
00010000
00001000
,
00010000
00022000
00000000
00000000
00000000
00000000
00000000
00000000
,
00033000
00020000
00032000
00003200
,
00000302
00000023
00000230
00020300
,
00000000
00032000
00203000
00320000
,
20030000
32000000
03200000
00302000
,
00000000
00000000
00013000
00000000
00000000
00001000
00010000
00000000
,
00000000
00000100
00001000
00000000
00000000
00000010
00000100
00000000
,
00000000
00000001
00000010
00000000
00000000
00000010
00000100
00000000
,
00000000
00000000
00000100
00000000
00010000
00000000
00000000
00001000
00000000
00000000
00010000
00000000
00001000
00000000
00000000
00000000
,
00011000
00010000
01000000
00100000
,
00010000
10000000
00010000
00000000
10000000
00000000
01000000
00000000
,
00010000
00000000
00001000
00000000
00010000
00000000
00000000
00001000
00000000
00000000
00000100
00000000
00000010
00000000
00000000
00001000
,
00000000
00000001
00001000
00000001
00001000
00000001
00000010
00000100
,
00000010
00000100
00000010
00000000
00000000
00000000
00000000
00000000
,
00000000
00000000
00001001
00000000
00000000
00000000
00000010
00000010
,
00000000
00000100
00000000
00000000
00000000
00000000
00010000
00000000
,
00001000
00100000
00010000
10000000
,
00010000
01000000
00000000
00000000
01000000
00000000
00100000
00000000
,
10000000
01000000
00000000
00000000
01000000
00000000
00100000
00000000
,
00002000
00013000
00000010
00010000
,
00001000
00010000
00000100
00000100
,
00001000
00000001
00000000
00000100
00000000
00000100
00000010
00000000
,
00001000
00000002
00000000
00000013
,
00000100
00000010
00000000
00000000
00000001
00000000
00000010
00000000
,
00001000
00010000
00100000
10000000
,
00010000
10000000
00000000
00000000
00010000
00000000
01000000
00000000
,
00001000
00010000
00000000
00000000
00000100
00000000
00001000
00000000
,
00000010
00000100
00000100
00000001
,
00000010
00000000
00000100
00000000
00010000
00000000
00001000
00010000
,
00001000
00010000
00001000
00000000
00000000
00000000
00000000
00000000
,
00010000
00011000
00000000
00000000
00000000
00000000
00000000
00000000
,
00001000
00010000
00100000
10000000
,
00010000
20020000
00000000
00000000
00000000
00000000
00000000
00000000
,
30030000
00000000
00010000
10000000
00010000
00000000
10000000
00000000
,
01000000
00000000
00100000
00000000
00000000
00001000
00000000
00000000
,
00010000
00000000
00001000
00010000
00001000
00000000
00010000
00000000
,
00000010
00000000
00001000
00000000
00000000
00001001
00000000
00000000
,
00000000
00000000
00000001
00000000
00000000
00000010
00000000
00000000
,
00000100
00000000
00010000
00000000
00000000
00001000
00000000
00000000
,
00100000
00010000
00010000
01000000
,
01000000
00100000
00000000
00100000
00000000
10000000
01000000
00000000
,
00100000
00000000
00022000
00000000
00000000
00000000
00000000
00033000
;

//--------------- dance-double - Fred-104 ----------------
#NOTES:
     dance-double:
     Fred-104:
     Medium:
     13:
     :
00000000
00000000
00000000
00000000
,
00000000
00000000
00000000
00000000
,
00000000
00000000
00000000
00000000
,
00000000
00000000
00000000
00000000
,
00000000
00000000
00000000
00000000
,
00000000
00000000
00000000
00000000
,
00001000
00100000
00010000
10000000
00000000
01000000
00100000
00000000
,
00001000
00010000
00000100
00000010
00000000
00000001
00001000
00000000
,
00000001
00000100
00001000
00010000
00000000
01000000
00000000
11000000
,
00000000
10010000
00000000
00001000
00010000
00000000
00011000
00000000
,
00000000
00000000
00020000
00000000
00000010
00000010
00030000
00000000
,
00010010
00000000
00000002
00000000
00000010
00000010
00000003
00000000
,
00000011
00000000
00002000
00000000
00000100
00000100
00003000
00000000
,
00010100
00000000
00020000
00000000
00001000
00001000
00030000
00001000
,
00010000
00100000
01000000
00000000
00020000
00100000
00030000
00000000
,
10010000
00000000
00001000
00000000
00020000
00001000
00030000
00000000
,
00011000
00000000
00000100
00000000
00002000
00000010
00003000
00000000
,
00000101
00000000
00000001
00000000
00001000
00002002
00000000
00000000
,
00003003
00000000
00000001
00000010
00001000
00000000
00010000
00001000
,
00000100
00000000
00000001
00000100
00001000
00000000
00010000
00001000
,
00000010
00000000
00000001
00000100
00001000
00000000
00010000
01000000
,
10000000
00000000
00010000
00000000
10000000
20020000
00000000
00000000
,
30030000
00000000
10000000
01000000
00100000
00000000
10000000
00100000
,
00010000
00000000
10000000
00100000
01000000
00000000
10000000
01000000
,
00010000
00000000
10000000
00100000
00010000
00000000
00001000
00000010
,
00000100
00001000
00000001
00000100
00000010
00000100
00001000
00010000
,
00100000
01000000
00000000
00000000
00000000
00000000
00020000
00000000
,
20030000
00000000
30001000
00100000
00010000
00000000
00100000
00010000
,
10000000
01000000
00000000
00100000
01000000
00000000
10000000
01000000
,
00010000
00001000
00010000
00100000
01000000
00000000
00001000
00010000
,
00000100
00010000
00011000
00000000
00010010
00000000
00010000
00000010
,
00001000
00001010
00000000
00000000
00000001
00000000
00000100
00001000
,
00010000
01000000
00200000
00320000
00000000
20030000
00000000
30010000
,
00010000
10000000
00100000
10000000
01000000
00100000
01000000
00100000
,
00001000
00011000
00000000
00000110
00000000
00000001
00000100
00000010
,
00001000
00001000
00000001
00000010
00000100
00000000
00000010
00000001
,
00001000
00000010
00000000
00010000
00001000
00010000
01000000
00100000
,
00010000
00100000
01000000
10000000
00100000
10000000
01000000
00100000
,
00001000
00010000
00011000
00000000
01001000
00000000
00001000
00010000
,
00001000
00101000
00000000
00000000
00010000
00000000
00000010
00001000
,
00000100
00001000
00000001
00000000
00000010
00000000
00000100
00010000
,
00001000
00010000
01000000
00100000
00010000
00001000
00000100
00000010
,
00001000
00010000
02000000
00000000
23000000
00000000
30020000
00000000
,
00130000
00011000
00000000
00000000
00000000
00000000
00000000
00000000
,
00002000
00003020
00000032
00000203
,
00001300
00022000
00000000
00000000
00000000
00000000
00000000
00000000
,
00033000
00000000
00000000
00000000
00001000
00000000
00010000
00001000
01000000
00001000
00010000
00001000
00100000
00000000
00010000
00000000
,
01000000
00000000
00001000
00010000
00000100
00000000
00001000
00000000
00000010
00000000
00000100
00000001
00002000
00000000
00000000
00000000
,
00003020
00000000
00000030
00000000
00010000
00000000
00000100
00001000
00000010
00000100
00000001
00000010
00000100
00000000
00000010
00000000
,
00000001
00000000
00000100
00001000
00010000
00000000
01000000
00000000
10000000
00000000
00010000
01000000
00200000
00000000
00000000
00000000
,
20300000
00000000
31000000
00100000
00010000
00000000
00000000
00000000
00000000
00000000
00010000
00000000
10000000
00000000
00000000
00000000
,
00000000
00001000
01000000
00000000
00000000
00000010
00010000
00001000
,
00010000
00000010
00001000
00000000
00000000
00000001
00000010
00000000
,
00000000
00000000
00000100
00000000
00010000
00000000
00000000
00001000
00000000
00000000
00100000
00000000
01000000
00000000
10000000
00000000
,
00010000
10010000
01000000
00011000
,
00000100
00001001
00000010
00011000
,
00100000
00000000
00000000
00000000
00001000
00000000
00000000
00010000
00000000
00000000
00100000
00000000
01000000
00000000
00000000
00001000
,
00000000
00010000
00001000
00000010
00000001
00000010
00000100
00010000
,
00001000
00000100
00000010
00000000
00000000
00000000
00010000
00000000
,
00001000
00000000
00011000
00000000
00000000
00000000
01000000
01100000
,
00000000
01100000
00000000
00000000
00000000
00010000
10000000
00010000
,
00010000
01000000
00100000
10000000
01000000
00100000
01000000
00100000
,
00001000
00010000
00011000
00000000
00010100
00000000
00010000
00001000
,
00010000
00010010
00000000
00000000
00001000
00000000
00000001
00000100
,
00001000
00000100
00000002
00000023
00000000
00000230
00000000
00000310
,
00000001
00001000
00000010
00000100
00001000
00000000
00010000
00100000
,
01000000
00010000
00000000
10010000
00000000
10000000
00010000
00100000
,
01000000
10000000
00010000
01000000
10000000
01000000
00100000
10000000
,
00010000
01000000
00000000
00001000
00010000
00001000
00000100
00000010
,
00001000
00000000
00000001
00000100
00000010
00000100
00000001
00000010
,
00000100
00010000
00011000
00000000
01100000
00000000
00100000
01000000
,
00100000
01100000
00000000
00000000
10000000
00000000
00010000
10000000
,
01000000
00100000
00001000
00000000
00010000
00000000
00100000
00000000
,
01000000
00010000
10000000
01000000
10000000
00100000
01000000
00100000
,
00010000
00001000
00020000
00000000
00032000
00000000
00003200
00000000
,
00000301
00000011
00000000
00000000
00000000
00000000
00000000
00000000
,
00000002
00000203
00002300
00023000
,
00031000
00022000
00000000
00000000
00000000
00000000
00000000
00000000
,
00033000
00000000
00001000
00001000
00001000
00000000
00010000
00000100
,
00001000
00000001
00000100
00000010
00001000
00000100
00000000
00000010
,
00000100
00000000
00010000
00010000
00010000
00000000
00000010
00001000
,
00000100
00010000
00001000
00010000
00001000
00100000
00000000
00010000
,
01000000
00100000
10000000
01000000
00010000
01000000
00000000
01000000
,
10000000
01000000
00100000
01000000
00100000
00001000
00000000
00010000
,
00000100
00001000
00000001
00000100
00001000
00000100
00000001
00000010
,
00000100
00010000
00000000
00001000
00000000
01000000
00100000
00000000
,
10010000
00000000
00010000
02000000
03000100
00020000
00031000
00001000
;

//--------------- dance-double - Fred-104 ----------------
#NOTES:
     dance-double:
     Fred-104:
     Hard:
     16:
     :
00000000
00000000
00000000
00000000
,
00000000
00000000
00000000
00000000
,
00000000
00000000
00000000
00000000
,
00000000
00000000
00000000
00000000
,
00000000
00000000
00000000
00000000
,
00000000
00000000
00000000
00000000
,
00010000
00000010
00001000
00001000
00000000
00010000
00000010
00001000
,
00001000
00100000
00010000
00010000
00000000
00001000
00100000
00010000
,
10000000
01000000
00010000
00001000
00000000
00010000
00000000
00100000
,
00000000
01000000
00000000
00010000
10010000
00000000
01100000
00000000
,
00000000
00000000
11000000
00000000
01000000
00100000
00000000
00100000
,
00001000
00000000
00011000
00000000
00001000
00010000
00000000
00010000
,
00000100
00000000
00000110
00000000
00000010
00000001
00000000
00000001
,
00001000
00000000
00001001
00000000
00000001
00000100
00000000
00000100
,
00001000
00000100
00000110
00000000
00000001
00001000
00000000
00001000
,
00000010
00000000
00011000
00000000
00001000
00010000
00000000
00010000
,
00000010
00010000
00002000
00000000
00010000
00000000
00003100
00001000
,
00010000
00001000
00100000
00000000
00010000
20020000
00000000
30030000
,
10000000
00010000
00100000
00001000
00020000
00000000
00000000
00000000
00000010
00000000
00000000
00000000
00100000
00000000
00000000
00000000
,
00030010
00021000
00000100
01000000
,
00030100
00000000
00011000
00010010
00010000
00000000
00011000
00101000
,
00001000
00010000
00011000
00000000
00000100
00000220
00000000
00000330
,
00000001
00000100
00000001
00000100
00000010
00000000
00001000
00000000
00000001
00000000
00000010
00000000
00000100
00000000
00010000
00000000
,
00001000
00001000
00100000
00001000
00010000
00001000
01000000
00010000
,
00100000
00100000
01000000
10000000
00100000
10000000
01000000
00100000
,
00001000
00000000
00010000
00001000
00010000
00000100
00010000
00000100
00001000
00000100
00001000
00000100
00000010
00000100
00000010
00000001
,
00000100
00000010
00001000
00000000
00000000
00000000
00000000
00000000
00000000
00000000
00000000
00000000
00020000
00000000
00000000
00000000
,
00032000
00000000
00000000
00000000
00013000
00000000
00001000
00000000
00000010
00000000
00000001
00000000
00000010
00000000
00000100
00001000
,
00000100
00000000
00010000
00000000
00001000
00000000
00100000
00010000
00100000
00000000
00010000
01000000
00100000
00000000
10000000
00010000
,
00100000
00000000
01000000
00000000
00100000
00000000
01000000
00000000
10000000
00000000
00010000
00000000
01000000
00000000
00100000
01000000
,
00100000
00000000
01000000
00000000
01100000
00000000
00000000
00000000
00011000
00000000
00000000
00000000
00000100
00000010
00000100
00000010
,
00000100
00000110
00000000
00000010
00000001
00000000
00001000
00000001
,
00000100
00000010
00002000
00000100
00000000
00000001
00000000
00003010
,
00002000
00003001
00002000
00003100
00000020
00000031
00000200
00001300
,
00010000
00011000
00000000
01010000
00000000
00010000
10000000
00010000
,
01000000
00100000
01000000
00100000
01000000
00000000
00100000
00000000
10000000
00000000
01000000
00000000
00100000
00000000
00001000
00010000
,
00001000
00000000
01000000
00000000
00001000
00010000
00001000
00000000
00100000
00010000
00100000
00000000
00001000
00010000
00001000
00000000
,
00010000
00000100
00010000
00000000
00001000
00000000
00000010
00000000
00000001
00000000
00001000
00000000
00000010
00000000
00000100
00000001
,
00001000
00000000
00000100
00000000
00010100
00000000
00000000
00000000
00011000
00000000
00000000
00000000
01000000
00100000
01000000
00100000
,
01000000
01100000
00000000
00010000
10000000
01000000
00100000
00001000
,
00010000
00002000
00100000
00000000
00010000
00000000
01000000
00000000
,
00013000
00000000
00001000
00000000
00100000
00000000
00001000
00000000
00010000
00000000
00000010
00000000
00001000
00000001
00000010
00000100
,
00000010
00000001
00001000
00000001
00000200
00000000
00000000
00000000
00002300
00000000
00000000
00000000
00023000
00000000
00000000
00000000
,
00031000
00011000
00000000
00000000
00000000
00000000
00000000
00000000
,
00002000
00000000
00000000
00000000
00023000
00000000
00030010
00000000
00020000
00000000
00031000
00000000
00010000
00000100
00001000
00000100
,
00010000
00022000
00000000
00000000
00000000
00000000
00000000
00000000
,
00033000
00000000
00000000
00000000
00002000
00000000
00023000
00000000
00000000
00031000
00010000
01000000
10000000
00000000
00010000
00000000
,
10000000
00000000
00000000
00000000
00100000
00000000
00000000
00000000
00020000
00000000
00000000
00000000
00000000
00000000
00000000
00000000
00000000
00000000
00000000
00000000
00000000
00000000
00031000
00010000
00002000
00000000
00000000
00000000
00000000
00000000
00000000
00000000
,
00000000
00000000
00023000
00000000
00032000
00000000
00003200
00000000
00000301
00001000
00000001
00000100
00000020
00000000
00002030
00000000
,
00003200
00000000
00000000
00000000
00020300
00000000
00000000
00000000
00032000
00000000
00000000
00000000
00000000
00000000
00000000
00000000
00000000
00000000
00000000
00000000
00000000
00000000
00013000
00001000
00020000
00000000
00000000
00000000
00000000
00000000
00000000
00000000
,
00000000
00000000
00031000
00010000
00011000
00000000
00000000
00000000
00000000
00000000
00000010
00000000
00010000
00000000
00000000
00000000
,
00000000
00001000
00100000
00000000
00001000
00010000
00000100
00001000
,
00000100
00000000
00000010
00000001
00000010
00000000
00000000
00000000
00000000
00000000
00000001
00000000
00001000
00000000
00000000
00000000
,
00000000
00000000
00000010
00000000
00010000
00000000
00000000
00001000
00000000
00000000
00100000
00000000
00001000
00000000
00010000
00000000
,
00001000
00100000
00001000
00100000
00002000
00000000
00000000
00000000
00100000
00000000
00000000
00000000
00000010
00000000
00000000
00000000
,
00013000
00000000
00001000
00010000
00002000
00000000
00000000
00000000
01000000
00000000
00000000
00000000
00000100
00000000
00000000
00000000
,
00013000
00000000
00001000
00010000
00001000
00000000
00100000
00010000
00000000
10000000
00010000
00100000
01000000
00000000
10000000
00010000
,
00000000
01000000
00100000
01000000
00100000
00000000
00010000
00000000
00001000
00000000
00000100
00000000
00000010
00001000
00000010
00001000
,
00000001
00000010
00000100
00010000
00001000
00000000
00000000
00000000
00000000
00000000
00000000
00000000
00020000
00000000
00000000
00000000
,
00030200
00000000
00000000
00000300
00001100
00000000
00000000
00000000
00000000
00000000
00000000
00000000
00001010
00000000
00000101
00000000
,
00000000
00000011
00000000
00000000
00000000
00001001
00000001
00001000
,
00000010
00001000
00000001
00001000
00000100
00000000
00000010
00000000
00000001
00000000
00001000
00000000
00000010
00000000
00010000
00001000
,
00010000
00000000
00001000
00000000
00011000
00000000
00000000
00000000
00010010
00000000
00000000
00000000
00010000
00001000
00010000
00001000
,
00010000
00010100
00000000
00010000
00001000
00100000
00010000
00100000
,
01000000
10000000
00020000
00100000
00000000
10000000
00000000
01030000
,
00010000
10000000
00010000
00100000
01000000
10000000
00100000
01000000
,
00010000
00110000
00000000
00011000
00000000
00010000
00000010
00001000
,
00000001
00000010
00000100
00000010
00000001
00000000
00001000
00000000
00000001
00000000
00000100
00000000
00000010
00000000
00001000
00000001
,
00001000
00000000
00000100
00000000
00000010
00000001
00000010
00000000
00000001
00001000
00000001
00000000
00001000
00000010
00001000
00000000
,
00000100
00010000
00000100
00010000
00001000
00000000
00100000
00010000
00100000
00000000
00010000
00000000
10000000
00000000
00010000
01000000
,
00100000
00000000
10000000
00000000
10100000
00000000
00000000
00000000
01010000
00000000
00000000
00000000
10000000
01000000
00100000
00001000
,
00010000
00011000
00000000
00010000
00000010
00001000
00000020
00000130
,
00000020
00002030
00003002
00000000
00000100
00000000
00001000
00000000
,
00000013
00000000
00000001
00000000
00001000
00000000
00000100
00000000
00000010
00000000
00000001
00000000
00001000
00000001
00001000
00000001
,
00000010
00000100
00001000
00000100
00020000
00000000
00000000
00000000
00032000
00000000
00000000
00000000
00203000
00000000
00000000
00000000
,
00310000
10010000
00000000
00000000
00000000
00000000
00000000
00000000
,
20000000
32000000
03020000
00032000
,
00003010
00000022
00000000
00000000
00000000
00000000
00000000
00000000
,
00000033
00000000
00001001
00001001
00001001
00000000
00000001
00000100
,
00001000
00000100
00000001
00000010
00000100
00020000
00000000
00031000
,
00011000
00000000
00000000
00000000
00001000
00010000
00001000
00100000
00010000
00000000
10000000
00000000
00010000
00000000
00100000
00000000
,
01000000
00000000
10000000
01000000
00100000
00002000
00000000
00013000
,
00001000
00010000
00001000
00010000
00000010
00000000
00001000
00000000
00000010
00000000
00001000
00000000
00000100
00000000
00000010
00000000
,
00000001
00000000
00000100
00000010
00000100
00000000
00000001
00000000
00000010
00000000
00000100
00000000
00000010
00000000
00000001
00000000
,
00001000
00000000
00000001
00000100
00000010
00001000
00000001
00000010
00000100
00001000
00000100
00010000
00001000
00100000
00010000
00100000
,
01000000
10000000
00010000
00000000
00000000
00000000
10100000
00000000
00000000
00000000
11000000
00000000
01010000
00000000
00000000
00000000
,
10010000
00000000
00000000
00000000
00000000
00000000
00000000
00000000
00000000
00000000
00000000
00000000
00000000
00000000
00000000
00000000
00010000
00000000
00000000
00000000
00000000
00000000
00000000
00000000
20000000
30000000
00000000
00000000
00000000
00000000
00000000
00000000
00001000
00000000
00000000
00000000
00000000
00000000
00000000
00000000
00020000
00030000
00000000
00000000
00000000
00000000
00000000
00000000
00000001
00000000
00000000
00000000
00000000
00000000
00000000
00000000
00002000
00003000
00000000
00000000
00000000
00000000
00000000
00000000
;

//--------------- dance-double - Fred-104† ----------------
#NOTES:
     dance-double:
     Fred-104†:
     Challenge:
     18:
     :
00000000
00000000
00000000
00000000
,
00000000
00000000
00000000
00000000
,
00000000
00000000
00000000
00000000
,
00000000
00000000
00000000
00000000
,
00000000
00000000
00000000
00000000
,
00000000
00000000
00000000
00000000
,
00001000
00000000
00010000
00000000
00000010
00000000
00002000
00000000
00000000
00000000
00003001
00000000
00000010
00000000
00000001
00000010
,
00000100
00000000
00010000
00000000
00001000
00000000
00020000
00000000
00000000
00000000
01030000
00000000
00100000
00000000
00010000
10000000
,
00010000
00000000
00100000
00001000
00010000
00000000
00000100
00001000
00000001
00000000
00000100
00000010
00001000
00000000
00001100
00000000
,
00000000
00000101
00000000
00011000
01100000
00000000
10010000
00000000
,
00000000
00000000
00011000
00000000
00010000
01000000
00000000
10000000
,
00100000
00010000
00011000
00000000
00001000
00000100
00000000
00000001
,
00000010
00001000
00011000
00000000
00010000
00100000
00000000
10000000
,
01000000
00010000
00011000
00000000
00010000
00000010
00000000
00001000
,
00000010
00010000
00001000
00010000
00100000
00000000
00000000
00000000
01000000
00000000
00010000
00000000
00000000
00000000
10000000
00000000
,
01000000
00010000
00011000
00000000
00010000
00001000
00000000
00000100
,
00000001
00001000
00001100
00000000
00000001
00000100
00010000
01000000
,
00010000
00100000
00110000
00000000
00101000
00022000
00000000
00033000
,
00010000
00000100
00001000
00000100
00010000
00000000
00000010
00001000
00000010
00000000
00010000
00001000
00010000
00000000
00000100
00001000
,
00000100
00000000
00010000
00000000
00001000
00100000
00001000
00000000
01000000
00010000
01000000
00000000
00001000
00010000
00001000
00000000
,
00010000
00000010
00010000
00000000
00011000
00000000
00011000
00000000
00000010
00000000
00000100
00000000
00001001
00000000
00001001
00000000
,
00000010
00010000
00011000
00000000
01000000
02200000
00000000
03300000
,
00010000
10000000
01000000
10000000
00010000
00000000
10000000
01000000
00100000
00000000
00001000
00010000
00001000
00000000
01000000
00010000
,
01000000
00000000
00001000
00010000
00000010
00000000
00001000
00000010
00001000
00000000
00000010
00010000
00000010
00000000
00010000
00001000
,
00100000
00000000
00001000
00010000
00001000
00000000
00100000
00000000
00010000
00000000
01000000
00000000
00001000
00000000
00010000
00000000
,
00000100
00000000
00001000
00000010
00000100
00000001
00001000
00000010
00000100
00001000
00010000
00100000
01000000
00100000
10000000
00010000
,
00100000
01000000
00100000
00000000
00000000
00000000
00000000
00000000
00000000
00000000
00000000
00000000
00002000
00000000
00000000
00000000
,
00023000
00000000
00000000
00000000
00031000
00000000
00010000
00000000
00000010
00000000
00001000
00000000
00000100
00001000
00000100
00001000
,
00000100
00000000
00000010
00000000
00000001
00000000
00000100
00000000
00001000
00000000
00010000
00000000
00001000
00010000
00001000
00010000
,
00001000
00000000
00000010
00000000
00000001
00000000
00000100
00000000
00000010
00000000
00001000
00000000
00000001
00000010
00000100
00010000
,
00001000
00000000
00010000
00000000
00000100
00000000
00010000
00001000
00100000
00000000
00010000
01000000
00100000
10000000
00010000
00100000
,
01000000
11000000
00000000
00100000
10000000
01000000
00200000
00301000
,
00020000
00230000
02300000
03002000
00000000
00003200
00000000
00000310
,
00001000
00000000
00000001
00000000
00000010
00000000
00000100
00001000
00000001
00000000
00000100
00000010
00001000
00000000
00000100
00010000
,
00001000
00011000
00000000
00110000
00000000
10010000
10000000
00010000
,
10000000
00010000
00100000
01000000
10000000
00000000
00010000
00000000
10000000
00000000
01000000
00000000
00100000
00010000
00100000
00010000
,
00100000
00000000
00001000
00000000
01000000
00000000
00001000
00000000
00010000
00000000
00001000
00000000
00000100
00000010
00000100
00000010
,
00000100
00000000
00000001
00000000
00001000
00000000
00000001
00000000
00000010
00000000
00000100
00000000
00010000
00001000
00100000
00010000
,
10000000
00000000
00100000
00000000
01000000
00000000
00010000
10000000
01000000
00000000
00100000
00010000
01000000
00100000
00010000
00001000
,
00010000
00011000
00000000
00010000
00001000
00000010
00000002
00001003
,
00000200
00000302
00000103
00000010
00000002
00001003
00000020
00000130
,
00002000
00000000
00023000
00000000
00130000
01000000
00100000
00000000
10000000
00010000
10000000
00000000
01000000
00100000
00001000
00010000
,
00000100
00000010
00000001
00001000
00000002
00000000
00000000
00000000
00000203
00000000
00000000
00000000
00002300
00000000
00000000
00000000
,
00013000
00011000
00000000
00000000
00000000
00000000
00000000
00000000
,
20000000
00000000
00000000
00000000
30200000
00000000
01300000
00000000
00020000
00000000
00130000
00000000
00001000
00010000
00000010
00001000
,
00000001
00002002
00000000
00000000
00000000
00000000
00000000
00000000
,
00003003
00000000
00000000
00000000
00000002
00000000
00000023
00000000
00000032
00000023
00002030
00003020
00000032
00000000
00000203
00000000
,
00002300
00000000
00000000
00000000
00023000
00000000
00000000
00000000
02030000
00000000
00000000
00000000
00000000
00000000
00000000
00000000
00000000
00000000
00000000
00000000
00000000
00000000
13000000
00010000
20000000
00000000
00000000
00000000
00000000
00000000
00000000
00000000
,
00000000
00000000
30000000
00000000
20000000
00000000
30200000
00000000
20300000
30200000
00320000
00230000
20300000
00000000
32000000
00000000
,
03020000
00000000
00000000
00000000
00032000
00000000
00000000
00000000
00003200
00000000
00000000
00000000
00000000
00000000
00000000
00000000
00000000
00000000
00000000
00000000
00000000
00000000
00000301
00001000
00000002
00000000
00000000
00000000
00000000
00000000
00000000
00000000
,
00000000
00000000
00000103
00000001
00001001
00000000
00000000
00000000
00000000
00000000
00010000
00000000
00001000
00000000
00000000
00000000
,
00000000
10000000
00010000
00000000
01000000
00001000
00000100
00000010
,
00001000
00000000
00000001
00000010
00000100
00000000
00000000
00000000
00000000
00000000
00001000
00000000
00000001
00000000
00000000
00000000
,
00000000
00000000
00010000
00000000
00000010
00000000
00000000
00010000
00000000
00000000
00001000
00000000
00100000
00010000
10000000
00100000
,
01000000
00010000
01000000
00100000
10000000
00000000
00100000
01000000
00100000
00000000
10000000
01000000
00100000
00000000
00001000
00010000
,
00001000
01000000
00001000
00010000
00000100
00000000
00001000
00000010
00000100
00000000
00000010
00001000
00000100
00000000
00000010
00000001
,
00001000
00000010
00000100
00000001
00001000
00000000
00000001
00000010
00000000
00000100
00000010
00000001
00001000
00000000
00000010
00001000
,
00000000
00000100
00010000
00001000
01000000
00010000
01000000
00001000
00010000
00000100
00001000
00000001
00000100
00000010
00000100
00001000
,
00010000
00100000
01000000
00010000
10000000
00000000
00000000
00000000
00000000
00000000
00000000
00000000
00002000
00000000
00000000
00000000
,
00023000
00000000
00000000
00030000
00011000
00000000
00000000
00000000
00000000
00000000
00000000
00000000
10010000
00000000
01100000
00000000
,
00000000
00011000
00000000
00000000
00000000
00000110
00001001
00000001
,
00000100
00000010
00001000
00000001
00000010
00000000
00000100
00001000
00000010
00000000
00000100
00000000
00000001
00000000
00000010
00000100
,
00000010
00000000
00000001
00000000
00001000
00000001
00000100
00000001
00000010
00000100
00001000
00000100
00010000
00001000
01000000
00001000
,
00010000
00011000
00000000
00001000
00010000
00100000
02000000
03010000
,
00200000
02300000
03020000
00032000
00000000
00003200
00000000
00000310
,
00001000
00000000
00000100
00000000
00000010
00000000
00000001
00000010
00000100
00000000
00010000
00001000
00010000
00000000
00000010
00010000
,
00001000
00000000
00011000
00000000
00000000
00000000
00101000
00000000
00000000
00000000
00011000
00000000
00001000
00010000
01000000
00000000
,
10000000
00100000
01000000
00010000
10000000
00000000
00010000
00100000
01000000
00000000
00100000
00000000
00010000
10000000
00100000
02000000
,
10000000
00000000
03010000
00000000
10000000
01000000
00100000
00000000
00001000
00010000
00001000
00000000
00100000
00001000
00010000
00000100
,
00001000
00000001
00000100
00000000
00000010
00000000
00001000
00000001
00000100
00000000
00000010
00000000
00001000
00000001
00000010
00000200
,
00000001
00000000
00001300
00000000
00000001
00000010
00000100
00000010
00000001
00001000
00000001
00000100
00000001
00000010
00000100
00010000
,
00001000
00011000
00000000
00001000
00010000
01000000
20000000
30100000
,
00020000
00032000
00003010
00000001
00000200
00001300
00020000
00130000
,
02000000
00000000
03020000
00000000
10030000
00100000
01000000
00010000
00100000
00010000
01000000
00001000
00010000
00000100
00001000
00000010
,
00000100
00000001
00001000
00000100
00002000
00000000
00000000
00000000
00003002
00000000
00000000
00000000
00020003
00000000
00000000
00000000
,
00031000
00011000
00000000
00000000
00000000
00000000
00000000
00000000
,
00002000
20003000
30002000
00023000
,
00030001
00002002
00000000
00000000
00000000
00000000
00000000
00000000
,
00003003
00000000
00000110
00000110
00000110
00001000
00000001
00000010
,
00000100
00000000
00001000
00000000
00000001
00001000
00000100
00000020
00001000
00000000
00000031
00000000
00000000
00000000
00001000
00000000
,
00000010
00000000
00000100
00000000
00000010
00010000
00001000
00010000
01000000
00000000
00100000
00000000
00010000
00000000
10000000
00000000
,
01000000
00000000
00010000
00000000
00011000
00000000
00001100
00000000
00000000
00000000
00000101
00000000
00000001
00001000
00000001
00000100
,
00000010
00001000
00000001
00000010
00000100
00000000
00000010
00000001
00001000
00000000
00000010
00010000
00001000
00000000
00010000
00000010
,
00001000
00000010
00010000
00001000
00010000
00000000
00000100
00001000
00000100
00000000
00010000
00001000
01000000
00000000
00001000
00010000
,
00001000
01000000
00010000
01000000
00001000
00100000
00010000
00100000
01000000
00100000
00010000
10000000
00100000
01000000
00010000
00100000
,
01000000
00010000
00001000
00000000
00000000
00000000
00011000
00000000
00000000
00000000
00001001
00000000
00011000
00000000
00000000
00000000
,
10010000
00000000
00000000
00000000
00000000
00000000
00000000
00000000
00000000
00000000
00000000
00000000
00000000
00000000
00000000
00000000
10010000
00000000
00000000
00000000
00000000
00000000
00000000
00000000
20020000
30030000
00000000
00000000
00000000
00000000
00000000
00000000
00011000
00000000
00000000
00000000
00000000
00000000
00000000
00000000
00022000
00033000
00000000
00000000
00000000
00000000
00000000
00000000
00001001
00000000
00000000
00000000
00000000
00000000
00000000
00000000
00002002
00003003
00000000
00000000
00000000
00000000
00000000
00000000
;
